  0
SECTION
  2
HEADER
  9
$ACADVER
  1
AC1009
  9
$INSBASE
 10
0.0
 20
0.0
 30
0.0
  9
$EXTMIN
 10
646.5081719037554
 20
-1787.4335482548761
 30
-84.366799999999998
  9
$EXTMAX
 10
2330.91464624016
 20
125.0
 30
88.290899999999979
  9
$LIMMIN
 10
0.0
 20
0.0
  9
$LIMMAX
 10
420.0
 20
297.0
  9
$ORTHOMODE
 70
     0
  9
$REGENMODE
 70
     1
  9
$FILLMODE
 70
     1
  9
$QTEXTMODE
 70
     0
  9
$MIRRTEXT
 70
     1
  9
$DRAGMODE
 70
     2
  9
$LTSCALE
 40
3.5
  9
$OSMODE
 70
    37
  9
$ATTMODE
 70
     1
  9
$TEXTSIZE
 40
50.0
  9
$TRACEWID
 40
1.0
  9
$TEXTSTYLE
  7
STANDARD
  9
$CLAYER
  8
KERA5
  9
$CELTYPE
  6
BYLAYER
  9
$CECOLOR
 62
   256
  9
$DIMSCALE
 40
0.0
  9
$DIMASZ
 40
50.0
  9
$DIMEXO
 40
20.0
  9
$DIMDLI
 40
15.0
  9
$DIMRND
 40
0.0
  9
$DIMDLE
 40
0.0
  9
$DIMEXE
 40
15.0
  9
$DIMTP
 40
0.0
  9
$DIMTM
 40
0.0
  9
$DIMTXT
 40
50.0
  9
$DIMCEN
 40
4.0
  9
$DIMTSZ
 40
0.0
  9
$DIMTOL
 70
     0
  9
$DIMLIM
 70
     0
  9
$DIMTIH
 70
     1
  9
$DIMTOH
 70
     1
  9
$DIMSE1
 70
     0
  9
$DIMSE2
 70
     0
  9
$DIMTAD
 70
     0
  9
$DIMZIN
 70
     8
  9
$DIMBLK
  1

  9
$DIMASO
 70
     1
  9
$DIMSHO
 70
     1
  9
$DIMPOST
  1

  9
$DIMAPOST
  1

  9
$DIMALT
 70
     0
  9
$DIMALTD
 70
     4
  9
$DIMALTF
 40
0.0394
  9
$DIMLFAC
 40
1.0
  9
$DIMTOFL
 70
     1
  9
$DIMTVP
 40
0.0
  9
$DIMTIX
 70
     0
  9
$DIMSOXD
 70
     0
  9
$DIMSAH
 70
     0
  9
$DIMBLK1
  1

  9
$DIMBLK2
  1

  9
$DIMSTYLE
  2
STANDARD
  9
$DIMCLRD
 70
     0
  9
$DIMCLRE
 70
     0
  9
$DIMCLRT
 70
     0
  9
$DIMTFAC
 40
1.0
  9
$DIMGAP
 40
15.0
  9
$LUNITS
 70
     2
  9
$LUPREC
 70
     4
  9
$SKETCHINC
 40
1.0
  9
$FILLETRAD
 40
10.0
  9
$AUNITS
 70
     0
  9
$AUPREC
 70
     0
  9
$MENU
  1
.
  9
$ELEVATION
 40
0.0
  9
$PELEVATION
 40
0.0
  9
$THICKNESS
 40
0.0
  9
$LIMCHECK
 70
     0
  9
$BLIPMODE
 70
     0
  9
$CHAMFERA
 40
10.0
  9
$CHAMFERB
 40
10.0
  9
$SKPOLY
 70
     0
  9
$TDCREATE
 40
2451368.5817604512
  9
$TDUPDATE
 40
2456280.489504769
  9
$TDINDWG
 40
0.0482435301
  9
$TDUSRTIMER
 40
0.0482435301
  9
$USRTIMER
 70
     1
  9
$ANGBASE
 50
0.0
  9
$ANGDIR
 70
     0
  9
$PDMODE
 70
     0
  9
$PDSIZE
 40
0.0
  9
$PLINEWID
 40
0.0
  9
$COORDS
 70
     1
  9
$SPLFRAME
 70
     0
  9
$SPLINETYPE
 70
     6
  9
$SPLINESEGS
 70
     8
  9
$ATTDIA
 70
     0
  9
$ATTREQ
 70
     1
  9
$HANDLING
 70
     1
  9
$HANDSEED
  5
BA2
  9
$SURFTAB1
 70
     6
  9
$SURFTAB2
 70
     6
  9
$SURFTYPE
 70
     6
  9
$SURFU
 70
     6
  9
$SURFV
 70
     6
  9
$UCSNAME
  2

  9
$UCSORG
 10
0.0
 20
0.0
 30
0.0
  9
$UCSXDIR
 10
1.0
 20
0.0
 30
0.0
  9
$UCSYDIR
 10
0.0
 20
1.0
 30
0.0
  9
$PUCSNAME
  2

  9
$PUCSORG
 10
0.0
 20
0.0
 30
0.0
  9
$PUCSXDIR
 10
1.0
 20
0.0
 30
0.0
  9
$PUCSYDIR
 10
0.0
 20
1.0
 30
0.0
  9
$USERI1
 70
     0
  9
$USERI2
 70
     0
  9
$USERI3
 70
     0
  9
$USERI4
 70
     0
  9
$USERI5
 70
     0
  9
$USERR1
 40
0.0
  9
$USERR2
 40
0.0
  9
$USERR3
 40
0.0
  9
$USERR4
 40
0.0
  9
$USERR5
 40
0.0
  9
$WORLDVIEW
 70
     1
  9
$SHADEDGE
 70
     3
  9
$SHADEDIF
 70
    70
  9
$TILEMODE
 70
     1
  9
$MAXACTVP
 70
    48
  9
$PLIMCHECK
 70
     0
  9
$PEXTMIN
 10
1.0000000000000000E+020
 20
1.0000000000000000E+020
 30
1.0000000000000000E+020
  9
$PEXTMAX
 10
-1.0000000000000000E+020
 20
-1.0000000000000000E+020
 30
-1.0000000000000000E+020
  9
$PLIMMIN
 10
0.0
 20
0.0
  9
$PLIMMAX
 10
420.0
 20
297.0
  9
$UNITMODE
 70
     0
  9
$VISRETAIN
 70
     1
  9
$PLINEGEN
 70
     0
  9
$PSLTSCALE
 70
     1
  0
ENDSEC
  0
SECTION
  2
TABLES
  0
TABLE
  2
VPORT
 70
     1
  0
VPORT
  2
*ACTIVE
 70
     0
 10
0.0
 20
0.0
 11
1.0
 21
1.0
 12
1705.5997657294511
 22
-832.22874169759575
 13
0.0
 23
0.0
 14
100.0
 24
100.0
 15
10.0
 25
10.0
 16
0.0
 26
0.0
 36
1.0
 17
0.0
 27
0.0
 37
0.0
 40
1934.8203872175629
 41
2.0013888888888891
 42
50.0
 43
0.0
 44
0.0
 50
0.0
 51
0.0
 71
     0
 72
   100
 73
     1
 74
     0
 75
     0
 76
     0
 77
     0
 78
     0
  0
ENDTAB
  0
TABLE
  2
LTYPE
 70
     3
  0
LTYPE
  2
CONTINUOUS
 70
     0
  3
Solid line
 72
    65
 73
     0
 40
0.0
  0
LTYPE
  2
STRICHPUNKT
 70
     0
  3
Strichpunkt __ . __ . __ . __ . __ . __ . __ . 
 72
    65
 73
     4
 40
25.399999999999999
 49
12.699999999999999
 49
-6.3499999999999988
 49
0.0
 49
-6.3499999999999988
  0
LTYPE
  2
VERDECKT2
 70
     0
  3
Verdeckt (.5x) _ _ _ _ _ _ _ _ _ _ _ _ _ _ _ _ 
 72
    65
 73
     2
 40
4.7624999999999993
 49
3.1749999999999989
 49
-1.587499999999999
  0
ENDTAB
  0
TABLE
  2
LAYER
 70
    10
  0
LAYER
  2
0
 70
     0
 62
     7
  6
CONTINUOUS
  0
LAYER
  2
KERA0
 70
     0
 62
     5
  6
CONTINUOUS
  0
LAYER
  2
KERA1
 70
     0
 62
    10
  6
VERDECKT2
  0
LAYER
  2
KERA2
 70
     0
 62
    18
  6
STRICHPUNKT
  0
LAYER
  2
KERA3
 70
     0
 62
   160
  6
CONTINUOUS
  0
LAYER
  2
KERA4
 70
     0
 62
     1
  6
CONTINUOUS
  0
LAYER
  2
KERA5
 70
     0
 62
    11
  6
CONTINUOUS
  0
LAYER
  2
KERA6
 70
     0
 62
    20
  6
CONTINUOUS
  0
LAYER
  2
KERA7
 70
     0
 62
    22
  6
CONTINUOUS
  0
LAYER
  2
DEFPOINTS
 70
     0
 62
     7
  6
CONTINUOUS
  0
ENDTAB
  0
TABLE
  2
STYLE
 70
     2
  0
STYLE
  2
STANDARD
 70
     0
 40
50.0
 41
1.0
 50
0.0
 71
     0
 42
50.0
  3
isocp.shx
  4

  0
STYLE
  2
ROMANS
 70
     0
 40
0.0
 41
1.0
 50
0.0
 71
     0
 42
0.2
  3
romans
  4

  0
ENDTAB
  0
TABLE
  2
VIEW
 70
     0
  0
ENDTAB
  0
TABLE
  2
UCS
 70
     0
  0
ENDTAB
  0
TABLE
  2
APPID
 70
     2
  0
APPID
  2
ACAD
 70
     0
  0
APPID
  2
ACAD_MLEADERVER
 70
     0
  0
ENDTAB
  0
TABLE
  2
DIMSTYLE
 70
     1
  0
DIMSTYLE
  2
STANDARD
 70
     0
  3

  4

  5

  6

  7

 40
1.0
 41
0.18
 42
0.0625
 43
0.38
 44
0.18
 45
0.0
 46
0.0
 47
0.0
 48
0.0
140
0.18
141
0.09
142
0.0
143
25.399999999999999
144
1.0
145
0.0
146
1.0
147
0.09
 71
     0
 72
     0
 73
     1
 74
     1
 75
     0
 76
     0
 77
     0
 78
     0
170
     0
171
     2
172
     0
173
     0
174
     0
175
     0
176
     0
177
     0
178
     0
  0
ENDTAB
  0
ENDSEC
  0
SECTION
  2
BLOCKS
  0
BLOCK
  8
0
  2
$MODEL_SPACE
 70
     0
 10
0.0
 20
0.0
 30
0.0
  3
$MODEL_SPACE
  1

  0
ENDBLK
  5
1A
  8
0
  0
BLOCK
 67
     1
  8
0
  2
$PAPER_SPACE
 70
     0
 10
0.0
 20
0.0
 30
0.0
  3
$PAPER_SPACE
  1

  0
ENDBLK
  5
17
 67
     1
  8
0
  0
BLOCK
  8
0
  2
*D0
 70
     1
 10
0.0
 20
0.0
 30
0.0
  3
*D0
  1

  0
LINE
  5
A63
  8
0
  6
BYBLOCK
 62
     0
 10
1404.75
 20
-825.0
 30
0.0
 11
1515.0
 21
-825.0
 31
0.0
  0
LINE
  5
A64
  8
0
  6
BYBLOCK
 62
     0
 10
1178.9000000000001
 20
-290.0
 30
0.0
 11
1515.0
 21
-290.00000000000011
 31
0.0
  0
LINE
  5
A65
  8
0
  6
BYBLOCK
 62
     0
 10
1500.0
 20
-775.0
 30
0.0
 11
1500.0
 21
-619.22923532828997
 31
0.0
  0
LINE
  5
A66
  8
0
  6
BYBLOCK
 62
     0
 10
1500.0
 20
-340.00000000000011
 30
0.0
 11
1500.0
 21
-539.22923532829009
 31
0.0
  0
SOLID
  5
A67
  8
0
  6
BYBLOCK
 62
     0
 10
1491.666666666667
 20
-775.0
 30
0.0
 11
1508.333333333333
 21
-775.0
 31
0.0
 12
1500.0
 22
-825.0
 32
0.0
 13
1500.0
 23
-825.0
 33
0.0
  0
SOLID
  5
A68
  8
0
  6
BYBLOCK
 62
     0
 10
1491.666666666667
 20
-340.00000000000011
 30
0.0
 11
1508.333333333333
 21
-340.00000000000011
 31
0.0
 12
1500.0
 22
-290.00000000000011
 32
0.0
 13
1500.0
 23
-290.00000000000011
 33
0.0
  0
INSERT
  5
A69
  8
KERA5
  2
*U17
 10
0.0
 20
0.0
 30
0.0
  0
POINT
  5
A6A
  8
DEFPOINTS
  6
BYBLOCK
 62
     0
 10
1384.75
 20
-825.0
 30
0.0
  0
POINT
  5
A6B
  8
DEFPOINTS
  6
BYBLOCK
 62
     0
 10
1158.9000000000001
 20
-290.0
 30
0.0
  0
POINT
  5
A6C
  8
DEFPOINTS
  6
BYBLOCK
 62
     0
 10
1500.0
 20
-290.00000000000011
 30
0.0
  0
ENDBLK
  5
A6D
  8
0
  0
BLOCK
  8
0
  2
*D1
 70
     1
 10
0.0
 20
0.0
 30
0.0
  3
*D1
  1

  0
LINE
  5
A57
  8
0
  6
BYBLOCK
 62
     0
 10
1404.75
 20
-825.0
 30
0.0
 11
1615.0
 21
-825.0
 31
0.0
  0
LINE
  5
A58
  8
0
  6
BYBLOCK
 62
     0
 10
1138.45
 20
-180.0
 30
0.0
 11
1615.0
 21
-180.0
 31
0.0
  0
LINE
  5
A59
  8
0
  6
BYBLOCK
 62
     0
 10
1600.0
 20
-775.0
 30
0.0
 11
1600.0
 21
-510.09039083061992
 31
0.0
  0
LINE
  5
A5A
  8
0
  6
BYBLOCK
 62
     0
 10
1600.0
 20
-230.00000000000011
 30
0.0
 11
1600.0
 21
-430.09039083061992
 31
0.0
  0
SOLID
  5
A5B
  8
0
  6
BYBLOCK
 62
     0
 10
1591.6666666666661
 20
-775.0
 30
0.0
 11
1608.333333333333
 21
-775.0
 31
0.0
 12
1600.0
 22
-825.0
 32
0.0
 13
1600.0
 23
-825.0
 33
0.0
  0
SOLID
  5
A5C
  8
0
  6
BYBLOCK
 62
     0
 10
1591.6666666666661
 20
-230.00000000000011
 30
0.0
 11
1608.333333333333
 21
-230.00000000000011
 31
0.0
 12
1600.0
 22
-180.0
 32
0.0
 13
1600.0
 23
-180.0
 33
0.0
  0
INSERT
  5
A5D
  8
KERA5
  2
*U16
 10
0.0
 20
0.0
 30
0.0
  0
POINT
  5
A5E
  8
DEFPOINTS
  6
BYBLOCK
 62
     0
 10
1384.75
 20
-825.0
 30
0.0
  0
POINT
  5
A5F
  8
DEFPOINTS
  6
BYBLOCK
 62
     0
 10
1118.45
 20
-180.0
 30
0.0
  0
POINT
  5
A60
  8
DEFPOINTS
  6
BYBLOCK
 62
     0
 10
1600.0
 20
-180.0
 30
0.0
  0
ENDBLK
  5
A61
  8
0
  0
BLOCK
  8
0
  2
*D2
 70
     1
 10
0.0
 20
0.0
 30
0.0
  3
*D2
  1

  0
LINE
  5
930
  8
0
  6
BYBLOCK
 62
     0
 10
1404.75
 20
-825.0
 30
0.0
 11
1715.0
 21
-825.0
 31
0.0
  0
LINE
  5
931
  8
0
  6
BYBLOCK
 62
     0
 10
1404.75
 20
25.0
 30
0.0
 11
1715.0
 21
24.999999999999961
 31
0.0
  0
LINE
  5
932
  8
0
  6
BYBLOCK
 62
     0
 10
1700.0
 20
-775.0
 30
0.0
 11
1700.0
 21
-440.0
 31
0.0
  0
LINE
  5
933
  8
0
  6
BYBLOCK
 62
     0
 10
1700.0
 20
-25.000000000000028
 30
0.0
 11
1700.0
 21
-360.0
 31
0.0
  0
SOLID
  5
934
  8
0
  6
BYBLOCK
 62
     0
 10
1691.666666666667
 20
-775.0
 30
0.0
 11
1708.333333333333
 21
-775.0
 31
0.0
 12
1700.0
 22
-825.0
 32
0.0
 13
1700.0
 23
-825.0
 33
0.0
  0
SOLID
  5
935
  8
0
  6
BYBLOCK
 62
     0
 10
1691.666666666667
 20
-25.000000000000028
 30
0.0
 11
1708.333333333333
 21
-25.000000000000028
 31
0.0
 12
1700.0
 22
24.999999999999961
 32
0.0
 13
1700.0
 23
24.999999999999961
 33
0.0
  0
INSERT
  5
936
  8
KERA5
  2
*U12
 10
0.0
 20
0.0
 30
0.0
  0
POINT
  5
937
  8
DEFPOINTS
  6
BYBLOCK
 62
     0
 10
1384.75
 20
-825.0
 30
0.0
  0
POINT
  5
938
  8
DEFPOINTS
  6
BYBLOCK
 62
     0
 10
1384.75
 20
25.0
 30
0.0
  0
POINT
  5
939
  8
DEFPOINTS
  6
BYBLOCK
 62
     0
 10
1700.0
 20
24.999999999999961
 30
0.0
  0
ENDBLK
  5
93A
  8
0
  0
BLOCK
  8
0
  2
*D3
 70
     1
 10
0.0
 20
0.0
 30
0.0
  3
*D3
  1

  0
LINE
  5
B59
  8
KERA4
 62
     0
 10
1087.25
 20
-134.33081817714029
 30
0.0
 11
685.0
 21
-134.3308181771402
 31
0.0
  0
LINE
  5
B5A
  8
KERA4
 62
     0
 10
809.75100000000009
 20
25.0
 30
0.0
 11
685.0
 21
25.000000000000039
 31
0.0
  0
LINE
  5
B5B
  8
KERA4
 62
     0
 10
700.0
 20
-184.3308181771402
 30
0.0
 11
700.0
 21
-234.3308181771402
 31
0.0
  0
LINE
  5
B5C
  8
KERA4
 62
     0
 10
700.0
 20
75.000000000000043
 30
0.0
 11
700.0
 21
125.0
 31
0.0
  0
LINE
  5
B5D
  8
KERA4
 62
     0
 10
700.0
 20
-134.3308181771402
 30
0.0
 11
700.0
 21
-94.665409088570115
 31
0.0
  0
LINE
  5
B5E
  8
KERA4
 62
     0
 10
700.0
 20
25.000000000000028
 30
0.0
 11
700.0
 21
-14.665409088570099
 31
0.0
  0
SOLID
  5
B5F
  8
KERA4
 62
     0
 10
691.66666666666663
 20
-184.3308181771402
 30
0.0
 11
708.33333333333326
 21
-184.3308181771402
 31
0.0
 12
700.0
 22
-134.3308181771402
 32
0.0
 13
700.0
 23
-134.3308181771402
 33
0.0
  0
SOLID
  5
B60
  8
KERA4
 62
     0
 10
691.66666666666663
 20
75.000000000000043
 30
0.0
 11
708.33333333333326
 21
75.000000000000043
 31
0.0
 12
700.0
 22
25.000000000000028
 32
0.0
 13
700.0
 23
25.000000000000028
 33
0.0
  0
TEXT
  8
KERA4
  40
50
  5
BA0
  62
0
  72
0
  71
0
 10
600.000
 20
-143.165
 30
0.000000
  1
155
  0
POINT
  5
B62
  8
DEFPOINTS
 62
     0
 10
1107.25
 20
-134.33081817714029
 30
0.0
  0
POINT
  5
B63
  8
DEFPOINTS
 62
     0
 10
829.75099999999998
 20
25.0
 30
0.0
  0
POINT
  5
B64
  8
DEFPOINTS
 62
     0
 10
700.0
 20
25.000000000000028
 30
0.0
  0
ENDBLK
  5
A46
  8
0
  0
BLOCK
  8
0
  2
*D4
 70
     1
 10
0.0
 20
0.0
 30
0.0
  3
*D4
  1

  0
LINE
  5
95D
  8
0
  6
BYBLOCK
 62
     0
 10
1047.25
 20
-300.22199999999998
 30
0.0
 11
1047.25
 21
-515.0
 31
0.0
  0
LINE
  5
95E
  8
0
  6
BYBLOCK
 62
     0
 10
1167.25
 20
-298.78100000000001
 30
0.0
 11
1167.25
 21
-515.0
 31
0.0
  0
LINE
  5
95F
  8
0
  6
BYBLOCK
 62
     0
 10
997.25
 20
-500.0
 30
0.0
 11
947.25
 21
-500.0
 31
0.0
  0
LINE
  5
960
  8
0
  6
BYBLOCK
 62
     0
 10
1217.25
 20
-500.0
 30
0.0
 11
1267.25
 21
-500.0
 31
0.0
  0
LINE
  5
961
  8
0
  6
BYBLOCK
 62
     0
 10
1047.25
 20
-500.0
 30
0.0
 11
1052.23031496063
 21
-500.0
 31
0.0
  0
LINE
  5
962
  8
0
  6
BYBLOCK
 62
     0
 10
1167.25
 20
-500.0
 30
0.0
 11
1162.26968503937
 21
-500.0
 31
0.0
  0
SOLID
  5
963
  8
0
  6
BYBLOCK
 62
     0
 10
997.25
 20
-491.66666666666657
 30
0.0
 11
997.25
 21
-508.33333333333331
 31
0.0
 12
1047.25
 22
-500.0
 32
0.0
 13
1047.25
 23
-500.0
 33
0.0
  0
SOLID
  5
964
  8
0
  6
BYBLOCK
 62
     0
 10
1217.25
 20
-491.66666666666657
 30
0.0
 11
1217.25
 21
-508.33333333333331
 31
0.0
 12
1167.25
 22
-500.0
 32
0.0
 13
1167.25
 23
-500.0
 33
0.0
  0
INSERT
  5
965
  8
KERA5
  2
*U13
 10
0.0
 20
0.0
 30
0.0
  0
POINT
  5
966
  8
DEFPOINTS
  6
BYBLOCK
 62
     0
 10
1047.25
 20
-280.22199999999998
 30
0.0
  0
POINT
  5
967
  8
DEFPOINTS
  6
BYBLOCK
 62
     0
 10
1167.25
 20
-278.78100000000001
 30
0.0
  0
POINT
  5
968
  8
DEFPOINTS
  6
BYBLOCK
 62
     0
 10
1167.25
 20
-500.0
 30
0.0
  0
ENDBLK
  5
969
  8
0
  0
BLOCK
  8
0
  2
*D5
 70
     1
 10
0.0
 20
0.0
 30
0.0
  3
*D5
  1

  0
LINE
  5
B6D
  8
KERA4
 62
     0
 10
1127.25
 20
-1139.9335482548761
 30
0.0
 11
1506.527856943125
 21
-1139.9335482548761
 31
0.0
  0
LINE
  5
B6E
  8
KERA4
 62
     0
 10
1177.126
 20
-1279.9335482548761
 30
0.0
 11
1506.527856943125
 21
-1279.9335482548761
 31
0.0
  0
LINE
  5
B6F
  8
KERA4
 62
     0
 10
1491.527856943125
 20
-1089.9335482548761
 30
0.0
 11
1491.527856943125
 21
-1039.9335482548761
 31
0.0
  0
LINE
  5
B70
  8
KERA4
 62
     0
 10
1491.527856943125
 20
-1329.9335482548761
 30
0.0
 11
1491.527856943125
 21
-1379.9335482548761
 31
0.0
  0
LINE
  5
B71
  8
KERA4
 62
     0
 10
1491.527856943125
 20
-1139.9335482548761
 30
0.0
 11
1491.527856943125
 21
-1169.9335482548761
 31
0.0
  0
LINE
  5
B72
  8
KERA4
 62
     0
 10
1491.527856943125
 20
-1279.9335482548761
 30
0.0
 11
1491.527856943125
 21
-1249.9335482548761
 31
0.0
  0
SOLID
  5
B73
  8
KERA4
 62
     0
 10
1483.194523609792
 20
-1089.9335482548761
 30
0.0
 11
1499.861190276458
 21
-1089.9335482548761
 31
0.0
 12
1491.527856943125
 22
-1139.9335482548761
 32
0.0
 13
1491.527856943125
 23
-1139.9335482548761
 33
0.0
  0
SOLID
  5
B74
  8
KERA4
 62
     0
 10
1483.194523609792
 20
-1329.9335482548761
 30
0.0
 11
1499.861190276458
 21
-1329.9335482548761
 31
0.0
 12
1491.527856943125
 22
-1279.9335482548761
 32
0.0
 13
1491.527856943125
 23
-1279.9335482548761
 33
0.0
  0
TEXT
  8
KERA4
  40
50
  5
BA1
  62
0
  72
0
  71
0
 10
1391.53
 20
-1298.43
 30
0.000000
  1
140
  0
POINT
  5
B76
  8
DEFPOINTS
 62
     0
 10
1107.25
 20
-1139.9335482548761
 30
0.0
  0
POINT
  5
B77
  8
DEFPOINTS
 62
     0
 10
1157.126
 20
-1279.9335482548761
 30
0.0
  0
POINT
  5
B78
  8
DEFPOINTS
 62
     0
 10
1491.527856943125
 20
-1279.9335482548761
 30
0.0
  0
ENDBLK
  5
A1C
  8
0
  0
BLOCK
  8
0
  2
*D6
 70
     1
 10
0.0
 20
0.0
 30
0.0
  3
*D6
  1

  0
LINE
  5
AD4
  8
KERA4
 62
     0
 10
1127.25
 20
-1139.9335482548761
 30
0.0
 11
1606.527856943125
 21
-1139.9335482548761
 31
0.0
  0
LINE
  5
AD5
  8
KERA4
 62
     0
 10
1139.3299999999999
 20
-1559.7135482548761
 30
0.0
 11
1606.527856943125
 21
-1559.7135482548761
 31
0.0
  0
LINE
  5
AD6
  8
KERA4
 62
     0
 10
1591.527856943125
 20
-1189.9335482548761
 30
0.0
 11
1591.527856943125
 21
-1309.8186269950329
 31
0.0
  0
LINE
  5
AD7
  8
KERA4
 62
     0
 10
1591.527856943125
 20
-1509.7135482548761
 30
0.0
 11
1591.527856943125
 21
-1389.828469514719
 31
0.0
  0
SOLID
  5
AD8
  8
KERA4
 62
     0
 10
1583.194523609792
 20
-1189.9335482548761
 30
0.0
 11
1599.861190276459
 21
-1189.9335482548761
 31
0.0
 12
1591.527856943125
 22
-1139.9335482548761
 32
0.0
 13
1591.527856943125
 23
-1139.9335482548761
 33
0.0
  0
SOLID
  5
AD9
  8
KERA4
 62
     0
 10
1583.194523609792
 20
-1509.7135482548761
 30
0.0
 11
1599.861190276459
 21
-1509.7135482548761
 31
0.0
 12
1591.527856943125
 22
-1559.7135482548761
 32
0.0
 13
1591.527856943125
 23
-1559.7135482548761
 33
0.0
  0
INSERT
  5
ADA
  8
KERA5
  2
*U21
 10
0.0
 20
0.0
 30
0.0
  0
POINT
  5
ADB
  8
DEFPOINTS
 62
     0
 10
1107.25
 20
-1139.9335482548761
 30
0.0
  0
POINT
  5
ADC
  8
DEFPOINTS
 62
     0
 10
1119.3299999999999
 20
-1559.7135482548761
 30
0.0
  0
POINT
  5
ADD
  8
DEFPOINTS
 62
     0
 10
1591.527856943125
 20
-1559.7135482548761
 30
0.0
  0
ENDBLK
  5
9BD
  8
0
  0
BLOCK
  8
0
  2
*D7
 70
     1
 10
0.0
 20
0.0
 30
0.0
  3
*D7
  1

  0
LINE
  5
AC0
  8
KERA4
 62
     0
 10
1359.3030000000001
 20
-1362.804548254876
 30
0.0
 11
1359.3030000000001
 21
-1679.9335482548761
 31
0.0
  0
LINE
  5
AC1
  8
KERA4
 62
     0
 10
854.97550200000001
 20
-1369.9335482548761
 30
0.0
 11
854.97550200000001
 21
-1679.9335482548761
 31
0.0
  0
LINE
  5
AC2
  8
KERA4
 62
     0
 10
1309.3030000000001
 20
-1664.9335482548749
 30
0.0
 11
1168.174784905932
 21
-1664.9335482548749
 31
0.0
  0
LINE
  5
AC3
  8
KERA4
 62
     0
 10
904.97550200000001
 20
-1664.9335482548749
 30
0.0
 11
1046.103717094067
 21
-1664.9335482548749
 31
0.0
  0
SOLID
  5
AC4
  8
KERA4
 62
     0
 10
1309.3030000000001
 20
-1656.6002149215419
 30
0.0
 11
1309.3030000000001
 21
-1673.2668815882089
 31
0.0
 12
1359.3030000000001
 22
-1664.9335482548749
 32
0.0
 13
1359.3030000000001
 23
-1664.9335482548749
 33
0.0
  0
SOLID
  5
AC5
  8
KERA4
 62
     0
 10
904.97550200000001
 20
-1656.6002149215419
 30
0.0
 11
904.97550200000001
 21
-1673.2668815882089
 31
0.0
 12
854.97550200000001
 22
-1664.9335482548749
 32
0.0
 13
854.97550200000001
 23
-1664.9335482548749
 33
0.0
  0
INSERT
  5
AC6
  8
KERA5
  2
*U19
 10
0.0
 20
0.0
 30
0.0
  0
POINT
  5
AC7
  8
DEFPOINTS
 62
     0
 10
1359.3030000000001
 20
-1342.804548254876
 30
0.0
  0
POINT
  5
AC8
  8
DEFPOINTS
 62
     0
 10
854.97550200000001
 20
-1349.9335482548761
 30
0.0
  0
POINT
  5
AC9
  8
DEFPOINTS
 62
     0
 10
854.97550200000001
 20
-1664.9335482548749
 30
0.0
  0
ENDBLK
  5
A00
  8
0
  0
BLOCK
  8
0
  2
*D8
 70
     1
 10
0.0
 20
0.0
 30
0.0
  3
*D8
  1

  0
LINE
  5
AB6
  8
KERA4
 62
     0
 10
1384.0309999999999
 20
-1358.404048254876
 30
0.0
 11
1384.0309999999999
 21
-1779.9335482548761
 31
0.0
  0
LINE
  5
AB7
  8
KERA4
 62
     0
 10
830.66070000000013
 20
-1356.079548254876
 30
0.0
 11
830.66070000000013
 21
-1779.9335482548761
 31
0.0
  0
LINE
  5
AB8
  8
KERA4
 62
     0
 10
1334.0309999999999
 20
-1764.9335482548761
 30
0.0
 11
1168.3813839059319
 21
-1764.9335482548761
 31
0.0
  0
LINE
  5
AB9
  8
KERA4
 62
     0
 10
880.66070000000013
 20
-1764.9335482548761
 30
0.0
 11
1046.310316094067
 21
-1764.9335482548761
 31
0.0
  0
SOLID
  5
ABA
  8
KERA4
 62
     0
 10
1334.0309999999999
 20
-1756.6002149215419
 30
0.0
 11
1334.0309999999999
 21
-1773.2668815882089
 31
0.0
 12
1384.0309999999999
 22
-1764.9335482548761
 32
0.0
 13
1384.0309999999999
 23
-1764.9335482548761
 33
0.0
  0
SOLID
  5
ABB
  8
KERA4
 62
     0
 10
880.66070000000013
 20
-1756.6002149215419
 30
0.0
 11
880.66070000000013
 21
-1773.2668815882089
 31
0.0
 12
830.66070000000013
 22
-1764.9335482548761
 32
0.0
 13
830.66070000000013
 23
-1764.9335482548761
 33
0.0
  0
INSERT
  5
ABC
  8
KERA5
  2
*U18
 10
0.0
 20
0.0
 30
0.0
  0
POINT
  5
ABD
  8
DEFPOINTS
 62
     0
 10
1384.0309999999999
 20
-1338.404048254876
 30
0.0
  0
POINT
  5
ABE
  8
DEFPOINTS
 62
     0
 10
830.66070000000013
 20
-1336.079548254876
 30
0.0
  0
POINT
  5
ABF
  8
DEFPOINTS
 62
     0
 10
830.66070000000013
 20
-1764.9335482548761
 30
0.0
  0
ENDBLK
  5
9F4
  8
0
  0
BLOCK
  8
0
  2
*D9
 70
     1
 10
0.0
 20
0.0
 30
0.0
  3
*D9
  1

  0
LINE
  5
ACA
  8
KERA4
 62
     0
 10
1081.2484999999999
 20
-1180.0297982548759
 30
0.0
 11
676.52785694312524
 21
-1180.0297982548759
 31
0.0
  0
LINE
  5
ACB
  8
KERA4
 62
     0
 10
1076.0039999999999
 20
-1534.7495482548759
 30
0.0
 11
676.52785694312524
 21
-1534.7495482548759
 31
0.0
  0
LINE
  5
ACC
  8
KERA4
 62
     0
 10
691.52785694312524
 20
-1230.0297982548759
 30
0.0
 11
691.52785694312524
 21
-1317.389673254876
 31
0.0
  0
LINE
  5
ACD
  8
KERA4
 62
     0
 10
691.52785694312524
 20
-1484.7495482548759
 30
0.0
 11
691.52785694312524
 21
-1397.389673254876
 31
0.0
  0
SOLID
  5
ACE
  8
KERA4
 62
     0
 10
683.19452360979199
 20
-1230.0297982548759
 30
0.0
 11
699.86119027645873
 21
-1230.0297982548759
 31
0.0
 12
691.52785694312524
 22
-1180.0297982548759
 32
0.0
 13
691.52785694312524
 23
-1180.0297982548759
 33
0.0
  0
SOLID
  5
ACF
  8
KERA4
 62
     0
 10
683.19452360979187
 20
-1484.7495482548759
 30
0.0
 11
699.86119027645861
 21
-1484.7495482548759
 31
0.0
 12
691.52785694312524
 22
-1534.7495482548759
 32
0.0
 13
691.52785694312524
 23
-1534.7495482548759
 33
0.0
  0
INSERT
  5
AD0
  8
KERA5
  2
*U20
 10
0.0
 20
0.0
 30
0.0
  0
POINT
  5
AD1
  8
DEFPOINTS
 62
     0
 10
1101.2484999999999
 20
-1180.0297982548759
 30
0.0
  0
POINT
  5
AD2
  8
DEFPOINTS
 62
     0
 10
1096.0039999999999
 20
-1534.7495482548759
 30
0.0
  0
POINT
  5
AD3
  8
DEFPOINTS
 62
     0
 10
691.52785694312524
 20
-1534.7495482548759
 30
0.0
  0
ENDBLK
  5
A38
  8
0
  0
BLOCK
  8
0
  2
STERN
 70
     0
 10
0.0
 20
0.0
 30
0.0
  3
STERN
  1

  0
LINE
  5
A6F
  8
KERA0
 10
11.312499304870871
 20
-16.49325193760458
 30
0.0
 11
-11.31249930487084
 21
16.493251937604551
 31
0.0
  0
LINE
  5
A70
  8
KERA0
 10
-11.312499304870871
 20
-16.49325193760458
 30
0.0
 11
11.31249930487084
 21
16.493251937604551
 31
0.0
  0
LINE
  5
A71
  8
KERA0
 10
-20.0
 20
-0.0000000000000284
 30
0.0
 11
20.0
 21
-0.0000000000000284
 31
0.0
  0
ENDBLK
  5
A73
  8
0
  0
BLOCK
  8
0
  2
EXV_STE
 70
     0
 10
0.0
 20
0.0
 30
0.0
  3
EXV_STE
  1

  0
LINE
  5
A75
  8
KERA3
 10
209.03882581108061
 20
-10.0289866398748
 30
0.0
 11
64.375442063023456
 21
4.9347775733103836
 31
0.0
  0
LINE
  5
A76
  8
KERA3
 10
209.1320857476048
 20
-15.022777809596841
 30
0.0
 11
63.898183350469481
 21
0.0
 31
0.0
  0
INSERT
  5
A77
  8
KERA5
  2
STERN
 10
0.0
 20
0.0
 30
0.0
  0
LINE
  5
A78
  8
KERA3
 10
63.276773396757108
 20
4.0318667146593716
 30
0.0
 11
63.005293755119062
 21
1.0864747183481991
 31
0.0
  0
ARC
  5
A79
  8
KERA3
 10
64.272552527565495
 20
3.9400847848110061
 30
0.0
 40
1.0
 50
84.094412760890734
 51
174.73387148391939
  0
ARC
  5
A7A
  8
KERA3
 10
64.001072885927442
 20
0.9946927884993783
 30
0.0
 40
1.0
 50
174.73387148391939
 51
264.09441276089069
  0
LINE
  5
A7B
  8
KERA3
 10
211.05903846365891
 20
-0.4820599482072794
 30
0.0
 11
211.05903846365891
 21
-24.482059948207279
 31
0.0
  0
ARC
  5
A7C
  8
KERA3
 10
214.02091377029771
 20
-12.90924423808519
 30
0.0
 40
23.32880200606542
 50
338.77755577721791
 51
24.802612239925129
  0
LINE
  5
A7D
  8
KERA3
 10
223.05903846365891
 20
-0.4820599482072794
 30
0.0
 11
223.05903846365891
 21
-24.482059948207279
 31
0.0
  0
LINE
  5
A7E
  8
KERA3
 10
278.95609431663161
 20
7.2531688171770829
 30
0.0
 11
277.14985378549682
 21
-32.484122867786937
 31
0.0
  0
LINE
  5
A7F
  8
KERA3
 10
256.55903846365891
 20
-34.482059948207279
 30
0.0
 11
238.05903846365891
 21
-34.482059948207279
 31
0.0
  0
LINE
  5
A80
  8
KERA3
 10
235.96822314182191
 20
-32.484122867786937
 30
0.0
 11
277.14985378549682
 21
-32.484122867786937
 31
0.0
  0
LINE
  5
A81
  8
KERA3
 10
223.05903846365891
 20
-24.482059948207279
 30
0.0
 11
211.05903846365891
 21
-24.482059948207279
 31
0.0
  0
ARC
  5
A82
  8
KERA3
 10
233.60242795951851
 20
-24.482059948207279
 30
0.0
 40
2.0
 50
2.6025622025000068
 51
90.0
  0
LINE
  5
A83
  8
KERA3
 10
233.60242795951851
 20
-22.482059948207279
 30
0.0
 11
223.05903846365891
 21
-22.482059948207279
 31
0.0
  0
LINE
  5
A84
  8
KERA3
 10
235.96822314182191
 20
-32.484122867786937
 30
0.0
 11
238.05903846365891
 21
-34.482059948207279
 31
0.0
  0
LINE
  5
A85
  8
KERA3
 10
235.60036503993891
 20
-24.39124462637028
 30
0.0
 11
235.96822314182191
 21
-32.484122867786937
 31
0.0
  0
LINE
  5
A86
  8
KERA3
 10
277.14985378549682
 20
-32.484122867786937
 30
0.0
 11
275.05903846365891
 21
-34.482059948207279
 31
0.0
  0
LINE
  5
A87
  8
KERA3
 10
256.55903846365891
 20
-34.482059948207279
 30
0.0
 11
275.05903846365891
 21
-34.482059948207279
 31
0.0
  0
LINE
  5
A88
  8
KERA3
 10
256.55903846365891
 20
13.517940051792721
 30
0.0
 11
226.05903846365891
 21
13.517940051792721
 31
0.0
  0
LINE
  5
A89
  8
KERA3
 10
236.42466699343819
 20
8.9984881623031452
 30
0.0
 11
276.20908448582122
 21
8.9984881623031452
 31
0.0
  0
ARC
  5
A8A
  8
KERA3
 10
226.05903846365891
 20
11.91394738110375
 30
0.0
 40
0.5
 50
180.0
 51
256.75948008480867
  0
LINE
  5
A8B
  8
KERA3
 10
225.9445187967967
 20
11.427238796936759
 30
0.0
 11
231.85219499123289
 21
10.037197339421709
 31
0.0
  0
LINE
  5
A8C
  8
KERA3
 10
223.05903846365891
 20
-0.4820599482072794
 30
0.0
 11
211.05903846365891
 21
-0.4820599482072794
 31
0.0
  0
ARC
  5
A8D
  8
KERA3
 10
215.87268530566689
 20
-12.482059948207279
 30
0.0
 40
7.2108848790705897
 50
131.8784733583731
 51
228.12152664162659
  0
ARC
  5
A8E
  8
KERA3
 10
231.16507699005621
 20
7.1169458344211298
 30
0.0
 40
3.0
 50
2.602562202499854
 51
76.759480084808743
  0
LINE
  5
A8F
  8
KERA3
 10
232.5115188686095
 20
-2.4820599482072789
 30
0.0
 11
223.05903846365891
 21
-2.4820599482072789
 31
0.0
  0
ARC
  5
A90
  8
KERA3
 10
232.5115188686095
 20
-0.4820599482072794
 30
0.0
 40
2.0
 50
270.0
 51
2.6025622024997022
  0
LINE
  5
A91
  8
KERA3
 10
234.16198261068709
 20
7.2531688171770829
 30
0.0
 11
234.50945594903081
 21
-0.3912446263702804
 31
0.0
  0
ARC
  5
A92
  8
KERA3
 10
226.05903846365891
 20
13.017940051792721
 30
0.0
 40
0.5
 50
90.0
 51
180.0
  0
LINE
  5
A93
  8
KERA3
 10
225.55903846365891
 20
13.017940051792721
 30
0.0
 11
225.55903846365891
 21
11.91394738110375
 31
0.0
  0
LINE
  5
A94
  8
KERA3
 10
287.173558130522
 20
11.427238796936759
 30
0.0
 11
281.26588193608501
 21
10.037197339421709
 31
0.0
  0
ARC
  5
A95
  8
KERA3
 10
287.05903846365891
 20
11.91394738110375
 30
0.0
 40
0.5
 50
283.24051991519133
 51
0.000000000000007
  0
ARC
  5
A96
  8
KERA3
 10
281.95299993726258
 20
7.1169458344211298
 30
0.0
 40
3.0
 50
103.2405199151912
 51
177.39743779750009
  0
LINE
  5
A97
  8
KERA3
 10
256.55903846365891
 20
13.517940051792721
 30
0.0
 11
287.05903846365891
 21
13.517940051792721
 31
0.0
  0
LINE
  5
A98
  8
KERA3
 10
287.55903846365891
 20
13.017940051792721
 30
0.0
 11
287.55903846365891
 21
11.91394738110375
 31
0.0
  0
ARC
  5
A99
  8
KERA3
 10
287.05903846365891
 20
13.017940051792721
 30
0.0
 40
0.5
 50
0.000000000000007
 51
90.0
  0
ENDBLK
  5
A9B
  8
0
  0
BLOCK
  8
0
  2
*U12
 70
     1
 10
0.0
 20
0.0
 30
0.0
  3
*U12
  1

  0
TEXT
  5
B56
  8
0
 62
     0
 10
1647.48031496063
 20
-425.0
 30
0.0
 40
50.0
  1
850
  0
ENDBLK
  5
B58
  8
0
  0
BLOCK
  8
0
  2
*U13
 70
     1
 10
0.0
 20
0.0
 30
0.0
  3
*U13
  1

  0
TEXT
  5
B66
  8
0
 62
     0
 10
1059.73031496063
 20
-525.0
 30
0.0
 40
50.0
  1
120
  0
ENDBLK
  5
B68
  8
0
  0
BLOCK
  8
0
  2
*U14
 70
     1
 10
0.0
 20
0.0
 30
0.0
  3
*U14
  1

  0
TEXT
  5
B6A
  8
KERA4
 10
865.17281282598424
 20
-415.0
 30
0.0
 40
50.0
  1
50
  0
ENDBLK
  5
B6C
  8
0
  0
BLOCK
  8
0
  2
*U15
 70
     1
 10
0.0
 20
0.0
 30
0.0
  3
*U15
  1

  0
TEXT
  5
B7A
  8
KERA5
 10
1738.164646240162
 20
-1517.4678962555281
 30
0.0
 40
50.0
  1
FONTANGE 1
  0
TEXT
  5
B7B
  8
KERA5
 10
1738.164646240162
 20
-1600.801229588862
 30
0.0
 40
50.0
  1
Unterbauwaschtisch
  0
TEXT
  5
B7C
  8
KERA5
 10
1738.164646240162
 20
-1684.1444054418801
 30
0.0
 40
50.0
  1
Mod.- Nr. 24 30 00
  0
TEXT
  5
B7D
  8
KERA5
 10
1738.164646240162
 20
-1767.477738775214
 30
0.0
 40
50.0
  1
14.04.05/Re
  0
ENDBLK
  5
B7F
  8
0
  0
BLOCK
  8
0
  2
*U16
 70
     1
 10
0.0
 20
0.0
 30
0.0
  3
*U16
  1

  0
TEXT
  5
B81
  8
0
 62
     0
 10
1545.460529086193
 20
-495.09039083061998
 30
0.0
 40
50.0
  1
645
  0
ENDBLK
  5
B83
  8
0
  0
BLOCK
  8
0
  2
*U17
 70
     1
 10
0.0
 20
0.0
 30
0.0
  3
*U17
  1

  0
TEXT
  5
B85
  8
0
 62
     0
 10
1446.4644660940669
 20
-604.22923532829009
 30
0.0
 40
50.0
  1
535
  0
ENDBLK
  5
B87
  8
0
  0
BLOCK
  8
0
  2
*U18
 70
     1
 10
0.0
 20
0.0
 30
0.0
  3
*U18
  1

  0
TEXT
  5
B8D
  8
KERA4
 62
     0
 10
1053.810316094067
 20
-1789.9335482548761
 30
0.0
 40
50.0
  1
555
  0
ENDBLK
  5
B8F
  8
0
  0
BLOCK
  8
0
  2
*U19
 70
     1
 10
0.0
 20
0.0
 30
0.0
  3
*U19
  1

  0
TEXT
  5
B91
  8
KERA4
 62
     0
 10
1053.603717094067
 20
-1689.9335482548761
 30
0.0
 40
50.0
  1
505
  0
ENDBLK
  5
B93
  8
0
  0
BLOCK
  8
0
  2
*U20
 70
     1
 10
0.0
 20
0.0
 30
0.0
  3
*U20
  1

  0
TEXT
  5
B95
  8
KERA4
 62
     0
 10
639.0081719037554
 20
-1382.3896732548751
 30
0.0
 40
50.0
  1
360
  0
ENDBLK
  5
B97
  8
0
  0
BLOCK
  8
0
  2
*U21
 70
     1
 10
0.0
 20
0.0
 30
0.0
  3
*U21
  1

  0
TEXT
  5
B99
  8
KERA4
 62
     0
 10
1536.5081719037551
 20
-1374.823548254875
 30
0.0
 40
50.0
  1
420
  0
ENDBLK
  5
B9B
  8
0
  0
ENDSEC
  0
SECTION
  2
ENTITIES
  0
LINE
  5
46C
  8
KERA0
 10
829.75099999999998
 20
25.0
 30
0.0
 11
1384.75
 21
25.0
 31
0.0
  0
LINE
  5
46D
  8
KERA0
 10
1072.25
 20
-1139.9335482548761
 30
0.0
 11
1142.25
 21
-1139.9335482548761
 31
0.0
  0
ARC
  5
46E
  8
KERA0
 10
1142.25
 20
-1144.9335482548761
 30
0.0
 40
5.0
 50
0.0
 51
90.0
  0
ARC
  5
46F
  8
KERA0
 10
1072.25
 20
-1144.9335482548761
 30
0.0
 40
5.0
 50
90.0
 51
180.0
  0
LINE
  5
470
  8
KERA0
 10
1147.25
 20
-1144.9335482548761
 30
0.0
 11
1147.25
 21
-1148.0113482548761
 31
0.0
  0
LINE
  5
471
  8
KERA0
 10
1067.25
 20
-1144.9335482548761
 30
0.0
 11
1067.25
 21
-1148.0113482548761
 31
0.0
  0
LINE
  5
472
  8
KERA0
 10
1384.75
 20
25.0
 30
0.0
 11
1384.75
 21
-7.4516999999999989
 31
0.0
  0
LINE
  5
473
  8
KERA0
 10
829.75099999999998
 20
25.0
 30
0.0
 11
829.75099999999998
 21
-7.4516999999999989
 31
0.0
  0
LINE
  5
474
  8
KERA0
 10
860.57899999999984
 20
-10.0
 30
0.0
 11
1354.8900000000001
 21
-10.0
 31
0.0
  0
ARC
  5
475
  8
KERA0
 10
-1157.25
 20
-1148.0113482548761
 30
0.0
 40
10.0
210
0.0
220
0.0
230
-1.0
 50
277.06999999999999
 51
0.0000264293
  0
ARC
  5
476
  8
KERA0
 10
1380.75
 20
-7.4516999999999989
 30
0.0
 40
4.0
 50
297.35300000000001
 51
0.00000717909
  0
ARC
  5
477
  8
KERA0
 10
-833.75100000000009
 20
-7.4516999999999989
 30
0.0
 40
4.0
210
0.0
220
0.0
230
-1.0
 50
297.35300000000001
 51
0.00000717873
  0
ARC
  5
478
  8
KERA0
 10
-1057.25
 20
-1148.0113482548761
 30
0.0
 40
10.0
210
0.0
220
0.0
230
-1.0
 50
180.0
 51
262.93000000000001
  0
ARC
  5
47B
  8
KERA0
 10
1107.25
 20
-10002.799999999999
 30
0.0
 40
9857.5799999999999
 50
89.774100000000004
 51
90.225899999999996
  0
LINE
  5
47E
  8
KERA2
 10
1088.28
 20
-240.0
 30
0.0
 11
1007.58
 21
-240.0
 31
0.0
  0
LINE
  5
47F
  8
KERA2
 10
1207.9000000000001
 20
-240.0
 30
0.0
 11
1128.6300000000001
 21
-240.0
 31
0.0
  0
CIRCLE
  5
480
  8
KERA0
 10
1167.25
 20
-240.0
 30
0.0
 40
12.5
  0
CIRCLE
  5
481
  8
KERA0
 10
1047.25
 20
-240.0
 30
0.0
 40
12.5
  0
LINE
  5
482
  8
KERA2
 10
1059.088
 20
-1279.9335482548761
 30
0.0
 11
1157.126
 21
-1279.9335482548761
 31
0.0
  0
LINE
  5
483
  8
KERA2
 10
1167.25
 20
-199.517
 30
0.0
 11
1167.25
 21
-278.78100000000001
 31
0.0
  0
LINE
  5
484
  8
KERA2
 10
1047.25
 20
-200.958
 30
0.0
 11
1047.25
 21
-280.22199999999998
 31
0.0
  0
LINE
  5
485
  8
KERA2
 10
1158.9000000000001
 20
-290.0
 30
0.0
 11
1059.46
 21
-290.0
 31
0.0
  0
CIRCLE
  5
486
  8
KERA0
 10
1107.25
 20
-1279.9335482548761
 30
0.0
 40
22.5
  0
CIRCLE
  5
487
  8
KERA0
 10
1107.25
 20
-290.0
 30
0.0
 40
25.0
  0
LINE
  5
488
  8
KERA2
 10
1107.25
 20
-241.31100000000001
 30
0.0
 11
1107.25
 21
-340.75099999999998
 31
0.0
  0
CIRCLE
  5
489
  8
KERA3
 10
1107.25
 20
-1279.9335482548761
 30
0.0
 40
35.0
  0
LINE
  5
48A
  8
KERA2
 10
1107.25
 20
-1232.0693482548761
 30
0.0
 11
1107.25
 21
-1328.3245482548759
 31
0.0
  0
LINE
  5
4B9
  8
KERA6
 10
1111.877208106112
 20
-731.36999999999989
 30
0.0
 11
1102.887208106112
 21
-731.36999999999989
 31
0.0
  0
LINE
  5
4BA
  8
KERA6
 10
1107.25
 20
-824.72399999999993
 30
-84.366799999999998
 11
1107.25
 21
-824.72399999999993
 31
88.290899999999979
  0
LINE
  5
4BB
  8
KERA6
 10
1111.877208106112
 20
-741.40699999999993
 30
0.0
 11
1102.887208106112
 21
-741.40699999999993
 31
0.0
  0
LINE
  5
4BE
  8
KERA6
 10
1025.9572081061119
 20
-784.86800000000005
 30
0.0
 11
1053.6972081061119
 21
-757.13100000000009
 31
0.0
  0
LINE
  5
608
  8
KERA7
 10
829.75099999999998
 20
-825.0
 30
0.0
 11
1384.75
 21
-825.0
 31
0.0
  0
TEXT
  5
609
  8
KERA6
 10
1121.597208106112
 20
-750.66600000000005
 30
0.0
 40
35.0
  1
0 = OKFFB
 41
0.6641837837837834
  7
ROMANS
 72
     5
 11
1326.387208106112
 21
-750.66600000000005
 31
0.0
  0
LINE
  5
60A
  8
KERA6
 10
1053.6972081061119
 20
-757.13100000000009
 30
0.0
 11
1330.357208106112
 21
-757.13100000000009
 31
0.0
  0
LINE
  5
628
  8
KERA6
 10
1107.387208106112
 20
-735.86999999999989
 30
0.0
 11
1107.387208106112
 21
-726.61699999999985
 31
0.0
  0
POLYLINE
  5
71D
  8
KERA0
 66
     1
 10
0.0
 20
0.0
 30
0.0
 70
    12
 75
     6
  0
VERTEX
  5
71E
  8
KERA0
 10
1058.481
 20
-1157.935308254876
 30
0.0
 70
    40
  0
VERTEX
  5
71F
  8
KERA0
 10
1058.221
 20
-1157.967628254876
 30
0.0
 70
    40
  0
VERTEX
  5
720
  8
KERA0
 10
1049.854
 20
-1159.103958254876
 30
0.0
 70
    40
  0
VERTEX
  5
721
  8
KERA0
 10
1041.46
 20
-1160.4332282548751
 30
0.0
 70
    40
  0
VERTEX
  5
722
  8
KERA0
 10
1033.05
 20
-1161.958528254876
 30
0.0
 70
    40
  0
VERTEX
  5
723
  8
KERA0
 10
1022.9589999999999
 20
-1164.0512132548761
 30
0.0
 70
    40
  0
VERTEX
  5
724
  8
KERA0
 10
1012.891
 20
-1166.433128254876
 30
0.0
 70
    40
  0
VERTEX
  5
725
  8
KERA0
 10
1002.872
 20
-1169.1072082548751
 30
0.0
 70
    40
  0
VERTEX
  5
726
  8
KERA0
 10
992.92000000000007
 20
-1172.0797482548751
 30
0.0
 70
    40
  0
VERTEX
  5
727
  8
KERA0
 10
983.0630000000001
 20
-1175.3509482548759
 30
0.0
 70
    40
  0
VERTEX
  5
728
  8
KERA0
 10
973.327
 20
-1178.9187482548759
 30
0.0
 70
    40
  0
VERTEX
  5
729
  8
KERA0
 10
963.73800000000006
 20
-1182.779148254876
 30
0.0
 70
    40
  0
VERTEX
  5
72A
  8
KERA0
 10
954.32300000000009
 20
-1186.928548254876
 30
0.0
 70
    40
  0
VERTEX
  5
72B
  8
KERA0
 10
945.10420000000011
 20
-1191.370348254876
 30
0.0
 70
    40
  0
VERTEX
  5
72C
  8
KERA0
 10
936.10640000000001
 20
-1196.097848254876
 30
0.0
 70
    40
  0
VERTEX
  5
72D
  8
KERA0
 10
927.35460000000012
 20
-1201.1011482548761
 30
0.0
 70
    40
  0
VERTEX
  5
72E
  8
KERA0
 10
918.87250000000006
 20
-1206.368648254876
 30
0.0
 70
    40
  0
VERTEX
  5
72F
  8
KERA0
 10
910.68280000000004
 20
-1211.8899482548759
 30
0.0
 70
    40
  0
VERTEX
  5
730
  8
KERA0
 10
902.80830000000014
 20
-1217.6652482548759
 30
0.0
 70
    40
  0
VERTEX
  5
731
  8
KERA0
 10
895.26850000000002
 20
-1223.6814482548759
 30
0.0
 70
    40
  0
VERTEX
  5
732
  8
KERA0
 10
889.25390000000004
 20
-1228.867048254876
 30
0.0
 70
    40
  0
VERTEX
  5
733
  8
KERA0
 10
883.49320000000023
 20
-1234.1981482548761
 30
0.0
 70
    40
  0
VERTEX
  5
734
  8
KERA0
 10
877.99459999999999
 20
-1239.6643482548759
 30
0.0
 70
    40
  0
VERTEX
  5
735
  8
KERA0
 10
872.77049999999997
 20
-1245.2606482548761
 30
0.0
 70
    40
  0
VERTEX
  5
736
  8
KERA0
 10
867.83260000000007
 20
-1250.981848254876
 30
0.0
 70
    40
  0
VERTEX
  5
737
  8
KERA0
 10
863.18557999999996
 20
-1256.8164482548759
 30
0.0
 70
    40
  0
VERTEX
  5
738
  8
KERA0
 10
858.83328000000006
 20
-1262.752548254876
 30
0.0
 70
    40
  0
VERTEX
  5
739
  8
KERA0
 10
854.77837560000012
 20
-1268.7785482548759
 30
0.0
 70
    40
  0
VERTEX
  5
73A
  8
KERA0
 10
851.02246000000002
 20
-1274.881548254876
 30
0.0
 70
    40
  0
VERTEX
  5
73B
  8
KERA0
 10
847.57533000000001
 20
-1281.051548254876
 30
0.0
 70
    40
  0
VERTEX
  5
73C
  8
KERA0
 10
844.44550000000015
 20
-1287.2765482548759
 30
0.0
 70
    40
  0
VERTEX
  5
73D
  8
KERA0
 10
841.63090000000011
 20
-1293.5465482548759
 30
0.0
 70
    40
  0
VERTEX
  5
73E
  8
KERA0
 10
839.12880000000007
 20
-1299.8475482548761
 30
0.0
 70
    40
  0
VERTEX
  5
73F
  8
KERA0
 10
836.93520000000012
 20
-1306.1705482548759
 30
0.0
 70
    40
  0
VERTEX
  5
740
  8
KERA0
 10
835.04550000000006
 20
-1312.503548254876
 30
0.0
 70
    40
  0
VERTEX
  5
741
  8
KERA0
 10
833.46130000000005
 20
-1318.829548254876
 30
0.0
 70
    40
  0
VERTEX
  5
742
  8
KERA0
 10
832.18330000000014
 20
-1325.1325482548759
 30
0.0
 70
    40
  0
VERTEX
  5
743
  8
KERA0
 10
831.20400000000006
 20
-1331.4035482548759
 30
0.0
 70
    40
  0
VERTEX
  5
744
  8
KERA0
 10
830.66070000000013
 20
-1336.079548254876
 30
0.0
 70
    40
  0
VERTEX
  5
745
  8
KERA0
 10
830.27740000000006
 20
-1340.7285482548759
 30
0.0
 70
    40
  0
VERTEX
  5
746
  8
KERA0
 10
830.05029999999999
 20
-1345.3475482548761
 30
0.0
 70
    40
  0
VERTEX
  5
747
  8
KERA0
 10
829.97550000000012
 20
-1349.9335482548761
 30
0.0
 70
    40
  0
SEQEND
  5
748
  8
KERA0
  0
POLYLINE
  5
749
  8
KERA0
 66
     1
 10
0.0
 20
0.0
 30
0.0
 70
    12
 75
     6
  0
VERTEX
  5
74A
  8
KERA0
 10
829.97550000000012
 20
-1349.9335482548761
 30
0.0
 70
    40
  0
VERTEX
  5
74B
  8
KERA0
 10
830.04860000000008
 20
-1354.7895482548761
 30
0.0
 70
    40
  0
VERTEX
  5
74C
  8
KERA0
 10
830.27030000000013
 20
-1359.6825482548761
 30
0.0
 70
    40
  0
VERTEX
  5
74D
  8
KERA0
 10
830.64450000000011
 20
-1364.609548254876
 30
0.0
 70
    40
  0
VERTEX
  5
74E
  8
KERA0
 10
831.17489999999998
 20
-1369.5675482548761
 30
0.0
 70
    40
  0
VERTEX
  5
74F
  8
KERA0
 10
832.13110000000006
 20
-1376.2195482548759
 30
0.0
 70
    40
  0
VERTEX
  5
750
  8
KERA0
 10
833.37890000000004
 20
-1382.909548254876
 30
0.0
 70
    40
  0
VERTEX
  5
751
  8
KERA0
 10
834.92570000000012
 20
-1389.629548254876
 30
0.0
 70
    40
  0
VERTEX
  5
752
  8
KERA0
 10
836.77319999999997
 20
-1396.3625482548759
 30
0.0
 70
    40
  0
VERTEX
  5
753
  8
KERA0
 10
838.92219999999998
 20
-1403.0945482548759
 30
0.0
 70
    40
  0
VERTEX
  5
754
  8
KERA0
 10
841.37750000000005
 20
-1409.812548254876
 30
0.0
 70
    40
  0
VERTEX
  5
755
  8
KERA0
 10
844.14300000000003
 20
-1416.506548254876
 30
0.0
 70
    40
  0
VERTEX
  5
756
  8
KERA0
 10
847.22157000000016
 20
-1423.1625482548759
 30
0.0
 70
    40
  0
VERTEX
  5
757
  8
KERA0
 10
850.61523000000011
 20
-1429.7705482548761
 30
0.0
 70
    40
  0
VERTEX
  5
758
  8
KERA0
 10
854.31812300000013
 20
-1436.3165482548759
 30
0.0
 70
    40
  0
VERTEX
  5
759
  8
KERA0
 10
858.32317
 20
-1442.7875482548759
 30
0.0
 70
    40
  0
VERTEX
  5
75A
  8
KERA0
 10
862.62891999999999
 20
-1449.1705482548759
 30
0.0
 70
    40
  0
VERTEX
  5
75B
  8
KERA0
 10
867.23280000000022
 20
-1455.454548254876
 30
0.0
 70
    40
  0
VERTEX
  5
75C
  8
KERA0
 10
872.13130000000024
 20
-1461.6265482548761
 30
0.0
 70
    40
  0
VERTEX
  5
75D
  8
KERA0
 10
877.31950000000006
 20
-1467.6725482548759
 30
0.0
 70
    40
  0
VERTEX
  5
75E
  8
KERA0
 10
882.78679999999997
 20
-1473.5855482548759
 30
0.0
 70
    40
  0
VERTEX
  5
75F
  8
KERA0
 10
888.52149999999995
 20
-1479.358548254876
 30
0.0
 70
    40
  0
VERTEX
  5
760
  8
KERA0
 10
894.5154
 20
-1484.9785482548759
 30
0.0
 70
    40
  0
VERTEX
  5
761
  8
KERA0
 10
900.75960000000009
 20
-1490.435548254876
 30
0.0
 70
    40
  0
VERTEX
  5
762
  8
KERA0
 10
907.24400000000026
 20
-1495.7185482548759
 30
0.0
 70
    40
  0
VERTEX
  5
763
  8
KERA0
 10
913.95749999999998
 20
-1500.8175482548761
 30
0.0
 70
    40
  0
VERTEX
  5
764
  8
KERA0
 10
920.88720000000012
 20
-1505.729548254875
 30
0.0
 70
    40
  0
VERTEX
  5
765
  8
KERA0
 10
928.01920000000007
 20
-1510.450548254875
 30
0.0
 70
    40
  0
VERTEX
  5
766
  8
KERA0
 10
935.34010000000012
 20
-1514.9715482548761
 30
0.0
 70
    40
  0
VERTEX
  5
767
  8
KERA0
 10
944.35510000000011
 20
-1520.1245482548759
 30
0.0
 70
    40
  0
VERTEX
  5
768
  8
KERA0
 10
953.59740000000011
 20
-1524.9695482548759
 30
0.0
 70
    40
  0
VERTEX
  5
769
  8
KERA0
 10
963.04200000000003
 20
-1529.4985482548759
 30
0.0
 70
    40
  0
VERTEX
  5
76A
  8
KERA0
 10
972.6640000000001
 20
-1533.7135482548761
 30
0.0
 70
    40
  0
VERTEX
  5
76B
  8
KERA0
 10
982.43700000000013
 20
-1537.610548254876
 30
0.0
 70
    40
  0
VERTEX
  5
76C
  8
KERA0
 10
992.33500000000015
 20
-1541.1835482548761
 30
0.0
 70
    40
  0
VERTEX
  5
76D
  8
KERA0
 10
1002.33
 20
-1544.4325482548761
 30
0.0
 70
    40
  0
VERTEX
  5
76E
  8
KERA0
 10
1012.397
 20
-1547.3565482548761
 30
0.0
 70
    40
  0
VERTEX
  5
76F
  8
KERA0
 10
1022.513
 20
-1549.9605482548759
 30
0.0
 70
    40
  0
VERTEX
  5
770
  8
KERA0
 10
1032.655
 20
-1552.2495482548759
 30
0.0
 70
    40
  0
VERTEX
  5
771
  8
KERA0
 10
1042.796
 20
-1554.2245482548749
 30
0.0
 70
    40
  0
VERTEX
  5
772
  8
KERA0
 10
1052.913
 20
-1555.8935482548759
 30
0.0
 70
    40
  0
VERTEX
  5
773
  8
KERA0
 10
1062.9839999999999
 20
-1557.2605482548761
 30
0.0
 70
    40
  0
VERTEX
  5
774
  8
KERA0
 10
1072.9929999999999
 20
-1558.3365482548761
 30
0.0
 70
    40
  0
VERTEX
  5
775
  8
KERA0
 10
1082.9179999999999
 20
-1559.129548254876
 30
0.0
 70
    40
  0
VERTEX
  5
776
  8
KERA0
 10
1091.1130000000001
 20
-1559.580548254876
 30
0.0
 70
    40
  0
VERTEX
  5
777
  8
KERA0
 10
1099.2270000000001
 20
-1559.8465482548761
 30
0.0
 70
    40
  0
VERTEX
  5
778
  8
KERA0
 10
1107.25
 20
-1559.9335482548761
 30
0.0
 70
    40
  0
VERTEX
  5
779
  8
KERA0
 10
1115.2729999999999
 20
-1559.8465482548761
 30
0.0
 70
    40
  0
VERTEX
  5
77A
  8
KERA0
 10
1123.3869999999999
 20
-1559.580548254876
 30
0.0
 70
    40
  0
VERTEX
  5
77B
  8
KERA0
 10
1131.5820000000001
 20
-1559.129548254876
 30
0.0
 70
    40
  0
VERTEX
  5
77C
  8
KERA0
 10
1141.5070000000001
 20
-1558.3365482548761
 30
0.0
 70
    40
  0
VERTEX
  5
77D
  8
KERA0
 10
1151.5160000000001
 20
-1557.2605482548761
 30
0.0
 70
    40
  0
VERTEX
  5
77E
  8
KERA0
 10
1161.587
 20
-1555.8935482548759
 30
0.0
 70
    40
  0
VERTEX
  5
77F
  8
KERA0
 10
1171.704
 20
-1554.2245482548749
 30
0.0
 70
    40
  0
VERTEX
  5
780
  8
KERA0
 10
1181.845
 20
-1552.2495482548759
 30
0.0
 70
    40
  0
VERTEX
  5
781
  8
KERA0
 10
1191.9870000000001
 20
-1549.9605482548759
 30
0.0
 70
    40
  0
VERTEX
  5
782
  8
KERA0
 10
1202.1030000000001
 20
-1547.3565482548761
 30
0.0
 70
    40
  0
VERTEX
  5
783
  8
KERA0
 10
1212.1700000000001
 20
-1544.4325482548761
 30
0.0
 70
    40
  0
VERTEX
  5
784
  8
KERA0
 10
1222.165
 20
-1541.1835482548761
 30
0.0
 70
    40
  0
VERTEX
  5
785
  8
KERA0
 10
1232.0630000000001
 20
-1537.610548254876
 30
0.0
 70
    40
  0
VERTEX
  5
786
  8
KERA0
 10
1241.836
 20
-1533.7135482548761
 30
0.0
 70
    40
  0
VERTEX
  5
787
  8
KERA0
 10
1251.4580000000001
 20
-1529.4985482548759
 30
0.0
 70
    40
  0
VERTEX
  5
788
  8
KERA0
 10
1260.903
 20
-1524.9695482548759
 30
0.0
 70
    40
  0
VERTEX
  5
789
  8
KERA0
 10
1270.145
 20
-1520.1245482548759
 30
0.0
 70
    40
  0
VERTEX
  5
78A
  8
KERA0
 10
1279.1600000000001
 20
-1514.9715482548761
 30
0.0
 70
    40
  0
VERTEX
  5
78B
  8
KERA0
 10
1286.481
 20
-1510.450548254875
 30
0.0
 70
    40
  0
VERTEX
  5
78C
  8
KERA0
 10
1293.6130000000001
 20
-1505.729548254875
 30
0.0
 70
    40
  0
VERTEX
  5
78D
  8
KERA0
 10
1300.5419999999999
 20
-1500.8175482548761
 30
0.0
 70
    40
  0
VERTEX
  5
78E
  8
KERA0
 10
1307.2560000000001
 20
-1495.7185482548759
 30
0.0
 70
    40
  0
VERTEX
  5
78F
  8
KERA0
 10
1313.74
 20
-1490.435548254876
 30
0.0
 70
    40
  0
VERTEX
  5
790
  8
KERA0
 10
1319.9849999999999
 20
-1484.9785482548759
 30
0.0
 70
    40
  0
VERTEX
  5
791
  8
KERA0
 10
1325.979
 20
-1479.358548254876
 30
0.0
 70
    40
  0
VERTEX
  5
792
  8
KERA0
 10
1331.713
 20
-1473.5855482548759
 30
0.0
 70
    40
  0
VERTEX
  5
793
  8
KERA0
 10
1337.181
 20
-1467.6725482548759
 30
0.0
 70
    40
  0
VERTEX
  5
794
  8
KERA0
 10
1342.3689999999999
 20
-1461.6265482548761
 30
0.0
 70
    40
  0
VERTEX
  5
795
  8
KERA0
 10
1347.2670000000001
 20
-1455.454548254876
 30
0.0
 70
    40
  0
VERTEX
  5
796
  8
KERA0
 10
1351.8710000000001
 20
-1449.1705482548759
 30
0.0
 70
    40
  0
VERTEX
  5
797
  8
KERA0
 10
1356.1769999999999
 20
-1442.7875482548759
 30
0.0
 70
    40
  0
VERTEX
  5
798
  8
KERA0
 10
1360.182
 20
-1436.3165482548759
 30
0.0
 70
    40
  0
VERTEX
  5
799
  8
KERA0
 10
1363.885
 20
-1429.7705482548761
 30
0.0
 70
    40
  0
VERTEX
  5
79A
  8
KERA0
 10
1367.278
 20
-1423.1625482548759
 30
0.0
 70
    40
  0
VERTEX
  5
79B
  8
KERA0
 10
1370.357
 20
-1416.506548254876
 30
0.0
 70
    40
  0
VERTEX
  5
79C
  8
KERA0
 10
1373.1220000000001
 20
-1409.812548254876
 30
0.0
 70
    40
  0
VERTEX
  5
79D
  8
KERA0
 10
1375.578
 20
-1403.0945482548759
 30
0.0
 70
    40
  0
VERTEX
  5
79E
  8
KERA0
 10
1377.7270000000001
 20
-1396.3625482548759
 30
0.0
 70
    40
  0
VERTEX
  5
79F
  8
KERA0
 10
1379.5740000000001
 20
-1389.629548254876
 30
0.0
 70
    40
  0
VERTEX
  5
7A0
  8
KERA0
 10
1381.1210000000001
 20
-1382.909548254876
 30
0.0
 70
    40
  0
VERTEX
  5
7A1
  8
KERA0
 10
1382.3689999999999
 20
-1376.2195482548759
 30
0.0
 70
    40
  0
VERTEX
  5
7A2
  8
KERA0
 10
1383.325
 20
-1369.5675482548761
 30
0.0
 70
    40
  0
VERTEX
  5
7A3
  8
KERA0
 10
1383.855
 20
-1364.609548254876
 30
0.0
 70
    40
  0
VERTEX
  5
7A4
  8
KERA0
 10
1384.23
 20
-1359.6825482548761
 30
0.0
 70
    40
  0
VERTEX
  5
7A5
  8
KERA0
 10
1384.451
 20
-1354.7895482548761
 30
0.0
 70
    40
  0
VERTEX
  5
7A6
  8
KERA0
 10
1384.5239999999999
 20
-1349.9335482548761
 30
0.0
 70
    40
  0
SEQEND
  5
7A7
  8
KERA0
  0
POLYLINE
  5
7A8
  8
KERA0
 66
     1
 10
0.0
 20
0.0
 30
0.0
 70
    12
 75
     6
  0
VERTEX
  5
7A9
  8
KERA0
 10
1359.5239999999999
 20
-1349.9335482548761
 30
0.0
 70
    40
  0
VERTEX
  5
7AA
  8
KERA0
 10
1359.3030000000001
 20
-1342.804548254876
 30
0.0
 70
    40
  0
VERTEX
  5
7AB
  8
KERA0
 10
1358.6220000000001
 20
-1335.5695482548761
 30
0.0
 70
    40
  0
VERTEX
  5
7AC
  8
KERA0
 10
1357.463
 20
-1328.246548254876
 30
0.0
 70
    40
  0
VERTEX
  5
7AD
  8
KERA0
 10
1355.807
 20
-1320.8555482548761
 30
0.0
 70
    40
  0
VERTEX
  5
7AE
  8
KERA0
 10
1353.636
 20
-1313.4175482548751
 30
0.0
 70
    40
  0
VERTEX
  5
7AF
  8
KERA0
 10
1350.9369999999999
 20
-1305.956548254876
 30
0.0
 70
    40
  0
VERTEX
  5
7B0
  8
KERA0
 10
1347.6990000000001
 20
-1298.494548254876
 30
0.0
 70
    40
  0
VERTEX
  5
7B1
  8
KERA0
 10
1343.912
 20
-1291.0575482548761
 30
0.0
 70
    40
  0
VERTEX
  5
7B2
  8
KERA0
 10
1339.5730000000001
 20
-1283.6735482548761
 30
0.0
 70
    40
  0
VERTEX
  5
7B3
  8
KERA0
 10
1334.6800000000001
 20
-1276.3675482548761
 30
0.0
 70
    40
  0
VERTEX
  5
7B4
  8
KERA0
 10
1329.2349999999999
 20
-1269.167548254876
 30
0.0
 70
    40
  0
VERTEX
  5
7B5
  8
KERA0
 10
1323.2460000000001
 20
-1262.102448254876
 30
0.0
 70
    40
  0
VERTEX
  5
7B6
  8
KERA0
 10
1316.722
 20
-1255.198548254876
 30
0.0
 70
    40
  0
VERTEX
  5
7B7
  8
KERA0
 10
1309.6790000000001
 20
-1248.4833482548761
 30
0.0
 70
    40
  0
VERTEX
  5
7B8
  8
KERA0
 10
1302.134
 20
-1241.982948254876
 30
0.0
 70
    40
  0
VERTEX
  5
7B9
  8
KERA0
 10
1294.1110000000001
 20
-1235.7224482548761
 30
0.0
 70
    40
  0
VERTEX
  5
7BA
  8
KERA0
 10
1285.635
 20
-1229.7253482548761
 30
0.0
 70
    40
  0
VERTEX
  5
7BB
  8
KERA0
 10
1275.519
 20
-1223.2747482548759
 30
0.0
 70
    40
  0
VERTEX
  5
7BC
  8
KERA0
 10
1264.9059999999999
 20
-1217.219048254876
 30
0.0
 70
    40
  0
VERTEX
  5
7BD
  8
KERA0
 10
1253.8489999999999
 20
-1211.5831482548761
 30
0.0
 70
    40
  0
VERTEX
  5
7BE
  8
KERA0
 10
1242.402
 20
-1206.387748254876
 30
0.0
 70
    40
  0
VERTEX
  5
7BF
  8
KERA0
 10
1230.623
 20
-1201.6492482548761
 30
0.0
 70
    40
  0
VERTEX
  5
7C0
  8
KERA0
 10
1218.5709999999999
 20
-1197.379648254876
 30
0.0
 70
    40
  0
VERTEX
  5
7C1
  8
KERA0
 10
1206.3050000000001
 20
-1193.5864482548759
 30
0.0
 70
    40
  0
VERTEX
  5
7C2
  8
KERA0
 10
1193.886
 20
-1190.272548254876
 30
0.0
 70
    40
  0
VERTEX
  5
7C3
  8
KERA0
 10
1181.3710000000001
 20
-1187.436748254876
 30
0.0
 70
    40
  0
VERTEX
  5
7C4
  8
KERA0
 10
1168.818
 20
-1185.0739482548761
 30
0.0
 70
    40
  0
VERTEX
  5
7C5
  8
KERA0
 10
1156.2809999999999
 20
-1183.1752482548759
 30
0.0
 70
    40
  0
VERTEX
  5
7C6
  8
KERA0
 10
1143.809
 20
-1181.728148254876
 30
0.0
 70
    40
  0
VERTEX
  5
7C7
  8
KERA0
 10
1131.452
 20
-1180.7176482548759
 30
0.0
 70
    40
  0
VERTEX
  5
7C8
  8
KERA0
 10
1119.2529999999999
 20
-1180.126048254876
 30
0.0
 70
    40
  0
VERTEX
  5
7C9
  8
KERA0
 10
1107.25
 20
-1179.9335482548761
 30
0.0
 70
    40
  0
VERTEX
  5
7CA
  8
KERA0
 10
1095.2470000000001
 20
-1180.126048254876
 30
0.0
 70
    40
  0
VERTEX
  5
7CB
  8
KERA0
 10
1083.048
 20
-1180.7176482548759
 30
0.0
 70
    40
  0
VERTEX
  5
7CC
  8
KERA0
 10
1070.691
 20
-1181.728148254876
 30
0.0
 70
    40
  0
VERTEX
  5
7CD
  8
KERA0
 10
1058.2190000000001
 20
-1183.1752482548759
 30
0.0
 70
    40
  0
VERTEX
  5
7CE
  8
KERA0
 10
1045.682
 20
-1185.0739482548761
 30
0.0
 70
    40
  0
VERTEX
  5
7CF
  8
KERA0
 10
1033.1289999999999
 20
-1187.436748254876
 30
0.0
 70
    40
  0
VERTEX
  5
7D0
  8
KERA0
 10
1020.614
 20
-1190.272548254876
 30
0.0
 70
    40
  0
VERTEX
  5
7D1
  8
KERA0
 10
1008.1950000000001
 20
-1193.5864482548759
 30
0.0
 70
    40
  0
VERTEX
  5
7D2
  8
KERA0
 10
995.92900000000009
 20
-1197.379648254876
 30
0.0
 70
    40
  0
VERTEX
  5
7D3
  8
KERA0
 10
983.87700000000018
 20
-1201.6492482548761
 30
0.0
 70
    40
  0
VERTEX
  5
7D4
  8
KERA0
 10
972.09800000000018
 20
-1206.387748254876
 30
0.0
 70
    40
  0
VERTEX
  5
7D5
  8
KERA0
 10
960.65099999999995
 20
-1211.5831482548761
 30
0.0
 70
    40
  0
VERTEX
  5
7D6
  8
KERA0
 10
949.59379999999999
 20
-1217.219048254876
 30
0.0
 70
    40
  0
VERTEX
  5
7D7
  8
KERA0
 10
938.98130000000015
 20
-1223.2747482548759
 30
0.0
 70
    40
  0
VERTEX
  5
7D8
  8
KERA0
 10
928.86500000000024
 20
-1229.7253482548761
 30
0.0
 70
    40
  0
VERTEX
  5
7D9
  8
KERA0
 10
920.38890000000015
 20
-1235.7224482548761
 30
0.0
 70
    40
  0
VERTEX
  5
7DA
  8
KERA0
 10
912.36559999999997
 20
-1241.982948254876
 30
0.0
 70
    40
  0
VERTEX
  5
7DB
  8
KERA0
 10
904.82110000000023
 20
-1248.4833482548761
 30
0.0
 70
    40
  0
VERTEX
  5
7DC
  8
KERA0
 10
897.7777000000001
 20
-1255.198548254876
 30
0.0
 70
    40
  0
VERTEX
  5
7DD
  8
KERA0
 10
891.25400000000013
 20
-1262.102448254876
 30
0.0
 70
    40
  0
VERTEX
  5
7DE
  8
KERA0
 10
885.26460000000009
 20
-1269.167548254876
 30
0.0
 70
    40
  0
VERTEX
  5
7DF
  8
KERA0
 10
879.82010000000025
 20
-1276.3675482548761
 30
0.0
 70
    40
  0
VERTEX
  5
7E0
  8
KERA0
 10
874.92700000000002
 20
-1283.6735482548761
 30
0.0
 70
    40
  0
VERTEX
  5
7E1
  8
KERA0
 10
870.58780000000024
 20
-1291.0575482548761
 30
0.0
 70
    40
  0
VERTEX
  5
7E2
  8
KERA0
 10
866.80140000000006
 20
-1298.494548254876
 30
0.0
 70
    40
  0
VERTEX
  5
7E3
  8
KERA0
 10
863.56286000000023
 20
-1305.956548254876
 30
0.0
 70
    40
  0
VERTEX
  5
7E4
  8
KERA0
 10
860.8639300000001
 20
-1313.4175482548751
 30
0.0
 70
    40
  0
VERTEX
  5
7E5
  8
KERA0
 10
858.69326000000001
 20
-1320.8555482548761
 30
0.0
 70
    40
  0
VERTEX
  5
7E6
  8
KERA0
 10
857.03670999999997
 20
-1328.246548254876
 30
0.0
 70
    40
  0
VERTEX
  5
7E7
  8
KERA0
 10
855.87768000000005
 20
-1335.5695482548761
 30
0.0
 70
    40
  0
VERTEX
  5
7E8
  8
KERA0
 10
855.19744400000025
 20
-1342.804548254876
 30
0.0
 70
    40
  0
VERTEX
  5
7E9
  8
KERA0
 10
854.97550200000001
 20
-1349.9335482548761
 30
0.0
 70
    40
  0
SEQEND
  5
7EA
  8
KERA0
  0
POLYLINE
  5
7EB
  8
KERA0
 66
     1
 10
0.0
 20
0.0
 30
0.0
 70
    12
 75
     6
  0
VERTEX
  5
7EC
  8
KERA0
 10
854.97550200000001
 20
-1349.9335482548761
 30
0.0
 70
    40
  0
VERTEX
  5
7ED
  8
KERA0
 10
855.19744400000025
 20
-1357.6915482548759
 30
0.0
 70
    40
  0
VERTEX
  5
7EE
  8
KERA0
 10
855.87768000000005
 20
-1365.5655482548759
 30
0.0
 70
    40
  0
VERTEX
  5
7EF
  8
KERA0
 10
857.03670999999997
 20
-1373.534548254876
 30
0.0
 70
    40
  0
VERTEX
  5
7F0
  8
KERA0
 10
858.69326000000001
 20
-1381.5775482548761
 30
0.0
 70
    40
  0
VERTEX
  5
7F1
  8
KERA0
 10
860.8639300000001
 20
-1389.6705482548759
 30
0.0
 70
    40
  0
VERTEX
  5
7F2
  8
KERA0
 10
863.56286000000023
 20
-1397.791548254876
 30
0.0
 70
    40
  0
VERTEX
  5
7F3
  8
KERA0
 10
866.80140000000006
 20
-1405.9115482548759
 30
0.0
 70
    40
  0
VERTEX
  5
7F4
  8
KERA0
 10
870.58780000000024
 20
-1414.0045482548751
 30
0.0
 70
    40
  0
VERTEX
  5
7F5
  8
KERA0
 10
874.92700000000002
 20
-1422.0405482548761
 30
0.0
 70
    40
  0
VERTEX
  5
7F6
  8
KERA0
 10
879.82010000000025
 20
-1429.9905482548761
 30
0.0
 70
    40
  0
VERTEX
  5
7F7
  8
KERA0
 10
885.26460000000009
 20
-1437.8255482548759
 30
0.0
 70
    40
  0
VERTEX
  5
7F8
  8
KERA0
 10
891.25400000000013
 20
-1445.514548254876
 30
0.0
 70
    40
  0
VERTEX
  5
7F9
  8
KERA0
 10
897.7777000000001
 20
-1453.0275482548759
 30
0.0
 70
    40
  0
VERTEX
  5
7FA
  8
KERA0
 10
904.82110000000023
 20
-1460.3355482548759
 30
0.0
 70
    40
  0
VERTEX
  5
7FB
  8
KERA0
 10
912.36559999999997
 20
-1467.409548254876
 30
0.0
 70
    40
  0
VERTEX
  5
7FC
  8
KERA0
 10
920.38890000000015
 20
-1474.2225482548761
 30
0.0
 70
    40
  0
VERTEX
  5
7FD
  8
KERA0
 10
928.86500000000024
 20
-1480.7485482548759
 30
0.0
 70
    40
  0
VERTEX
  5
7FE
  8
KERA0
 10
938.33390000000009
 20
-1487.341548254876
 30
0.0
 70
    40
  0
VERTEX
  5
7FF
  8
KERA0
 10
948.2419000000001
 20
-1493.5585482548761
 30
0.0
 70
    40
  0
VERTEX
  5
800
  8
KERA0
 10
958.54700000000003
 20
-1499.377548254876
 30
0.0
 70
    40
  0
VERTEX
  5
801
  8
KERA0
 10
969.20299999999997
 20
-1504.7775482548759
 30
0.0
 70
    40
  0
VERTEX
  5
802
  8
KERA0
 10
980.16399999999999
 20
-1509.744548254876
 30
0.0
 70
    40
  0
VERTEX
  5
803
  8
KERA0
 10
991.38200000000006
 20
-1514.2665482548759
 30
0.0
 70
    40
  0
VERTEX
  5
804
  8
KERA0
 10
1002.806
 20
-1518.3345482548759
 30
0.0
 70
    40
  0
VERTEX
  5
805
  8
KERA0
 10
1014.389
 20
-1521.9445482548761
 30
0.0
 70
    40
  0
VERTEX
  5
806
  8
KERA0
 10
1026.0809999999999
 20
-1525.0965482548761
 30
0.0
 70
    40
  0
VERTEX
  5
807
  8
KERA0
 10
1037.835
 20
-1527.792548254876
 30
0.0
 70
    40
  0
VERTEX
  5
808
  8
KERA0
 10
1049.604
 20
-1530.0385482548761
 30
0.0
 70
    40
  0
VERTEX
  5
809
  8
KERA0
 10
1061.345
 20
-1531.8445482548759
 30
0.0
 70
    40
  0
VERTEX
  5
80A
  8
KERA0
 10
1073.018
 20
-1533.2225482548761
 30
0.0
 70
    40
  0
VERTEX
  5
80B
  8
KERA0
 10
1084.5820000000001
 20
-1534.185548254876
 30
0.0
 70
    40
  0
VERTEX
  5
80C
  8
KERA0
 10
1096.0039999999999
 20
-1534.7495482548759
 30
0.0
 70
    40
  0
VERTEX
  5
80D
  8
KERA0
 10
1107.25
 20
-1534.9335482548761
 30
0.0
 70
    40
  0
VERTEX
  5
80E
  8
KERA0
 10
1118.4960000000001
 20
-1534.7495482548759
 30
0.0
 70
    40
  0
VERTEX
  5
80F
  8
KERA0
 10
1129.9179999999999
 20
-1534.185548254876
 30
0.0
 70
    40
  0
VERTEX
  5
810
  8
KERA0
 10
1141.482
 20
-1533.2225482548761
 30
0.0
 70
    40
  0
VERTEX
  5
811
  8
KERA0
 10
1153.155
 20
-1531.8445482548759
 30
0.0
 70
    40
  0
VERTEX
  5
812
  8
KERA0
 10
1164.896
 20
-1530.0385482548761
 30
0.0
 70
    40
  0
VERTEX
  5
813
  8
KERA0
 10
1176.665
 20
-1527.792548254876
 30
0.0
 70
    40
  0
VERTEX
  5
814
  8
KERA0
 10
1188.4190000000001
 20
-1525.0965482548761
 30
0.0
 70
    40
  0
VERTEX
  5
815
  8
KERA0
 10
1200.1110000000001
 20
-1521.9445482548761
 30
0.0
 70
    40
  0
VERTEX
  5
816
  8
KERA0
 10
1211.694
 20
-1518.3345482548759
 30
0.0
 70
    40
  0
VERTEX
  5
817
  8
KERA0
 10
1223.1179999999999
 20
-1514.2665482548759
 30
0.0
 70
    40
  0
VERTEX
  5
818
  8
KERA0
 10
1234.336
 20
-1509.744548254876
 30
0.0
 70
    40
  0
VERTEX
  5
819
  8
KERA0
 10
1245.297
 20
-1504.7775482548759
 30
0.0
 70
    40
  0
VERTEX
  5
81A
  8
KERA0
 10
1255.953
 20
-1499.377548254876
 30
0.0
 70
    40
  0
VERTEX
  5
81B
  8
KERA0
 10
1266.258
 20
-1493.5585482548761
 30
0.0
 70
    40
  0
VERTEX
  5
81C
  8
KERA0
 10
1276.1659999999999
 20
-1487.341548254876
 30
0.0
 70
    40
  0
VERTEX
  5
81D
  8
KERA0
 10
1285.635
 20
-1480.7485482548759
 30
0.0
 70
    40
  0
VERTEX
  5
81E
  8
KERA0
 10
1294.1110000000001
 20
-1474.2225482548761
 30
0.0
 70
    40
  0
VERTEX
  5
81F
  8
KERA0
 10
1302.134
 20
-1467.409548254876
 30
0.0
 70
    40
  0
VERTEX
  5
820
  8
KERA0
 10
1309.6790000000001
 20
-1460.3355482548759
 30
0.0
 70
    40
  0
VERTEX
  5
821
  8
KERA0
 10
1316.722
 20
-1453.0275482548759
 30
0.0
 70
    40
  0
VERTEX
  5
822
  8
KERA0
 10
1323.2460000000001
 20
-1445.514548254876
 30
0.0
 70
    40
  0
VERTEX
  5
823
  8
KERA0
 10
1329.2349999999999
 20
-1437.8255482548759
 30
0.0
 70
    40
  0
VERTEX
  5
824
  8
KERA0
 10
1334.6800000000001
 20
-1429.9905482548761
 30
0.0
 70
    40
  0
VERTEX
  5
825
  8
KERA0
 10
1339.5730000000001
 20
-1422.0405482548761
 30
0.0
 70
    40
  0
VERTEX
  5
826
  8
KERA0
 10
1343.912
 20
-1414.0045482548751
 30
0.0
 70
    40
  0
VERTEX
  5
827
  8
KERA0
 10
1347.6990000000001
 20
-1405.9115482548759
 30
0.0
 70
    40
  0
VERTEX
  5
828
  8
KERA0
 10
1350.9369999999999
 20
-1397.791548254876
 30
0.0
 70
    40
  0
VERTEX
  5
829
  8
KERA0
 10
1353.636
 20
-1389.6705482548759
 30
0.0
 70
    40
  0
VERTEX
  5
82A
  8
KERA0
 10
1355.807
 20
-1381.5775482548761
 30
0.0
 70
    40
  0
VERTEX
  5
82B
  8
KERA0
 10
1357.463
 20
-1373.534548254876
 30
0.0
 70
    40
  0
VERTEX
  5
82C
  8
KERA0
 10
1358.6220000000001
 20
-1365.5655482548759
 30
0.0
 70
    40
  0
VERTEX
  5
82D
  8
KERA0
 10
1359.3030000000001
 20
-1357.6915482548759
 30
0.0
 70
    40
  0
VERTEX
  5
82E
  8
KERA0
 10
1359.5239999999999
 20
-1349.9335482548761
 30
0.0
 70
    40
  0
SEQEND
  5
82F
  8
KERA0
  0
LINE
  5
830
  8
KERA0
 10
1384.5239999999999
 20
-1349.9335482548761
 30
0.0
 11
1384.45
 21
-1345.3475482548761
 31
0.0
  0
LINE
  5
831
  8
KERA0
 10
1384.45
 20
-1345.3475482548761
 30
0.0
 11
1384.223
 21
-1340.7285482548759
 31
0.0
  0
LINE
  5
832
  8
KERA0
 10
1384.223
 20
-1340.7285482548759
 30
0.0
 11
1383.8389999999999
 21
-1336.079548254876
 31
0.0
  0
LINE
  5
833
  8
KERA0
 10
1383.8389999999999
 20
-1336.079548254876
 30
0.0
 11
1383.296
 21
-1331.4035482548759
 31
0.0
  0
LINE
  5
834
  8
KERA0
 10
1383.296
 20
-1331.4035482548759
 30
0.0
 11
1382.317
 21
-1325.1325482548759
 31
0.0
  0
LINE
  5
835
  8
KERA0
 10
1382.317
 20
-1325.1325482548759
 30
0.0
 11
1381.039
 21
-1318.829548254876
 31
0.0
  0
LINE
  5
836
  8
KERA0
 10
1381.039
 20
-1318.829548254876
 30
0.0
 11
1379.454
 21
-1312.503548254876
 31
0.0
  0
LINE
  5
837
  8
KERA0
 10
1379.454
 20
-1312.503548254876
 30
0.0
 11
1377.5650000000001
 21
-1306.1705482548759
 31
0.0
  0
LINE
  5
838
  8
KERA0
 10
1377.5650000000001
 20
-1306.1705482548759
 30
0.0
 11
1375.3710000000001
 21
-1299.8475482548761
 31
0.0
  0
LINE
  5
839
  8
KERA0
 10
1375.3710000000001
 20
-1299.8475482548761
 30
0.0
 11
1372.8689999999999
 21
-1293.5465482548759
 31
0.0
  0
LINE
  5
83A
  8
KERA0
 10
1372.8689999999999
 20
-1293.5465482548759
 30
0.0
 11
1370.0550000000001
 21
-1287.2765482548759
 31
0.0
  0
LINE
  5
83B
  8
KERA0
 10
1370.0550000000001
 20
-1287.2765482548759
 30
0.0
 11
1366.925
 21
-1281.051548254876
 31
0.0
  0
LINE
  5
83C
  8
KERA0
 10
1366.925
 20
-1281.051548254876
 30
0.0
 11
1363.4780000000001
 21
-1274.881548254876
 31
0.0
  0
LINE
  5
83D
  8
KERA0
 10
1363.4780000000001
 20
-1274.881548254876
 30
0.0
 11
1359.722
 21
-1268.7785482548759
 31
0.0
  0
LINE
  5
83E
  8
KERA0
 10
1359.722
 20
-1268.7785482548759
 30
0.0
 11
1355.6669999999999
 21
-1262.752548254876
 31
0.0
  0
LINE
  5
83F
  8
KERA0
 10
1355.6669999999999
 20
-1262.752548254876
 30
0.0
 11
1351.3140000000001
 21
-1256.8164482548759
 31
0.0
  0
LINE
  5
840
  8
KERA0
 10
1351.3140000000001
 20
-1256.8164482548759
 30
0.0
 11
1346.6669999999999
 21
-1250.981848254876
 31
0.0
  0
LINE
  5
841
  8
KERA0
 10
1346.6669999999999
 20
-1250.981848254876
 30
0.0
 11
1341.729
 21
-1245.2606482548761
 31
0.0
  0
LINE
  5
842
  8
KERA0
 10
1341.729
 20
-1245.2606482548761
 30
0.0
 11
1336.5050000000001
 21
-1239.6643482548759
 31
0.0
  0
LINE
  5
843
  8
KERA0
 10
1336.5050000000001
 20
-1239.6643482548759
 30
0.0
 11
1331.0070000000001
 21
-1234.1981482548761
 31
0.0
  0
LINE
  5
844
  8
KERA0
 10
1331.0070000000001
 20
-1234.1981482548761
 30
0.0
 11
1325.2460000000001
 21
-1228.867048254876
 31
0.0
  0
LINE
  5
845
  8
KERA0
 10
1325.2460000000001
 20
-1228.867048254876
 30
0.0
 11
1319.231
 21
-1223.6814482548759
 31
0.0
  0
LINE
  5
846
  8
KERA0
 10
1319.231
 20
-1223.6814482548759
 30
0.0
 11
1311.692
 21
-1217.6652482548759
 31
0.0
  0
LINE
  5
847
  8
KERA0
 10
1311.692
 20
-1217.6652482548759
 30
0.0
 11
1303.817
 21
-1211.8899482548759
 31
0.0
  0
LINE
  5
848
  8
KERA0
 10
1303.817
 20
-1211.8899482548759
 30
0.0
 11
1295.6279999999999
 21
-1206.368648254876
 31
0.0
  0
LINE
  5
849
  8
KERA0
 10
1295.6279999999999
 20
-1206.368648254876
 30
0.0
 11
1287.145
 21
-1201.1011482548761
 31
0.0
  0
LINE
  5
84A
  8
KERA0
 10
1287.145
 20
-1201.1011482548761
 30
0.0
 11
1278.394
 21
-1196.097848254876
 31
0.0
  0
LINE
  5
84B
  8
KERA0
 10
1278.394
 20
-1196.097848254876
 30
0.0
 11
1269.396
 21
-1191.370348254876
 31
0.0
  0
LINE
  5
84C
  8
KERA0
 10
1269.396
 20
-1191.370348254876
 30
0.0
 11
1260.1769999999999
 21
-1186.928548254876
 31
0.0
  0
LINE
  5
84D
  8
KERA0
 10
1260.1769999999999
 20
-1186.928548254876
 30
0.0
 11
1250.7619999999999
 21
-1182.779148254876
 31
0.0
  0
LINE
  5
84E
  8
KERA0
 10
1250.7619999999999
 20
-1182.779148254876
 30
0.0
 11
1241.173
 21
-1178.9187482548759
 31
0.0
  0
LINE
  5
84F
  8
KERA0
 10
1241.173
 20
-1178.9187482548759
 30
0.0
 11
1231.4369999999999
 21
-1175.3509482548759
 31
0.0
  0
LINE
  5
850
  8
KERA0
 10
1231.4369999999999
 20
-1175.3509482548759
 30
0.0
 11
1221.5799999999999
 21
-1172.0797482548751
 31
0.0
  0
LINE
  5
851
  8
KERA0
 10
1221.5799999999999
 20
-1172.0797482548751
 30
0.0
 11
1211.6279999999999
 21
-1169.1072082548751
 31
0.0
  0
LINE
  5
852
  8
KERA0
 10
1211.6279999999999
 20
-1169.1072082548751
 30
0.0
 11
1201.6089999999999
 21
-1166.433128254876
 31
0.0
  0
LINE
  5
853
  8
KERA0
 10
1201.6089999999999
 20
-1166.433128254876
 30
0.0
 11
1191.5409999999999
 21
-1164.0512132548761
 31
0.0
  0
LINE
  5
854
  8
KERA0
 10
1191.5409999999999
 20
-1164.0512132548761
 30
0.0
 11
1181.45
 21
-1161.958528254876
 31
0.0
  0
LINE
  5
855
  8
KERA0
 10
1181.45
 20
-1161.958528254876
 30
0.0
 11
1173.04
 21
-1160.4332282548751
 31
0.0
  0
LINE
  5
856
  8
KERA0
 10
1173.04
 20
-1160.4332282548751
 30
0.0
 11
1164.646
 21
-1159.103958254876
 31
0.0
  0
LINE
  5
857
  8
KERA0
 10
1164.646
 20
-1159.103958254876
 30
0.0
 11
1156.279
 21
-1157.967628254876
 31
0.0
  0
LINE
  5
858
  8
KERA0
 10
1156.279
 20
-1157.967628254876
 30
0.0
 11
1156.019
 21
-1157.935308254876
 31
0.0
  0
LINE
  5
859
  8
KERA6
 10
985.82720810611193
 20
-824.72399999999993
 30
0.0
 11
1025.6872081061119
 21
-784.86800000000005
 31
0.0
  0
LINE
  5
85A
  8
KERA6
 10
985.82720810611193
 20
-824.44100000000003
 30
0.0
 11
1025.397208106112
 21
-784.86800000000005
 31
0.0
  0
LINE
  5
85B
  8
KERA6
 10
985.82720810611193
 20
-824.15800000000002
 30
0.0
 11
1025.117208106112
 21
-784.86800000000005
 31
0.0
  0
LINE
  5
85C
  8
KERA6
 10
985.82720810611193
 20
-823.87499999999989
 30
0.0
 11
1024.837208106112
 21
-784.86800000000005
 31
0.0
  0
LINE
  5
85D
  8
KERA6
 10
985.82720810611193
 20
-823.59300000000007
 30
0.0
 11
1024.5572081061121
 21
-784.86800000000005
 31
0.0
  0
LINE
  5
85E
  8
KERA6
 10
985.82720810611193
 20
-823.30999999999995
 30
0.0
 11
1024.2672081061121
 21
-784.86800000000005
 31
0.0
  0
LINE
  5
85F
  8
KERA6
 10
985.82720810611193
 20
-823.02699999999993
 30
0.0
 11
1023.987208106112
 21
-784.86800000000005
 31
0.0
  0
LINE
  5
860
  8
KERA6
 10
985.82720810611193
 20
-822.74399999999991
 30
0.0
 11
1023.707208106112
 21
-784.86800000000005
 31
0.0
  0
LINE
  5
861
  8
KERA6
 10
985.82720810611193
 20
-822.46100000000001
 30
0.0
 11
1023.417208106112
 21
-784.86800000000005
 31
0.0
  0
LINE
  5
862
  8
KERA6
 10
985.82720810611193
 20
-822.178
 30
0.0
 11
1023.137208106112
 21
-784.86800000000005
 31
0.0
  0
LINE
  5
863
  8
KERA6
 10
985.82720810611193
 20
-821.89499999999987
 30
0.0
 11
1022.857208106112
 21
-784.86800000000005
 31
0.0
  0
LINE
  5
864
  8
KERA6
 10
985.82720810611193
 20
-821.61300000000006
 30
0.0
 11
1022.577208106112
 21
-784.86800000000005
 31
0.0
  0
LINE
  5
865
  8
KERA6
 10
985.82720810611193
 20
-821.33000000000004
 30
0.0
 11
1022.287208106112
 21
-784.86800000000005
 31
0.0
  0
LINE
  5
866
  8
KERA6
 10
985.82720810611193
 20
-821.04700000000003
 30
0.0
 11
1022.007208106112
 21
-784.86800000000005
 31
0.0
  0
LINE
  5
867
  8
KERA6
 10
985.82720810611193
 20
-820.7639999999999
 30
0.0
 11
1021.727208106112
 21
-784.86800000000005
 31
0.0
  0
LINE
  5
868
  8
KERA6
 10
985.82720810611193
 20
-820.48100000000011
 30
0.0
 11
1021.4372081061121
 21
-784.86800000000005
 31
0.0
  0
LINE
  5
869
  8
KERA6
 10
985.82720810611193
 20
-820.19799999999998
 30
0.0
 11
1021.157208106112
 21
-784.86800000000005
 31
0.0
  0
LINE
  5
86A
  8
KERA6
 10
985.82720810611193
 20
-819.91600000000005
 30
0.0
 11
1020.877208106112
 21
-784.86800000000005
 31
0.0
  0
LINE
  5
86B
  8
KERA6
 10
985.82720810611193
 20
-819.63299999999992
 30
0.0
 11
1020.597208106112
 21
-784.86800000000005
 31
0.0
  0
LINE
  5
86C
  8
KERA6
 10
985.82720810611193
 20
-825.0
 30
0.0
 11
985.82720810611193
 21
-784.86800000000005
 31
0.0
  0
LINE
  5
86D
  8
KERA6
 10
985.82720810611193
 20
-784.86800000000005
 30
0.0
 11
945.69720810611193
 21
-784.86800000000005
 31
0.0
  0
LINE
  5
86E
  8
KERA6
 10
945.69720810611193
 20
-784.86800000000005
 30
0.0
 11
985.82720810611193
 21
-825.0
 31
0.0
  0
LINE
  5
86F
  8
KERA6
 10
985.82720810611193
 20
-825.0
 30
0.0
 11
985.82720810611193
 21
-784.86800000000005
 31
0.0
  0
LINE
  5
870
  8
KERA6
 10
985.82720810611193
 20
-784.86800000000005
 30
0.0
 11
1025.9572081061119
 21
-784.86800000000005
 31
0.0
  0
LINE
  5
871
  8
KERA6
 10
1025.9572081061119
 20
-784.86800000000005
 30
0.0
 11
985.82720810611193
 21
-825.0
 31
0.0
  0
LINE
  5
872
  8
KERA6
 10
985.82720810611193
 20
-819.35000000000002
 30
0.0
 11
1020.3072081061119
 21
-784.86800000000005
 31
0.0
  0
LINE
  5
873
  8
KERA6
 10
985.82720810611193
 20
-819.06700000000001
 30
0.0
 11
1020.027208106112
 21
-784.86800000000005
 31
0.0
  0
LINE
  5
874
  8
KERA6
 10
985.82720810611193
 20
-818.78399999999988
 30
0.0
 11
1019.747208106112
 21
-784.86800000000005
 31
0.0
  0
LINE
  5
875
  8
KERA6
 10
985.82720810611193
 20
-818.50100000000009
 30
0.0
 11
1019.457208106112
 21
-784.86800000000005
 31
0.0
  0
LINE
  5
876
  8
KERA6
 10
985.82720810611193
 20
-802.66199999999992
 30
0.0
 11
1003.627208106112
 21
-784.86800000000005
 31
0.0
  0
LINE
  5
877
  8
KERA6
 10
985.82720810611193
 20
-800.96500000000003
 30
0.0
 11
1001.9272081061119
 21
-784.86800000000005
 31
0.0
  0
LINE
  5
878
  8
KERA6
 10
985.82720810611193
 20
-797.85399999999993
 30
0.0
 11
998.81720810611205
 21
-784.86800000000005
 31
0.0
  0
LINE
  5
879
  8
KERA6
 10
985.82720810611193
 20
-802.94500000000005
 30
0.0
 11
1003.907208106112
 21
-784.86800000000005
 31
0.0
  0
LINE
  5
87A
  8
KERA6
 10
985.82720810611193
 20
-799.83399999999995
 30
0.0
 11
1000.797208106112
 21
-784.86800000000005
 31
0.0
  0
LINE
  5
87B
  8
KERA6
 10
985.82720810611193
 20
-800.68200000000013
 30
0.0
 11
1001.647208106112
 21
-784.86800000000005
 31
0.0
  0
LINE
  5
87C
  8
KERA6
 10
985.82720810611193
 20
-799.26800000000003
 30
0.0
 11
1000.227208106112
 21
-784.86800000000005
 31
0.0
  0
LINE
  5
87D
  8
KERA6
 10
985.82720810611193
 20
-798.98500000000001
 30
0.0
 11
999.94720810611193
 21
-784.86800000000005
 31
0.0
  0
LINE
  5
87E
  8
KERA6
 10
985.82720810611193
 20
-798.702
 30
0.0
 11
999.66720810611184
 21
-784.86800000000005
 31
0.0
  0
LINE
  5
87F
  8
KERA6
 10
985.82720810611193
 20
-807.75300000000016
 30
0.0
 11
1008.717208106112
 21
-784.86800000000005
 31
0.0
  0
LINE
  5
880
  8
KERA6
 10
985.82720810611193
 20
-807.46999999999991
 30
0.0
 11
1008.4272081061119
 21
-784.86800000000005
 31
0.0
  0
LINE
  5
881
  8
KERA6
 10
985.82720810611193
 20
-807.18799999999999
 30
0.0
 11
1008.147208106112
 21
-784.86800000000005
 31
0.0
  0
LINE
  5
882
  8
KERA6
 10
985.82720810611193
 20
-806.90499999999997
 30
0.0
 11
1007.867208106112
 21
-784.86800000000005
 31
0.0
  0
LINE
  5
883
  8
KERA6
 10
985.82720810611193
 20
-806.62199999999984
 30
0.0
 11
1007.587208106112
 21
-784.86800000000005
 31
0.0
  0
LINE
  5
884
  8
KERA6
 10
985.82720810611193
 20
-806.33900000000006
 30
0.0
 11
1007.297208106112
 21
-784.86800000000005
 31
0.0
  0
LINE
  5
885
  8
KERA6
 10
985.82720810611193
 20
-806.05600000000004
 30
0.0
 11
1007.017208106112
 21
-784.86800000000005
 31
0.0
  0
LINE
  5
886
  8
KERA6
 10
985.82720810611193
 20
-800.11699999999996
 30
0.0
 11
1001.077208106112
 21
-784.86800000000005
 31
0.0
  0
LINE
  5
887
  8
KERA6
 10
985.82720810611193
 20
-805.4910000000001
 30
0.0
 11
1006.447208106112
 21
-784.86800000000005
 31
0.0
  0
LINE
  5
888
  8
KERA6
 10
985.82720810611193
 20
-799.55100000000004
 30
0.0
 11
1000.507208106112
 21
-784.86800000000005
 31
0.0
  0
LINE
  5
889
  8
KERA6
 10
985.82720810611193
 20
-804.92499999999984
 30
0.0
 11
1005.887208106112
 21
-784.86800000000005
 31
0.0
  0
LINE
  5
88A
  8
KERA6
 10
985.82720810611193
 20
-804.64199999999994
 30
0.0
 11
1005.607208106112
 21
-784.86800000000005
 31
0.0
  0
LINE
  5
88B
  8
KERA6
 10
985.82720810611193
 20
-804.35900000000004
 30
0.0
 11
1005.317208106112
 21
-784.86800000000005
 31
0.0
  0
LINE
  5
88C
  8
KERA6
 10
985.82720810611193
 20
-804.07600000000002
 30
0.0
 11
1005.037208106112
 21
-784.86800000000005
 31
0.0
  0
LINE
  5
88D
  8
KERA6
 10
985.82720810611193
 20
-803.79399999999998
 30
0.0
 11
1004.757208106112
 21
-784.86800000000005
 31
0.0
  0
LINE
  5
88E
  8
KERA6
 10
985.82720810611193
 20
-803.51100000000008
 30
0.0
 11
1004.467208106112
 21
-784.86800000000005
 31
0.0
  0
LINE
  5
88F
  8
KERA6
 10
985.82720810611193
 20
-798.41999999999985
 30
0.0
 11
999.37720810611199
 21
-784.86800000000005
 31
0.0
  0
LINE
  5
890
  8
KERA6
 10
985.82720810611193
 20
-798.13699999999994
 30
0.0
 11
999.09720810611191
 21
-784.86800000000005
 31
0.0
  0
LINE
  5
891
  8
KERA6
 10
985.82720810611193
 20
-805.77300000000014
 30
0.0
 11
1006.737208106112
 21
-784.86800000000005
 31
0.0
  0
LINE
  5
892
  8
KERA6
 10
985.82720810611193
 20
-797.57100000000003
 30
0.0
 11
998.52720810611197
 21
-784.86800000000005
 31
0.0
  0
LINE
  5
893
  8
KERA6
 10
985.82720810611193
 20
-805.20799999999997
 30
0.0
 11
1006.167208106112
 21
-784.86800000000005
 31
0.0
  0
LINE
  5
894
  8
KERA6
 10
985.82720810611193
 20
-797.005
 30
0.0
 11
997.96720810611214
 21
-784.86800000000005
 31
0.0
  0
LINE
  5
895
  8
KERA6
 10
985.82720810611193
 20
-796.72199999999998
 30
0.0
 11
997.68720810611183
 21
-784.86800000000005
 31
0.0
  0
LINE
  5
896
  8
KERA6
 10
985.82720810611193
 20
-796.44000000000005
 30
0.0
 11
997.39720810611198
 21
-784.86800000000005
 31
0.0
  0
LINE
  5
897
  8
KERA6
 10
985.82720810611193
 20
-796.15699999999993
 30
0.0
 11
997.11720810611189
 21
-784.86800000000005
 31
0.0
  0
LINE
  5
898
  8
KERA6
 10
985.82720810611193
 20
-795.87399999999991
 30
0.0
 11
996.83720810611203
 21
-784.86800000000005
 31
0.0
  0
LINE
  5
899
  8
KERA6
 10
985.82720810611193
 20
-795.59100000000001
 30
0.0
 11
996.54720810611195
 21
-784.86800000000005
 31
0.0
  0
LINE
  5
89A
  8
KERA6
 10
985.82720810611193
 20
-795.30799999999988
 30
0.0
 11
996.26720810611209
 21
-784.86800000000005
 31
0.0
  0
LINE
  5
89B
  8
KERA6
 10
985.82720810611193
 20
-795.02499999999986
 30
0.0
 11
995.98720810611212
 21
-784.86800000000005
 31
0.0
  0
LINE
  5
89C
  8
KERA6
 10
985.82720810611193
 20
-794.74300000000005
 30
0.0
 11
995.70720810611215
 21
-784.86800000000005
 31
0.0
  0
LINE
  5
89D
  8
KERA6
 10
985.82720810611193
 20
-794.46000000000004
 30
0.0
 11
995.41720810611196
 21
-784.86800000000005
 31
0.0
  0
LINE
  5
89E
  8
KERA6
 10
985.82720810611193
 20
-794.17699999999991
 30
0.0
 11
995.13720810611187
 21
-784.86800000000005
 31
0.0
  0
LINE
  5
89F
  8
KERA6
 10
985.82720810611193
 20
-800.39899999999977
 30
0.0
 11
1001.357208106112
 21
-784.86800000000005
 31
0.0
  0
LINE
  5
8A0
  8
KERA6
 10
985.82720810611193
 20
-808.88499999999999
 30
0.0
 11
1009.847208106112
 21
-784.86800000000005
 31
0.0
  0
LINE
  5
8A1
  8
KERA6
 10
985.82720810611193
 20
-809.16800000000001
 30
0.0
 11
1010.127208106112
 21
-784.86800000000005
 31
0.0
  0
LINE
  5
8A2
  8
KERA6
 10
985.82720810611193
 20
-809.45000000000005
 30
0.0
 11
1010.407208106112
 21
-784.86800000000005
 31
0.0
  0
LINE
  5
8A3
  8
KERA6
 10
985.82720810611193
 20
-809.73300000000006
 30
0.0
 11
1010.697208106112
 21
-784.86800000000005
 31
0.0
  0
LINE
  5
8A4
  8
KERA6
 10
985.82720810611193
 20
-810.01599999999996
 30
0.0
 11
1010.977208106112
 21
-784.86800000000005
 31
0.0
  0
LINE
  5
8A5
  8
KERA6
 10
985.82720810611193
 20
-810.29899999999998
 30
0.0
 11
1011.257208106112
 21
-784.86800000000005
 31
0.0
  0
LINE
  5
8A6
  8
KERA6
 10
985.82720810611193
 20
-810.86500000000001
 30
0.0
 11
1011.827208106112
 21
-784.86800000000005
 31
0.0
  0
LINE
  5
8A7
  8
KERA6
 10
985.82720810611193
 20
-810.58199999999988
 30
0.0
 11
1011.547208106112
 21
-784.86800000000005
 31
0.0
  0
LINE
  5
8A8
  8
KERA6
 10
985.82720810611193
 20
-811.42999999999995
 30
0.0
 11
1012.387208106112
 21
-784.86800000000005
 31
0.0
  0
LINE
  5
8A9
  8
KERA6
 10
985.82720810611193
 20
-811.71300000000008
 30
0.0
 11
1012.6772081061119
 21
-784.86800000000005
 31
0.0
  0
LINE
  5
8AA
  8
KERA6
 10
985.82720810611193
 20
-811.99599999999998
 30
0.0
 11
1012.957208106112
 21
-784.86800000000005
 31
0.0
  0
LINE
  5
8AB
  8
KERA6
 10
985.82720810611193
 20
-811.14699999999982
 30
0.0
 11
1012.107208106112
 21
-784.86800000000005
 31
0.0
  0
LINE
  5
8AC
  8
KERA6
 10
985.82720810611193
 20
-797.2879999999999
 30
0.0
 11
998.24720810611211
 21
-784.86800000000005
 31
0.0
  0
LINE
  5
8AD
  8
KERA6
 10
985.82720810611193
 20
-801.24800000000005
 30
0.0
 11
1002.207208106112
 21
-784.86800000000005
 31
0.0
  0
LINE
  5
8AE
  8
KERA6
 10
985.82720810611193
 20
-808.60199999999986
 30
0.0
 11
1009.567208106112
 21
-784.86800000000005
 31
0.0
  0
LINE
  5
8AF
  8
KERA6
 10
985.82720810611193
 20
-808.03599999999994
 30
0.0
 11
1008.997208106112
 21
-784.86800000000005
 31
0.0
  0
LINE
  5
8B0
  8
KERA6
 10
985.82720810611193
 20
-808.31899999999996
 30
0.0
 11
1009.277208106112
 21
-784.86800000000005
 31
0.0
  0
LINE
  5
8B1
  8
KERA6
 10
985.82720810611193
 20
-818.21799999999996
 30
0.0
 11
1019.1772081061119
 21
-784.86800000000005
 31
0.0
  0
LINE
  5
8B2
  8
KERA6
 10
985.82720810611193
 20
-817.93600000000004
 30
0.0
 11
1018.897208106112
 21
-784.86800000000005
 31
0.0
  0
LINE
  5
8B3
  8
KERA6
 10
985.82720810611193
 20
-817.65299999999991
 30
0.0
 11
1018.617208106112
 21
-784.86800000000005
 31
0.0
  0
LINE
  5
8B4
  8
KERA6
 10
985.82720810611193
 20
-817.37
 30
0.0
 11
1018.327208106112
 21
-784.86800000000005
 31
0.0
  0
LINE
  5
8B5
  8
KERA6
 10
985.82720810611193
 20
-817.08699999999999
 30
0.0
 11
1018.047208106112
 21
-784.86800000000005
 31
0.0
  0
LINE
  5
8B6
  8
KERA6
 10
985.82720810611193
 20
-816.80399999999986
 30
0.0
 11
1017.767208106112
 21
-784.86800000000005
 31
0.0
  0
LINE
  5
8B7
  8
KERA6
 10
985.82720810611193
 20
-816.52099999999996
 30
0.0
 11
1017.477208106112
 21
-784.86800000000005
 31
0.0
  0
LINE
  5
8B8
  8
KERA6
 10
985.82720810611193
 20
-816.23899999999981
 30
0.0
 11
1017.197208106112
 21
-784.86800000000005
 31
0.0
  0
LINE
  5
8B9
  8
KERA6
 10
985.82720810611193
 20
-815.95600000000002
 30
0.0
 11
1016.917208106112
 21
-784.86800000000005
 31
0.0
  0
LINE
  5
8BA
  8
KERA6
 10
985.82720810611193
 20
-815.67299999999989
 30
0.0
 11
1016.637208106112
 21
-784.86800000000005
 31
0.0
  0
LINE
  5
8BB
  8
KERA6
 10
985.82720810611193
 20
-815.38999999999999
 30
0.0
 11
1016.347208106112
 21
-784.86800000000005
 31
0.0
  0
LINE
  5
8BC
  8
KERA6
 10
985.82720810611193
 20
-815.10699999999997
 30
0.0
 11
1016.067208106112
 21
-784.86800000000005
 31
0.0
  0
LINE
  5
8BD
  8
KERA6
 10
985.82720810611193
 20
-814.82399999999996
 30
0.0
 11
1015.787208106112
 21
-784.86800000000005
 31
0.0
  0
LINE
  5
8BE
  8
KERA6
 10
985.82720810611193
 20
-814.54199999999992
 30
0.0
 11
1015.497208106112
 21
-784.86800000000005
 31
0.0
  0
LINE
  5
8BF
  8
KERA6
 10
985.82720810611193
 20
-814.25899999999979
 30
0.0
 11
1015.217208106112
 21
-784.86800000000005
 31
0.0
  0
LINE
  5
8C0
  8
KERA6
 10
985.82720810611193
 20
-813.976
 30
0.0
 11
1014.9372081061121
 21
-784.86800000000005
 31
0.0
  0
LINE
  5
8C1
  8
KERA6
 10
985.82720810611193
 20
-813.69299999999987
 30
0.0
 11
1014.657208106112
 21
-784.86800000000005
 31
0.0
  0
LINE
  5
8C2
  8
KERA6
 10
985.82720810611193
 20
-813.40999999999997
 30
0.0
 11
1014.367208106112
 21
-784.86800000000005
 31
0.0
  0
LINE
  5
8C3
  8
KERA6
 10
985.82720810611193
 20
-813.12699999999984
 30
0.0
 11
1014.087208106112
 21
-784.86800000000005
 31
0.0
  0
LINE
  5
8C4
  8
KERA6
 10
985.82720810611193
 20
-812.84399999999994
 30
0.0
 11
1013.8072081061119
 21
-784.86800000000005
 31
0.0
  0
LINE
  5
8C5
  8
KERA6
 10
985.82720810611193
 20
-812.5619999999999
 30
0.0
 11
1013.527208106112
 21
-784.86800000000005
 31
0.0
  0
LINE
  5
8C6
  8
KERA6
 10
985.82720810611193
 20
-812.279
 30
0.0
 11
1013.237208106112
 21
-784.86800000000005
 31
0.0
  0
LINE
  5
8C7
  8
KERA6
 10
985.82720810611193
 20
-803.22799999999995
 30
0.0
 11
1004.1872081061121
 21
-784.86800000000005
 31
0.0
  0
LINE
  5
8C8
  8
KERA6
 10
985.82720810611193
 20
-802.37899999999991
 30
0.0
 11
1003.337208106112
 21
-784.86800000000005
 31
0.0
  0
LINE
  5
8C9
  8
KERA6
 10
985.82720810611193
 20
-802.096
 30
0.0
 11
1003.0572081061119
 21
-784.86800000000005
 31
0.0
  0
LINE
  5
8CA
  8
KERA6
 10
985.82720810611193
 20
-801.81399999999985
 30
0.0
 11
1002.777208106112
 21
-784.86800000000005
 31
0.0
  0
LINE
  5
8CB
  8
KERA6
 10
985.82720810611193
 20
-801.53100000000006
 30
0.0
 11
1002.487208106112
 21
-784.86800000000005
 31
0.0
  0
LINE
  5
8CC
  8
KERA6
 10
985.82720810611193
 20
-793.89399999999978
 30
0.0
 11
994.85720810611201
 21
-784.86800000000005
 31
0.0
  0
LINE
  5
8CD
  8
KERA6
 10
985.82720810611193
 20
-793.6110000000001
 30
0.0
 11
994.56720810611205
 21
-784.86800000000005
 31
0.0
  0
LINE
  5
8CE
  8
KERA6
 10
985.82720810611193
 20
-793.32799999999986
 30
0.0
 11
994.28720810611208
 21
-784.86800000000005
 31
0.0
  0
LINE
  5
8CF
  8
KERA6
 10
985.82720810611193
 20
-793.04499999999985
 30
0.0
 11
994.0072081061121
 21
-784.86800000000005
 31
0.0
  0
LINE
  5
8D0
  8
KERA6
 10
985.82720810611193
 20
-792.76300000000003
 30
0.0
 11
993.72720810611224
 21
-784.86800000000005
 31
0.0
  0
LINE
  5
8D1
  8
KERA6
 10
985.82720810611193
 20
-792.48000000000002
 30
0.0
 11
993.43720810611205
 21
-784.86800000000005
 31
0.0
  0
LINE
  5
8D2
  8
KERA6
 10
985.82720810611193
 20
-792.19699999999989
 30
0.0
 11
993.15720810611185
 21
-784.86800000000005
 31
0.0
  0
LINE
  5
8D3
  8
KERA6
 10
985.82720810611193
 20
-791.06600000000003
 30
0.0
 11
992.02720810611208
 21
-784.86800000000005
 31
0.0
  0
LINE
  5
8D4
  8
KERA6
 10
985.82720810611193
 20
-790.21699999999987
 30
0.0
 11
991.17720810611195
 21
-784.86800000000005
 31
0.0
  0
LINE
  5
8D5
  8
KERA6
 10
985.82720810611193
 20
-789.93399999999986
 30
0.0
 11
990.89720810611198
 21
-784.86800000000005
 31
0.0
  0
LINE
  5
8D6
  8
KERA6
 10
985.82720810611193
 20
-791.91399999999987
 30
0.0
 11
992.87720810611199
 21
-784.86800000000005
 31
0.0
  0
LINE
  5
8D7
  8
KERA6
 10
985.82720810611193
 20
-791.63100000000009
 30
0.0
 11
992.58720810611203
 21
-784.86800000000005
 31
0.0
  0
LINE
  5
8D8
  8
KERA6
 10
985.82720810611193
 20
-791.34799999999996
 30
0.0
 11
992.30720810611194
 21
-784.86800000000005
 31
0.0
  0
LINE
  5
8D9
  8
KERA6
 10
985.82720810611193
 20
-790.78300000000002
 30
0.0
 11
991.747208106112
 21
-784.86800000000005
 31
0.0
  0
LINE
  5
8DA
  8
KERA6
 10
985.82720810611193
 20
-790.5
 30
0.0
 11
991.45720810611215
 21
-784.86800000000005
 31
0.0
  0
LINE
  5
8DB
  8
KERA6
 10
985.82720810611193
 20
-789.65100000000007
 30
0.0
 11
990.60720810611201
 21
-784.86800000000005
 31
0.0
  0
LINE
  5
8DC
  8
KERA6
 10
985.82720810611193
 20
-789.36899999999991
 30
0.0
 11
990.32720810611193
 21
-784.86800000000005
 31
0.0
  0
LINE
  5
8DD
  8
KERA6
 10
985.82720810611193
 20
-789.0859999999999
 30
0.0
 11
990.04720810611207
 21
-784.86800000000005
 31
0.0
  0
LINE
  5
8DE
  8
KERA6
 10
985.82720810611193
 20
-788.803
 30
0.0
 11
989.76720810611198
 21
-784.86800000000005
 31
0.0
  0
LINE
  5
8DF
  8
KERA6
 10
985.82720810611193
 20
-788.51999999999998
 30
0.0
 11
989.47720810611213
 21
-784.86800000000005
 31
0.0
  0
LINE
  5
8E0
  8
KERA6
 10
985.82720810611193
 20
-788.23699999999985
 30
0.0
 11
989.19720810611193
 21
-784.86800000000005
 31
0.0
  0
LINE
  5
8E1
  8
KERA6
 10
985.82720810611193
 20
-787.95399999999995
 30
0.0
 11
988.91720810611184
 21
-784.86800000000005
 31
0.0
  0
LINE
  5
8E2
  8
KERA6
 10
985.82720810611193
 20
-787.67100000000005
 30
0.0
 11
988.62720810611199
 21
-784.86800000000005
 31
0.0
  0
LINE
  5
8E3
  8
KERA6
 10
985.82720810611193
 20
-787.3889999999999
 30
0.0
 11
988.34720810611191
 21
-784.86800000000005
 31
0.0
  0
LINE
  5
8E4
  8
KERA6
 10
985.82720810611193
 20
-787.10599999999999
 30
0.0
 11
988.06720810611205
 21
-784.86800000000005
 31
0.0
  0
LINE
  5
8E5
  8
KERA6
 10
985.82720810611193
 20
-786.82299999999987
 30
0.0
 11
987.78720810611196
 21
-784.86800000000005
 31
0.0
  0
LINE
  5
8E6
  8
KERA6
 10
985.82720810611193
 20
-786.53999999999996
 30
0.0
 11
987.49720810611211
 21
-784.86800000000005
 31
0.0
  0
LINE
  5
8E7
  8
KERA6
 10
985.82720810611193
 20
-786.25699999999995
 30
0.0
 11
987.21720810611214
 21
-784.86800000000005
 31
0.0
  0
LINE
  5
8E8
  8
KERA6
 10
985.82720810611193
 20
-785.97399999999993
 30
0.0
 11
986.93720810611183
 21
-784.86800000000005
 31
0.0
  0
LINE
  5
8E9
  8
KERA6
 10
985.82720810611193
 20
-785.69200000000001
 30
0.0
 11
986.65720810611197
 21
-784.86800000000005
 31
0.0
  0
LINE
  5
8EA
  8
KERA6
 10
985.82720810611193
 20
-785.40899999999999
 30
0.0
 11
986.36720810611189
 21
-784.86800000000005
 31
0.0
  0
LINE
  5
8EB
  8
KERA6
 10
985.82720810611193
 20
-785.12599999999998
 30
0.0
 11
986.08720810611214
 21
-784.86800000000005
 31
0.0
  0
ARC
  5
8ED
  8
KERA0
 10
1395.49
 20
-35.934600000000003
 30
0.0
 40
28.068300000000001
 50
117.35299999999999
 51
157.17699999999999
  0
ARC
  5
8EE
  8
KERA0
 10
-1194.26
 20
48.09429999999999
 30
0.0
 40
190.0
210
0.0
220
0.0
230
-1.0
 50
202.64099999999999
 51
259.74700000000001
  0
POLYLINE
  5
8EF
  8
KERA0
 66
     1
 10
0.0
 20
0.0
 30
0.0
 70
    12
 75
     6
  0
VERTEX
  5
8F0
  8
KERA0
 10
1228.0699999999999
 20
-138.87200000000001
 30
0.0
 70
    40
  0
VERTEX
  5
8F1
  8
KERA0
 10
1217.9100000000001
 20
-140.58000000000001
 30
0.0
 70
    40
  0
VERTEX
  5
8F2
  8
KERA0
 10
1207.72
 20
-142.029
 30
0.0
 70
    40
  0
VERTEX
  5
8F3
  8
KERA0
 10
1197.51
 20
-143.22
 30
0.0
 70
    40
  0
VERTEX
  5
8F4
  8
KERA0
 10
1187.27
 20
-144.15199999999999
 30
0.0
 70
    40
  0
VERTEX
  5
8F5
  8
KERA0
 10
1177.02
 20
-144.82599999999999
 30
0.0
 70
    40
  0
VERTEX
  5
8F6
  8
KERA0
 10
1166.74
 20
-145.24100000000001
 30
0.0
 70
    40
  0
VERTEX
  5
8F7
  8
KERA0
 10
1156.4400000000001
 20
-145.398
 30
0.0
 70
    40
  0
VERTEX
  5
8F8
  8
KERA0
 10
1146.1199999999999
 20
-145.29599999999999
 30
0.0
 70
    40
  0
SEQEND
  5
8F9
  8
KERA0
  0
ARC
  5
8FA
  8
KERA0
 10
-819.01700000000005
 20
-35.934600000000003
 30
0.0
 40
28.068300000000001
210
0.0
220
0.0
230
-1.0
 50
117.35299999999999
 51
157.17699999999999
  0
ARC
  5
8FB
  8
KERA0
 10
1020.25
 20
48.09429999999999
 30
0.0
 40
190.0
 50
202.64099999999999
 51
259.74700000000001
  0
POLYLINE
  5
8FC
  8
KERA0
 66
     1
 10
0.0
 20
0.0
 30
0.0
 70
    12
 75
     6
  0
VERTEX
  5
8FD
  8
KERA0
 10
986.428
 20
-138.87200000000001
 30
0.0
 70
    40
  0
VERTEX
  5
8FE
  8
KERA0
 10
996.59500000000014
 20
-140.58000000000001
 30
0.0
 70
    40
  0
VERTEX
  5
8FF
  8
KERA0
 10
1006.78
 20
-142.029
 30
0.0
 70
    40
  0
VERTEX
  5
900
  8
KERA0
 10
1017.0
 20
-143.22
 30
0.0
 70
    40
  0
VERTEX
  5
901
  8
KERA0
 10
1027.23
 20
-144.15199999999999
 30
0.0
 70
    40
  0
VERTEX
  5
902
  8
KERA0
 10
1037.49
 20
-144.82599999999999
 30
0.0
 70
    40
  0
VERTEX
  5
903
  8
KERA0
 10
1047.76
 20
-145.24100000000001
 30
0.0
 70
    40
  0
VERTEX
  5
904
  8
KERA0
 10
1058.0599999999999
 20
-145.398
 30
0.0
 70
    40
  0
VERTEX
  5
905
  8
KERA0
 10
1068.3900000000001
 20
-145.29599999999999
 30
0.0
 70
    40
  0
SEQEND
  5
906
  8
KERA0
  0
LINE
  5
907
  8
KERA0
 10
1077.25
 20
-145.0
 30
0.0
 11
1081.8800000000001
 21
-177.42400000000001
 31
0.0
  0
ARC
  5
908
  8
KERA0
 10
1084.8499999999999
 20
-177.0
 30
0.0
 40
3.0
 50
188.12999999999991
 51
270.0
  0
LINE
  5
909
  8
KERA0
 10
1084.8499999999999
 20
-180.0
 30
0.0
 11
1107.25
 21
-180.0
 31
0.0
  0
LINE
  5
90A
  8
KERA0
 10
1137.25
 20
-145.0
 30
0.0
 11
1132.6199999999999
 21
-177.42400000000001
 31
0.0
  0
ARC
  5
90B
  8
KERA0
 10
-1129.6500000000001
 20
-177.0
 30
0.0
 40
3.0
210
0.0
220
0.0
230
-1.0
 50
188.12999999999991
 51
270.0
  0
LINE
  5
90C
  8
KERA0
 10
1129.6500000000001
 20
-180.0
 30
0.0
 11
1107.25
 21
-180.0
 31
0.0
  0
ARC
  5
910
  8
KERA1
 10
1099.618246412032
 20
217.94110257886911
 30
0.0
 40
352.35457967217582
 50
255.0335222607371
 51
271.24108353396741
  0
DIMENSION
  5
91F
  8
KERA4
  2
*D0
 10
1500.0
 20
-290.00000000000011
 30
0.0
 11
1500.0
 21
-579.22923532829009
 31
0.0
 70
   128
 13
1384.75
 23
-825.0
 33
0.0
 14
1158.9000000000001
 24
-290.0
 34
0.0
 50
90.0
1001
ACAD
1000
DSTYLE
1002
{
1070
    78
1070
     8
1070
   140
1040
50.0
1070
   172
1070
     1
1070
   272
1070
     0
1070
   147
1040
15.0
1070
    42
1040
20.0
1070
    44
1040
15.0
1070
    43
1040
15.0
1070
   271
1070
     0
1070
   141
1040
4.0
1070
    41
1040
50.0
1070
   273
1070
     8
1070
   274
1070
     4
1070
   143
1040
0.0394
1070
   171
1070
     4
1002
}
  0
DIMENSION
  5
92D
  8
KERA4
  2
*D1
 10
1600.0
 20
-180.0
 30
0.0
 11
1600.0
 21
-470.09039083061998
 31
0.0
 70
   128
 13
1384.75
 23
-825.0
 33
0.0
 14
1118.45
 24
-180.0
 34
0.0
 50
90.0
1001
ACAD
1000
DSTYLE
1002
{
1070
    78
1070
     8
1070
   140
1040
50.0
1070
   172
1070
     1
1070
   272
1070
     0
1070
   147
1040
15.0
1070
    42
1040
20.0
1070
    44
1040
15.0
1070
    43
1040
15.0
1070
   271
1070
     0
1070
   141
1040
4.0
1070
    41
1040
50.0
1070
   273
1070
     8
1070
   274
1070
     4
1070
   143
1040
0.0394
1070
   171
1070
     4
1002
}
  0
DIMENSION
  5
93B
  8
KERA4
  2
*D2
 10
1700.0
 20
24.999999999999961
 30
0.0
 11
1700.0
 21
-400.0
 31
0.0
 70
     0
 13
1384.75
 23
-825.0
 33
0.0
 14
1384.75
 24
25.0
 34
0.0
 50
90.0
1001
ACAD
1000
DSTYLE
1002
{
1070
    78
1070
     8
1070
   140
1040
50.0
1070
   172
1070
     1
1070
   272
1070
     0
1070
   147
1040
15.0
1070
    42
1040
20.0
1070
    44
1040
15.0
1070
    43
1040
15.0
1070
   271
1070
     0
1070
   141
1040
4.0
1070
    41
1040
50.0
1070
   273
1070
     8
1070
   274
1070
     4
1070
   143
1040
0.0394
1070
   171
1070
     4
1002
}
  0
DIMENSION
  5
95A
  8
KERA4
  2
*D3
 10
700.0
 20
25.000000000000028
 30
0.0
 11
700.0
 21
-54.66540908856998
 31
0.0
 70
     0
  1
155
 13
1107.25
 23
-134.33081817714029
 33
0.0
 14
829.75099999999998
 24
25.0
 34
0.0
 50
90.0
1001
ACAD
1000
DSTYLE
1002
{
1070
   287
1070
     1
1070
    41
1040
50.0
1070
    42
1040
20.0
1070
    43
1040
15.0
1070
    44
1040
15.0
1070
    78
1070
     8
1070
   140
1040
50.0
1070
   141
1040
4.0
1070
   143
1040
0.0394
1070
   147
1040
15.0
1070
   171
1070
     4
1070
   172
1070
     1
1070
   271
1070
     0
1070
   272
1070
     0
1070
   273
1070
     8
1070
   274
1070
     4
1070
   289
1070
     1
1002
}
  0
DIMENSION
  5
96A
  8
KERA4
  2
*D4
 10
1167.25
 20
-500.0
 30
0.0
 11
1107.25
 21
-500.0
 31
0.0
 70
     0
 13
1047.25
 23
-280.22199999999998
 33
0.0
 14
1167.25
 24
-278.78100000000001
 34
0.0
1001
ACAD
1000
DSTYLE
1002
{
1070
    78
1070
     8
1070
   140
1040
50.0
1070
   172
1070
     1
1070
   272
1070
     0
1070
   147
1040
15.0
1070
    42
1040
20.0
1070
    44
1040
15.0
1070
    43
1040
15.0
1070
   271
1070
     0
1070
   141
1040
4.0
1070
    41
1040
50.0
1070
   273
1070
     8
1070
   274
1070
     4
1070
   143
1040
0.0394
1070
   171
1070
     4
1002
}
  0
LINE
  5
987
  8
KERA4
 10
987.57999999999993
 20
-240.0
 30
0.0
 11
885.0
 21
-240.0
 31
0.0
  0
LINE
  5
988
  8
KERA4
 10
1039.46
 20
-290.0
 30
0.0
 11
885.0
 21
-290.0
 31
0.0
  0
LINE
  5
989
  8
KERA4
 10
900.0
 20
-190.0
 30
0.0
 11
900.0
 21
-140.0
 31
0.0
  0
LINE
  5
98A
  8
KERA4
 10
900.0
 20
-340.0
 30
0.0
 11
900.0
 21
-351.56162272101568
 31
0.0
  0
LINE
  5
98C
  8
KERA4
 10
900.0
 20
-240.0
 30
0.0
 11
900.0
 21
-290.0
 31
0.0
  0
SOLID
  5
98D
  8
KERA4
 10
891.66666666666663
 20
-190.0
 30
0.0
 11
908.33333333333326
 21
-190.0
 31
0.0
 12
900.0
 22
-240.0
 32
0.0
 13
900.0
 23
-240.0
 33
0.0
  0
SOLID
  5
98E
  8
KERA4
 10
891.66666666666663
 20
-340.0
 30
0.0
 11
908.33333333333326
 21
-340.0
 31
0.0
 12
900.0
 22
-290.0
 32
0.0
 13
900.0
 23
-290.0
 33
0.0
  0
INSERT
  5
98F
  8
KERA5
  2
*U14
 10
0.0
 20
0.0
 30
0.0
  0
POINT
  5
990
  8
DEFPOINTS
  6
BYBLOCK
 62
     0
 10
1007.58
 20
-240.0
 30
0.0
  0
POINT
  5
991
  8
DEFPOINTS
  6
BYBLOCK
 62
     0
 10
1059.46
 20
-290.0
 30
0.0
  0
POINT
  5
992
  8
DEFPOINTS
  6
BYBLOCK
 62
     0
 10
900.0
 20
-290.0
 30
0.0
  0
DIMENSION
  5
9B0
  8
KERA4
  2
*D5
 10
1491.527856943125
 20
-1279.9335482548761
 30
0.0
 11
1491.527856943125
 21
-1209.9335482548749
 31
0.0
 70
     0
 13
1107.25
 23
-1139.9335482548761
 33
0.0
 14
1157.126
 24
-1279.9335482548761
 34
0.0
 50
90.0
1001
ACAD
1000
DSTYLE
1002
{
1070
   287
1070
     1
1070
    41
1040
50.0
1070
    42
1040
20.0
1070
    43
1040
15.0
1070
    44
1040
15.0
1070
    78
1070
     8
1070
   140
1040
50.0
1070
   141
1040
4.0
1070
   143
1040
0.0394
1070
   147
1040
15.0
1070
   171
1070
     4
1070
   172
1070
     1
1070
   271
1070
     0
1070
   272
1070
     0
1070
   273
1070
     8
1070
   274
1070
     4
1070
   289
1070
     1
1002
}
  0
DIMENSION
  5
9BE
  8
KERA4
  2
*D6
 10
1591.527856943125
 20
-1559.7135482548761
 30
0.0
 11
1591.527856943125
 21
-1349.823548254876
 31
0.0
 70
     0
 13
1107.25
 23
-1139.9335482548761
 33
0.0
 14
1119.3299999999999
 24
-1559.7135482548761
 34
0.0
 50
90.0
1001
ACAD
1000
DSTYLE
1002
{
1070
    78
1070
     8
1070
   140
1040
50.0
1070
   172
1070
     1
1070
   272
1070
     0
1070
   147
1040
15.0
1070
    42
1040
20.0
1070
    44
1040
15.0
1070
    43
1040
15.0
1070
   271
1070
     0
1070
   141
1040
4.0
1070
    41
1040
50.0
1070
   273
1070
     8
1070
   274
1070
     4
1070
   143
1040
0.0394
1070
   171
1070
     4
1002
}
  0
DIMENSION
  5
9CC
  8
KERA4
  2
*D7
 10
854.97550200000001
 20
-1664.9335482548749
 30
0.0
 11
1107.1392510000001
 21
-1664.9335482548749
 31
0.0
 70
     0
  1
505
 13
1359.3030000000001
 23
-1342.804548254876
 33
0.0
 14
854.97550200000001
 24
-1349.9335482548761
 34
0.0
1001
ACAD
1000
DSTYLE
1002
{
1070
    78
1070
     8
1070
   140
1040
50.0
1070
   172
1070
     1
1070
   272
1070
     0
1070
   147
1040
15.0
1070
    42
1040
20.0
1070
    44
1040
15.0
1070
    43
1040
15.0
1070
   271
1070
     0
1070
   141
1040
4.0
1070
    41
1040
50.0
1070
   273
1070
     8
1070
   274
1070
     4
1070
   143
1040
0.0394
1070
   171
1070
     4
1002
}
  0
DIMENSION
  5
9DA
  8
KERA4
  2
*D8
 10
830.66070000000013
 20
-1764.9335482548761
 30
0.0
 11
1107.3458499999999
 21
-1764.9335482548761
 31
0.0
 70
     0
  1
555
 13
1384.0309999999999
 23
-1338.404048254876
 33
0.0
 14
830.66070000000013
 24
-1336.079548254876
 34
0.0
1001
ACAD
1000
DSTYLE
1002
{
1070
    78
1070
     8
1070
   140
1040
50.0
1070
   172
1070
     1
1070
   272
1070
     0
1070
   147
1040
15.0
1070
    42
1040
20.0
1070
    44
1040
15.0
1070
    43
1040
15.0
1070
   271
1070
     0
1070
   141
1040
4.0
1070
    41
1040
50.0
1070
   273
1070
     8
1070
   274
1070
     4
1070
   143
1040
0.0394
1070
   171
1070
     4
1002
}
  0
DIMENSION
  5
9E8
  8
KERA4
  2
*D9
 10
691.52785694312524
 20
-1534.7495482548759
 30
0.0
 11
691.52785694312536
 21
-1357.3896732548751
 31
0.0
 70
     0
  1
360
 13
1101.2484999999999
 23
-1180.0297982548759
 33
0.0
 14
1096.0039999999999
 24
-1534.7495482548759
 34
0.0
 50
90.0
1001
ACAD
1000
DSTYLE
1002
{
1070
    78
1070
     8
1070
   140
1040
50.0
1070
   172
1070
     1
1070
   272
1070
     0
1070
   147
1040
15.0
1070
    42
1040
20.0
1070
    44
1040
15.0
1070
    43
1040
15.0
1070
   271
1070
     0
1070
   141
1040
4.0
1070
    41
1040
50.0
1070
   273
1070
     8
1070
   274
1070
     4
1070
   143
1040
0.0394
1070
   171
1070
     4
1002
}
  0
INSERT
  5
A1D
  8
KERA5
  2
*U15
 10
0.0
 20
0.0
 30
0.0
  0
INSERT
  5
A9C
  8
KERA5
  2
EXV_STE
 10
838.86525169321339
 20
-894.51923537184655
 30
0.0
  0
INSERT
  5
A9D
  8
KERA5
  2
STERN
 10
1567.091364783347
 20
-539.81798803863228
 30
0.0
  0
ENDSEC
  0
EOF
