  0
SECTION
  2
HEADER
  9
$ACADVER
  1
AC1009
  9
$INSBASE
 10
0.0
 20
0.0
 30
0.0
  9
$EXTMIN
 10
-6487.4454800833046
 20
2251.5432044800818
 30
0.0
  9
$EXTMAX
 10
-2517.6042610833051
 20
5009.2191654800818
 30
0.0
  9
$LIMMIN
 10
-6522.6415129999996
 20
2153.2143040000001
  9
$LIMMAX
 10
-2322.641513
 20
5123.214304000001
  9
$ORTHOMODE
 70
     1
  9
$REGENMODE
 70
     1
  9
$FILLMODE
 70
     1
  9
$QTEXTMODE
 70
     0
  9
$MIRRTEXT
 70
     0
  9
$DRAGMODE
 70
     2
  9
$LTSCALE
 40
50.0
  9
$OSMODE
 70
    39
  9
$ATTMODE
 70
     1
  9
$TEXTSIZE
 40
0.0
  9
$TRACEWID
 40
0.05
  9
$TEXTSTYLE
  7
STANDARD
  9
$CLAYER
  8
LAYER01
  9
$CELTYPE
  6
CONTINUOUS
  9
$CECOLOR
 62
     7
  9
$DIMSCALE
 40
1.0
  9
$DIMASZ
 40
0.18
  9
$DIMEXO
 40
0.0625
  9
$DIMDLI
 40
0.38
  9
$DIMRND
 40
0.0
  9
$DIMDLE
 40
0.0
  9
$DIMEXE
 40
0.18
  9
$DIMTP
 40
0.0
  9
$DIMTM
 40
0.0
  9
$DIMTXT
 40
0.18
  9
$DIMCEN
 40
0.09
  9
$DIMTSZ
 40
0.0
  9
$DIMTOL
 70
     0
  9
$DIMLIM
 70
     0
  9
$DIMTIH
 70
     1
  9
$DIMTOH
 70
     1
  9
$DIMSE1
 70
     0
  9
$DIMSE2
 70
     0
  9
$DIMTAD
 70
     0
  9
$DIMZIN
 70
     0
  9
$DIMBLK
  1

  9
$DIMASO
 70
     1
  9
$DIMSHO
 70
     1
  9
$DIMPOST
  1

  9
$DIMAPOST
  1

  9
$DIMALT
 70
     0
  9
$DIMALTD
 70
     2
  9
$DIMALTF
 40
25.399999999999999
  9
$DIMLFAC
 40
1.0
  9
$DIMTOFL
 70
     0
  9
$DIMTVP
 40
0.0
  9
$DIMTIX
 70
     0
  9
$DIMSOXD
 70
     0
  9
$DIMSAH
 70
     0
  9
$DIMBLK1
  1

  9
$DIMBLK2
  1

  9
$DIMSTYLE
  2
STANDARD
  9
$DIMCLRD
 70
     0
  9
$DIMCLRE
 70
     0
  9
$DIMCLRT
 70
     0
  9
$DIMTFAC
 40
1.0
  9
$DIMGAP
 40
0.09
  9
$LUNITS
 70
     2
  9
$LUPREC
 70
     4
  9
$SKETCHINC
 40
0.1
  9
$FILLETRAD
 40
10.0
  9
$AUNITS
 70
     0
  9
$AUPREC
 70
     0
  9
$MENU
  1
acad
  9
$ELEVATION
 40
0.0
  9
$PELEVATION
 40
0.0
  9
$THICKNESS
 40
0.0
  9
$LIMCHECK
 70
     0
  9
$BLIPMODE
 70
     0
  9
$CHAMFERA
 40
0.0
  9
$CHAMFERB
 40
0.0
  9
$SKPOLY
 70
     0
  9
$TDCREATE
 40
2305814.0418231939
  9
$TDUPDATE
 40
2457394.3623452778
  9
$TDINDWG
 40
0.0508537616
  9
$TDUSRTIMER
 40
0.0508537384
  9
$USRTIMER
 70
     1
  9
$ANGBASE
 50
0.0
  9
$ANGDIR
 70
     0
  9
$PDMODE
 70
     0
  9
$PDSIZE
 40
0.0
  9
$PLINEWID
 40
0.0
  9
$COORDS
 70
     1
  9
$SPLFRAME
 70
     0
  9
$SPLINETYPE
 70
     6
  9
$SPLINESEGS
 70
    10
  9
$ATTDIA
 70
     0
  9
$ATTREQ
 70
     1
  9
$HANDLING
 70
     1
  9
$HANDSEED
  5
12FD
  9
$SURFTAB1
 70
     6
  9
$SURFTAB2
 70
     6
  9
$SURFTYPE
 70
     6
  9
$SURFU
 70
     6
  9
$SURFV
 70
     6
  9
$UCSNAME
  2

  9
$UCSORG
 10
0.0
 20
0.0
 30
0.0
  9
$UCSXDIR
 10
1.0
 20
0.0
 30
0.0
  9
$UCSYDIR
 10
0.0
 20
1.0
 30
0.0
  9
$PUCSNAME
  2

  9
$PUCSORG
 10
0.0
 20
0.0
 30
0.0
  9
$PUCSXDIR
 10
1.0
 20
0.0
 30
0.0
  9
$PUCSYDIR
 10
0.0
 20
1.0
 30
0.0
  9
$USERI1
 70
     0
  9
$USERI2
 70
     0
  9
$USERI3
 70
     0
  9
$USERI4
 70
     0
  9
$USERI5
 70
     0
  9
$USERR1
 40
0.0
  9
$USERR2
 40
0.0
  9
$USERR3
 40
0.0
  9
$USERR4
 40
0.0
  9
$USERR5
 40
0.0
  9
$WORLDVIEW
 70
     1
  9
$SHADEDGE
 70
     3
  9
$SHADEDIF
 70
    70
  9
$TILEMODE
 70
     1
  9
$MAXACTVP
 70
    64
  9
$PLIMCHECK
 70
     0
  9
$PEXTMIN
 10
1.0000000000000000E+020
 20
1.0000000000000000E+020
 30
1.0000000000000000E+020
  9
$PEXTMAX
 10
-1.0000000000000000E+020
 20
-1.0000000000000000E+020
 30
-1.0000000000000000E+020
  9
$PLIMMIN
 10
0.0
 20
0.0
  9
$PLIMMAX
 10
12.0
 20
9.0
  9
$UNITMODE
 70
     0
  9
$VISRETAIN
 70
     1
  9
$PLINEGEN
 70
     0
  9
$PSLTSCALE
 70
     1
  0
ENDSEC
  0
SECTION
  2
TABLES
  0
TABLE
  2
VPORT
 70
     1
  0
VPORT
  2
*ACTIVE
 70
     0
 10
0.0
 20
0.0
 11
1.0
 21
1.0
 12
-4422.6415130000014
 22
3638.2143040000001
 13
0.0
 23
0.0
 14
1.0
 24
1.0
 15
0.0
 25
0.0
 16
0.0
 26
0.0
 36
1.0
 17
0.0
 27
0.0
 37
0.0
 40
2989.369565217391
 41
1.4396082698585411
 42
50.0
 43
0.0
 44
0.0
 50
0.0
 51
0.0
 71
     0
 72
   100
 73
     1
 74
     1
 75
     0
 76
     0
 77
     0
 78
     0
  0
ENDTAB
  0
TABLE
  2
LTYPE
 70
    12
  0
LTYPE
  2
CONTINUOUS
 70
     0
  3
Solid line
 72
    65
 73
     0
 40
0.0
  0
LTYPE
  2
GESTRICHELT
 70
     0
  3
__ __ __ __ __ __ __ __ __ __ __ __ __ __ __
 72
    65
 73
     2
 40
0.75
 49
0.5
 49
-0.25
  0
LTYPE
  2
VERDECKT
 70
     0
  3
_ _ _ _ _ _ _ _ _ _ _ _ _ _ _ _ _ _ _ _ _ _ 
 72
    65
 73
     2
 40
0.25
 49
0.125
 49
-0.125
  0
LTYPE
  2
MITTELLINIE
 70
     0
  3
____ _ ____ _ ____ _ ____ _ ____ _ ____ _ __
 72
    65
 73
     4
 40
2.0
 49
1.25
 49
-0.25
 49
0.25
 49
-0.25
  0
LTYPE
  2
PHANTOM
 70
     0
  3
_____ _ _ _____ _ _ _____ _ _ _____ _ _ ____
 72
    65
 73
     6
 40
2.5
 49
1.25
 49
-0.25
 49
0.25
 49
-0.25
 49
0.25
 49
-0.25
  0
LTYPE
  2
PUNKTIERT
 70
     0
  3
............................................
 72
    65
 73
     2
 40
0.25
 49
0.0
 49
-0.25
  0
LTYPE
  2
STRICHPUNKTIERT
 70
     0
  3
__ . __ . __ . __ . __ . __ . __ . __ . __ .
 72
    65
 73
     4
 40
1.0
 49
0.5
 49
-0.25
 49
0.0
 49
-0.25
  0
LTYPE
  2
RAND
 70
     0
  3
__ __ . __ __ . __ __ . __ __ . __ __ . __ _
 72
    65
 73
     6
 40
1.75
 49
0.5
 49
-0.25
 49
0.5
 49
-0.25
 49
0.0
 49
-0.25
  0
LTYPE
  2
TRENNLINIE
 70
     0
  3
__ . . __ . . __ . . __ . . __ . . __ . . __
 72
    65
 73
     6
 40
1.25
 49
0.5
 49
-0.25
 49
0.0
 49
-0.25
 49
0.0
 49
-0.25
  0
LTYPE
  2
ENG_PUNKTIERT
 70
     0
  3
Schließen                                   
 72
    65
 73
     2
 40
0.1
 49
0.05
 49
-0.05
  0
LTYPE
  2
CLOSE
 70
     0
  3
                                            
 72
    65
 73
     0
 40
0.0
  0
ENDTAB
  0
TABLE
  2
LAYER
 70
   256
  0
LAYER
  2
0
 70
     0
 62
     7
  6
CONTINUOUS
  0
LAYER
  2
LAYER01
 70
     0
 62
     7
  6
CONTINUOUS
  0
LAYER
  2
LAYER02
 70
     0
 62
     7
  6
CONTINUOUS
  0
LAYER
  2
LAYER03
 70
     0
 62
     7
  6
CONTINUOUS
  0
LAYER
  2
LAYER04
 70
     0
 62
     7
  6
CONTINUOUS
  0
LAYER
  2
LAYER05
 70
     0
 62
     7
  6
CONTINUOUS
  0
LAYER
  2
LAYER06
 70
     0
 62
     7
  6
CONTINUOUS
  0
LAYER
  2
LAYER07
 70
     0
 62
     7
  6
CONTINUOUS
  0
LAYER
  2
LAYER08
 70
     0
 62
     7
  6
CONTINUOUS
  0
LAYER
  2
LAYER09
 70
     0
 62
     7
  6
CONTINUOUS
  0
LAYER
  2
LAYER10
 70
     0
 62
     7
  6
CONTINUOUS
  0
LAYER
  2
KERA4
 70
     0
 62
     7
  6
CONTINUOUS
  0
LAYER
  2
KERA0
 70
     0
 62
     7
  6
CONTINUOUS
  0
LAYER
  2
KERA1
 70
     0
 62
     7
  6
CONTINUOUS
  0
LAYER
  2
KERA2
 70
     0
 62
     7
  6
CONTINUOUS
  0
LAYER
  2
KERA7
 70
     0
 62
     7
  6
CONTINUOUS
  0
LAYER
  2
AM_5
 70
     0
 62
     7
  6
CONTINUOUS
  0
LAYER
  2
KERA4___1
 70
     0
 62
     7
  6
CONTINUOUS
  0
LAYER
  2
BECKEN_FUTURA_EBENE_1
 70
     0
 62
     7
  6
CONTINUOUS
  0
LAYER
  2
2
 70
     0
 62
     7
  6
CONTINUOUS
  0
LAYER
  2
5
 70
     0
 62
     7
  6
CONTINUOUS
  0
LAYER
  2
RAUMAUFM
 70
     0
 62
     7
  6
CONTINUOUS
  0
LAYER
  2
EINRICHT
 70
     0
 62
     7
  6
CONTINUOUS
  0
LAYER
  2
HILFE
 70
     0
 62
     7
  6
CONTINUOUS
  0
LAYER
  2
SCHNITTE
 70
     0
 62
     7
  6
CONTINUOUS
  0
LAYER
  2
SCHRAFF1
 70
     0
 62
     7
  6
CONTINUOUS
  0
LAYER
  2
SCHRAFF2
 70
     0
 62
     7
  6
CONTINUOUS
  0
LAYER
  2
BEMASS-1
 70
     0
 62
     7
  6
CONTINUOUS
  0
LAYER
  2
BEMASS-2
 70
     0
 62
     7
  6
CONTINUOUS
  0
LAYER
  2
TEXT
 70
     0
 62
     7
  6
CONTINUOUS
  0
LAYER
  2
SYMBOLE
 70
     0
 62
     7
  6
CONTINUOUS
  0
LAYER
  2
RAHMEN
 70
     0
 62
     7
  6
CONTINUOUS
  0
LAYER
  2
SCHRIFTF
 70
     0
 62
     7
  6
CONTINUOUS
  0
LAYER
  2
ACHSEN
 70
     0
 62
     7
  6
CONTINUOUS
  0
LAYER
  2
ZEICHN
 70
     0
 62
     7
  6
CONTINUOUS
  0
LAYER
  2
7
 70
     0
 62
     7
  6
CONTINUOUS
  0
LAYER
  2
1
 70
     0
 62
     7
  6
CONTINUOUS
  0
LAYER
  2
6
 70
     0
 62
     7
  6
CONTINUOUS
  0
LAYER
  2
4
 70
     0
 62
     7
  6
CONTINUOUS
  0
LAYER
  2
GRUNDEBENE
 70
     0
 62
     7
  6
CONTINUOUS
  0
LAYER
  2
GRUNDRISS
 70
     0
 62
     7
  6
CONTINUOUS
  0
LAYER
  2
BEMASSUNGGRUNDRISS
 70
     0
 62
     7
  6
CONTINUOUS
  0
LAYER
  2
WANDELEMENTE
 70
     0
 62
     7
  6
CONTINUOUS
  0
LAYER
  2
KUECHE
 70
     0
 62
     7
  6
CONTINUOUS
  0
LAYER
  2
THEKEBROETCHEN
 70
     0
 62
     7
  6
CONTINUOUS
  0
LAYER
  2
CENTERLINIE
 70
     0
 62
     7
  6
CONTINUOUS
  0
LAYER
  2
UMRISSE
 70
     0
 62
     7
  6
CONTINUOUS
  0
LAYER
  2
MAUER
 70
     0
 62
     7
  6
CONTINUOUS
  0
LAYER
  2
SCHRAFFUR
 70
     0
 62
     7
  6
CONTINUOUS
  0
LAYER
  2
MASSLINIE
 70
     0
 62
     7
  6
CONTINUOUS
  0
LAYER
  2
PV
 70
     0
 62
     7
  6
CONTINUOUS
  0
LAYER
  2
BESCHRIFTUNG
 70
     0
 62
     7
  6
CONTINUOUS
  0
LAYER
  2
AS
 70
     0
 62
     7
  6
CONTINUOUS
  0
LAYER
  2
PL
 70
     0
 62
     7
  6
CONTINUOUS
  0
LAYER
  2
UK
 70
     0
 62
     7
  6
CONTINUOUS
  0
LAYER
  2
TEXT3
 70
     0
 62
     7
  6
CONTINUOUS
  0
LAYER
  2
TEXT7
 70
     0
 62
     7
  6
CONTINUOUS
  0
LAYER
  2
BEPL1
 70
     0
 62
     7
  6
CONTINUOUS
  0
LAYER
  2
BEPL2
 70
     0
 62
     7
  6
CONTINUOUS
  0
LAYER
  2
BEPL2V
 70
     0
 62
     7
  6
CONTINUOUS
  0
LAYER
  2
BEPL4
 70
     0
 62
     7
  6
CONTINUOUS
  0
LAYER
  2
BEPL
 70
     0
 62
     7
  6
CONTINUOUS
  0
LAYER
  2
UK1
 70
     0
 62
     7
  6
CONTINUOUS
  0
LAYER
  2
UK2
 70
     0
 62
     7
  6
CONTINUOUS
  0
LAYER
  2
UK2V
 70
     0
 62
     7
  6
CONTINUOUS
  0
LAYER
  2
UK3
 70
     0
 62
     7
  6
CONTINUOUS
  0
LAYER
  2
TEXT2
 70
     0
 62
     7
  6
CONTINUOUS
  0
LAYER
  2
HILF2S
 70
     0
 62
     7
  6
CONTINUOUS
  0
LAYER
  2
UK1V
 70
     0
 62
     7
  6
CONTINUOUS
  0
LAYER
  2
GAIN_ZRA
 70
     0
 62
     7
  6
CONTINUOUS
  0
LAYER
  2
GAIN_ZSF
 70
     0
 62
     7
  6
CONTINUOUS
  0
LAYER
  2
RAHM4
 70
     0
 62
     7
  6
CONTINUOUS
  0
LAYER
  2
KORPUSBAND
 70
     0
 62
     7
  6
CONTINUOUS
  0
LAYER
  2
E---LGPL--------
 70
     0
 62
     7
  6
CONTINUOUS
  0
LAYER
  2
E---NPFL--------
 70
     0
 62
     7
  6
CONTINUOUS
  0
LAYER
  2
E---PLNKTXT-----
 70
     0
 62
     7
  6
CONTINUOUS
  0
LAYER
  2
E---PLNK--------
 70
     0
 62
     7
  6
CONTINUOUS
  0
LAYER
  2
E---PLNR--------
 70
     0
 62
     7
  6
CONTINUOUS
  0
LAYER
  2
D547_ARCHICAD
 70
     0
 62
     7
  6
CONTINUOUS
  0
LAYER
  2
D547_E---TEXT--------
 70
     0
 62
     7
  6
CONTINUOUS
  0
LAYER
  2
E---LEGD--------
 70
     0
 62
     7
  6
CONTINUOUS
  0
LAYER
  2
D43_ARCHICAD
 70
     0
 62
     7
  6
CONTINUOUS
  0
LAYER
  2
D43_FENSTER_VON_B---FASS--
 70
     0
 62
     7
  6
CONTINUOUS
  0
LAYER
  2
D43_E---SCHN--------
 70
     0
 62
     7
  6
CONTINUOUS
  0
LAYER
  2
D43_B---MW-N--------
 70
     0
 62
     7
  6
CONTINUOUS
  0
LAYER
  2
D43_B---DECK--------
 70
     0
 62
     7
  6
CONTINUOUS
  0
LAYER
  2
D43_B---MW-S--------
 70
     0
 62
     7
  6
CONTINUOUS
  0
LAYER
  2
D43_B---MW----------
 70
     0
 62
     7
  6
CONTINUOUS
  0
LAYER
  2
D43_B---FASS--------
 70
     0
 62
     7
  6
CONTINUOUS
  0
LAYER
  2
D43_E---RASG--------
 70
     0
 62
     7
  6
CONTINUOUS
  0
LAYER
  2
D40_ARCHICAD
 70
     0
 62
     7
  6
CONTINUOUS
  0
LAYER
  2
D40_E---MW--------
 70
     0
 62
     7
  6
CONTINUOUS
  0
LAYER
  2
D40_E---FASSKON-----
 70
     0
 62
     7
  6
CONTINUOUS
  0
LAYER
  2
D40_TÜREN_VON_B---MW-N----
 70
     0
 62
     7
  6
CONTINUOUS
  0
LAYER
  2
D40_E---MW-L------
 70
     0
 62
     7
  6
CONTINUOUS
  0
LAYER
  2
D40_TÜREN_VON_B---MW------
 70
     0
 62
     7
  6
CONTINUOUS
  0
LAYER
  2
D40_E---VERM--------
 70
     0
 62
     7
  6
CONTINUOUS
  0
LAYER
  2
D40_FENSTER_VON_E---MW-L--
 70
     0
 62
     7
  6
CONTINUOUS
  0
LAYER
  2
D40_FENSTER_VON_B---MW-N--
 70
     0
 62
     7
  6
CONTINUOUS
  0
LAYER
  2
D40_E---SCHN--------
 70
     0
 62
     7
  6
CONTINUOUS
  0
LAYER
  2
D40_E---AUFZ--------
 70
     0
 62
     7
  6
CONTINUOUS
  0
LAYER
  2
D40_E---DECK--------
 70
     0
 62
     7
  6
CONTINUOUS
  0
LAYER
  2
D40_E---RAUMINF-----
 70
     0
 62
     7
  6
CONTINUOUS
  0
LAYER
  2
D40_E---TEXT--------
 70
     0
 62
     7
  6
CONTINUOUS
  0
LAYER
  2
D40_B---TEXT--------
 70
     0
 62
     7
  6
CONTINUOUS
  0
LAYER
  2
D40_B---MW-N--------
 70
     0
 62
     7
  6
CONTINUOUS
  0
LAYER
  2
D40_B---DECK--------
 70
     0
 62
     7
  6
CONTINUOUS
  0
LAYER
  2
D40_B---AUFZ--------
 70
     0
 62
     7
  6
CONTINUOUS
  0
LAYER
  2
D40_B---MW-S--------
 70
     0
 62
     7
  6
CONTINUOUS
  0
LAYER
  2
D40_B---MW----------
 70
     0
 62
     7
  6
CONTINUOUS
  0
LAYER
  2
D40_E---MOEB--------
 70
     0
 62
     7
  6
CONTINUOUS
  0
LAYER
  2
D40_B---UMGB--------
 70
     0
 62
     7
  6
CONTINUOUS
  0
LAYER
  2
D40_B---FASS--------
 70
     0
 62
     7
  6
CONTINUOUS
  0
LAYER
  2
D40_E---DACH--------
 70
     0
 62
     7
  6
CONTINUOUS
  0
LAYER
  2
D40_E---BODE--------
 70
     0
 62
     7
  6
CONTINUOUS
  0
LAYER
  2
D40_E---TREP--------
 70
     0
 62
     7
  6
CONTINUOUS
  0
LAYER
  2
D40_E---RASG--------
 70
     0
 62
     7
  6
CONTINUOUS
  0
LAYER
  2
D40_B---MW-K--------
 70
     0
 62
     7
  6
CONTINUOUS
  0
LAYER
  2
D40_E---FASSGLA-----
 70
     0
 62
     7
  6
CONTINUOUS
  0
LAYER
  2
D40_B---VERM--------
 70
     0
 62
     7
  6
CONTINUOUS
  0
LAYER
  2
D40_E---UMGBGSG-----
 70
     0
 62
     7
  6
CONTINUOUS
  0
LAYER
  2
D40_E---RASF--------
 70
     0
 62
     7
  6
CONTINUOUS
  0
LAYER
  2
D40_E---PFLA--------
 70
     0
 62
     7
  6
CONTINUOUS
  0
LAYER
  2
D40_E---KONS-ST-----
 70
     0
 62
     7
  6
CONTINUOUS
  0
LAYER
  2
D40_E---WERB--------
 70
     0
 62
     7
  6
CONTINUOUS
  0
LAYER
  2
D40_E---TUERINF-----
 70
     0
 62
     7
  6
CONTINUOUS
  0
LAYER
  2
D40_E---WOLK--------
 70
     0
 62
     7
  6
CONTINUOUS
  0
LAYER
  2
D40_B---MW-L--------
 70
     0
 62
     7
  6
CONTINUOUS
  0
LAYER
  2
D40_B---SANI--------
 70
     0
 62
     7
  6
CONTINUOUS
  0
LAYER
  2
D40_E---SANI--------
 70
     0
 62
     7
  6
CONTINUOUS
  0
LAYER
  2
D40_E---MW-K------
 70
     0
 62
     7
  6
CONTINUOUS
  0
LAYER
  2
D40_E---OBJE--------
 70
     0
 62
     7
  6
CONTINUOUS
  0
LAYER
  2
D40_E---ASPR--------
 70
     0
 62
     7
  6
CONTINUOUS
  0
LAYER
  2
D40_E---VERMTGA-----
 70
     0
 62
     7
  6
CONTINUOUS
  0
LAYER
  2
D40_E---PARK--------
 70
     0
 62
     7
  6
CONTINUOUS
  0
LAYER
  2
D40_E---ISOL--------
 70
     0
 62
     7
  6
CONTINUOUS
  0
LAYER
  2
D40_E---TUER--------
 70
     0
 62
     7
  6
CONTINUOUS
  0
LAYER
  2
D40_E---MW--BRA---
 70
     0
 62
     7
  6
CONTINUOUS
  0
LAYER
  2
D41_ARCHICAD
 70
     0
 62
     7
  6
CONTINUOUS
  0
LAYER
  2
D41_E---MW--------
 70
     0
 62
     7
  6
CONTINUOUS
  0
LAYER
  2
D41_E---FASSKON-----
 70
     0
 62
     7
  6
CONTINUOUS
  0
LAYER
  2
D41_TÜREN_VON_B---MW-N----
 70
     0
 62
     7
  6
CONTINUOUS
  0
LAYER
  2
D41_E---MW-L------
 70
     0
 62
     7
  6
CONTINUOUS
  0
LAYER
  2
D41_TÜREN_VON_B---MW------
 70
     0
 62
     7
  6
CONTINUOUS
  0
LAYER
  2
D41_E---VERM--------
 70
     0
 62
     7
  6
CONTINUOUS
  0
LAYER
  2
D41_FENSTER_VON_E---MW-L--
 70
     0
 62
     7
  6
CONTINUOUS
  0
LAYER
  2
D41_FENSTER_VON_B---MW-N--
 70
     0
 62
     7
  6
CONTINUOUS
  0
LAYER
  2
D41_E---SCHN--------
 70
     0
 62
     7
  6
CONTINUOUS
  0
LAYER
  2
D41_E---AUFZ--------
 70
     0
 62
     7
  6
CONTINUOUS
  0
LAYER
  2
D41_E---DECK--------
 70
     0
 62
     7
  6
CONTINUOUS
  0
LAYER
  2
D41_E---RAUMINF-----
 70
     0
 62
     7
  6
CONTINUOUS
  0
LAYER
  2
D41_E---TEXT--------
 70
     0
 62
     7
  6
CONTINUOUS
  0
LAYER
  2
D41_B---TEXT--------
 70
     0
 62
     7
  6
CONTINUOUS
  0
LAYER
  2
D41_B---MW-N--------
 70
     0
 62
     7
  6
CONTINUOUS
  0
LAYER
  2
D41_B---DECK--------
 70
     0
 62
     7
  6
CONTINUOUS
  0
LAYER
  2
D41_B---AUFZ--------
 70
     0
 62
     7
  6
CONTINUOUS
  0
LAYER
  2
D41_B---MW-S--------
 70
     0
 62
     7
  6
CONTINUOUS
  0
LAYER
  2
D41_B---MW----------
 70
     0
 62
     7
  6
CONTINUOUS
  0
LAYER
  2
D41_E---MOEB--------
 70
     0
 62
     7
  6
CONTINUOUS
  0
LAYER
  2
D41_B---UMGB--------
 70
     0
 62
     7
  6
CONTINUOUS
  0
LAYER
  2
D41_B---FASS--------
 70
     0
 62
     7
  6
CONTINUOUS
  0
LAYER
  2
D41_E---DACH--------
 70
     0
 62
     7
  6
CONTINUOUS
  0
LAYER
  2
D41_E---BODE--------
 70
     0
 62
     7
  6
CONTINUOUS
  0
LAYER
  2
D41_E---TREP--------
 70
     0
 62
     7
  6
CONTINUOUS
  0
LAYER
  2
D41_E---RASG--------
 70
     0
 62
     7
  6
CONTINUOUS
  0
LAYER
  2
D41_B---MW-K--------
 70
     0
 62
     7
  6
CONTINUOUS
  0
LAYER
  2
D41_E---FASSGLA-----
 70
     0
 62
     7
  6
CONTINUOUS
  0
LAYER
  2
D41_B---VERM--------
 70
     0
 62
     7
  6
CONTINUOUS
  0
LAYER
  2
D41_E---UMGBGSG-----
 70
     0
 62
     7
  6
CONTINUOUS
  0
LAYER
  2
D41_E---RASF--------
 70
     0
 62
     7
  6
CONTINUOUS
  0
LAYER
  2
D41_E---PFLA--------
 70
     0
 62
     7
  6
CONTINUOUS
  0
LAYER
  2
D41_E---KONS-ST-----
 70
     0
 62
     7
  6
CONTINUOUS
  0
LAYER
  2
D41_E---WERB--------
 70
     0
 62
     7
  6
CONTINUOUS
  0
LAYER
  2
D41_E---TUERINF-----
 70
     0
 62
     7
  6
CONTINUOUS
  0
LAYER
  2
D41_E---WOLK--------
 70
     0
 62
     7
  6
CONTINUOUS
  0
LAYER
  2
D41_B---MW-L--------
 70
     0
 62
     7
  6
CONTINUOUS
  0
LAYER
  2
D41_B---SANI--------
 70
     0
 62
     7
  6
CONTINUOUS
  0
LAYER
  2
D41_E---SANI--------
 70
     0
 62
     7
  6
CONTINUOUS
  0
LAYER
  2
D41_E---MW-K------
 70
     0
 62
     7
  6
CONTINUOUS
  0
LAYER
  2
D41_E---OBJE--------
 70
     0
 62
     7
  6
CONTINUOUS
  0
LAYER
  2
D41_E---ASPR--------
 70
     0
 62
     7
  6
CONTINUOUS
  0
LAYER
  2
D41_E---VERMTGA-----
 70
     0
 62
     7
  6
CONTINUOUS
  0
LAYER
  2
D41_E---PARK--------
 70
     0
 62
     7
  6
CONTINUOUS
  0
LAYER
  2
D41_E---ISOL--------
 70
     0
 62
     7
  6
CONTINUOUS
  0
LAYER
  2
D41_E---TUER--------
 70
     0
 62
     7
  6
CONTINUOUS
  0
LAYER
  2
D41_E---MW--BRA---
 70
     0
 62
     7
  6
CONTINUOUS
  0
LAYER
  2
D42_ARCHICAD
 70
     0
 62
     7
  6
CONTINUOUS
  0
LAYER
  2
D42_FENSTER_VON_B---FASS--
 70
     0
 62
     7
  6
CONTINUOUS
  0
LAYER
  2
D42_E---SCHN--------
 70
     0
 62
     7
  6
CONTINUOUS
  0
LAYER
  2
D42_B---MW-N--------
 70
     0
 62
     7
  6
CONTINUOUS
  0
LAYER
  2
D42_B---DECK--------
 70
     0
 62
     7
  6
CONTINUOUS
  0
LAYER
  2
D42_B---MW-S--------
 70
     0
 62
     7
  6
CONTINUOUS
  0
LAYER
  2
D42_B---MW----------
 70
     0
 62
     7
  6
CONTINUOUS
  0
LAYER
  2
D42_B---FASS--------
 70
     0
 62
     7
  6
CONTINUOUS
  0
LAYER
  2
D42_E---RASG--------
 70
     0
 62
     7
  6
CONTINUOUS
  0
LAYER
  2
CONSTRUCTION_CLASS
 70
     0
 62
     7
  6
CONTINUOUS
  0
LAYER
  2
PATTERN_CLASS
 70
     0
 62
     7
  6
CONTINUOUS
  0
LAYER
  2
KONSTRUKTION
 70
     0
 62
     7
  6
CONTINUOUS
  0
LAYER
  2
BEMAßUNG
 70
     0
 62
     7
  6
CONTINUOUS
  0
LAYER
  2
HILFSGEOMETRIE
 70
     0
 62
     7
  6
CONTINUOUS
  0
LAYER
  2
UNSICHTBAR
 70
     0
 62
     7
  6
CONTINUOUS
  0
LAYER
  2
LOGO
 70
     0
 62
     7
  6
CONTINUOUS
  0
LAYER
  2
VERWALTUNG
 70
     0
 62
     7
  6
CONTINUOUS
  0
LAYER
  2
UNSICHTBARE_GEWINDE
 70
     0
 62
     7
  6
CONTINUOUS
  0
LAYER
  2
SICHTBARE_GEWINDE
 70
     0
 62
     7
  6
CONTINUOUS
  0
LAYER
  2
DEFPOINTS
 70
     0
 62
     7
  6
CONTINUOUS
  0
LAYER
  2
THICK
 70
     0
 62
     7
  6
CONTINUOUS
  0
LAYER
  2
HIDDEN
 70
     0
 62
     7
  6
CONTINUOUS
  0
LAYER
  2
SCHRAFFURGRUNDRISS
 70
     0
 62
     7
  6
CONTINUOUS
  0
LAYER
  2
BEMASSUNG_GRUNDRISS
 70
     0
 62
     7
  6
CONTINUOUS
  0
LAYER
  2
STATIK
 70
     0
 62
     7
  6
CONTINUOUS
  0
LAYER
  2
TÜREN
 70
     0
 62
     7
  6
CONTINUOUS
  0
LAYER
  2
SANITÄR
 70
     0
 62
     7
  6
CONTINUOUS
  0
LAYER
  2
BEMASSUNG_GIPSKARTON
 70
     0
 62
     7
  6
CONTINUOUS
  0
LAYER
  2
EINRICHTUNGEN
 70
     0
 62
     7
  6
CONTINUOUS
  0
LAYER
  2
BECKEN
 70
     0
 62
     7
  6
CONTINUOUS
  0
LAYER
  2
BELEUCHTUNG
 70
     0
 62
     7
  6
CONTINUOUS
  0
LAYER
  2
BESCHRIFTUNGEN
 70
     0
 62
     7
  6
CONTINUOUS
  0
LAYER
  2
ELEKTRO_1__DOSEN_SCHALTER
 70
     0
 62
     7
  6
CONTINUOUS
  0
LAYER
  2
DEFAULT_1
 70
     0
 62
     7
  6
CONTINUOUS
  0
LAYER
  2
AM_0
 70
     0
 62
     7
  6
CONTINUOUS
  0
LAYER
  2
FRAME0_7
 70
     0
 62
     7
  6
CONTINUOUS
  0
LAYER
  2
AM_BOR
 70
     0
 62
     7
  6
CONTINUOUS
  0
LAYER
  2
RAHM2
 70
     0
 62
     7
  6
CONTINUOUS
  0
LAYER
  2
RAHM3
 70
     0
 62
     7
  6
CONTINUOUS
  0
LAYER
  2
FRAME0_5
 70
     0
 62
     7
  6
CONTINUOUS
  0
LAYER
  2
8
 70
     0
 62
     7
  6
CONTINUOUS
  0
LAYER
  2
AM_7
 70
     0
 62
     7
  6
CONTINUOUS
  0
LAYER
  2
HILFSLINIEN
 70
     0
 62
     7
  6
CONTINUOUS
  0
LAYER
  2
DRAWING_TEMPLATE
 70
     0
 62
     7
  6
CONTINUOUS
  0
LAYER
  2
TECHNOBOX_EXTERNALREFSYMBO
 70
     0
 62
     7
  6
CONTINUOUS
  0
LAYER
  2
TECHNOBOX_POLYCLIPSYMBOL_L
 70
     0
 62
     7
  6
CONTINUOUS
  0
LAYER
  2
100
 70
     0
 62
     7
  6
CONTINUOUS
  0
LAYER
  2
101
 70
     0
 62
     7
  6
CONTINUOUS
  0
LAYER
  2
KONTUR
 70
     0
 62
     7
  6
CONTINUOUS
  0
LAYER
  2
MITTELLINIE
 70
     0
 62
     7
  6
CONTINUOUS
  0
LAYER
  2
GESTRICHELT
 70
     0
 62
     7
  6
CONTINUOUS
  0
LAYER
  2
HILFSLINIE
 70
     0
 62
     7
  6
CONTINUOUS
  0
LAYER
  2
TEXT-25
 70
     0
 62
     7
  6
CONTINUOUS
  0
LAYER
  2
TEXT35
 70
     0
 62
     7
  6
CONTINUOUS
  0
LAYER
  2
TEXT-50
 70
     0
 62
     7
  6
CONTINUOUS
  0
LAYER
  2
TEXT-70
 70
     0
 62
     7
  6
CONTINUOUS
  0
LAYER
  2
ANSICHTSFENSTER
 70
     0
 62
     7
  6
CONTINUOUS
  0
LAYER
  2
KERA3
 70
     0
 62
     7
  6
CONTINUOUS
  0
LAYER
  2
KERA5
 70
     0
 62
     7
  6
CONTINUOUS
  0
LAYER
  2
KERA6
 70
     0
 62
     7
  6
CONTINUOUS
  0
LAYER
  2
20
 70
     0
 62
     7
  6
CONTINUOUS
  0
LAYER
  2
50
 70
     0
 62
     7
  6
CONTINUOUS
  0
LAYER
  2
EBENE_1
 70
     0
 62
     7
  6
CONTINUOUS
  0
LAYER
  2
EBENE_2
 70
     0
 62
     7
  6
CONTINUOUS
  0
LAYER
  2
EBENE_5
 70
     0
 62
     7
  6
CONTINUOUS
  0
LAYER
  2
3
 70
     0
 62
     7
  6
CONTINUOUS
  0
LAYER
  2
GEB-KONTUR-A
 70
     0
 62
     7
  6
CONTINUOUS
  0
LAYER
  2
GEB-SYMETRIE
 70
     0
 62
     7
  6
CONTINUOUS
  0
LAYER
  2
GEB-ART-NR
 70
     0
 62
     7
  6
CONTINUOUS
  0
LAYER
  2
PROJECTION
 70
     0
 62
     7
  6
CONTINUOUS
  0
ENDTAB
  0
TABLE
  2
STYLE
 70
     3
  0
STYLE
  2
STANDARD
 70
     0
 40
0.0
 41
1.0
 50
0.0
 71
     0
 42
0.0
  3
txt
  4

  0
STYLE
  2
ANNOTATIVE
 70
     0
 40
0.0
 41
1.0
 50
0.0
 71
     0
 42
0.2
  3
txt
  4

  0
STYLE
  2
SIMPLEX
 70
     0
 40
0.0
 41
1.0
 50
0.0
 71
     0
 42
0.0
  3
simplex
  4

  0
ENDTAB
  0
TABLE
  2
VIEW
 70
     0
  0
ENDTAB
  0
TABLE
  2
UCS
 70
     0
  0
ENDTAB
  0
TABLE
  2
APPID
 70
     8
  0
APPID
  2
ACAD
 70
     0
  0
APPID
  2
ACADANNOTATIVE
 70
     0
  0
APPID
  2
ACAD_MLEADERVER
 70
     0
  0
APPID
  2
ACAD_DSTYLE_DIMJAG
 70
     0
  0
APPID
  2
ACAD_DSTYLE_DIMTALN
 70
     0
  0
APPID
  2
ACAD_PSEXT
 70
     0
  0
APPID
  2
ACAD_NAV_VCDISPLAY
 70
     0
  0
APPID
  2
ACAD_EXEMPT_FROM_CAD_STANDARDS
 70
     0
  0
ENDTAB
  0
TABLE
  2
DIMSTYLE
 70
     2
  0
DIMSTYLE
  2
STANDARD
 70
     0
  3

  4

  5

  6

  7

 40
1.0
 41
0.18
 42
0.0625
 43
0.38
 44
0.18
 45
0.0
 46
0.0
 47
0.0
 48
0.0
140
0.18
141
0.09
142
0.0
143
25.399999999999999
144
1.0
145
0.0
146
1.0
147
0.09
 71
     0
 72
     0
 73
     1
 74
     1
 75
     0
 76
     0
 77
     0
 78
     0
170
     0
171
     2
172
     0
173
     0
174
     0
175
     0
176
     0
177
     0
178
     0
  0
DIMSTYLE
  2
ANNOTATIVE
 70
     0
  3

  4

  5

  6

  7

 40
1.0
 41
0.18
 42
0.0625
 43
0.38
 44
0.18
 45
0.0
 46
0.0
 47
0.0
 48
0.0
140
0.18
141
0.09
142
0.0
143
25.399999999999999
144
1.0
145
0.0
146
1.0
147
0.09
 71
     0
 72
     0
 73
     1
 74
     1
 75
     0
 76
     0
 77
     0
 78
     0
170
     0
171
     2
172
     0
173
     0
174
     0
175
     0
176
     0
177
     0
178
     0
  0
ENDTAB
  0
ENDSEC
  0
SECTION
  2
BLOCKS
  0
BLOCK
  8
0
  2
$MODEL_SPACE
 70
     0
 10
0.0
 20
0.0
 30
0.0
  3
$MODEL_SPACE
  1

  0
ENDBLK
  5
76
  8
0
  0
BLOCK
 67
     1
  8
0
  2
$PAPER_SPACE
 70
     0
 10
0.0
 20
0.0
 30
0.0
  3
$PAPER_SPACE
  1

  0
ENDBLK
  5
72
 67
     1
  8
0
  0
BLOCK
  8
0
  2
*D0
 70
     1
 10
0.0
 20
0.0
 30
0.0
  3
*D0
  1

  0
LINE
  5
185
  8
LAYER01
 62
     7
 10
-4900.5975669999998
 20
4258.4726770000007
 30
0.0
 11
-4900.5975669999998
 21
3953.9748140000002
 31
0.0
  0
LINE
  5
186
  8
LAYER01
 62
     7
 10
-4900.5975669999998
 20
3508.4726770000002
 30
0.0
 11
-4900.5975669999998
 21
3812.9705410000001
 31
0.0
  0
LINE
  5
187
  8
LAYER01
 62
     7
 10
-4967.853314
 20
4258.4726770000007
 30
0.0
 11
-4870.5975669999998
 21
4258.4726770000007
 31
0.0
  0
LINE
  5
188
  8
LAYER01
 62
     7
 10
-4967.853314
 20
3508.4726770000002
 30
0.0
 11
-4870.5975669999998
 21
3508.4726770000002
 31
0.0
  0
SOLID
  5
189
  8
LAYER01
 62
     7
 10
-4908.5972469999997
 20
4210.4726770000007
 30
0.0
 11
-4900.5975669999998
 21
4258.4726770000007
 31
0.0
 12
-4892.5978869999999
 22
4210.4726770000007
 32
0.0
 13
-4892.5978869999999
 23
4210.4726770000007
 33
0.0
  0
SOLID
  5
18A
  8
LAYER01
 62
     7
 10
-4908.5972469999997
 20
3556.4726770000002
 30
0.0
 11
-4900.5975669999998
 21
3508.4726770000002
 31
0.0
 12
-4892.5978869999999
 22
3556.4726770000002
 32
0.0
 13
-4892.5978869999999
 23
3556.4726770000002
 33
0.0
  0
TEXT
  5
18B
  8
LAYER01
  6
CONTINUOUS
 62
     7
 10
-4870.5975669999998
 20
3836.9705409999988
 30
0.0
 40
60.0
  1
750
 50
90.0
  0
POINT
  5
18C
  8
LAYER01
 62
     7
 10
-4991.853314
 20
4258.4726770000007
 30
0.0
  0
POINT
  5
18D
  8
LAYER01
 62
     7
 10
-4991.853314
 20
3508.4726770000002
 30
0.0
  0
POINT
  5
18E
  8
LAYER01
 62
     7
 10
-4900.5975669999998
 20
3508.4726770000002
 30
0.0
  0
ENDBLK
  5
18F
  8
0
  0
BLOCK
  8
0
  2
*D1
 70
     1
 10
0.0
 20
0.0
 30
0.0
  3
*D1
  1

  0
LINE
  5
192
  8
LAYER01
 62
     7
 10
-4788.1066849999988
 20
4308.4726770000007
 30
0.0
 11
-4788.1066849999988
 21
3978.9748140000002
 31
0.0
  0
LINE
  5
193
  8
LAYER01
 62
     7
 10
-4788.1066849999988
 20
3508.4726770000002
 30
0.0
 11
-4788.1066849999988
 21
3837.9705410000001
 31
0.0
  0
LINE
  5
194
  8
LAYER01
 62
     7
 10
-4967.853314
 20
4308.4726770000007
 30
0.0
 11
-4758.1066849999997
 21
4308.4726770000007
 31
0.0
  0
LINE
  5
195
  8
LAYER01
 62
     7
 10
-4967.853314
 20
3508.4726770000002
 30
0.0
 11
-4758.1066849999997
 21
3508.4726770000002
 31
0.0
  0
SOLID
  5
196
  8
LAYER01
 62
     7
 10
-4796.1063649999987
 20
4260.4726769999997
 30
0.0
 11
-4788.1066849999988
 21
4308.4726770000007
 31
0.0
 12
-4780.1070049999998
 22
4260.4726769999997
 32
0.0
 13
-4780.1070049999998
 23
4260.4726769999997
 33
0.0
  0
SOLID
  5
197
  8
LAYER01
 62
     7
 10
-4796.1063649999987
 20
3556.4726770000002
 30
0.0
 11
-4788.1066849999988
 21
3508.4726770000002
 31
0.0
 12
-4780.1070049999998
 22
3556.4726770000002
 32
0.0
 13
-4780.1070049999998
 23
3556.4726770000002
 33
0.0
  0
TEXT
  5
198
  8
LAYER01
  6
CONTINUOUS
 62
     7
 10
-4758.1066849999997
 20
3861.9705410000001
 30
0.0
 40
60.0
  1
800
 50
90.0
  0
POINT
  5
199
  8
LAYER01
 62
     7
 10
-4991.853314
 20
4308.4726770000007
 30
0.0
  0
POINT
  5
19A
  8
LAYER01
 62
     7
 10
-4991.853314
 20
3508.4726770000002
 30
0.0
  0
POINT
  5
19B
  8
LAYER01
 62
     7
 10
-4788.1066849999988
 20
3508.4726770000002
 30
0.0
  0
ENDBLK
  5
19C
  8
0
  0
BLOCK
  8
0
  2
*D2
 70
     1
 10
0.0
 20
0.0
 30
0.0
  3
*D2
  1

  0
LINE
  5
19F
  8
LAYER01
 62
     7
 10
-5043.2041179999997
 20
4193.4726769999997
 30
0.0
 11
-5043.2041179999997
 21
3919.7033040000001
 31
0.0
  0
LINE
  5
1A0
  8
LAYER01
 62
     7
 10
-5043.2041179999997
 20
3508.4726770000002
 30
0.0
 11
-5043.2041179999997
 21
3780.4705410000001
 31
0.0
  0
LINE
  5
1A1
  8
LAYER01
 62
     7
 10
-5309.7317510000003
 20
4193.4726769999997
 30
0.0
 11
-5013.2041179999987
 21
4193.4726769999997
 31
0.0
  0
LINE
  5
1A2
  8
LAYER01
 62
     7
 10
-5309.7317510000003
 20
3508.4726770000002
 30
0.0
 11
-5013.2041179999987
 21
3508.4726770000002
 31
0.0
  0
SOLID
  5
1A3
  8
LAYER01
 62
     7
 10
-5051.2037979999986
 20
4145.4726769999997
 30
0.0
 11
-5043.2041179999997
 21
4193.4726769999997
 31
0.0
 12
-5035.2044379999998
 22
4145.4726769999997
 32
0.0
 13
-5035.2044379999998
 23
4145.4726769999997
 33
0.0
  0
SOLID
  5
1A4
  8
LAYER01
 62
     7
 10
-5051.2037979999986
 20
3556.4726770000002
 30
0.0
 11
-5043.2041179999997
 21
3508.4726770000002
 31
0.0
 12
-5035.2044379999998
 22
3556.4726770000002
 32
0.0
 13
-5035.2044379999998
 23
3556.4726770000002
 33
0.0
  0
TEXT
  5
1A5
  8
LAYER01
  6
CONTINUOUS
 62
     7
 10
-5013.2041179999987
 20
3804.4705410000001
 30
0.0
 40
60.0
  1
690
 50
90.0
  0
POINT
  5
1A6
  8
LAYER01
 62
     7
 10
-5333.7317509999993
 20
4193.4726769999997
 30
0.0
  0
POINT
  5
1A7
  8
LAYER01
 62
     7
 10
-5333.7317509999993
 20
3508.4726770000002
 30
0.0
  0
POINT
  5
1A8
  8
LAYER01
 62
     7
 10
-5043.2041179999997
 20
3508.4726770000002
 30
0.0
  0
ENDBLK
  5
1A9
  8
0
  0
BLOCK
  8
0
  2
*D3
 70
     1
 10
0.0
 20
0.0
 30
0.0
  3
*D3
  1

  0
LINE
  5
1AC
  8
LAYER01
 62
     7
 10
-5150.3804700000001
 20
4088.4726770000002
 30
0.0
 11
-5150.3804700000001
 21
3868.9748140000002
 31
0.0
  0
LINE
  5
1AD
  8
LAYER01
 62
     7
 10
-5150.3804700000001
 20
3508.4726770000002
 30
0.0
 11
-5150.3804700000001
 21
3727.9705410000001
 31
0.0
  0
LINE
  5
1AE
  8
LAYER01
 62
     7
 10
-5510.2765419999996
 20
4088.4726770000002
 30
0.0
 11
-5120.3804700000001
 21
4088.4726770000002
 31
0.0
  0
LINE
  5
1AF
  8
LAYER01
 62
     7
 10
-5510.2765419999996
 20
3508.4726770000002
 30
0.0
 11
-5120.3804700000001
 21
3508.4726770000002
 31
0.0
  0
SOLID
  5
1B0
  8
LAYER01
 62
     7
 10
-5158.38015
 20
4040.4726770000002
 30
0.0
 11
-5150.3804700000001
 21
4088.4726770000002
 31
0.0
 12
-5142.3807900000002
 22
4040.4726770000002
 32
0.0
 13
-5142.3807900000002
 23
4040.4726770000002
 33
0.0
  0
SOLID
  5
1B1
  8
LAYER01
 62
     7
 10
-5158.38015
 20
3556.4726770000002
 30
0.0
 11
-5150.3804700000001
 21
3508.4726770000002
 31
0.0
 12
-5142.3807900000002
 22
3556.4726770000002
 32
0.0
 13
-5142.3807900000002
 23
3556.4726770000002
 33
0.0
  0
TEXT
  5
1B2
  8
LAYER01
  6
CONTINUOUS
 62
     7
 10
-5120.3804700000001
 20
3751.9705410000001
 30
0.0
 40
60.0
  1
580
 50
90.0
  0
POINT
  5
1B3
  8
LAYER01
 62
     7
 10
-5534.2765419999996
 20
4088.4726770000002
 30
0.0
  0
POINT
  5
1B4
  8
LAYER01
 62
     7
 10
-5534.2765419999996
 20
3508.4726770000002
 30
0.0
  0
POINT
  5
1B5
  8
LAYER01
 62
     7
 10
-5150.3804700000001
 20
3508.4726770000002
 30
0.0
  0
ENDBLK
  5
1B6
  8
0
  0
BLOCK
  8
0
  2
*D4
 70
     1
 10
0.0
 20
0.0
 30
0.0
  3
*D4
  1

  0
LINE
  5
1B9
  8
LAYER01
 62
     7
 10
-5338.6665419999999
 20
2440.0886310000001
 30
0.0
 11
-5818.666541999999
 21
2440.0886310000001
 31
0.0
  0
LINE
  5
1BA
  8
LAYER01
 62
     7
 10
-5338.6665419999999
 20
2513.4974560000001
 30
0.0
 11
-5338.6665419999999
 21
2410.0886310000001
 31
0.0
  0
LINE
  5
1BB
  8
LAYER01
 62
     7
 10
-5818.666541999999
 20
2513.4974560000001
 30
0.0
 11
-5818.666541999999
 21
2410.0886310000001
 31
0.0
  0
SOLID
  5
1BC
  8
LAYER01
 62
     7
 10
-5386.6665419999999
 20
2448.088311
 30
0.0
 11
-5338.6665419999999
 21
2440.0886310000001
 31
0.0
 12
-5386.6665419999999
 22
2432.0889510000002
 32
0.0
 13
-5386.6665419999999
 23
2432.0889510000002
 33
0.0
  0
SOLID
  5
1BD
  8
LAYER01
 62
     7
 10
-5770.6665419999999
 20
2448.088311
 30
0.0
 11
-5818.666541999999
 21
2440.0886310000001
 31
0.0
 12
-5770.6665419999999
 22
2432.0889510000002
 32
0.0
 13
-5770.6665419999999
 23
2432.0889510000002
 33
0.0
  0
TEXT
  5
1BE
  8
LAYER01
  6
CONTINUOUS
 62
     7
 10
-5624.8844950000002
 20
2470.0886310000001
 30
0.0
 40
60.0
  1
480
  0
POINT
  5
1BF
  8
LAYER01
 62
     7
 10
-5338.6665419999999
 20
2537.4974560000001
 30
0.0
  0
POINT
  5
1C0
  8
LAYER01
 62
     7
 10
-5818.666541999999
 20
2537.4974560000001
 30
0.0
  0
POINT
  5
1C1
  8
LAYER01
 62
     7
 10
-5818.666541999999
 20
2440.0886310000001
 30
0.0
  0
ENDBLK
  5
1C2
  8
0
  0
BLOCK
  8
0
  2
*D5
 70
     1
 10
0.0
 20
0.0
 30
0.0
  3
*D5
  1

  0
LINE
  5
1C5
  8
LAYER01
 62
     7
 10
-5253.6665419999999
 20
3122.7040980000002
 30
0.0
 11
-5578.6665419999999
 21
3122.7040980000002
 31
0.0
  0
LINE
  5
1C6
  8
LAYER01
 62
     7
 10
-5253.6665419999999
 20
3062.4974560000001
 30
0.0
 11
-5253.6665419999999
 21
3152.7040980000002
 31
0.0
  0
LINE
  5
1C7
  8
LAYER01
 62
     7
 10
-5578.6665419999999
 20
3062.4974560000001
 30
0.0
 11
-5578.6665419999999
 21
3152.7040980000002
 31
0.0
  0
SOLID
  5
1C8
  8
LAYER01
 62
     7
 10
-5301.6665419999999
 20
3130.7037780000001
 30
0.0
 11
-5253.6665419999999
 21
3122.7040980000002
 31
0.0
 12
-5301.6665419999999
 22
3114.7044179999998
 32
0.0
 13
-5301.6665419999999
 23
3114.7044179999998
 33
0.0
  0
SOLID
  5
1C9
  8
LAYER01
 62
     7
 10
-5530.6665419999999
 20
3130.7037780000001
 30
0.0
 11
-5578.6665419999999
 21
3122.7040980000002
 31
0.0
 12
-5530.6665419999999
 22
3114.7044179999998
 32
0.0
 13
-5530.6665419999999
 23
3114.7044179999998
 33
0.0
  0
TEXT
  5
1CA
  8
LAYER01
  6
GESTRICHELT
 62
     7
 10
-5461.9063119999992
 20
3152.7040980000002
 30
0.0
 40
60.0
  1
325
  0
POINT
  5
1CB
  8
LAYER01
 62
     7
 10
-5253.6665419999999
 20
3038.4974560000001
 30
0.0
  0
POINT
  5
1CC
  8
LAYER01
 62
     7
 10
-5578.6665419999999
 20
3038.4974560000001
 30
0.0
  0
POINT
  5
1CD
  8
LAYER01
 62
     7
 10
-5578.6665419999999
 20
3122.7040980000002
 30
0.0
  0
ENDBLK
  5
1CE
  8
0
  0
BLOCK
  8
0
  2
*D6
 70
     1
 10
0.0
 20
0.0
 30
0.0
  3
*D6
  1

  0
LINE
  5
1D1
  8
LAYER01
 62
     7
 10
-5253.6665419999999
 20
3241.1583719999999
 30
0.0
 11
-5902.6665419999999
 21
3241.1583719999999
 31
0.0
  0
LINE
  5
1D2
  8
LAYER01
 62
     7
 10
-5253.6665419999999
 20
3062.4974560000001
 30
0.0
 11
-5253.6665419999999
 21
3271.1583719999999
 31
0.0
  0
LINE
  5
1D3
  8
LAYER01
 62
     7
 10
-5902.6665419999999
 20
3062.4974560000001
 30
0.0
 11
-5902.6665419999999
 21
3271.1583719999999
 31
0.0
  0
SOLID
  5
1D4
  8
LAYER01
 62
     7
 10
-5301.6665419999999
 20
3249.1580520000002
 30
0.0
 11
-5253.6665419999999
 21
3241.1583719999999
 31
0.0
 12
-5301.6665419999999
 22
3233.158692
 32
0.0
 13
-5301.6665419999999
 23
3233.158692
 33
0.0
  0
SOLID
  5
1D5
  8
LAYER01
 62
     7
 10
-5854.6665419999999
 20
3249.1580520000002
 30
0.0
 11
-5902.6665419999999
 21
3241.1583719999999
 31
0.0
 12
-5854.6665419999999
 22
3233.158692
 32
0.0
 13
-5854.6665419999999
 23
3233.158692
 33
0.0
  0
TEXT
  5
1D6
  8
LAYER01
  6
GESTRICHELT
 62
     7
 10
-5623.9063120000001
 20
3271.1583719999999
 30
0.0
 40
60.0
  1
650
  0
POINT
  5
1D7
  8
LAYER01
 62
     7
 10
-5253.6665419999999
 20
3038.4974560000001
 30
0.0
  0
POINT
  5
1D8
  8
LAYER01
 62
     7
 10
-5902.6665419999999
 20
3038.4974560000001
 30
0.0
  0
POINT
  5
1D9
  8
LAYER01
 62
     7
 10
-5902.6665419999999
 20
3241.1583719999999
 30
0.0
  0
ENDBLK
  5
1DA
  8
0
  0
BLOCK
  8
0
  2
*D7
 70
     1
 10
0.0
 20
0.0
 30
0.0
  3
*D7
  1

  0
LINE
  5
1DD
  8
LAYER01
 62
     7
 10
-6001.5329609999999
 20
2580.4974560000001
 30
0.0
 11
-6001.5329609999999
 21
2940.5389319999999
 31
0.0
  0
LINE
  5
1DE
  8
LAYER01
 62
     7
 10
-5927.6665419999999
 20
2580.4974560000001
 30
0.0
 11
-6031.532960999999
 21
2580.4974560000001
 31
0.0
  0
LINE
  5
1DF
  8
LAYER01
 62
     7
 10
-5927.6665419999999
 20
2940.5389319999999
 30
0.0
 11
-6031.532960999999
 21
2940.5389319999999
 31
0.0
  0
SOLID
  5
1E0
  8
LAYER01
 62
     7
 10
-5993.533281
 20
2628.4974560000001
 30
0.0
 11
-6001.5329609999999
 21
2580.4974560000001
 31
0.0
 12
-6009.5326409999989
 22
2628.4974560000001
 32
0.0
 13
-6009.5326409999989
 23
2628.4974560000001
 33
0.0
  0
SOLID
  5
1E1
  8
LAYER01
 62
     7
 10
-5993.533281
 20
2892.5389319999999
 30
0.0
 11
-6001.5329609999999
 21
2940.5389319999999
 31
0.0
 12
-6009.5326409999989
 22
2892.5389319999999
 32
0.0
 13
-6009.5326409999989
 23
2892.5389319999999
 33
0.0
  0
TEXT
  5
1E2
  8
LAYER01
  6
CONTINUOUS
 62
     7
 10
-6031.532960999999
 20
2712.4608079999998
 30
0.0
 40
60.0
  1
360
 50
90.0
  0
POINT
  5
1E3
  8
LAYER01
 62
     7
 10
-5903.666541999999
 20
2580.4974560000001
 30
0.0
  0
POINT
  5
1E4
  8
LAYER01
 62
     7
 10
-5903.666541999999
 20
2940.5389319999999
 30
0.0
  0
POINT
  5
1E5
  8
LAYER01
 62
     7
 10
-6001.5329609999999
 20
2940.5389319999999
 30
0.0
  0
ENDBLK
  5
1E6
  8
0
  0
BLOCK
  8
0
  2
*D8
 70
     1
 10
0.0
 20
0.0
 30
0.0
  3
*D8
  1

  0
LINE
  5
1E9
  8
LAYER01
 62
     7
 10
-6158.5204219999987
 20
2537.4974560000001
 30
0.0
 11
-6158.5204219999987
 21
3037.4974560000001
 31
0.0
  0
LINE
  5
1EA
  8
LAYER01
 62
     7
 10
-5927.6665419999999
 20
2537.4974560000001
 30
0.0
 11
-6188.5204219999987
 21
2537.4974560000001
 31
0.0
  0
LINE
  5
1EB
  8
LAYER01
 62
     7
 10
-5927.6665419999999
 20
3037.4974560000001
 30
0.0
 11
-6188.5204219999987
 21
3037.4974560000001
 31
0.0
  0
SOLID
  5
1EC
  8
LAYER01
 62
     7
 10
-6150.5207420000006
 20
2585.497456000001
 30
0.0
 11
-6158.5204219999987
 21
2537.4974560000001
 31
0.0
 12
-6166.5201020000004
 22
2585.497456000001
 32
0.0
 13
-6166.5201020000004
 23
2585.497456000001
 33
0.0
  0
SOLID
  5
1ED
  8
LAYER01
 62
     7
 10
-6150.5207420000006
 20
2989.4974560000001
 30
0.0
 11
-6158.5204219999987
 21
3037.4974560000001
 31
0.0
 12
-6166.5201020000004
 22
2989.4974560000001
 32
0.0
 13
-6166.5201020000004
 23
2989.4974560000001
 33
0.0
  0
TEXT
  5
1EE
  8
LAYER01
  6
CONTINUOUS
 62
     7
 10
-6188.5204219999987
 20
2739.440070000001
 30
0.0
 40
60.0
  1
500
 50
90.0
  0
POINT
  5
1EF
  8
LAYER01
 62
     7
 10
-5903.666541999999
 20
2537.4974560000001
 30
0.0
  0
POINT
  5
1F0
  8
LAYER01
 62
     7
 10
-5903.666541999999
 20
3037.4974560000001
 30
0.0
  0
POINT
  5
1F1
  8
LAYER01
 62
     7
 10
-6158.5204219999987
 20
3037.4974560000001
 30
0.0
  0
ENDBLK
  5
1F2
  8
0
  0
BLOCK
  8
0
  2
*D9
 70
     1
 10
0.0
 20
0.0
 30
0.0
  3
*D9
  1

  0
LINE
  5
1F5
  8
LAYER01
 62
     7
 10
-5578.6665419999999
 20
3122.7040980000002
 30
0.0
 11
-5902.6665419999999
 21
3122.7040980000002
 31
0.0
  0
LINE
  5
1F6
  8
LAYER01
 62
     7
 10
-5578.6665419999999
 20
3062.4974560000001
 30
0.0
 11
-5578.6665419999999
 21
3152.7040980000002
 31
0.0
  0
LINE
  5
1F7
  8
LAYER01
 62
     7
 10
-5902.6665419999999
 20
3062.4974560000001
 30
0.0
 11
-5902.6665419999999
 21
3152.7040980000002
 31
0.0
  0
SOLID
  5
1F8
  8
LAYER01
 62
     7
 10
-5626.6665419999999
 20
3130.7037780000001
 30
0.0
 11
-5578.6665419999999
 21
3122.7040980000002
 31
0.0
 12
-5626.6665419999999
 22
3114.7044179999998
 32
0.0
 13
-5626.6665419999999
 23
3114.7044179999998
 33
0.0
  0
SOLID
  5
1F9
  8
LAYER01
 62
     7
 10
-5854.6665419999999
 20
3130.7037780000001
 30
0.0
 11
-5902.6665419999999
 21
3122.7040980000002
 31
0.0
 12
-5854.6665419999999
 22
3114.7044179999998
 32
0.0
 13
-5854.6665419999999
 23
3114.7044179999998
 33
0.0
  0
TEXT
  5
1FA
  8
LAYER01
  6
GESTRICHELT
 62
     7
 10
-5786.4063120000001
 20
3152.7040980000002
 30
0.0
 40
60.0
  1
324
  0
POINT
  5
1FB
  8
LAYER01
 62
     7
 10
-5578.6665419999999
 20
3038.4974560000001
 30
0.0
  0
POINT
  5
1FC
  8
LAYER01
 62
     7
 10
-5902.6665419999999
 20
3038.4974560000001
 30
0.0
  0
POINT
  5
1FD
  8
LAYER01
 62
     7
 10
-5902.6665419999999
 20
3122.7040980000002
 30
0.0
  0
ENDBLK
  5
1FE
  8
0
  0
BLOCK
  8
0
  2
*D10
 70
     1
 10
0.0
 20
0.0
 30
0.0
  3
*D10
  1

  0
LINE
  5
201
  8
LAYER01
 62
     7
 10
-5102.2722729999996
 20
2982.4974560000001
 30
0.0
 11
-5102.2722729999996
 21
2886.4974560000001
 31
0.0
  0
LINE
  5
202
  8
LAYER01
 62
     7
 10
-5102.2722729999996
 20
3037.4974560000001
 30
0.0
 11
-5102.2722729999996
 21
3133.497456000001
 31
0.0
  0
LINE
  5
203
  8
LAYER01
 62
     7
 10
-5229.6665419999999
 20
2982.4974560000001
 30
0.0
 11
-5072.2722729999987
 21
2982.4974560000001
 31
0.0
  0
LINE
  5
204
  8
LAYER01
 62
     7
 10
-5229.6665419999999
 20
3037.4974560000001
 30
0.0
 11
-5072.2722729999987
 21
3037.4974560000001
 31
0.0
  0
SOLID
  5
205
  8
LAYER01
 62
     7
 10
-5094.2725929999988
 20
2934.4974560000001
 30
0.0
 11
-5102.2722729999996
 21
2982.4974560000001
 31
0.0
 12
-5110.2719530000004
 22
2934.4974560000001
 32
0.0
 13
-5110.2719530000004
 23
2934.4974560000001
 33
0.0
  0
SOLID
  5
206
  8
LAYER01
 62
     7
 10
-5094.2725929999988
 20
3085.497456000001
 30
0.0
 11
-5102.2722729999996
 21
3037.4974560000001
 31
0.0
 12
-5110.2719530000004
 22
3085.497456000001
 32
0.0
 13
-5110.2719530000004
 23
3085.497456000001
 33
0.0
  0
TEXT
  5
207
  8
LAYER01
  6
CONTINUOUS
 62
     7
 10
-5132.2722729999987
 20
3163.4974560000001
 30
0.0
 40
60.0
  1
55
 50
90.0
  0
POINT
  5
208
  8
LAYER01
 62
     7
 10
-5253.6665419999999
 20
2982.4974560000001
 30
0.0
  0
POINT
  5
209
  8
LAYER01
 62
     7
 10
-5253.6665419999999
 20
3037.4974560000001
 30
0.0
  0
POINT
  5
20A
  8
LAYER01
 62
     7
 10
-5102.2722729999996
 20
3037.4974560000001
 30
0.0
  0
ENDBLK
  5
20B
  8
0
  0
BLOCK
  8
0
  2
*D11
 70
     1
 10
0.0
 20
0.0
 30
0.0
  3
*D11
  1

  0
LINE
  5
20E
  8
LAYER01
 62
     7
 10
-4943.6828999999989
 20
3037.4974560000001
 30
0.0
 11
-4943.6828999999989
 21
2885.5389319999999
 31
0.0
  0
LINE
  5
20F
  8
LAYER01
 62
     7
 10
-5229.6665419999999
 20
3037.4974560000001
 30
0.0
 11
-4913.6828999999998
 21
3037.4974560000001
 31
0.0
  0
LINE
  5
210
  8
LAYER01
 62
     7
 10
-5229.6665419999999
 20
2885.5389319999999
 30
0.0
 11
-4913.6828999999998
 21
2885.5389319999999
 31
0.0
  0
SOLID
  5
211
  8
LAYER01
 62
     7
 10
-4951.6825799999988
 20
2989.4974560000001
 30
0.0
 11
-4943.6828999999989
 21
3037.4974560000001
 31
0.0
 12
-4935.6832199999999
 22
2989.4974560000001
 32
0.0
 13
-4935.6832199999999
 23
2989.4974560000001
 33
0.0
  0
SOLID
  5
212
  8
LAYER01
 62
     7
 10
-4951.6825799999988
 20
2933.5389319999999
 30
0.0
 11
-4943.6828999999989
 21
2885.5389319999999
 31
0.0
 12
-4935.6832199999999
 22
2933.5389319999999
 32
0.0
 13
-4935.6832199999999
 23
2933.5389319999999
 33
0.0
  0
TEXT
  5
213
  8
LAYER01
  6
CONTINUOUS
 62
     7
 10
-4973.6828999999998
 20
2913.4608079999998
 30
0.0
 40
60.0
  1
152
 50
90.0
  0
POINT
  5
214
  8
LAYER01
 62
     7
 10
-5253.6665419999999
 20
3037.4974560000001
 30
0.0
  0
POINT
  5
215
  8
LAYER01
 62
     7
 10
-5253.6665419999999
 20
2885.5389319999999
 30
0.0
  0
POINT
  5
216
  8
LAYER01
 62
     7
 10
-4943.6828999999989
 20
2885.5389319999999
 30
0.0
  0
ENDBLK
  5
217
  8
0
  0
BLOCK
  8
0
  2
*D12
 70
     1
 10
0.0
 20
0.0
 30
0.0
  3
*D12
  1

  0
LINE
  5
21A
  8
LAYER01
 62
     7
 10
-5438.666541999999
 20
4459.1703870000001
 30
0.0
 11
-5506.8309509999999
 21
4459.1703870000001
 31
0.0
  0
LINE
  5
21B
  8
LAYER01
 62
     7
 10
-5718.6665419999999
 20
4459.1703870000001
 30
0.0
 11
-5650.5021340000003
 21
4459.1703870000001
 31
0.0
  0
LINE
  5
21C
  8
LAYER01
 62
     7
 10
-5438.666541999999
 20
4419.3895990000001
 30
0.0
 11
-5438.666541999999
 21
4489.1703870000001
 31
0.0
  0
LINE
  5
21D
  8
LAYER01
 62
     7
 10
-5718.6665419999999
 20
4419.3895990000001
 30
0.0
 11
-5718.6665419999999
 21
4489.1703870000001
 31
0.0
  0
SOLID
  5
21E
  8
LAYER01
 62
     7
 10
-5486.6665419999999
 20
4467.170067
 30
0.0
 11
-5438.666541999999
 21
4459.1703870000001
 31
0.0
 12
-5486.6665419999999
 22
4451.1707070000002
 32
0.0
 13
-5486.6665419999999
 23
4451.1707070000002
 33
0.0
  0
SOLID
  5
21F
  8
LAYER01
 62
     7
 10
-5670.6665419999999
 20
4467.170067
 30
0.0
 11
-5718.6665419999999
 21
4459.1703870000001
 31
0.0
 12
-5670.6665419999999
 22
4451.1707070000002
 32
0.0
 13
-5670.6665419999999
 23
4451.1707070000002
 33
0.0
  0
TEXT
  5
220
  8
LAYER01
  6
CONTINUOUS
 62
     7
 10
-5626.5021340000003
 20
4429.1703870000001
 30
0.0
 40
60.0
  1
280
  0
POINT
  5
221
  8
LAYER01
 62
     7
 10
-5438.666541999999
 20
4395.3895990000001
 30
0.0
  0
POINT
  5
222
  8
LAYER01
 62
     7
 10
-5718.6665419999999
 20
4395.3895990000001
 30
0.0
  0
POINT
  5
223
  8
LAYER01
 62
     7
 10
-5718.6665419999999
 20
4459.1703870000001
 30
0.0
  0
ENDBLK
  5
224
  8
0
  0
BLOCK
  8
0
  2
*D13
 70
     1
 10
0.0
 20
0.0
 30
0.0
  3
*D13
  1

  0
LINE
  5
227
  8
LAYER01
 62
     7
 10
-5428.6615419999998
 20
3937.2799560000012
 30
0.0
 11
-5728.6615419999998
 21
3937.2799560000012
 31
0.0
  0
LINE
  5
228
  8
LAYER01
 62
     7
 10
-5428.6615419999998
 20
4018.0614949999999
 30
0.0
 11
-5428.6615419999998
 21
3907.2799560000012
 31
0.0
  0
LINE
  5
229
  8
LAYER01
 62
     7
 10
-5728.6615419999998
 20
4018.0614949999999
 30
0.0
 11
-5728.6615419999998
 21
3907.2799560000012
 31
0.0
  0
SOLID
  5
22A
  8
LAYER01
 62
     7
 10
-5476.6615419999998
 20
3945.2796360000002
 30
0.0
 11
-5428.6615419999998
 21
3937.2799560000012
 31
0.0
 12
-5476.6615419999998
 22
3929.280276
 32
0.0
 13
-5476.6615419999998
 23
3929.280276
 33
0.0
  0
SOLID
  5
22B
  8
LAYER01
 62
     7
 10
-5680.6615419999998
 20
3945.2796360000002
 30
0.0
 11
-5728.6615419999998
 21
3937.2799560000012
 31
0.0
 12
-5680.6615419999998
 22
3929.280276
 32
0.0
 13
-5680.6615419999998
 23
3929.280276
 33
0.0
  0
TEXT
  5
22C
  8
LAYER01
  6
CONTINUOUS
 62
     7
 10
-5628.8229179999998
 20
3967.2799559999999
 30
0.0
 40
60.0
  1
300
  0
POINT
  5
22D
  8
LAYER01
 62
     7
 10
-5428.6615419999998
 20
4042.0614950000008
 30
0.0
  0
POINT
  5
22E
  8
LAYER01
 62
     7
 10
-5728.6615419999998
 20
4042.0614950000008
 30
0.0
  0
POINT
  5
22F
  8
LAYER01
 62
     7
 10
-5728.6615419999998
 20
3937.2799560000012
 30
0.0
  0
ENDBLK
  5
230
  8
0
  0
BLOCK
  8
0
  2
*D14
 70
     1
 10
0.0
 20
0.0
 30
0.0
  3
*D14
  1

  0
LINE
  5
233
  8
LAYER01
 62
     7
 10
-4787.2209299999986
 20
4308.4726770000007
 30
0.0
 11
-4787.2209299999986
 21
4212.4726769999997
 31
0.0
  0
LINE
  5
234
  8
LAYER01
 62
     7
 10
-4787.2209299999986
 20
4348.4726770000007
 30
0.0
 11
-4787.2209299999986
 21
4444.4726770000007
 31
0.0
  0
LINE
  5
235
  8
LAYER01
 62
     7
 10
-4967.853314
 20
4308.4726770000007
 30
0.0
 11
-4757.2209299999986
 21
4308.4726770000007
 31
0.0
  0
LINE
  5
236
  8
LAYER01
 62
     7
 10
-4967.853314
 20
4348.4726770000007
 30
0.0
 11
-4757.2209299999986
 21
4348.4726770000007
 31
0.0
  0
SOLID
  5
237
  8
LAYER01
 62
     7
 10
-4779.2212499999987
 20
4260.4726769999997
 30
0.0
 11
-4787.2209299999986
 21
4308.4726770000007
 31
0.0
 12
-4795.2206100000003
 22
4260.4726769999997
 32
0.0
 13
-4795.2206100000003
 23
4260.4726769999997
 33
0.0
  0
SOLID
  5
238
  8
LAYER01
 62
     7
 10
-4779.2212499999987
 20
4396.4726770000007
 30
0.0
 11
-4787.2209299999986
 21
4348.4726770000007
 31
0.0
 12
-4795.2206100000003
 22
4396.4726770000007
 32
0.0
 13
-4795.2206100000003
 23
4396.4726770000007
 33
0.0
  0
TEXT
  5
239
  8
LAYER01
  6
CONTINUOUS
 62
     7
 10
-4757.2209299999986
 20
4474.4726769999997
 30
0.0
 40
60.0
  1
40
 50
90.0
  0
POINT
  5
23A
  8
LAYER01
 62
     7
 10
-4991.853314
 20
4308.4726770000007
 30
0.0
  0
POINT
  5
23B
  8
LAYER01
 62
     7
 10
-4991.853314
 20
4348.4726770000007
 30
0.0
  0
POINT
  5
23C
  8
LAYER01
 62
     7
 10
-4787.2209299999986
 20
4348.4726770000007
 30
0.0
  0
ENDBLK
  5
23D
  8
0
  0
BLOCK
  8
0
  2
*D15
 70
     1
 10
0.0
 20
0.0
 30
0.0
  3
*D15
  1

  0
LINE
  5
240
  8
LAYER01
 62
     7
 10
-5291.7867369999994
 20
4138.4726770000007
 30
0.0
 11
-5291.7867369999994
 21
4234.4726770000007
 31
0.0
  0
LINE
  5
241
  8
LAYER01
 62
     7
 10
-5291.7867369999994
 20
4088.4726770000002
 30
0.0
 11
-5291.7867369999994
 21
3992.4726770000002
 31
0.0
  0
LINE
  5
242
  8
LAYER01
 62
     7
 10
-5355.4764789999999
 20
4138.4726770000007
 30
0.0
 11
-5261.7867370000004
 21
4138.4726770000007
 31
0.0
  0
LINE
  5
243
  8
LAYER01
 62
     7
 10
-5355.4764789999999
 20
4088.4726770000002
 30
0.0
 11
-5261.7867370000004
 21
4088.4726770000002
 31
0.0
  0
SOLID
  5
244
  8
LAYER01
 62
     7
 10
-5299.7864170000003
 20
4186.4726769999997
 30
0.0
 11
-5291.7867369999994
 21
4138.4726770000007
 31
0.0
 12
-5283.7870570000014
 22
4186.4726769999997
 32
0.0
 13
-5283.7870570000014
 23
4186.4726769999997
 33
0.0
  0
SOLID
  5
245
  8
LAYER01
 62
     7
 10
-5299.7864170000003
 20
4040.4726770000002
 30
0.0
 11
-5291.7867369999994
 21
4088.4726770000002
 31
0.0
 12
-5283.7870570000014
 22
4040.4726770000002
 32
0.0
 13
-5283.7870570000014
 23
4040.4726770000002
 33
0.0
  0
TEXT
  5
246
  8
LAYER01
  6
CONTINUOUS
 62
     7
 10
-5266.0998419999996
 20
4078.3166460000002
 30
0.0
 40
60.0
  1
50
 50
90.0
  0
POINT
  5
247
  8
LAYER01
 62
     7
 10
-5379.4764789999999
 20
4138.4726770000007
 30
0.0
  0
POINT
  5
248
  8
LAYER01
 62
     7
 10
-5379.4764789999999
 20
4088.4726770000002
 30
0.0
  0
POINT
  5
249
  8
LAYER01
 62
     7
 10
-5291.7867369999994
 20
4088.4726770000002
 30
0.0
  0
ENDBLK
  5
24A
  8
0
  0
BLOCK
  8
0
  2
*D16
 70
     1
 10
0.0
 20
0.0
 30
0.0
  3
*D16
  1

  0
LINE
  5
24D
  8
LAYER01
 62
     7
 10
-3755.7883740000002
 20
4206.1592269999992
 30
0.0
 11
-3755.7883740000002
 21
3508.4726770000002
 31
0.0
  0
LINE
  5
24E
  8
LAYER01
 62
     7
 10
-3736.5541710000002
 20
4206.1592269999992
 30
0.0
 11
-3725.7883740000002
 21
4206.1592269999992
 31
0.0
  0
LINE
  5
24F
  8
LAYER01
 62
     7
 10
-3736.5541710000002
 20
3508.4726770000002
 30
0.0
 11
-3725.7883740000002
 21
3508.4726770000002
 31
0.0
  0
SOLID
  5
250
  8
LAYER01
 62
     7
 10
-3763.788054000001
 20
4158.1592270000001
 30
0.0
 11
-3755.7883740000002
 21
4206.1592269999992
 31
0.0
 12
-3747.7886939999999
 22
4158.1592270000001
 32
0.0
 13
-3747.7886939999999
 23
4158.1592270000001
 33
0.0
  0
SOLID
  5
251
  8
LAYER01
 62
     7
 10
-3763.788054000001
 20
3556.4726770000002
 30
0.0
 11
-3755.7883740000002
 21
3508.4726770000002
 31
0.0
 12
-3747.7886939999999
 22
3556.4726770000002
 32
0.0
 13
-3747.7886939999999
 23
3556.4726770000002
 33
0.0
  0
TEXT
  5
252
  8
LAYER01
  6
CONTINUOUS
 62
     7
 10
-3785.7883740000011
 20
3812.1906090000002
 30
0.0
 40
60.0
  1
698
 50
90.0
  0
POINT
  5
253
  8
LAYER01
 62
     7
 10
-3760.5541710000011
 20
4206.1592269999992
 30
0.0
  0
POINT
  5
254
  8
LAYER01
 62
     7
 10
-3760.5541710000011
 20
3508.4726770000002
 30
0.0
  0
POINT
  5
255
  8
LAYER01
 62
     7
 10
-3755.7883740000002
 20
3508.4726770000002
 30
0.0
  0
ENDBLK
  5
256
  8
0
  0
BLOCK
  8
0
  2
*D17
 70
     1
 10
0.0
 20
0.0
 30
0.0
  3
*D17
  1

  0
LINE
  5
259
  8
LAYER01
 62
     7
 10
-3341.4933310000001
 20
4258.4726770000007
 30
0.0
 11
-3341.4933310000001
 21
4162.4726770000007
 31
0.0
  0
LINE
  5
25A
  8
LAYER01
 62
     7
 10
-3341.4933310000001
 20
4308.4726770000007
 30
0.0
 11
-3341.4933310000001
 21
4404.4726769999997
 31
0.0
  0
LINE
  5
25B
  8
LAYER01
 62
     7
 10
-3397.4122219999999
 20
4258.4726770000007
 30
0.0
 11
-3311.4933310000001
 21
4258.4726770000007
 31
0.0
  0
LINE
  5
25C
  8
LAYER01
 62
     7
 10
-3397.4122219999999
 20
4308.4726770000007
 30
0.0
 11
-3311.4933310000001
 21
4308.4726770000007
 31
0.0
  0
SOLID
  5
25D
  8
LAYER01
 62
     7
 10
-3333.4936510000011
 20
4210.4726770000007
 30
0.0
 11
-3341.4933310000001
 21
4258.4726770000007
 31
0.0
 12
-3349.493011
 22
4210.4726770000007
 32
0.0
 13
-3349.493011
 23
4210.4726770000007
 33
0.0
  0
SOLID
  5
25E
  8
LAYER01
 62
     7
 10
-3333.4936510000011
 20
4356.4726770000007
 30
0.0
 11
-3341.4933310000001
 21
4308.4726770000007
 31
0.0
 12
-3349.493011
 22
4356.4726770000007
 32
0.0
 13
-3349.493011
 23
4356.4726770000007
 33
0.0
  0
TEXT
  5
25F
  8
LAYER01
  6
CONTINUOUS
 62
     7
 10
-3371.4933310000001
 20
4434.4726770000007
 30
0.0
 40
60.0
  1
50
 50
90.0
  0
POINT
  5
260
  8
LAYER01
 62
     7
 10
-3421.4122219999999
 20
4258.4726770000007
 30
0.0
  0
POINT
  5
261
  8
LAYER01
 62
     7
 10
-3421.4122219999999
 20
4308.4726770000007
 30
0.0
  0
POINT
  5
262
  8
LAYER01
 62
     7
 10
-3341.4933310000001
 20
4308.4726770000007
 30
0.0
  0
ENDBLK
  5
263
  8
0
  0
BLOCK
  8
0
  2
*D18
 70
     1
 10
0.0
 20
0.0
 30
0.0
  3
*D18
  1

  0
LINE
  5
266
  8
LAYER01
 62
     7
 10
-4035.0719309999999
 20
4348.4566930000001
 30
0.0
 11
-4035.0719309999999
 21
4444.4566930000001
 31
0.0
  0
LINE
  5
267
  8
LAYER01
 62
     7
 10
-4035.0719309999999
 20
4258.4726770000007
 30
0.0
 11
-4035.0719309999999
 21
4162.4726770000007
 31
0.0
  0
LINE
  5
268
  8
LAYER01
 62
     7
 10
-4006.3882949999988
 20
4348.4566930000001
 30
0.0
 11
-4065.0719310000009
 21
4348.4566930000001
 31
0.0
  0
LINE
  5
269
  8
LAYER01
 62
     7
 10
-4006.3882949999988
 20
4258.4726770000007
 30
0.0
 11
-4065.0719310000009
 21
4258.4726770000007
 31
0.0
  0
SOLID
  5
26A
  8
LAYER01
 62
     7
 10
-4043.0716109999998
 20
4396.4566930000001
 30
0.0
 11
-4035.0719309999999
 21
4348.4566930000001
 31
0.0
 12
-4027.0722509999991
 22
4396.4566930000001
 32
0.0
 13
-4027.0722509999991
 23
4396.4566930000001
 33
0.0
  0
SOLID
  5
26B
  8
LAYER01
 62
     7
 10
-4043.0716109999998
 20
4210.4726770000007
 30
0.0
 11
-4035.0719309999999
 21
4258.4726770000007
 31
0.0
 12
-4027.0722509999991
 22
4210.4726770000007
 32
0.0
 13
-4027.0722509999991
 23
4210.4726770000007
 33
0.0
  0
TEXT
  5
26C
  8
LAYER01
  6
CONTINUOUS
 62
     7
 10
-4065.0719310000009
 20
4474.4566930000001
 30
0.0
 40
60.0
  1
90
 50
90.0
  0
POINT
  5
26D
  8
LAYER01
 62
     7
 10
-3982.3882950000011
 20
4348.4566930000001
 30
0.0
  0
POINT
  5
26E
  8
LAYER01
 62
     7
 10
-3982.3882950000011
 20
4258.4726770000007
 30
0.0
  0
POINT
  5
26F
  8
LAYER01
 62
     7
 10
-4035.0719309999999
 20
4258.4726770000007
 30
0.0
  0
ENDBLK
  5
270
  8
0
  0
BLOCK
  8
0
  2
*D19
 70
     1
 10
0.0
 20
0.0
 30
0.0
  3
*D19
  1

  0
LINE
  5
273
  8
LAYER01
 62
     7
 10
-4147.0544039999986
 20
4348.5449630000012
 30
0.0
 11
-4147.0544039999986
 21
4232.6804780000002
 31
0.0
  0
LINE
  5
274
  8
LAYER01
 62
     7
 10
-4006.3335499999989
 20
4348.5449630000012
 30
0.0
 11
-4177.0544039999986
 21
4348.5449630000012
 31
0.0
  0
LINE
  5
275
  8
LAYER01
 62
     7
 10
-4006.3335499999989
 20
4232.6804780000002
 30
0.0
 11
-4177.0544039999986
 21
4232.6804780000002
 31
0.0
  0
SOLID
  5
276
  8
LAYER01
 62
     7
 10
-4155.0540840000003
 20
4300.5449630000003
 30
0.0
 11
-4147.0544039999986
 21
4348.5449630000012
 31
0.0
 12
-4139.0547239999996
 22
4300.5449630000003
 32
0.0
 13
-4139.0547239999996
 23
4300.5449630000003
 33
0.0
  0
SOLID
  5
277
  8
LAYER01
 62
     7
 10
-4155.0540840000003
 20
4280.6804779999993
 30
0.0
 11
-4147.0544039999986
 21
4232.6804780000002
 31
0.0
 12
-4139.0547239999996
 22
4280.6804779999993
 32
0.0
 13
-4139.0547239999996
 23
4280.6804779999993
 33
0.0
  0
TEXT
  5
278
  8
LAYER01
  6
CONTINUOUS
 62
     7
 10
-4177.0544039999986
 20
4245.5158629999996
 30
0.0
 40
60.0
  1
116
 50
90.0
  0
POINT
  5
279
  8
LAYER01
 62
     7
 10
-3982.3335499999998
 20
4348.5449630000012
 30
0.0
  0
POINT
  5
27A
  8
LAYER01
 62
     7
 10
-3982.3335499999998
 20
4232.6804780000002
 30
0.0
  0
POINT
  5
27B
  8
LAYER01
 62
     7
 10
-4147.0544039999986
 20
4232.6804780000002
 30
0.0
  0
ENDBLK
  5
27C
  8
0
  0
BLOCK
  8
0
  2
*D20
 70
     1
 10
0.0
 20
0.0
 30
0.0
  3
*D20
  1

  0
LINE
  5
27F
  8
LAYER01
 62
     7
 10
-4287.8935879999999
 20
4348.4566930000001
 30
0.0
 11
-4287.8935879999999
 21
4198.8519829999987
 31
0.0
  0
LINE
  5
280
  8
LAYER01
 62
     7
 10
-4006.3882949999988
 20
4348.4566930000001
 30
0.0
 11
-4317.893587999999
 21
4348.4566930000001
 31
0.0
  0
LINE
  5
281
  8
LAYER01
 62
     7
 10
-4006.3882949999988
 20
4198.8519829999987
 30
0.0
 11
-4317.893587999999
 21
4198.8519829999987
 31
0.0
  0
SOLID
  5
282
  8
LAYER01
 62
     7
 10
-4295.8932679999989
 20
4300.4566930000001
 30
0.0
 11
-4287.8935879999999
 21
4348.4566930000001
 31
0.0
 12
-4279.893908
 22
4300.4566930000001
 32
0.0
 13
-4279.893908
 23
4300.4566930000001
 33
0.0
  0
SOLID
  5
283
  8
LAYER01
 62
     7
 10
-4295.8932679999989
 20
4246.8519829999987
 30
0.0
 11
-4287.8935879999999
 21
4198.8519829999987
 31
0.0
 12
-4279.893908
 22
4246.8519829999987
 32
0.0
 13
-4279.893908
 23
4246.8519829999987
 33
0.0
  0
TEXT
  5
284
  8
LAYER01
  6
CONTINUOUS
 62
     7
 10
-4317.893587999999
 20
4225.8187470000003
 30
0.0
 40
60.0
  1
150
 50
90.0
  0
POINT
  5
285
  8
LAYER01
 62
     7
 10
-3982.3882950000011
 20
4348.4566930000001
 30
0.0
  0
POINT
  5
286
  8
LAYER01
 62
     7
 10
-3982.3882950000011
 20
4198.8519829999987
 30
0.0
  0
POINT
  5
287
  8
LAYER01
 62
     7
 10
-4287.8935879999999
 20
4198.8519829999987
 30
0.0
  0
ENDBLK
  5
288
  8
0
  0
BLOCK
  8
0
  2
*D21
 70
     1
 10
0.0
 20
0.0
 30
0.0
  3
*D21
  1

  0
LINE
  5
28B
  8
LAYER01
 62
     7
 10
-3455.8045780000002
 20
4024.2148599999991
 30
0.0
 11
-3535.3530799999999
 21
4024.2148599999991
 31
0.0
  0
LINE
  5
28C
  8
LAYER01
 62
     7
 10
-3755.8045780000002
 20
4024.2148599999991
 30
0.0
 11
-3676.2560770000009
 21
4024.2148599999991
 31
0.0
  0
LINE
  5
28D
  8
LAYER01
 62
     7
 10
-3455.8045780000002
 20
4110.4021359999997
 30
0.0
 11
-3455.8045780000002
 21
3994.214860000001
 31
0.0
  0
LINE
  5
28E
  8
LAYER01
 62
     7
 10
-3755.8045780000002
 20
4110.4021359999997
 30
0.0
 11
-3755.8045780000002
 21
3994.214860000001
 31
0.0
  0
SOLID
  5
28F
  8
LAYER01
 62
     7
 10
-3503.8045780000002
 20
4032.2145399999999
 30
0.0
 11
-3455.8045780000002
 21
4024.2148599999991
 31
0.0
 12
-3503.8045780000002
 22
4016.2151799999988
 32
0.0
 13
-3503.8045780000002
 23
4016.2151799999988
 33
0.0
  0
SOLID
  5
290
  8
LAYER01
 62
     7
 10
-3707.8045780000011
 20
4032.2145399999999
 30
0.0
 11
-3755.8045780000002
 21
4024.2148599999991
 31
0.0
 12
-3707.8045780000011
 22
4016.2151799999988
 32
0.0
 13
-3707.8045780000011
 23
4016.2151799999988
 33
0.0
  0
TEXT
  5
291
  8
LAYER01
  6
CONTINUOUS
 62
     7
 10
-3652.256077
 20
3994.214860000001
 30
0.0
 40
60.0
  1
300
  0
POINT
  5
292
  8
LAYER01
 62
     7
 10
-3455.8045780000002
 20
4134.4021359999997
 30
0.0
  0
POINT
  5
293
  8
LAYER01
 62
     7
 10
-3755.8045780000002
 20
4134.4021359999997
 30
0.0
  0
POINT
  5
294
  8
LAYER01
 62
     7
 10
-3755.8045780000002
 20
4024.2148599999991
 30
0.0
  0
ENDBLK
  5
295
  8
0
  0
BLOCK
  8
0
  2
*D22
 70
     1
 10
0.0
 20
0.0
 30
0.0
  3
*D22
  1

  0
LINE
  5
298
  8
LAYER01
 62
     7
 10
-3092.5768929999999
 20
4308.4726770000007
 30
0.0
 11
-3092.5768929999999
 21
4404.4726769999997
 31
0.0
  0
LINE
  5
299
  8
LAYER01
 62
     7
 10
-3092.5768929999999
 20
4198.4726769999997
 30
0.0
 11
-3092.5768929999999
 21
4102.4726769999997
 31
0.0
  0
LINE
  5
29A
  8
LAYER01
 62
     7
 10
-3251.8703009999999
 20
4308.4726770000007
 30
0.0
 11
-3062.5768929999999
 21
4308.4726770000007
 31
0.0
  0
LINE
  5
29B
  8
LAYER01
 62
     7
 10
-3251.8703009999999
 20
4198.4726769999997
 30
0.0
 11
-3062.5768929999999
 21
4198.4726769999997
 31
0.0
  0
SOLID
  5
29C
  8
LAYER01
 62
     7
 10
-3100.5765729999998
 20
4356.4726770000007
 30
0.0
 11
-3092.5768929999999
 21
4308.4726770000007
 31
0.0
 12
-3084.577213
 22
4356.4726770000007
 32
0.0
 13
-3084.577213
 23
4356.4726770000007
 33
0.0
  0
SOLID
  5
29D
  8
LAYER01
 62
     7
 10
-3100.5765729999998
 20
4150.4726769999997
 30
0.0
 11
-3092.5768929999999
 21
4198.4726769999997
 31
0.0
 12
-3084.577213
 22
4150.4726769999997
 32
0.0
 13
-3084.577213
 23
4150.4726769999997
 33
0.0
  0
TEXT
  5
29E
  8
LAYER01
  6
CONTINUOUS
 62
     7
 10
-3062.5768929999999
 20
4434.4726770000007
 30
0.0
 40
60.0
  1
110
 50
90.0
  0
POINT
  5
29F
  8
LAYER01
 62
     7
 10
-3275.8703010000008
 20
4308.4726770000007
 30
0.0
  0
POINT
  5
2A0
  8
LAYER01
 62
     7
 10
-3275.8703010000008
 20
4198.4726769999997
 30
0.0
  0
POINT
  5
2A1
  8
LAYER01
 62
     7
 10
-3092.5768929999999
 20
4198.4726769999997
 30
0.0
  0
ENDBLK
  5
2A2
  8
0
  0
BLOCK
  8
0
  2
*D23
 70
     1
 10
0.0
 20
0.0
 30
0.0
  3
*D23
  1

  0
LINE
  5
2A5
  8
LAYER01
 62
     7
 10
-3190.9294540000001
 20
4308.4726770000007
 30
0.0
 11
-3190.9294540000001
 21
4404.4726769999997
 31
0.0
  0
LINE
  5
2A6
  8
LAYER01
 62
     7
 10
-3190.9294540000001
 20
4218.4726769999997
 30
0.0
 11
-3190.9294540000001
 21
4122.4726770000007
 31
0.0
  0
LINE
  5
2A7
  8
LAYER01
 62
     7
 10
-3251.8703009999999
 20
4308.4726770000007
 30
0.0
 11
-3160.9294540000001
 21
4308.4726770000007
 31
0.0
  0
LINE
  5
2A8
  8
LAYER01
 62
     7
 10
-3251.8703009999999
 20
4218.4726769999997
 30
0.0
 11
-3160.9294540000001
 21
4218.4726769999997
 31
0.0
  0
SOLID
  5
2A9
  8
LAYER01
 62
     7
 10
-3198.929134
 20
4356.4726770000007
 30
0.0
 11
-3190.9294540000001
 21
4308.4726770000007
 31
0.0
 12
-3182.9297740000002
 22
4356.4726770000007
 32
0.0
 13
-3182.9297740000002
 23
4356.4726770000007
 33
0.0
  0
SOLID
  5
2AA
  8
LAYER01
 62
     7
 10
-3198.929134
 20
4170.4726770000007
 30
0.0
 11
-3190.9294540000001
 21
4218.4726769999997
 31
0.0
 12
-3182.9297740000002
 22
4170.4726770000007
 32
0.0
 13
-3182.9297740000002
 23
4170.4726770000007
 33
0.0
  0
TEXT
  5
2AB
  8
LAYER01
  6
CONTINUOUS
 62
     7
 10
-3160.9294540000001
 20
4434.4726770000007
 30
0.0
 40
60.0
  1
90
 50
90.0
  0
POINT
  5
2AC
  8
LAYER01
 62
     7
 10
-3275.8703010000008
 20
4308.4726770000007
 30
0.0
  0
POINT
  5
2AD
  8
LAYER01
 62
     7
 10
-3275.8703010000008
 20
4218.4726769999997
 30
0.0
  0
POINT
  5
2AE
  8
LAYER01
 62
     7
 10
-3190.9294540000001
 20
4218.4726769999997
 30
0.0
  0
ENDBLK
  5
2AF
  8
0
  0
BLOCK
  8
0
  2
_DOTSMALL
 70
     0
 10
0.0
 20
0.0
 30
0.0
  3
_DOTSMALL
  1

  0
POLYLINE
  5
494
  8
0
  6
BYBLOCK
 62
     0
 66
     1
 10
0.0
 20
0.0
 30
0.0
 70
     1
 40
0.5
 41
0.5
  0
VERTEX
  5
1114
  8
0
  6
BYBLOCK
 62
     0
 10
-0.0625
 20
0.0
 30
0.0
 42
1.0
  0
VERTEX
  5
1115
  8
0
  6
BYBLOCK
 62
     0
 10
0.0625
 20
0.0
 30
0.0
 42
1.0
  0
SEQEND
  5
1116
  8
0
  6
BYBLOCK
 62
     0
  0
ENDBLK
  5
495
  8
0
  0
BLOCK
  8
0
  2
DEFAULT2-G7
 70
     0
 10
0.0
 20
0.0
 30
0.0
  3
DEFAULT2-G7
  1

  0
TEXT
  5
498
  8
LAYER01
  6
VERDECKT
 62
     1
 10
3286.9151940000002
 20
511.13932199999999
 30
0.0
 40
14.0
  1
A. Sprenger GmbH
  7
SIMPLEX
  0
TEXT
  5
499
  8
LAYER01
  6
VERDECKT
 62
     1
 10
3286.9151940000002
 20
487.13932199999988
 30
0.0
 40
14.0
  1
Berner Str. 10
  7
SIMPLEX
  0
TEXT
  5
49A
  8
LAYER01
  6
VERDECKT
 62
     1
 10
3286.9151940000002
 20
463.13932199999988
 30
0.0
 40
14.0
  1
60437 Frankfurt
  7
SIMPLEX
  0
TEXT
  5
49B
  8
LAYER01
  6
VERDECKT
 62
     1
 10
3286.9151940000002
 20
439.13932199999999
 30
0.0
 40
14.0
  1
Tel.: 069 - 507 27 41
  7
SIMPLEX
  0
TEXT
  5
49C
  8
LAYER01
  6
VERDECKT
 62
     1
 10
3286.9151940000002
 20
415.13932199999999
 30
0.0
 40
14.0
  1
Fax: 069 - 507 72 91
  7
SIMPLEX
  0
TEXT
  5
49D
  8
LAYER01
  6
VERDECKT
 62
     1
 10
3286.9151940000002
 20
391.13932199999999
 30
0.0
 40
14.0
  1
info@varicor.org
  7
SIMPLEX
  0
ENDBLK
  5
49E
  8
0
  0
BLOCK
  8
0
  2
DEFAULT2-G6
 70
     0
 10
0.0
 20
0.0
 30
0.0
  3
DEFAULT2-G6
  1

  0
TEXT
  5
4A1
  8
LAYER01
  6
CONTINUOUS
 62
     1
 10
4758.0610299999989
 20
182.02706000000001
 30
0.0
 40
14.0
  1
Blatt
  7
SIMPLEX
  0
LINE
  5
4A2
  8
LAYER01
  6
CONTINUOUS
 62
     1
 10
3267.0610300000012
 20
280.02706000000001
 30
0.0
 11
4107.0610299999989
 21
280.02706000000001
 31
0.0
  0
LINE
  5
4A3
  8
LAYER01
  6
CONTINUOUS
 62
     1
 10
3267.0610300000012
 20
245.02706000000001
 30
0.0
 11
4107.0610299999989
 21
245.02706000000001
 31
0.0
  0
LINE
  5
4A4
  8
LAYER01
  6
CONTINUOUS
 62
     1
 10
3267.0610300000012
 20
210.02706000000001
 30
0.0
 11
4849.0610299999998
 21
210.02706000000001
 31
0.0
  0
LINE
  5
4A5
  8
LAYER01
  6
CONTINUOUS
 62
     1
 10
3267.0610300000012
 20
105.02706000000001
 30
0.0
 11
4849.0610299999998
 21
105.02706000000001
 31
0.0
  0
LINE
  5
4A6
  8
LAYER01
  6
CONTINUOUS
 62
     1
 10
3267.0610300000012
 20
385.02706000000001
 30
0.0
 11
4849.0610299999998
 21
385.02706000000001
 31
0.0
  0
POLYLINE
  5
4A7
  8
LAYER01
  6
CONTINUOUS
 62
     1
 66
     1
 10
0.0
 20
0.0
 30
0.0
 70
     1
  0
VERTEX
  5
1117
  8
LAYER01
  6
CONTINUOUS
 62
     1
 10
3267.0610300000012
 20
63.027059999999999
 30
0.0
  0
VERTEX
  5
1118
  8
LAYER01
  6
CONTINUOUS
 62
     1
 10
3267.0610300000012
 20
532.02705999999989
 30
0.0
  0
VERTEX
  5
1119
  8
LAYER01
  6
CONTINUOUS
 62
     1
 10
4849.0610299999998
 20
532.02705999999989
 30
0.0
  0
VERTEX
  5
111A
  8
LAYER01
  6
CONTINUOUS
 62
     1
 10
4849.0610299999998
 20
63.027059999999999
 30
0.0
  0
SEQEND
  5
111B
  8
LAYER01
  6
CONTINUOUS
 62
     1
  0
LINE
  5
4A8
  8
LAYER01
  6
CONTINUOUS
 62
     1
 10
3267.0610300000012
 20
350.02706000000001
 30
0.0
 11
4107.0610299999989
 21
350.02706000000001
 31
0.0
  0
LINE
  5
4A9
  8
LAYER01
  6
CONTINUOUS
 62
     1
 10
3267.0610300000012
 20
315.02706000000001
 30
0.0
 11
4107.0610299999989
 21
315.02706000000001
 31
0.0
  0
LINE
  5
4AA
  8
LAYER01
  6
CONTINUOUS
 62
     1
 10
3722.0610299999998
 20
532.02705999999989
 30
0.0
 11
3722.0610299999998
 21
63.027059999999999
 31
0.0
  0
INSERT
  5
4AB
  8
LAYER01
  2
DEFAULT2-G7
 10
0.0
 20
0.0
 30
0.0
  0
LINE
  5
4AC
  8
LAYER01
  6
CONTINUOUS
 62
     1
 10
3267.0610300000012
 20
140.02706000000001
 30
0.0
 11
3722.0610299999998
 21
140.02706000000001
 31
0.0
  0
LINE
  5
4AD
  8
LAYER01
  6
CONTINUOUS
 62
     1
 10
3267.0610300000012
 20
175.02706000000001
 30
0.0
 11
3722.0610299999998
 21
175.02706000000001
 31
0.0
  0
LINE
  5
4AE
  8
LAYER01
  6
CONTINUOUS
 62
     1
 10
3330.0610299999998
 20
385.02706000000001
 30
0.0
 11
3330.0610299999998
 21
63.027059999999999
 31
0.0
  0
TEXT
  5
4AF
  8
LAYER01
  6
CONTINUOUS
 62
     1
 10
3278.8200019999999
 20
77.027059999999992
 30
0.0
 40
13.300000000000001
  1
Zust
  7
SIMPLEX
  0
LINE
  5
4B0
  8
LAYER01
  6
CONTINUOUS
 62
     1
 10
3550.959492
 20
63.027059999999999
 30
0.0
 11
3550.959492
 21
385.02706000000001
 31
0.0
  0
LINE
  5
4B1
  8
LAYER01
  6
CONTINUOUS
 62
     1
 10
3659.0610299999998
 20
385.02706000000001
 30
0.0
 11
3659.0610299999998
 21
63.027059999999999
 31
0.0
  0
TEXT
  5
4B2
  8
LAYER01
  6
CONTINUOUS
 62
     1
 10
3391.8409890000012
 20
77.027059999999992
 30
0.0
 40
13.300000000000001
  1
Änderung
  7
SIMPLEX
  0
TEXT
  5
4B3
  8
LAYER01
  6
CONTINUOUS
 62
     1
 10
3570.6568330000009
 20
77.027059999999992
 30
0.0
 40
13.300000000000001
  1
Datum
  7
SIMPLEX
  0
TEXT
  5
4B4
  8
LAYER01
  6
CONTINUOUS
 62
     1
 10
3664.3304950000002
 20
77.027059999999992
 30
0.0
 40
13.300000000000001
  1
Name
  7
SIMPLEX
  0
LINE
  5
4B5
  8
LAYER01
  6
CONTINUOUS
 62
     1
 10
4849.0610299999998
 20
476.02705999999989
 30
0.0
 11
4107.0610299999989
 21
476.02705999999989
 31
0.0
  0
LINE
  5
4B6
  8
LAYER01
  6
CONTINUOUS
 62
     1
 10
3813.0610299999998
 20
245.02706000000001
 30
0.0
 11
3813.0610299999998
 21
385.02706000000001
 31
0.0
  0
TEXT
  5
4B7
  8
LAYER01
  6
CONTINUOUS
 62
     1
 10
3736.0610299999998
 20
322.02706000000001
 30
0.0
 40
14.0
  1
Bearb.
  7
SIMPLEX
  0
TEXT
  5
4B8
  8
LAYER01
  6
CONTINUOUS
 62
     1
 10
3736.0610299999998
 20
252.02706000000001
 30
0.0
 40
14.0
  1
Norm
  7
SIMPLEX
  0
TEXT
  5
4B9
  8
LAYER01
  6
CONTINUOUS
 62
     1
 10
3736.0610299999998
 20
287.02706000000001
 30
0.0
 40
14.0
  1
Gepr.
  7
SIMPLEX
  0
TEXT
  5
4BA
  8
LAYER01
  6
CONTINUOUS
 62
     1
 10
3848.0610299999998
 20
357.02706000000001
 30
0.0
 40
14.0
  1
Datum
  7
SIMPLEX
  0
TEXT
  5
4BB
  8
LAYER01
  6
CONTINUOUS
 62
     1
 10
3988.0610299999998
 20
357.02706000000001
 30
0.0
 40
14.0
  1
Name
  7
SIMPLEX
  0
TEXT
  5
4BC
  8
LAYER01
  6
CONTINUOUS
 62
     1
 10
4814.0610299999998
 20
112.02706000000001
 30
0.0
 40
14.0
  1
Bl.
  7
SIMPLEX
  0
LINE
  5
4BD
  8
LAYER01
  6
CONTINUOUS
 62
     1
 10
4107.0610299999989
 20
63.027059999999999
 30
0.0
 11
4107.0610299999989
 21
532.02705999999989
 31
0.0
  0
LINE
  5
4BE
  8
LAYER01
  6
CONTINUOUS
 62
     1
 10
3946.0610299999998
 20
210.02706000000001
 30
0.0
 11
3946.0610299999998
 21
532.02705999999989
 31
0.0
  0
LINE
  5
4BF
  8
LAYER01
  6
CONTINUOUS
 62
     1
 10
4548.0610299999998
 20
532.02705999999989
 30
0.0
 11
4548.0610299999998
 21
476.02705999999989
 31
0.0
  0
TEXT
  5
4C0
  8
LAYER01
  6
CONTINUOUS
 62
     1
 10
4122.3126299999994
 20
496.28505699999999
 30
0.0
 40
14.0
  1
Maßstab
  7
SIMPLEX
  0
LINE
  5
4C1
  8
LAYER01
  6
CONTINUOUS
 62
     1
 10
4744.0610299999998
 20
210.02706000000001
 30
0.0
 11
4744.0610299999998
 21
105.02706000000001
 31
0.0
  0
LINE
  5
4C2
  8
LAYER01
  6
CONTINUOUS
 62
     1
 10
4744.0610299999998
 20
140.02706000000001
 30
0.0
 11
4849.0610299999998
 21
140.02706000000001
 31
0.0
  0
ENDBLK
  5
4C3
  8
0
  0
BLOCK
  8
0
 62
     7
  2
WMF0
 70
     0
 10
0.0
 20
0.0
 30
0.0
  3
WMF0
  1

  0
POLYLINE
  5
4C6
  8
LAYER01
 62
     7
 66
     1
 10
0.0
 20
0.0
 30
0.0
 70
     1
  0
VERTEX
  5
4C7
  8
LAYER01
 62
     7
 10
2458.2645046842372
 20
7351.0038575557664
 30
0.0
  0
VERTEX
  5
4C8
  8
LAYER01
 62
     7
 10
2628.7570429123371
 20
7351.0038575557664
 30
0.0
  0
VERTEX
  5
4C9
  8
LAYER01
 62
     7
 10
2842.8639513848352
 20
6863.3158993684092
 30
0.0
  0
VERTEX
  5
4CA
  8
LAYER01
 62
     7
 10
3056.9708598573329
 20
7351.0038575557664
 30
0.0
  0
VERTEX
  5
4CB
  8
LAYER01
 62
     7
 10
3235.3932835844148
 20
7351.0038575557664
 30
0.0
  0
VERTEX
  5
4CC
  8
LAYER01
 62
     7
 10
2842.8639513848352
 20
6478.7164526678107
 30
0.0
  0
VERTEX
  5
4CD
  8
LAYER01
 62
     7
 10
2458.2645046842372
 20
7351.0038575557664
 30
0.0
  0
VERTEX
  5
4CE
  8
LAYER01
 62
     7
 10
2458.2645046842372
 20
7351.0038575557664
 30
0.0
  0
SEQEND
  5
4CF
  8
LAYER01
 62
     7
  0
POLYLINE
  5
4D0
  8
LAYER01
 62
     7
 66
     1
 10
0.0
 20
0.0
 30
0.0
 70
     1
  0
VERTEX
  5
4D1
  8
LAYER01
 62
     7
 10
3041.1110888593698
 20
6756.2624451321599
 30
0.0
  0
VERTEX
  5
4D2
  8
LAYER01
 62
     7
 10
3100.5852301017312
 20
6895.0354413643354
 30
0.0
  0
VERTEX
  5
4D3
  8
LAYER01
 62
     7
 10
3358.3065088186272
 20
6895.0354413643354
 30
0.0
  0
VERTEX
  5
4D4
  8
LAYER01
 62
     7
 10
3227.4633980854328
 20
7180.5113193276648
 30
0.0
  0
VERTEX
  5
4D5
  8
LAYER01
 62
     7
 10
3302.7973103257568
 20
7362.8986858042381
 30
0.0
  0
VERTEX
  5
4D6
  8
LAYER01
 62
     7
 10
3655.67721503043
 20
6617.4894488999853
 30
0.0
  0
VERTEX
  5
4D7
  8
LAYER01
 62
     7
 10
3655.67721503043
 20
7351.0038575557664
 30
0.0
  0
VERTEX
  5
4D8
  8
LAYER01
 62
     7
 10
4127.5054022198219
 20
7351.0038575557664
 30
0.0
  0
VERTEX
  5
4D9
  8
LAYER01
 62
     7
 10
4127.5054022198219
 20
7351.0038575557664
 30
0.0
  0
VERTEX
  5
4DA
  8
LAYER01
 62
     7
 10
4171.1197724642197
 20
7343.0739720567844
 30
0.0
  0
VERTEX
  5
4DB
  8
LAYER01
 62
     7
 10
4210.7691999591279
 20
7327.2142010588213
 30
0.0
  0
VERTEX
  5
4DC
  8
LAYER01
 62
     7
 10
4246.4536847045438
 20
7299.4596018123866
 30
0.0
  0
VERTEX
  5
4DD
  8
LAYER01
 62
     7
 10
4278.1732267004691
 20
7271.705002565951
 30
0.0
  0
VERTEX
  5
4DE
  8
LAYER01
 62
     7
 10
4305.9278259469047
 20
7236.0205178205342
 30
0.0
  0
VERTEX
  5
4DF
  8
LAYER01
 62
     7
 10
4325.7525396943593
 20
7196.3710903256278
 30
0.0
  0
VERTEX
  5
4E0
  8
LAYER01
 62
     7
 10
4341.6123106923224
 20
7148.7917773317413
 30
0.0
  0
VERTEX
  5
4E1
  8
LAYER01
 62
     7
 10
4345.577253441812
 20
7105.1774070873416
 30
0.0
  0
VERTEX
  5
4E2
  8
LAYER01
 62
     7
 10
4345.577253441812
 20
7105.1774070873416
 30
0.0
  0
VERTEX
  5
4E3
  8
LAYER01
 62
     7
 10
4345.577253441812
 20
7057.5980940934542
 30
0.0
  0
VERTEX
  5
4E4
  8
LAYER01
 62
     7
 10
4337.6473679428309
 20
7017.948666598546
 30
0.0
  0
VERTEX
  5
4E5
  8
LAYER01
 62
     7
 10
4321.7875969448678
 20
6978.2992391036396
 30
0.0
  0
VERTEX
  5
4E6
  8
LAYER01
 62
     7
 10
4301.9628831974142
 20
6942.6147543582238
 30
0.0
  0
VERTEX
  5
4E7
  8
LAYER01
 62
     7
 10
4274.2082839509794
 20
6910.8952123622976
 30
0.0
  0
VERTEX
  5
4E8
  8
LAYER01
 62
     7
 10
4242.4887419550541
 20
6883.1406131158628
 30
0.0
  0
VERTEX
  5
4E9
  8
LAYER01
 62
     7
 10
4206.8042572096374
 20
6863.3158993684092
 30
0.0
  0
VERTEX
  5
4EA
  8
LAYER01
 62
     7
 10
4163.1898869652387
 20
6847.4561283704461
 30
0.0
  0
VERTEX
  5
4EB
  8
LAYER01
 62
     7
 10
4416.9462229326446
 20
6510.4359946637369
 30
0.0
  0
VERTEX
  5
4EC
  8
LAYER01
 62
     7
 10
4416.9462229326446
 20
7351.0038575557664
 30
0.0
  0
VERTEX
  5
4ED
  8
LAYER01
 62
     7
 10
4583.4738184112539
 20
7351.0038575557664
 30
0.0
  0
VERTEX
  5
4EE
  8
LAYER01
 62
     7
 10
4583.4738184112539
 20
6502.506109164754
 30
0.0
  0
VERTEX
  5
4EF
  8
LAYER01
 62
     7
 10
4226.628970957091
 20
6502.506109164754
 30
0.0
  0
VERTEX
  5
4F0
  8
LAYER01
 62
     7
 10
3881.6789517513998
 20
6942.6147543582238
 30
0.0
  0
VERTEX
  5
4F1
  8
LAYER01
 62
     7
 10
4056.1364327289898
 20
6942.6147543582238
 30
0.0
  0
VERTEX
  5
4F2
  8
LAYER01
 62
     7
 10
4056.1364327289898
 20
6942.6147543582238
 30
0.0
  0
VERTEX
  5
4F3
  8
LAYER01
 62
     7
 10
4079.926089225934
 20
6946.5796971077143
 30
0.0
  0
VERTEX
  5
4F4
  8
LAYER01
 62
     7
 10
4103.7157457228786
 20
6954.5095826066963
 30
0.0
  0
VERTEX
  5
4F5
  8
LAYER01
 62
     7
 10
4123.5404594703332
 20
6966.404410855168
 30
0.0
  0
VERTEX
  5
4F6
  8
LAYER01
 62
     7
 10
4143.3651732177859
 20
6982.264181853131
 30
0.0
  0
VERTEX
  5
4F7
  8
LAYER01
 62
     7
 10
4155.2600014662594
 20
7002.0888956005829
 30
0.0
  0
VERTEX
  5
4F8
  8
LAYER01
 62
     7
 10
4167.1548297147301
 20
7025.878552097528
 30
0.0
  0
VERTEX
  5
4F9
  8
LAYER01
 62
     7
 10
4175.0847152137121
 20
7049.6682085944722
 30
0.0
  0
VERTEX
  5
4FA
  8
LAYER01
 62
     7
 10
4175.0847152137121
 20
7077.4228078409069
 30
0.0
  0
VERTEX
  5
4FB
  8
LAYER01
 62
     7
 10
4175.0847152137121
 20
7077.4228078409069
 30
0.0
  0
VERTEX
  5
4FC
  8
LAYER01
 62
     7
 10
4175.0847152137121
 20
7101.212464337852
 30
0.0
  0
VERTEX
  5
4FD
  8
LAYER01
 62
     7
 10
4167.1548297147301
 20
7125.0021208347962
 30
0.0
  0
VERTEX
  5
4FE
  8
LAYER01
 62
     7
 10
4159.224944215749
 20
7148.7917773317413
 30
0.0
  0
VERTEX
  5
4FF
  8
LAYER01
 62
     7
 10
4143.3651732177859
 20
7168.6164910791931
 30
0.0
  0
VERTEX
  5
500
  8
LAYER01
 62
     7
 10
4127.5054022198219
 20
7184.4762620771562
 30
0.0
  0
VERTEX
  5
501
  8
LAYER01
 62
     7
 10
4103.7157457228786
 20
7196.3710903256278
 30
0.0
  0
VERTEX
  5
502
  8
LAYER01
 62
     7
 10
4079.926089225934
 20
7204.3009758246098
 30
0.0
  0
VERTEX
  5
503
  8
LAYER01
 62
     7
 10
4056.1364327289898
 20
7208.2659185741013
 30
0.0
  0
VERTEX
  5
504
  8
LAYER01
 62
     7
 10
3834.099638757511
 20
7208.2659185741013
 30
0.0
  0
VERTEX
  5
505
  8
LAYER01
 62
     7
 10
3834.099638757511
 20
6502.506109164754
 30
0.0
  0
VERTEX
  5
506
  8
LAYER01
 62
     7
 10
3548.6237607941812
 20
6502.506109164754
 30
0.0
  0
VERTEX
  5
507
  8
LAYER01
 62
     7
 10
3429.6754783094589
 20
6756.2624451321599
 30
0.0
  0
VERTEX
  5
508
  8
LAYER01
 62
     7
 10
3041.1110888593698
 20
6756.2624451321599
 30
0.0
  0
VERTEX
  5
509
  8
LAYER01
 62
     7
 10
3041.1110888593698
 20
6756.2624451321599
 30
0.0
  0
SEQEND
  5
50A
  8
LAYER01
 62
     7
  0
POLYLINE
  5
50B
  8
LAYER01
 62
     7
 66
     1
 10
0.0
 20
0.0
 30
0.0
 70
     1
  0
VERTEX
  5
50C
  8
LAYER01
 62
     7
 10
5352.6727118124509
 20
7295.4946590628961
 30
0.0
  0
VERTEX
  5
50D
  8
LAYER01
 62
     7
 10
5245.6192575762007
 20
7160.6866055802111
 30
0.0
  0
VERTEX
  5
50E
  8
LAYER01
 62
     7
 10
5245.6192575762007
 20
7160.6866055802111
 30
0.0
  0
VERTEX
  5
50F
  8
LAYER01
 62
     7
 10
5209.9347728307857
 20
7184.4762620771562
 30
0.0
  0
VERTEX
  5
510
  8
LAYER01
 62
     7
 10
5174.250288085369
 20
7204.3009758246098
 30
0.0
  0
VERTEX
  5
511
  8
LAYER01
 62
     7
 10
5134.6008605904626
 20
7216.1958040730824
 30
0.0
  0
VERTEX
  5
512
  8
LAYER01
 62
     7
 10
5090.9864903460648
 20
7216.1958040730824
 30
0.0
  0
VERTEX
  5
513
  8
LAYER01
 62
     7
 10
5090.9864903460648
 20
7216.1958040730824
 30
0.0
  0
VERTEX
  5
514
  8
LAYER01
 62
     7
 10
5063.2318910996291
 20
7216.1958040730824
 30
0.0
  0
VERTEX
  5
515
  8
LAYER01
 62
     7
 10
5035.4772918531944
 20
7212.2308613235909
 30
0.0
  0
VERTEX
  5
516
  8
LAYER01
 62
     7
 10
5007.7226926067588
 20
7204.3009758246098
 30
0.0
  0
VERTEX
  5
517
  8
LAYER01
 62
     7
 10
4979.9680933603249
 20
7192.4061475761382
 30
0.0
  0
VERTEX
  5
518
  8
LAYER01
 62
     7
 10
4956.1784368633807
 20
7180.5113193276648
 30
0.0
  0
VERTEX
  5
519
  8
LAYER01
 62
     7
 10
4936.3537231159271
 20
7164.6515483297017
 30
0.0
  0
VERTEX
  5
51A
  8
LAYER01
 62
     7
 10
4912.5640666189829
 20
7148.7917773317413
 30
0.0
  0
VERTEX
  5
51B
  8
LAYER01
 62
     7
 10
4896.7042956210198
 20
7128.9670635842867
 30
0.0
  0
VERTEX
  5
51C
  8
LAYER01
 62
     7
 10
4876.8795818735662
 20
7105.1774070873416
 30
0.0
  0
VERTEX
  5
51D
  8
LAYER01
 62
     7
 10
4864.9847536250936
 20
7081.3877505903993
 30
0.0
  0
VERTEX
  5
51E
  8
LAYER01
 62
     7
 10
4849.1249826271314
 20
7057.5980940934542
 30
0.0
  0
VERTEX
  5
51F
  8
LAYER01
 62
     7
 10
4837.2301543786589
 20
7033.8084375965091
 30
0.0
  0
VERTEX
  5
520
  8
LAYER01
 62
     7
 10
4829.3002688796769
 20
7006.0538383500743
 30
0.0
  0
VERTEX
  5
521
  8
LAYER01
 62
     7
 10
4825.3353261301872
 20
6978.2992391036396
 30
0.0
  0
VERTEX
  5
522
  8
LAYER01
 62
     7
 10
4821.3703833806958
 20
6950.5446398572049
 30
0.0
  0
VERTEX
  5
523
  8
LAYER01
 62
     7
 10
4817.4054406312061
 20
6918.8250978612787
 30
0.0
  0
VERTEX
  5
524
  8
LAYER01
 62
     7
 10
4817.4054406312061
 20
6918.8250978612787
 30
0.0
  0
VERTEX
  5
525
  8
LAYER01
 62
     7
 10
4821.3703833806958
 20
6891.0704986148439
 30
0.0
  0
VERTEX
  5
526
  8
LAYER01
 62
     7
 10
4825.3353261301872
 20
6863.3158993684092
 30
0.0
  0
VERTEX
  5
527
  8
LAYER01
 62
     7
 10
4829.3002688796769
 20
6835.5613001219754
 30
0.0
  0
VERTEX
  5
528
  8
LAYER01
 62
     7
 10
4841.1950971281503
 20
6811.7716436250303
 30
0.0
  0
VERTEX
  5
529
  8
LAYER01
 62
     7
 10
4849.1249826271314
 20
6787.9819871280861
 30
0.0
  0
VERTEX
  5
52A
  8
LAYER01
 62
     7
 10
4864.9847536250936
 20
6764.1923306311428
 30
0.0
  0
VERTEX
  5
52B
  8
LAYER01
 62
     7
 10
4880.8445246230567
 20
6740.4026741341977
 30
0.0
  0
VERTEX
  5
52C
  8
LAYER01
 62
     7
 10
4896.7042956210198
 20
6720.5779603867441
 30
0.0
  0
VERTEX
  5
52D
  8
LAYER01
 62
     7
 10
4916.5290093684744
 20
6700.7532466392904
 30
0.0
  0
VERTEX
  5
52E
  8
LAYER01
 62
     7
 10
4936.3537231159271
 20
6684.8934756413273
 30
0.0
  0
VERTEX
  5
52F
  8
LAYER01
 62
     7
 10
4960.1433796128722
 20
6672.9986473928557
 30
0.0
  0
VERTEX
  5
530
  8
LAYER01
 62
     7
 10
4983.9330361098146
 20
6661.103819144384
 30
0.0
  0
VERTEX
  5
531
  8
LAYER01
 62
     7
 10
5011.6876353562502
 20
6649.2089908959106
 30
0.0
  0
VERTEX
  5
532
  8
LAYER01
 62
     7
 10
5035.4772918531944
 20
6641.2791053969304
 30
0.0
  0
VERTEX
  5
533
  8
LAYER01
 62
     7
 10
5063.2318910996291
 20
6637.3141626474389
 30
0.0
  0
VERTEX
  5
534
  8
LAYER01
 62
     7
 10
5094.9514330955553
 20
6637.3141626474389
 30
0.0
  0
VERTEX
  5
535
  8
LAYER01
 62
     7
 10
5094.9514330955553
 20
6637.3141626474389
 30
0.0
  0
VERTEX
  5
536
  8
LAYER01
 62
     7
 10
5138.5658033399532
 20
6641.2791053969304
 30
0.0
  0
VERTEX
  5
537
  8
LAYER01
 62
     7
 10
5174.250288085369
 20
6649.2089908959106
 30
0.0
  0
VERTEX
  5
538
  8
LAYER01
 62
     7
 10
5209.9347728307857
 20
6669.0337046433651
 30
0.0
  0
VERTEX
  5
539
  8
LAYER01
 62
     7
 10
5245.6192575762007
 20
6692.8233611403102
 30
0.0
  0
VERTEX
  5
53A
  8
LAYER01
 62
     7
 10
5348.7077690629603
 20
6554.0503649081338
 30
0.0
  0
VERTEX
  5
53B
  8
LAYER01
 62
     7
 10
5348.7077690629603
 20
6554.0503649081338
 30
0.0
  0
VERTEX
  5
53C
  8
LAYER01
 62
     7
 10
5289.2336278206003
 20
6518.365880162718
 30
0.0
  0
VERTEX
  5
53D
  8
LAYER01
 62
     7
 10
5257.5140858246741
 20
6506.4710519142463
 30
0.0
  0
VERTEX
  5
53E
  8
LAYER01
 62
     7
 10
5229.7594865782394
 20
6494.5762236657738
 30
0.0
  0
VERTEX
  5
53F
  8
LAYER01
 62
     7
 10
5198.0399445823132
 20
6486.6463381667918
 30
0.0
  0
VERTEX
  5
540
  8
LAYER01
 62
     7
 10
5166.3204025863879
 20
6482.6813954173012
 30
0.0
  0
VERTEX
  5
541
  8
LAYER01
 62
     7
 10
5094.9514330955553
 20
6478.7164526678107
 30
0.0
  0
VERTEX
  5
542
  8
LAYER01
 62
     7
 10
5094.9514330955553
 20
6478.7164526678107
 30
0.0
  0
VERTEX
  5
543
  8
LAYER01
 62
     7
 10
5047.372120101667
 20
6482.6813954173012
 30
0.0
  0
VERTEX
  5
544
  8
LAYER01
 62
     7
 10
5003.7577498572691
 20
6490.6112809162832
 30
0.0
  0
VERTEX
  5
545
  8
LAYER01
 62
     7
 10
4960.1433796128722
 20
6498.5411664152653
 30
0.0
  0
VERTEX
  5
546
  8
LAYER01
 62
     7
 10
4920.493952117964
 20
6514.4009374132283
 30
0.0
  0
VERTEX
  5
547
  8
LAYER01
 62
     7
 10
4880.8445246230567
 20
6534.2256511606811
 30
0.0
  0
VERTEX
  5
548
  8
LAYER01
 62
     7
 10
4845.16003987764
 20
6554.0503649081338
 30
0.0
  0
VERTEX
  5
549
  8
LAYER01
 62
     7
 10
4809.4755551322241
 20
6581.8049641545704
 30
0.0
  0
VERTEX
  5
54A
  8
LAYER01
 62
     7
 10
4777.7560131362989
 20
6609.5595634010042
 30
0.0
  0
VERTEX
  5
54B
  8
LAYER01
 62
     7
 10
4746.0364711403727
 20
6641.2791053969304
 30
0.0
  0
VERTEX
  5
54C
  8
LAYER01
 62
     7
 10
4722.2468146434294
 20
6676.9635901423471
 30
0.0
  0
VERTEX
  5
54D
  8
LAYER01
 62
     7
 10
4698.4571581464843
 20
6712.648074887763
 30
0.0
  0
VERTEX
  5
54E
  8
LAYER01
 62
     7
 10
4678.6324443990306
 20
6752.2975023826693
 30
0.0
  0
VERTEX
  5
54F
  8
LAYER01
 62
     7
 10
4666.737616150559
 20
6791.9469298775757
 30
0.0
  0
VERTEX
  5
550
  8
LAYER01
 62
     7
 10
4654.8427879020874
 20
6835.5613001219754
 30
0.0
  0
VERTEX
  5
551
  8
LAYER01
 62
     7
 10
4646.9129024031054
 20
6879.1756703663723
 30
0.0
  0
VERTEX
  5
552
  8
LAYER01
 62
     7
 10
4642.9479596536139
 20
6926.7549833602607
 30
0.0
  0
VERTEX
  5
553
  8
LAYER01
 62
     7
 10
4642.9479596536139
 20
6926.7549833602607
 30
0.0
  0
VERTEX
  5
554
  8
LAYER01
 62
     7
 10
4646.9129024031054
 20
6970.3693536046594
 30
0.0
  0
VERTEX
  5
555
  8
LAYER01
 62
     7
 10
4654.8427879020874
 20
7017.948666598546
 30
0.0
  0
VERTEX
  5
556
  8
LAYER01
 62
     7
 10
4662.7726734010676
 20
7057.5980940934542
 30
0.0
  0
VERTEX
  5
557
  8
LAYER01
 62
     7
 10
4678.6324443990306
 20
7101.212464337852
 30
0.0
  0
VERTEX
  5
558
  8
LAYER01
 62
     7
 10
4698.4571581464843
 20
7140.8618918327593
 30
0.0
  0
VERTEX
  5
559
  8
LAYER01
 62
     7
 10
4718.2818718939379
 20
7176.5463765781742
 30
0.0
  0
VERTEX
  5
55A
  8
LAYER01
 62
     7
 10
4746.0364711403727
 20
7212.2308613235909
 30
0.0
  0
VERTEX
  5
55B
  8
LAYER01
 62
     7
 10
4773.7910703868083
 20
7243.950403319518
 30
0.0
  0
VERTEX
  5
55C
  8
LAYER01
 62
     7
 10
4805.5106123827327
 20
7271.705002565951
 30
0.0
  0
VERTEX
  5
55D
  8
LAYER01
 62
     7
 10
4841.1950971281503
 20
7299.4596018123866
 30
0.0
  0
VERTEX
  5
55E
  8
LAYER01
 62
     7
 10
4876.8795818735662
 20
7319.2843155598412
 30
0.0
  0
VERTEX
  5
55F
  8
LAYER01
 62
     7
 10
4916.5290093684744
 20
7339.1090293072939
 30
0.0
  0
VERTEX
  5
560
  8
LAYER01
 62
     7
 10
4956.1784368633807
 20
7354.968800305257
 30
0.0
  0
VERTEX
  5
561
  8
LAYER01
 62
     7
 10
4999.7928071077786
 20
7366.8636285537286
 30
0.0
  0
VERTEX
  5
562
  8
LAYER01
 62
     7
 10
5047.372120101667
 20
7370.8285713032201
 30
0.0
  0
VERTEX
  5
563
  8
LAYER01
 62
     7
 10
5090.9864903460648
 20
7374.7935140527097
 30
0.0
  0
VERTEX
  5
564
  8
LAYER01
 62
     7
 10
5090.9864903460648
 20
7374.7935140527097
 30
0.0
  0
VERTEX
  5
565
  8
LAYER01
 62
     7
 10
5162.3554598368983
 20
7370.8285713032201
 30
0.0
  0
VERTEX
  5
566
  8
LAYER01
 62
     7
 10
5198.0399445823132
 20
7366.8636285537286
 30
0.0
  0
VERTEX
  5
567
  8
LAYER01
 62
     7
 10
5229.7594865782394
 20
7358.9337430547466
 30
0.0
  0
VERTEX
  5
568
  8
LAYER01
 62
     7
 10
5257.5140858246741
 20
7347.038914806275
 30
0.0
  0
VERTEX
  5
569
  8
LAYER01
 62
     7
 10
5289.2336278206003
 20
7335.1440865578043
 30
0.0
  0
VERTEX
  5
56A
  8
LAYER01
 62
     7
 10
5320.9531698165256
 20
7315.3193728103497
 30
0.0
  0
VERTEX
  5
56B
  8
LAYER01
 62
     7
 10
5352.6727118124509
 20
7295.4946590628961
 30
0.0
  0
VERTEX
  5
56C
  8
LAYER01
 62
     7
 10
5352.6727118124509
 20
7295.4946590628961
 30
0.0
  0
SEQEND
  5
56D
  8
LAYER01
 62
     7
  0
POLYLINE
  5
56E
  8
LAYER01
 62
     7
 66
     1
 10
0.0
 20
0.0
 30
0.0
 70
     1
  0
VERTEX
  5
56F
  8
LAYER01
 62
     7
 10
5737.2721585130494
 20
7370.8285713032201
 30
0.0
  0
VERTEX
  5
570
  8
LAYER01
 62
     7
 10
5737.2721585130494
 20
7370.8285713032201
 30
0.0
  0
VERTEX
  5
571
  8
LAYER01
 62
     7
 10
5693.6577882686524
 20
7366.8636285537286
 30
0.0
  0
VERTEX
  5
572
  8
LAYER01
 62
     7
 10
5646.0784752747632
 20
7362.8986858042381
 30
0.0
  0
VERTEX
  5
573
  8
LAYER01
 62
     7
 10
5606.429047779855
 20
7351.0038575557664
 30
0.0
  0
VERTEX
  5
574
  8
LAYER01
 62
     7
 10
5562.814677535458
 20
7335.1440865578043
 30
0.0
  0
VERTEX
  5
575
  8
LAYER01
 62
     7
 10
5523.1652500405517
 20
7319.2843155598412
 30
0.0
  0
VERTEX
  5
576
  8
LAYER01
 62
     7
 10
5487.4807652951349
 20
7295.4946590628961
 30
0.0
  0
VERTEX
  5
577
  8
LAYER01
 62
     7
 10
5451.7962805497182
 20
7271.705002565951
 30
0.0
  0
VERTEX
  5
578
  8
LAYER01
 62
     7
 10
5420.0767385537929
 20
7239.9854605700266
 30
0.0
  0
VERTEX
  5
579
  8
LAYER01
 62
     7
 10
5392.3221393073582
 20
7208.2659185741013
 30
0.0
  0
VERTEX
  5
57A
  8
LAYER01
 62
     7
 10
5364.5675400609243
 20
7176.5463765781742
 30
0.0
  0
VERTEX
  5
57B
  8
LAYER01
 62
     7
 10
5340.7778835639801
 20
7140.8618918327593
 30
0.0
  0
VERTEX
  5
57C
  8
LAYER01
 62
     7
 10
5320.9531698165256
 20
7101.212464337852
 30
0.0
  0
VERTEX
  5
57D
  8
LAYER01
 62
     7
 10
5309.0583415680539
 20
7057.5980940934542
 30
0.0
  0
VERTEX
  5
57E
  8
LAYER01
 62
     7
 10
5297.1635133195814
 20
7017.948666598546
 30
0.0
  0
VERTEX
  5
57F
  8
LAYER01
 62
     7
 10
5289.2336278206003
 20
6970.3693536046594
 30
0.0
  0
VERTEX
  5
580
  8
LAYER01
 62
     7
 10
5285.2686850711088
 20
6926.7549833602607
 30
0.0
  0
VERTEX
  5
581
  8
LAYER01
 62
     7
 10
5285.2686850711088
 20
6926.7549833602607
 30
0.0
  0
VERTEX
  5
582
  8
LAYER01
 62
     7
 10
5289.2336278206003
 20
6879.1756703663723
 30
0.0
  0
VERTEX
  5
583
  8
LAYER01
 62
     7
 10
5293.1985705700909
 20
6835.5613001219754
 30
0.0
  0
VERTEX
  5
584
  8
LAYER01
 62
     7
 10
5305.0933988185634
 20
6791.9469298775757
 30
0.0
  0
VERTEX
  5
585
  8
LAYER01
 62
     7
 10
5320.9531698165256
 20
6752.2975023826693
 30
0.0
  0
VERTEX
  5
586
  8
LAYER01
 62
     7
 10
5336.8129408144878
 20
6712.648074887763
 30
0.0
  0
VERTEX
  5
587
  8
LAYER01
 62
     7
 10
5360.602597311432
 20
6676.9635901423471
 30
0.0
  0
VERTEX
  5
588
  8
LAYER01
 62
     7
 10
5384.3922538083762
 20
6641.2791053969304
 30
0.0
  0
VERTEX
  5
589
  8
LAYER01
 62
     7
 10
5412.1468530548118
 20
6609.5595634010042
 30
0.0
  0
VERTEX
  5
58A
  8
LAYER01
 62
     7
 10
5443.8663950507362
 20
6577.8400214050789
 30
0.0
  0
VERTEX
  5
58B
  8
LAYER01
 62
     7
 10
5479.5508797961529
 20
6554.0503649081338
 30
0.0
  0
VERTEX
  5
58C
  8
LAYER01
 62
     7
 10
5515.2353645415697
 20
6530.2607084111914
 30
0.0
  0
VERTEX
  5
58D
  8
LAYER01
 62
     7
 10
5554.8847920364769
 20
6510.4359946637369
 30
0.0
  0
VERTEX
  5
58E
  8
LAYER01
 62
     7
 10
5594.5342195313842
 20
6494.5762236657738
 30
0.0
  0
VERTEX
  5
58F
  8
LAYER01
 62
     7
 10
5638.1485897757821
 20
6486.6463381667918
 30
0.0
  0
VERTEX
  5
590
  8
LAYER01
 62
     7
 10
5681.762960020179
 20
6478.7164526678107
 30
0.0
  0
VERTEX
  5
591
  8
LAYER01
 62
     7
 10
5725.3773302645768
 20
6474.7515099183202
 30
0.0
  0
VERTEX
  5
592
  8
LAYER01
 62
     7
 10
5725.3773302645768
 20
6474.7515099183202
 30
0.0
  0
VERTEX
  5
593
  8
LAYER01
 62
     7
 10
5772.9566432584652
 20
6478.7164526678107
 30
0.0
  0
VERTEX
  5
594
  8
LAYER01
 62
     7
 10
5816.571013502863
 20
6486.6463381667918
 30
0.0
  0
VERTEX
  5
595
  8
LAYER01
 62
     7
 10
5860.1853837472609
 20
6498.5411664152653
 30
0.0
  0
VERTEX
  5
596
  8
LAYER01
 62
     7
 10
5899.8348112421681
 20
6514.4009374132283
 30
0.0
  0
VERTEX
  5
597
  8
LAYER01
 62
     7
 10
5939.4842387370763
 20
6534.2256511606811
 30
0.0
  0
VERTEX
  5
598
  8
LAYER01
 62
     7
 10
5975.1687234824913
 20
6558.0153076576253
 30
0.0
  0
VERTEX
  5
599
  8
LAYER01
 62
     7
 10
6010.853208227908
 20
6581.8049641545704
 30
0.0
  0
VERTEX
  5
59A
  8
LAYER01
 62
     7
 10
6042.5727502238333
 20
6613.5245061504938
 30
0.0
  0
VERTEX
  5
59B
  8
LAYER01
 62
     7
 10
6070.327349470268
 20
6645.2440481464209
 30
0.0
  0
VERTEX
  5
59C
  8
LAYER01
 62
     7
 10
6094.1170059672131
 20
6680.9285328918368
 30
0.0
  0
VERTEX
  5
59D
  8
LAYER01
 62
     7
 10
6113.9417197146659
 20
6716.6130176372544
 30
0.0
  0
VERTEX
  5
59E
  8
LAYER01
 62
     7
 10
6133.7664334621204
 20
6756.2624451321599
 30
0.0
  0
VERTEX
  5
59F
  8
LAYER01
 62
     7
 10
6149.6262044600826
 20
6799.8768153765577
 30
0.0
  0
VERTEX
  5
5A0
  8
LAYER01
 62
     7
 10
6157.5560899590637
 20
6843.4911856209546
 30
0.0
  0
VERTEX
  5
5A1
  8
LAYER01
 62
     7
 10
6161.5210327085542
 20
6887.1055558653534
 30
0.0
  0
VERTEX
  5
5A2
  8
LAYER01
 62
     7
 10
6165.4859754580457
 20
6934.6848688592418
 30
0.0
  0
VERTEX
  5
5A3
  8
LAYER01
 62
     7
 10
6165.4859754580457
 20
6934.6848688592418
 30
0.0
  0
VERTEX
  5
5A4
  8
LAYER01
 62
     7
 10
6161.5210327085542
 20
6978.2992391036396
 30
0.0
  0
VERTEX
  5
5A5
  8
LAYER01
 62
     7
 10
6153.5911472095731
 20
7021.9136093480374
 30
0.0
  0
VERTEX
  5
5A6
  8
LAYER01
 62
     7
 10
6141.6963189611024
 20
7061.5630368429447
 30
0.0
  0
VERTEX
  5
5A7
  8
LAYER01
 62
     7
 10
6129.8014907126289
 20
7101.212464337852
 30
0.0
  0
VERTEX
  5
5A8
  8
LAYER01
 62
     7
 10
6109.9767769651762
 20
7136.8969490832678
 30
0.0
  0
VERTEX
  5
5A9
  8
LAYER01
 62
     7
 10
6090.1520632177217
 20
7172.5814338286846
 30
0.0
  0
VERTEX
  5
5AA
  8
LAYER01
 62
     7
 10
6066.3624067207766
 20
7208.2659185741013
 30
0.0
  0
VERTEX
  5
5AB
  8
LAYER01
 62
     7
 10
6038.6078074743427
 20
7236.0205178205342
 30
0.0
  0
VERTEX
  5
5AC
  8
LAYER01
 62
     7
 10
6006.8882654784175
 20
7263.7751170669708
 30
0.0
  0
VERTEX
  5
5AD
  8
LAYER01
 62
     7
 10
5975.1687234824913
 20
7291.5297163134046
 30
0.0
  0
VERTEX
  5
5AE
  8
LAYER01
 62
     7
 10
5939.4842387370763
 20
7311.3544300608592
 30
0.0
  0
VERTEX
  5
5AF
  8
LAYER01
 62
     7
 10
5903.7997539916587
 20
7331.1791438083128
 30
0.0
  0
VERTEX
  5
5B0
  8
LAYER01
 62
     7
 10
5864.1503264967514
 20
7347.038914806275
 30
0.0
  0
VERTEX
  5
5B1
  8
LAYER01
 62
     7
 10
5824.5008990018441
 20
7358.9337430547466
 30
0.0
  0
VERTEX
  5
5B2
  8
LAYER01
 62
     7
 10
5780.8865287574472
 20
7366.8636285537286
 30
0.0
  0
VERTEX
  5
5B3
  8
LAYER01
 62
     7
 10
5737.2721585130494
 20
7370.8285713032201
 30
0.0
  0
VERTEX
  5
5B4
  8
LAYER01
 62
     7
 10
5737.2721585130494
 20
7370.8285713032201
 30
0.0
  0
SEQEND
  5
5B5
  8
LAYER01
 62
     7
  0
POLYLINE
  5
5B6
  8
LAYER01
 62
     7
 66
     1
 10
0.0
 20
0.0
 30
0.0
 70
     1
  0
VERTEX
  5
5B7
  8
LAYER01
 62
     7
 10
5725.3773302645768
 20
6637.3141626474389
 30
0.0
  0
VERTEX
  5
5B8
  8
LAYER01
 62
     7
 10
5725.3773302645768
 20
6637.3141626474389
 30
0.0
  0
VERTEX
  5
5B9
  8
LAYER01
 62
     7
 10
5697.6227310181421
 20
6641.2791053969304
 30
0.0
  0
VERTEX
  5
5BA
  8
LAYER01
 62
     7
 10
5669.8681317717073
 20
6645.2440481464209
 30
0.0
  0
VERTEX
  5
5BB
  8
LAYER01
 62
     7
 10
5642.1135325252717
 20
6649.2089908959106
 30
0.0
  0
VERTEX
  5
5BC
  8
LAYER01
 62
     7
 10
5614.3589332788379
 20
6661.103819144384
 30
0.0
  0
VERTEX
  5
5BD
  8
LAYER01
 62
     7
 10
5590.5692767818919
 20
6672.9986473928557
 30
0.0
  0
VERTEX
  5
5BE
  8
LAYER01
 62
     7
 10
5566.7796202849486
 20
6688.8584183908179
 30
0.0
  0
VERTEX
  5
5BF
  8
LAYER01
 62
     7
 10
5546.9549065374968
 20
6704.718189388781
 30
0.0
  0
VERTEX
  5
5C0
  8
LAYER01
 62
     7
 10
5527.1301927900431
 20
6724.5429031362346
 30
0.0
  0
VERTEX
  5
5C1
  8
LAYER01
 62
     7
 10
5507.3054790425886
 20
6744.3676168836892
 30
0.0
  0
VERTEX
  5
5C2
  8
LAYER01
 62
     7
 10
5491.4457080446264
 20
6764.1923306311428
 30
0.0
  0
VERTEX
  5
5C3
  8
LAYER01
 62
     7
 10
5479.5508797961529
 20
6787.9819871280861
 30
0.0
  0
VERTEX
  5
5C4
  8
LAYER01
 62
     7
 10
5467.6560515476813
 20
6815.7365863745208
 30
0.0
  0
VERTEX
  5
5C5
  8
LAYER01
 62
     7
 10
5455.7612232992096
 20
6839.5262428714641
 30
0.0
  0
VERTEX
  5
5C6
  8
LAYER01
 62
     7
 10
5451.7962805497182
 20
6867.2808421178988
 30
0.0
  0
VERTEX
  5
5C7
  8
LAYER01
 62
     7
 10
5443.8663950507362
 20
6895.0354413643354
 30
0.0
  0
VERTEX
  5
5C8
  8
LAYER01
 62
     7
 10
5443.8663950507362
 20
6926.7549833602607
 30
0.0
  0
VERTEX
  5
5C9
  8
LAYER01
 62
     7
 10
5443.8663950507362
 20
6926.7549833602607
 30
0.0
  0
VERTEX
  5
5CA
  8
LAYER01
 62
     7
 10
5447.8313378002267
 20
6954.5095826066963
 30
0.0
  0
VERTEX
  5
5CB
  8
LAYER01
 62
     7
 10
5451.7962805497182
 20
6982.264181853131
 30
0.0
  0
VERTEX
  5
5CC
  8
LAYER01
 62
     7
 10
5459.7261660486993
 20
7010.0187810995658
 30
0.0
  0
VERTEX
  5
5CD
  8
LAYER01
 62
     7
 10
5467.6560515476813
 20
7037.7733803459996
 30
0.0
  0
VERTEX
  5
5CE
  8
LAYER01
 62
     7
 10
5479.5508797961529
 20
7061.5630368429447
 30
0.0
  0
VERTEX
  5
5CF
  8
LAYER01
 62
     7
 10
5495.410650794116
 20
7085.3526933398889
 30
0.0
  0
VERTEX
  5
5D0
  8
LAYER01
 62
     7
 10
5511.27042179208
 20
7105.1774070873416
 30
0.0
  0
VERTEX
  5
5D1
  8
LAYER01
 62
     7
 10
5531.0951355395327
 20
7125.0021208347962
 30
0.0
  0
VERTEX
  5
5D2
  8
LAYER01
 62
     7
 10
5550.9198492869864
 20
7144.826834582248
 30
0.0
  0
VERTEX
  5
5D3
  8
LAYER01
 62
     7
 10
5570.74456303444
 20
7160.6866055802111
 30
0.0
  0
VERTEX
  5
5D4
  8
LAYER01
 62
     7
 10
5594.5342195313842
 20
7176.5463765781742
 30
0.0
  0
VERTEX
  5
5D5
  8
LAYER01
 62
     7
 10
5622.288818777819
 20
7188.4412048266468
 30
0.0
  0
VERTEX
  5
5D6
  8
LAYER01
 62
     7
 10
5646.0784752747632
 20
7196.3710903256278
 30
0.0
  0
VERTEX
  5
5D7
  8
LAYER01
 62
     7
 10
5673.8330745211979
 20
7204.3009758246098
 30
0.0
  0
VERTEX
  5
5D8
  8
LAYER01
 62
     7
 10
5701.5876737676326
 20
7208.2659185741013
 30
0.0
  0
VERTEX
  5
5D9
  8
LAYER01
 62
     7
 10
5733.3072157635588
 20
7208.2659185741013
 30
0.0
  0
VERTEX
  5
5DA
  8
LAYER01
 62
     7
 10
5733.3072157635588
 20
7208.2659185741013
 30
0.0
  0
VERTEX
  5
5DB
  8
LAYER01
 62
     7
 10
5761.0618150099936
 20
7204.3009758246098
 30
0.0
  0
VERTEX
  5
5DC
  8
LAYER01
 62
     7
 10
5788.8164142564283
 20
7200.3360330751193
 30
0.0
  0
VERTEX
  5
5DD
  8
LAYER01
 62
     7
 10
5812.6060707533716
 20
7192.4061475761382
 30
0.0
  0
VERTEX
  5
5DE
  8
LAYER01
 62
     7
 10
5840.3606699998072
 20
7184.4762620771562
 30
0.0
  0
VERTEX
  5
5DF
  8
LAYER01
 62
     7
 10
5860.1853837472609
 20
7172.5814338286846
 30
0.0
  0
VERTEX
  5
5E0
  8
LAYER01
 62
     7
 10
5883.975040244205
 20
7156.7216628307224
 30
0.0
  0
VERTEX
  5
5E1
  8
LAYER01
 62
     7
 10
5903.7997539916587
 20
7140.8618918327593
 30
0.0
  0
VERTEX
  5
5E2
  8
LAYER01
 62
     7
 10
5923.6244677391132
 20
7125.0021208347962
 30
0.0
  0
VERTEX
  5
5E3
  8
LAYER01
 62
     7
 10
5939.4842387370763
 20
7105.1774070873416
 30
0.0
  0
VERTEX
  5
5E4
  8
LAYER01
 62
     7
 10
5955.3440097350367
 20
7081.3877505903993
 30
0.0
  0
VERTEX
  5
5E5
  8
LAYER01
 62
     7
 10
5971.2037807329998
 20
7061.5630368429447
 30
0.0
  0
VERTEX
  5
5E6
  8
LAYER01
 62
     7
 10
5983.0986089814742
 20
7037.7733803459996
 30
0.0
  0
VERTEX
  5
5E7
  8
LAYER01
 62
     7
 10
5991.0284944804544
 20
7010.0187810995658
 30
0.0
  0
VERTEX
  5
5E8
  8
LAYER01
 62
     7
 10
5998.9583799794354
 20
6986.2291246026198
 30
0.0
  0
VERTEX
  5
5E9
  8
LAYER01
 62
     7
 10
6002.923322728926
 20
6958.4745253561859
 30
0.0
  0
VERTEX
  5
5EA
  8
LAYER01
 62
     7
 10
6002.923322728926
 20
6930.7199261097512
 30
0.0
  0
VERTEX
  5
5EB
  8
LAYER01
 62
     7
 10
6002.923322728926
 20
6930.7199261097512
 30
0.0
  0
VERTEX
  5
5EC
  8
LAYER01
 62
     7
 10
6002.923322728926
 20
6899.0003841138259
 30
0.0
  0
VERTEX
  5
5ED
  8
LAYER01
 62
     7
 10
5998.9583799794354
 20
6871.2457848673903
 30
0.0
  0
VERTEX
  5
5EE
  8
LAYER01
 62
     7
 10
5994.9934372299449
 20
6843.4911856209546
 30
0.0
  0
VERTEX
  5
5EF
  8
LAYER01
 62
     7
 10
5983.0986089814742
 20
6819.7015291240123
 30
0.0
  0
VERTEX
  5
5F0
  8
LAYER01
 62
     7
 10
5975.1687234824913
 20
6791.9469298775757
 30
0.0
  0
VERTEX
  5
5F1
  8
LAYER01
 62
     7
 10
5959.3089524845291
 20
6768.1572733806324
 30
0.0
  0
VERTEX
  5
5F2
  8
LAYER01
 62
     7
 10
5943.449181486566
 20
6744.3676168836892
 30
0.0
  0
VERTEX
  5
5F3
  8
LAYER01
 62
     7
 10
5923.6244677391132
 20
6724.5429031362346
 30
0.0
  0
VERTEX
  5
5F4
  8
LAYER01
 62
     7
 10
5903.7997539916587
 20
6704.718189388781
 30
0.0
  0
VERTEX
  5
5F5
  8
LAYER01
 62
     7
 10
5883.975040244205
 20
6688.8584183908179
 30
0.0
  0
VERTEX
  5
5F6
  8
LAYER01
 62
     7
 10
5860.1853837472609
 20
6672.9986473928557
 30
0.0
  0
VERTEX
  5
5F7
  8
LAYER01
 62
     7
 10
5836.3957272503167
 20
6661.103819144384
 30
0.0
  0
VERTEX
  5
5F8
  8
LAYER01
 62
     7
 10
5808.641128003881
 20
6653.173933645402
 30
0.0
  0
VERTEX
  5
5F9
  8
LAYER01
 62
     7
 10
5780.8865287574472
 20
6645.2440481464209
 30
0.0
  0
VERTEX
  5
5FA
  8
LAYER01
 62
     7
 10
5753.1319295110115
 20
6641.2791053969304
 30
0.0
  0
VERTEX
  5
5FB
  8
LAYER01
 62
     7
 10
5725.3773302645768
 20
6637.3141626474389
 30
0.0
  0
VERTEX
  5
5FC
  8
LAYER01
 62
     7
 10
5725.3773302645768
 20
6637.3141626474389
 30
0.0
  0
SEQEND
  5
5FD
  8
LAYER01
 62
     7
  0
POLYLINE
  5
5FE
  8
LAYER01
 62
     7
 66
     1
 10
0.0
 20
0.0
 30
0.0
 70
     1
  0
VERTEX
  5
5FF
  8
LAYER01
 62
     7
 10
6042.5727502238333
 20
7351.0038575557664
 30
0.0
  0
VERTEX
  5
600
  8
LAYER01
 62
     7
 10
6462.8566816698476
 20
7351.0038575557664
 30
0.0
  0
VERTEX
  5
601
  8
LAYER01
 62
     7
 10
6462.8566816698476
 20
7351.0038575557664
 30
0.0
  0
VERTEX
  5
602
  8
LAYER01
 62
     7
 10
6510.4359946637369
 20
7343.0739720567844
 30
0.0
  0
VERTEX
  5
603
  8
LAYER01
 62
     7
 10
6554.0503649081338
 20
7323.2492583093299
 30
0.0
  0
VERTEX
  5
604
  8
LAYER01
 62
     7
 10
6589.7348496535496
 20
7299.4596018123866
 30
0.0
  0
VERTEX
  5
605
  8
LAYER01
 62
     7
 10
6621.4543916494758
 20
7267.7400598164604
 30
0.0
  0
VERTEX
  5
606
  8
LAYER01
 62
     7
 10
6649.2089908959106
 20
7236.0205178205342
 30
0.0
  0
VERTEX
  5
607
  8
LAYER01
 62
     7
 10
6669.0337046433651
 20
7196.3710903256278
 30
0.0
  0
VERTEX
  5
608
  8
LAYER01
 62
     7
 10
6680.9285328918368
 20
7148.7917773317413
 30
0.0
  0
VERTEX
  5
609
  8
LAYER01
 62
     7
 10
6684.8934756413273
 20
7105.1774070873416
 30
0.0
  0
VERTEX
  5
60A
  8
LAYER01
 62
     7
 10
6684.8934756413273
 20
7105.1774070873416
 30
0.0
  0
VERTEX
  5
60B
  8
LAYER01
 62
     7
 10
6680.9285328918368
 20
7057.5980940934542
 30
0.0
  0
VERTEX
  5
60C
  8
LAYER01
 62
     7
 10
6672.9986473928557
 20
7017.948666598546
 30
0.0
  0
VERTEX
  5
60D
  8
LAYER01
 62
     7
 10
6657.1388763948926
 20
6978.2992391036396
 30
0.0
  0
VERTEX
  5
60E
  8
LAYER01
 62
     7
 10
6637.3141626474389
 20
6942.6147543582238
 30
0.0
  0
VERTEX
  5
60F
  8
LAYER01
 62
     7
 10
6609.5595634010042
 20
6910.8952123622976
 30
0.0
  0
VERTEX
  5
610
  8
LAYER01
 62
     7
 10
6581.8049641545704
 20
6887.1055558653534
 30
0.0
  0
VERTEX
  5
611
  8
LAYER01
 62
     7
 10
6542.1555366596622
 20
6863.3158993684092
 30
0.0
  0
VERTEX
  5
612
  8
LAYER01
 62
     7
 10
6502.506109164754
 20
6847.4561283704461
 30
0.0
  0
VERTEX
  5
613
  8
LAYER01
 62
     7
 10
6760.2273878816522
 20
6502.506109164754
 30
0.0
  0
VERTEX
  5
614
  8
LAYER01
 62
     7
 10
6561.9802504071158
 20
6502.506109164754
 30
0.0
  0
VERTEX
  5
615
  8
LAYER01
 62
     7
 10
6217.0302312014246
 20
6942.6147543582238
 30
0.0
  0
VERTEX
  5
616
  8
LAYER01
 62
     7
 10
6411.3124259264687
 20
6942.6147543582238
 30
0.0
  0
VERTEX
  5
617
  8
LAYER01
 62
     7
 10
6411.3124259264687
 20
6942.6147543582238
 30
0.0
  0
VERTEX
  5
618
  8
LAYER01
 62
     7
 10
6435.102082423412
 20
6950.5446398572049
 30
0.0
  0
VERTEX
  5
619
  8
LAYER01
 62
     7
 10
6454.9267961708656
 20
6958.4745253561859
 30
0.0
  0
VERTEX
  5
61A
  8
LAYER01
 62
     7
 10
6470.7865671688287
 20
6974.334296354149
 30
0.0
  0
VERTEX
  5
61B
  8
LAYER01
 62
     7
 10
6486.6463381667918
 20
6990.1940673521131
 30
0.0
  0
VERTEX
  5
61C
  8
LAYER01
 62
     7
 10
6498.5411664152653
 20
7010.0187810995658
 30
0.0
  0
VERTEX
  5
61D
  8
LAYER01
 62
     7
 10
6510.4359946637369
 20
7029.8434948470176
 30
0.0
  0
VERTEX
  5
61E
  8
LAYER01
 62
     7
 10
6514.4009374132283
 20
7053.6331513439627
 30
0.0
  0
VERTEX
  5
61F
  8
LAYER01
 62
     7
 10
6514.4009374132283
 20
7077.4228078409069
 30
0.0
  0
VERTEX
  5
620
  8
LAYER01
 62
     7
 10
6514.4009374132283
 20
7077.4228078409069
 30
0.0
  0
VERTEX
  5
621
  8
LAYER01
 62
     7
 10
6514.4009374132283
 20
7101.212464337852
 30
0.0
  0
VERTEX
  5
622
  8
LAYER01
 62
     7
 10
6506.4710519142463
 20
7121.0371780853047
 30
0.0
  0
VERTEX
  5
623
  8
LAYER01
 62
     7
 10
6498.5411664152653
 20
7140.8618918327593
 30
0.0
  0
VERTEX
  5
624
  8
LAYER01
 62
     7
 10
6486.6463381667918
 20
7160.6866055802111
 30
0.0
  0
VERTEX
  5
625
  8
LAYER01
 62
     7
 10
6470.7865671688287
 20
7176.5463765781742
 30
0.0
  0
VERTEX
  5
626
  8
LAYER01
 62
     7
 10
6454.9267961708656
 20
7188.4412048266468
 30
0.0
  0
VERTEX
  5
627
  8
LAYER01
 62
     7
 10
6431.1371396739214
 20
7200.3360330751193
 30
0.0
  0
VERTEX
  5
628
  8
LAYER01
 62
     7
 10
6411.3124259264687
 20
7208.2659185741013
 30
0.0
  0
VERTEX
  5
629
  8
LAYER01
 62
     7
 10
6185.3106892054993
 20
7208.2659185741013
 30
0.0
  0
VERTEX
  5
62A
  8
LAYER01
 62
     7
 10
6042.5727502238333
 20
7351.0038575557664
 30
0.0
  0
VERTEX
  5
62B
  8
LAYER01
 62
     7
 10
6042.5727502238333
 20
7351.0038575557664
 30
0.0
  0
SEQEND
  5
62C
  8
LAYER01
 62
     7
  0
POLYLINE
  5
62D
  8
LAYER01
 62
     7
 66
     1
 10
0.0
 20
0.0
 30
0.0
 70
     1
  0
VERTEX
  5
62E
  8
LAYER01
 62
     7
 10
6867.2808421178988
 20
7140.8618918327593
 30
0.0
  0
VERTEX
  5
62F
  8
LAYER01
 62
     7
 10
6867.2808421178988
 20
7140.8618918327593
 30
0.0
  0
VERTEX
  5
630
  8
LAYER01
 62
     7
 10
6887.1055558653534
 20
7144.826834582248
 30
0.0
  0
VERTEX
  5
631
  8
LAYER01
 62
     7
 10
6906.930269612807
 20
7148.7917773317413
 30
0.0
  0
VERTEX
  5
632
  8
LAYER01
 62
     7
 10
6926.7549833602607
 20
7160.6866055802111
 30
0.0
  0
VERTEX
  5
633
  8
LAYER01
 62
     7
 10
6942.6147543582238
 20
7172.5814338286846
 30
0.0
  0
VERTEX
  5
634
  8
LAYER01
 62
     7
 10
6954.5095826066963
 20
7188.4412048266468
 30
0.0
  0
VERTEX
  5
635
  8
LAYER01
 62
     7
 10
6962.4394681056774
 20
7204.3009758246098
 30
0.0
  0
VERTEX
  5
636
  8
LAYER01
 62
     7
 10
6970.3693536046594
 20
7224.1256895720644
 30
0.0
  0
VERTEX
  5
637
  8
LAYER01
 62
     7
 10
6970.3693536046594
 20
7247.9153460690077
 30
0.0
  0
VERTEX
  5
638
  8
LAYER01
 62
     7
 10
6970.3693536046594
 20
7247.9153460690077
 30
0.0
  0
VERTEX
  5
639
  8
LAYER01
 62
     7
 10
6970.3693536046594
 20
7267.7400598164604
 30
0.0
  0
VERTEX
  5
63A
  8
LAYER01
 62
     7
 10
6962.4394681056774
 20
7287.5647735639141
 30
0.0
  0
VERTEX
  5
63B
  8
LAYER01
 62
     7
 10
6954.5095826066963
 20
7303.4245445618772
 30
0.0
  0
VERTEX
  5
63C
  8
LAYER01
 62
     7
 10
6942.6147543582238
 20
7319.2843155598412
 30
0.0
  0
VERTEX
  5
63D
  8
LAYER01
 62
     7
 10
6926.7549833602607
 20
7331.1791438083128
 30
0.0
  0
VERTEX
  5
63E
  8
LAYER01
 62
     7
 10
6906.930269612807
 20
7343.0739720567844
 30
0.0
  0
VERTEX
  5
63F
  8
LAYER01
 62
     7
 10
6887.1055558653534
 20
7347.038914806275
 30
0.0
  0
VERTEX
  5
640
  8
LAYER01
 62
     7
 10
6867.2808421178988
 20
7351.0038575557664
 30
0.0
  0
VERTEX
  5
641
  8
LAYER01
 62
     7
 10
6867.2808421178988
 20
7351.0038575557664
 30
0.0
  0
VERTEX
  5
642
  8
LAYER01
 62
     7
 10
6847.4561283704461
 20
7347.038914806275
 30
0.0
  0
VERTEX
  5
643
  8
LAYER01
 62
     7
 10
6827.6314146229934
 20
7343.0739720567844
 30
0.0
  0
VERTEX
  5
644
  8
LAYER01
 62
     7
 10
6807.8067008755397
 20
7331.1791438083128
 30
0.0
  0
VERTEX
  5
645
  8
LAYER01
 62
     7
 10
6791.9469298775757
 20
7319.2843155598412
 30
0.0
  0
VERTEX
  5
646
  8
LAYER01
 62
     7
 10
6780.0521016291041
 20
7303.4245445618772
 30
0.0
  0
VERTEX
  5
647
  8
LAYER01
 62
     7
 10
6772.122216130123
 20
7287.5647735639141
 30
0.0
  0
VERTEX
  5
648
  8
LAYER01
 62
     7
 10
6764.1923306311428
 20
7267.7400598164604
 30
0.0
  0
VERTEX
  5
649
  8
LAYER01
 62
     7
 10
6764.1923306311428
 20
7247.9153460690077
 30
0.0
  0
VERTEX
  5
64A
  8
LAYER01
 62
     7
 10
6764.1923306311428
 20
7247.9153460690077
 30
0.0
  0
VERTEX
  5
64B
  8
LAYER01
 62
     7
 10
6764.1923306311428
 20
7224.1256895720644
 30
0.0
  0
VERTEX
  5
64C
  8
LAYER01
 62
     7
 10
6772.122216130123
 20
7204.3009758246098
 30
0.0
  0
VERTEX
  5
64D
  8
LAYER01
 62
     7
 10
6780.0521016291041
 20
7188.4412048266468
 30
0.0
  0
VERTEX
  5
64E
  8
LAYER01
 62
     7
 10
6791.9469298775757
 20
7172.5814338286846
 30
0.0
  0
VERTEX
  5
64F
  8
LAYER01
 62
     7
 10
6807.8067008755397
 20
7160.6866055802111
 30
0.0
  0
VERTEX
  5
650
  8
LAYER01
 62
     7
 10
6827.6314146229934
 20
7148.7917773317413
 30
0.0
  0
VERTEX
  5
651
  8
LAYER01
 62
     7
 10
6847.4561283704461
 20
7144.826834582248
 30
0.0
  0
VERTEX
  5
652
  8
LAYER01
 62
     7
 10
6867.2808421178988
 20
7140.8618918327593
 30
0.0
  0
VERTEX
  5
653
  8
LAYER01
 62
     7
 10
6867.2808421178988
 20
7140.8618918327593
 30
0.0
  0
SEQEND
  5
654
  8
LAYER01
 62
     7
  0
POLYLINE
  5
655
  8
LAYER01
 62
     7
 66
     1
 10
0.0
 20
0.0
 30
0.0
 70
     1
  0
VERTEX
  5
656
  8
LAYER01
 62
     7
 10
6867.2808421178988
 20
7335.1440865578043
 30
0.0
  0
VERTEX
  5
657
  8
LAYER01
 62
     7
 10
6867.2808421178988
 20
7335.1440865578043
 30
0.0
  0
VERTEX
  5
658
  8
LAYER01
 62
     7
 10
6883.1406131158628
 20
7331.1791438083128
 30
0.0
  0
VERTEX
  5
659
  8
LAYER01
 62
     7
 10
6899.0003841138259
 20
7327.2142010588213
 30
0.0
  0
VERTEX
  5
65A
  8
LAYER01
 62
     7
 10
6914.8601551117881
 20
7319.2843155598412
 30
0.0
  0
VERTEX
  5
65B
  8
LAYER01
 62
     7
 10
6926.7549833602607
 20
7307.3894873113677
 30
0.0
  0
VERTEX
  5
65C
  8
LAYER01
 62
     7
 10
6938.6498116087323
 20
7295.4946590628961
 30
0.0
  0
VERTEX
  5
65D
  8
LAYER01
 62
     7
 10
6946.5796971077143
 20
7279.634888064933
 30
0.0
  0
VERTEX
  5
65E
  8
LAYER01
 62
     7
 10
6954.5095826066963
 20
7263.7751170669708
 30
0.0
  0
VERTEX
  5
65F
  8
LAYER01
 62
     7
 10
6954.5095826066963
 20
7247.9153460690077
 30
0.0
  0
VERTEX
  5
660
  8
LAYER01
 62
     7
 10
6954.5095826066963
 20
7247.9153460690077
 30
0.0
  0
VERTEX
  5
661
  8
LAYER01
 62
     7
 10
6954.5095826066963
 20
7228.0906323215549
 30
0.0
  0
VERTEX
  5
662
  8
LAYER01
 62
     7
 10
6946.5796971077143
 20
7212.2308613235909
 30
0.0
  0
VERTEX
  5
663
  8
LAYER01
 62
     7
 10
6938.6498116087323
 20
7196.3710903256278
 30
0.0
  0
VERTEX
  5
664
  8
LAYER01
 62
     7
 10
6926.7549833602607
 20
7184.4762620771562
 30
0.0
  0
VERTEX
  5
665
  8
LAYER01
 62
     7
 10
6914.8601551117881
 20
7172.5814338286846
 30
0.0
  0
VERTEX
  5
666
  8
LAYER01
 62
     7
 10
6899.0003841138259
 20
7164.6515483297017
 30
0.0
  0
VERTEX
  5
667
  8
LAYER01
 62
     7
 10
6883.1406131158628
 20
7160.6866055802111
 30
0.0
  0
VERTEX
  5
668
  8
LAYER01
 62
     7
 10
6867.2808421178988
 20
7160.6866055802111
 30
0.0
  0
VERTEX
  5
669
  8
LAYER01
 62
     7
 10
6867.2808421178988
 20
7160.6866055802111
 30
0.0
  0
VERTEX
  5
66A
  8
LAYER01
 62
     7
 10
6851.4210711199376
 20
7160.6866055802111
 30
0.0
  0
VERTEX
  5
66B
  8
LAYER01
 62
     7
 10
6831.5963573724839
 20
7164.6515483297017
 30
0.0
  0
VERTEX
  5
66C
  8
LAYER01
 62
     7
 10
6819.7015291240123
 20
7172.5814338286846
 30
0.0
  0
VERTEX
  5
66D
  8
LAYER01
 62
     7
 10
6803.8417581260492
 20
7184.4762620771562
 30
0.0
  0
VERTEX
  5
66E
  8
LAYER01
 62
     7
 10
6795.9118726270672
 20
7196.3710903256278
 30
0.0
  0
VERTEX
  5
66F
  8
LAYER01
 62
     7
 10
6787.9819871280861
 20
7212.2308613235909
 30
0.0
  0
VERTEX
  5
670
  8
LAYER01
 62
     7
 10
6780.0521016291041
 20
7228.0906323215549
 30
0.0
  0
VERTEX
  5
671
  8
LAYER01
 62
     7
 10
6780.0521016291041
 20
7247.9153460690077
 30
0.0
  0
VERTEX
  5
672
  8
LAYER01
 62
     7
 10
6780.0521016291041
 20
7247.9153460690077
 30
0.0
  0
VERTEX
  5
673
  8
LAYER01
 62
     7
 10
6780.0521016291041
 20
7263.7751170669708
 30
0.0
  0
VERTEX
  5
674
  8
LAYER01
 62
     7
 10
6787.9819871280861
 20
7279.634888064933
 30
0.0
  0
VERTEX
  5
675
  8
LAYER01
 62
     7
 10
6795.9118726270672
 20
7295.4946590628961
 30
0.0
  0
VERTEX
  5
676
  8
LAYER01
 62
     7
 10
6803.8417581260492
 20
7307.3894873113677
 30
0.0
  0
VERTEX
  5
677
  8
LAYER01
 62
     7
 10
6819.7015291240123
 20
7319.2843155598412
 30
0.0
  0
VERTEX
  5
678
  8
LAYER01
 62
     7
 10
6831.5963573724839
 20
7327.2142010588213
 30
0.0
  0
VERTEX
  5
679
  8
LAYER01
 62
     7
 10
6851.4210711199376
 20
7331.1791438083128
 30
0.0
  0
VERTEX
  5
67A
  8
LAYER01
 62
     7
 10
6867.2808421178988
 20
7335.1440865578043
 30
0.0
  0
VERTEX
  5
67B
  8
LAYER01
 62
     7
 10
6867.2808421178988
 20
7335.1440865578043
 30
0.0
  0
SEQEND
  5
67C
  8
LAYER01
 62
     7
  0
POLYLINE
  5
67D
  8
LAYER01
 62
     7
 66
     1
 10
0.0
 20
0.0
 30
0.0
 70
     1
  0
VERTEX
  5
67E
  8
LAYER01
 62
     7
 10
6883.1406131158628
 20
7239.9854605700266
 30
0.0
  0
VERTEX
  5
67F
  8
LAYER01
 62
     7
 10
6883.1406131158628
 20
7239.9854605700266
 30
0.0
  0
VERTEX
  5
680
  8
LAYER01
 62
     7
 10
6895.0354413643354
 20
7243.950403319518
 30
0.0
  0
VERTEX
  5
681
  8
LAYER01
 62
     7
 10
6906.930269612807
 20
7247.9153460690077
 30
0.0
  0
VERTEX
  5
682
  8
LAYER01
 62
     7
 10
6914.8601551117881
 20
7259.8101743174793
 30
0.0
  0
VERTEX
  5
683
  8
LAYER01
 62
     7
 10
6914.8601551117881
 20
7271.705002565951
 30
0.0
  0
VERTEX
  5
684
  8
LAYER01
 62
     7
 10
6914.8601551117881
 20
7271.705002565951
 30
0.0
  0
VERTEX
  5
685
  8
LAYER01
 62
     7
 10
6914.8601551117881
 20
7287.5647735639141
 30
0.0
  0
VERTEX
  5
686
  8
LAYER01
 62
     7
 10
6902.9653268633156
 20
7299.4596018123866
 30
0.0
  0
VERTEX
  5
687
  8
LAYER01
 62
     7
 10
6891.0704986148439
 20
7303.4245445618772
 30
0.0
  0
VERTEX
  5
688
  8
LAYER01
 62
     7
 10
6875.2107276168808
 20
7303.4245445618772
 30
0.0
  0
VERTEX
  5
689
  8
LAYER01
 62
     7
 10
6827.6314146229934
 20
7303.4245445618772
 30
0.0
  0
VERTEX
  5
68A
  8
LAYER01
 62
     7
 10
6827.6314146229934
 20
7188.4412048266468
 30
0.0
  0
VERTEX
  5
68B
  8
LAYER01
 62
     7
 10
6843.4911856209546
 20
7188.4412048266468
 30
0.0
  0
VERTEX
  5
68C
  8
LAYER01
 62
     7
 10
6843.4911856209546
 20
7239.9854605700266
 30
0.0
  0
VERTEX
  5
68D
  8
LAYER01
 62
     7
 10
6867.2808421178988
 20
7239.9854605700266
 30
0.0
  0
VERTEX
  5
68E
  8
LAYER01
 62
     7
 10
6895.0354413643354
 20
7188.4412048266468
 30
0.0
  0
VERTEX
  5
68F
  8
LAYER01
 62
     7
 10
6914.8601551117881
 20
7188.4412048266468
 30
0.0
  0
VERTEX
  5
690
  8
LAYER01
 62
     7
 10
6883.1406131158628
 20
7239.9854605700266
 30
0.0
  0
VERTEX
  5
691
  8
LAYER01
 62
     7
 10
6883.1406131158628
 20
7239.9854605700266
 30
0.0
  0
SEQEND
  5
692
  8
LAYER01
 62
     7
  0
POLYLINE
  5
693
  8
LAYER01
 62
     7
 66
     1
 10
0.0
 20
0.0
 30
0.0
 70
     1
  0
VERTEX
  5
694
  8
LAYER01
 62
     7
 10
6871.2457848673903
 20
7287.5647735639141
 30
0.0
  0
VERTEX
  5
695
  8
LAYER01
 62
     7
 10
6871.2457848673903
 20
7287.5647735639141
 30
0.0
  0
VERTEX
  5
696
  8
LAYER01
 62
     7
 10
6891.0704986148439
 20
7283.5998308144244
 30
0.0
  0
VERTEX
  5
697
  8
LAYER01
 62
     7
 10
6899.0003841138259
 20
7279.634888064933
 30
0.0
  0
VERTEX
  5
698
  8
LAYER01
 62
     7
 10
6899.0003841138259
 20
7271.705002565951
 30
0.0
  0
VERTEX
  5
699
  8
LAYER01
 62
     7
 10
6899.0003841138259
 20
7271.705002565951
 30
0.0
  0
VERTEX
  5
69A
  8
LAYER01
 62
     7
 10
6895.0354413643354
 20
7263.7751170669708
 30
0.0
  0
VERTEX
  5
69B
  8
LAYER01
 62
     7
 10
6887.1055558653534
 20
7259.8101743174793
 30
0.0
  0
VERTEX
  5
69C
  8
LAYER01
 62
     7
 10
6863.3158993684092
 20
7255.8452315679879
 30
0.0
  0
VERTEX
  5
69D
  8
LAYER01
 62
     7
 10
6843.4911856209546
 20
7255.8452315679879
 30
0.0
  0
VERTEX
  5
69E
  8
LAYER01
 62
     7
 10
6843.4911856209546
 20
7287.5647735639141
 30
0.0
  0
VERTEX
  5
69F
  8
LAYER01
 62
     7
 10
6871.2457848673903
 20
7287.5647735639141
 30
0.0
  0
VERTEX
  5
6A0
  8
LAYER01
 62
     7
 10
6871.2457848673903
 20
7287.5647735639141
 30
0.0
  0
SEQEND
  5
6A1
  8
LAYER01
 62
     7
  0
ENDBLK
  5
6A2
  8
0
 62
     7
  0
BLOCK
  8
0
  2
TRIGO-G1
 70
     0
 10
0.0
 20
0.0
 30
0.0
  3
TRIGO-G1
  1

  0
POLYLINE
  5
8DB
  8
LAYER01
  6
CONTINUOUS
 62
     7
 66
     1
 10
0.0
 20
0.0
 30
0.0
 70
     1
  0
VERTEX
  5
111C
  8
LAYER01
  6
CONTINUOUS
 62
     7
 10
5333.4588920000006
 20
1798.015065
 30
0.0
  0
VERTEX
  5
111D
  8
LAYER01
  6
CONTINUOUS
 62
     7
 10
5376.0820270000004
 20
1798.015065
 30
0.0
  0
VERTEX
  5
111E
  8
LAYER01
  6
CONTINUOUS
 62
     7
 10
5429.6087539999999
 20
1676.0930760000001
 30
0.0
  0
VERTEX
  5
111F
  8
LAYER01
  6
CONTINUOUS
 62
     7
 10
5483.1354810000003
 20
1798.015065
 30
0.0
  0
VERTEX
  5
1120
  8
LAYER01
  6
CONTINUOUS
 62
     7
 10
5527.7410869999994
 20
1798.015065
 30
0.0
  0
VERTEX
  5
1121
  8
LAYER01
  6
CONTINUOUS
 62
     7
 10
5429.6087539999999
 20
1579.9432139999999
 30
0.0
  0
VERTEX
  5
1122
  8
LAYER01
  6
CONTINUOUS
 62
     7
 10
5333.4588920000006
 20
1798.015065
 30
0.0
  0
VERTEX
  5
1123
  8
LAYER01
  6
CONTINUOUS
 62
     7
 10
5333.4588920000006
 20
1798.015065
 30
0.0
  0
SEQEND
  5
1124
  8
LAYER01
  6
CONTINUOUS
 62
     7
  0
POLYLINE
  5
8DC
  8
LAYER01
  6
CONTINUOUS
 62
     7
 66
     1
 10
0.0
 20
0.0
 30
0.0
 70
     1
  0
VERTEX
  5
1125
  8
LAYER01
  6
CONTINUOUS
 62
     7
 10
5479.1705380000003
 20
1649.329712
 30
0.0
  0
VERTEX
  5
1126
  8
LAYER01
  6
CONTINUOUS
 62
     7
 10
5494.0390740000003
 20
1684.0229609999999
 30
0.0
  0
VERTEX
  5
1127
  8
LAYER01
  6
CONTINUOUS
 62
     7
 10
5558.4693930000012
 20
1684.0229609999999
 30
0.0
  0
VERTEX
  5
1128
  8
LAYER01
  6
CONTINUOUS
 62
     7
 10
5525.7586160000001
 20
1755.3919310000001
 30
0.0
  0
VERTEX
  5
1129
  8
LAYER01
  6
CONTINUOUS
 62
     7
 10
5544.5920939999996
 20
1800.9887719999999
 30
0.0
  0
VERTEX
  5
112A
  8
LAYER01
  6
CONTINUOUS
 62
     7
 10
5632.812069999999
 20
1614.636463
 30
0.0
  0
VERTEX
  5
112B
  8
LAYER01
  6
CONTINUOUS
 62
     7
 10
5632.812069999999
 20
1798.015065
 30
0.0
  0
VERTEX
  5
112C
  8
LAYER01
  6
CONTINUOUS
 62
     7
 10
5750.7691169999998
 20
1798.015065
 30
0.0
  0
VERTEX
  5
112D
  8
LAYER01
  6
CONTINUOUS
 62
     7
 10
5750.7691169999998
 20
1798.015065
 30
0.0
  0
VERTEX
  5
112E
  8
LAYER01
  6
CONTINUOUS
 62
     7
 10
5761.6727090000004
 20
1796.032594
 30
0.0
  0
VERTEX
  5
112F
  8
LAYER01
  6
CONTINUOUS
 62
     7
 10
5771.5850659999996
 20
1792.0676510000001
 30
0.0
  0
VERTEX
  5
1130
  8
LAYER01
  6
CONTINUOUS
 62
     7
 10
5780.506187
 20
1785.129001
 30
0.0
  0
VERTEX
  5
1131
  8
LAYER01
  6
CONTINUOUS
 62
     7
 10
5788.4360729999989
 20
1778.190351
 30
0.0
  0
VERTEX
  5
1132
  8
LAYER01
  6
CONTINUOUS
 62
     7
 10
5795.3747219999996
 20
1769.2692300000001
 30
0.0
  0
VERTEX
  5
1133
  8
LAYER01
  6
CONTINUOUS
 62
     7
 10
5800.3309009999994
 20
1759.356873
 30
0.0
  0
VERTEX
  5
1134
  8
LAYER01
  6
CONTINUOUS
 62
     7
 10
5804.2958440000011
 20
1747.462045
 30
0.0
  0
VERTEX
  5
1135
  8
LAYER01
  6
CONTINUOUS
 62
     7
 10
5805.2870789999997
 20
1736.5584530000001
 30
0.0
  0
VERTEX
  5
1136
  8
LAYER01
  6
CONTINUOUS
 62
     7
 10
5805.2870789999997
 20
1736.5584530000001
 30
0.0
  0
VERTEX
  5
1137
  8
LAYER01
  6
CONTINUOUS
 62
     7
 10
5805.2870789999997
 20
1724.6636239999989
 30
0.0
  0
VERTEX
  5
1138
  8
LAYER01
  6
CONTINUOUS
 62
     7
 10
5803.3046080000004
 20
1714.7512670000001
 30
0.0
  0
VERTEX
  5
1139
  8
LAYER01
  6
CONTINUOUS
 62
     7
 10
5799.3396649999986
 20
1704.8389110000001
 30
0.0
  0
VERTEX
  5
113A
  8
LAYER01
  6
CONTINUOUS
 62
     7
 10
5794.383487000001
 20
1695.9177890000001
 30
0.0
  0
VERTEX
  5
113B
  8
LAYER01
  6
CONTINUOUS
 62
     7
 10
5787.444837
 20
1687.9879040000001
 30
0.0
  0
VERTEX
  5
113C
  8
LAYER01
  6
CONTINUOUS
 62
     7
 10
5779.5149510000001
 20
1681.049254
 30
0.0
  0
VERTEX
  5
113D
  8
LAYER01
  6
CONTINUOUS
 62
     7
 10
5770.5938299999998
 20
1676.0930760000001
 30
0.0
  0
VERTEX
  5
113E
  8
LAYER01
  6
CONTINUOUS
 62
     7
 10
5759.690238000001
 20
1672.1281329999999
 30
0.0
  0
VERTEX
  5
113F
  8
LAYER01
  6
CONTINUOUS
 62
     7
 10
5823.1293219999989
 20
1587.8730989999999
 30
0.0
  0
VERTEX
  5
1140
  8
LAYER01
  6
CONTINUOUS
 62
     7
 10
5823.1293219999989
 20
1798.015065
 30
0.0
  0
VERTEX
  5
1141
  8
LAYER01
  6
CONTINUOUS
 62
     7
 10
5864.7612209999998
 20
1798.015065
 30
0.0
  0
VERTEX
  5
1142
  8
LAYER01
  6
CONTINUOUS
 62
     7
 10
5864.7612209999998
 20
1585.8906280000001
 30
0.0
  0
VERTEX
  5
1143
  8
LAYER01
  6
CONTINUOUS
 62
     7
 10
5775.5500089999996
 20
1585.8906280000001
 30
0.0
  0
VERTEX
  5
1144
  8
LAYER01
  6
CONTINUOUS
 62
     7
 10
5689.3125040000004
 20
1695.9177890000001
 30
0.0
  0
VERTEX
  5
1145
  8
LAYER01
  6
CONTINUOUS
 62
     7
 10
5732.9268739999998
 20
1695.9177890000001
 30
0.0
  0
VERTEX
  5
1146
  8
LAYER01
  6
CONTINUOUS
 62
     7
 10
5732.9268739999998
 20
1695.9177890000001
 30
0.0
  0
VERTEX
  5
1147
  8
LAYER01
  6
CONTINUOUS
 62
     7
 10
5738.874288
 20
1696.9090249999999
 30
0.0
  0
VERTEX
  5
1148
  8
LAYER01
  6
CONTINUOUS
 62
     7
 10
5744.8217020000002
 20
1698.891496
 30
0.0
  0
VERTEX
  5
1149
  8
LAYER01
  6
CONTINUOUS
 62
     7
 10
5749.7778809999991
 20
1701.8652039999999
 30
0.0
  0
VERTEX
  5
114A
  8
LAYER01
  6
CONTINUOUS
 62
     7
 10
5754.7340590000003
 20
1705.830146
 30
0.0
  0
VERTEX
  5
114B
  8
LAYER01
  6
CONTINUOUS
 62
     7
 10
5757.7077659999986
 20
1710.786325
 30
0.0
  0
VERTEX
  5
114C
  8
LAYER01
  6
CONTINUOUS
 62
     7
 10
5760.6814729999987
 20
1716.733739
 30
0.0
  0
VERTEX
  5
114D
  8
LAYER01
  6
CONTINUOUS
 62
     7
 10
5762.6639450000002
 20
1722.681153
 30
0.0
  0
VERTEX
  5
114E
  8
LAYER01
  6
CONTINUOUS
 62
     7
 10
5762.6639450000002
 20
1729.619803
 30
0.0
  0
VERTEX
  5
114F
  8
LAYER01
  6
CONTINUOUS
 62
     7
 10
5762.6639450000002
 20
1729.619803
 30
0.0
  0
VERTEX
  5
1150
  8
LAYER01
  6
CONTINUOUS
 62
     7
 10
5762.6639450000002
 20
1735.567217
 30
0.0
  0
VERTEX
  5
1151
  8
LAYER01
  6
CONTINUOUS
 62
     7
 10
5760.6814729999987
 20
1741.514631
 30
0.0
  0
VERTEX
  5
1152
  8
LAYER01
  6
CONTINUOUS
 62
     7
 10
5758.6990020000003
 20
1747.462045
 30
0.0
  0
VERTEX
  5
1153
  8
LAYER01
  6
CONTINUOUS
 62
     7
 10
5754.7340590000003
 20
1752.418224
 30
0.0
  0
VERTEX
  5
1154
  8
LAYER01
  6
CONTINUOUS
 62
     7
 10
5750.7691169999998
 20
1756.3831660000001
 30
0.0
  0
VERTEX
  5
1155
  8
LAYER01
  6
CONTINUOUS
 62
     7
 10
5744.8217020000002
 20
1759.356873
 30
0.0
  0
VERTEX
  5
1156
  8
LAYER01
  6
CONTINUOUS
 62
     7
 10
5738.874288
 20
1761.3393450000001
 30
0.0
  0
VERTEX
  5
1157
  8
LAYER01
  6
CONTINUOUS
 62
     7
 10
5732.9268739999998
 20
1762.3305800000001
 30
0.0
  0
VERTEX
  5
1158
  8
LAYER01
  6
CONTINUOUS
 62
     7
 10
5677.4176760000009
 20
1762.3305800000001
 30
0.0
  0
VERTEX
  5
1159
  8
LAYER01
  6
CONTINUOUS
 62
     7
 10
5677.4176760000009
 20
1585.8906280000001
 30
0.0
  0
VERTEX
  5
115A
  8
LAYER01
  6
CONTINUOUS
 62
     7
 10
5606.0487060000014
 20
1585.8906280000001
 30
0.0
  0
VERTEX
  5
115B
  8
LAYER01
  6
CONTINUOUS
 62
     7
 10
5576.3116360000004
 20
1649.329712
 30
0.0
  0
VERTEX
  5
115C
  8
LAYER01
  6
CONTINUOUS
 62
     7
 10
5479.1705380000003
 20
1649.329712
 30
0.0
  0
VERTEX
  5
115D
  8
LAYER01
  6
CONTINUOUS
 62
     7
 10
5479.1705380000003
 20
1649.329712
 30
0.0
  0
SEQEND
  5
115E
  8
LAYER01
  6
CONTINUOUS
 62
     7
  0
POLYLINE
  5
8DD
  8
LAYER01
  6
CONTINUOUS
 62
     7
 66
     1
 10
0.0
 20
0.0
 30
0.0
 70
     1
  0
VERTEX
  5
115F
  8
LAYER01
  6
CONTINUOUS
 62
     7
 10
6057.0609439999989
 20
1784.1377660000001
 30
0.0
  0
VERTEX
  5
1160
  8
LAYER01
  6
CONTINUOUS
 62
     7
 10
6030.2975800000004
 20
1750.4357520000001
 30
0.0
  0
VERTEX
  5
1161
  8
LAYER01
  6
CONTINUOUS
 62
     7
 10
6030.2975800000004
 20
1750.4357520000001
 30
0.0
  0
VERTEX
  5
1162
  8
LAYER01
  6
CONTINUOUS
 62
     7
 10
6021.3764590000001
 20
1756.3831660000001
 30
0.0
  0
VERTEX
  5
1163
  8
LAYER01
  6
CONTINUOUS
 62
     7
 10
6012.4553380000007
 20
1761.3393450000001
 30
0.0
  0
VERTEX
  5
1164
  8
LAYER01
  6
CONTINUOUS
 62
     7
 10
6002.5429810000014
 20
1764.313052
 30
0.0
  0
VERTEX
  5
1165
  8
LAYER01
  6
CONTINUOUS
 62
     7
 10
5991.6393889999999
 20
1764.313052
 30
0.0
  0
VERTEX
  5
1166
  8
LAYER01
  6
CONTINUOUS
 62
     7
 10
5991.6393889999999
 20
1764.313052
 30
0.0
  0
VERTEX
  5
1167
  8
LAYER01
  6
CONTINUOUS
 62
     7
 10
5984.7007389999999
 20
1764.313052
 30
0.0
  0
VERTEX
  5
1168
  8
LAYER01
  6
CONTINUOUS
 62
     7
 10
5977.7620889999998
 20
1763.3218159999999
 30
0.0
  0
VERTEX
  5
1169
  8
LAYER01
  6
CONTINUOUS
 62
     7
 10
5970.8234389999998
 20
1761.3393450000001
 30
0.0
  0
VERTEX
  5
116A
  8
LAYER01
  6
CONTINUOUS
 62
     7
 10
5963.8847889999997
 20
1758.365638
 30
0.0
  0
VERTEX
  5
116B
  8
LAYER01
  6
CONTINUOUS
 62
     7
 10
5957.9373750000004
 20
1755.3919310000001
 30
0.0
  0
VERTEX
  5
116C
  8
LAYER01
  6
CONTINUOUS
 62
     7
 10
5952.9811970000001
 20
1751.4269879999999
 30
0.0
  0
VERTEX
  5
116D
  8
LAYER01
  6
CONTINUOUS
 62
     7
 10
5947.0337829999999
 20
1747.462045
 30
0.0
  0
VERTEX
  5
116E
  8
LAYER01
  6
CONTINUOUS
 62
     7
 10
5943.0688399999999
 20
1742.5058670000001
 30
0.0
  0
VERTEX
  5
116F
  8
LAYER01
  6
CONTINUOUS
 62
     7
 10
5938.1126610000001
 20
1736.5584530000001
 30
0.0
  0
VERTEX
  5
1170
  8
LAYER01
  6
CONTINUOUS
 62
     7
 10
5935.138954
 20
1730.611038
 30
0.0
  0
VERTEX
  5
1171
  8
LAYER01
  6
CONTINUOUS
 62
     7
 10
5931.1740119999986
 20
1724.6636239999989
 30
0.0
  0
VERTEX
  5
1172
  8
LAYER01
  6
CONTINUOUS
 62
     7
 10
5928.2003049999994
 20
1718.71621
 30
0.0
  0
VERTEX
  5
1173
  8
LAYER01
  6
CONTINUOUS
 62
     7
 10
5926.2178329999988
 20
1711.77756
 30
0.0
  0
VERTEX
  5
1174
  8
LAYER01
  6
CONTINUOUS
 62
     7
 10
5925.2265980000002
 20
1704.8389110000001
 30
0.0
  0
VERTEX
  5
1175
  8
LAYER01
  6
CONTINUOUS
 62
     7
 10
5924.2353620000004
 20
1697.900261
 30
0.0
  0
VERTEX
  5
1176
  8
LAYER01
  6
CONTINUOUS
 62
     7
 10
5923.2441259999996
 20
1689.9703750000001
 30
0.0
  0
VERTEX
  5
1177
  8
LAYER01
  6
CONTINUOUS
 62
     7
 10
5923.2441259999996
 20
1689.9703750000001
 30
0.0
  0
VERTEX
  5
1178
  8
LAYER01
  6
CONTINUOUS
 62
     7
 10
5924.2353620000004
 20
1683.0317250000001
 30
0.0
  0
VERTEX
  5
1179
  8
LAYER01
  6
CONTINUOUS
 62
     7
 10
5925.2265980000002
 20
1676.0930760000001
 30
0.0
  0
VERTEX
  5
117A
  8
LAYER01
  6
CONTINUOUS
 62
     7
 10
5926.2178329999988
 20
1669.1544260000001
 30
0.0
  0
VERTEX
  5
117B
  8
LAYER01
  6
CONTINUOUS
 62
     7
 10
5929.1915399999998
 20
1663.2070120000001
 30
0.0
  0
VERTEX
  5
117C
  8
LAYER01
  6
CONTINUOUS
 62
     7
 10
5931.1740119999986
 20
1657.2595980000001
 30
0.0
  0
VERTEX
  5
117D
  8
LAYER01
  6
CONTINUOUS
 62
     7
 10
5935.138954
 20
1651.312183
 30
0.0
  0
VERTEX
  5
117E
  8
LAYER01
  6
CONTINUOUS
 62
     7
 10
5939.103897
 20
1645.364769
 30
0.0
  0
VERTEX
  5
117F
  8
LAYER01
  6
CONTINUOUS
 62
     7
 10
5943.0688399999999
 20
1640.4085909999999
 30
0.0
  0
VERTEX
  5
1180
  8
LAYER01
  6
CONTINUOUS
 62
     7
 10
5948.0250180000003
 20
1635.4524120000001
 30
0.0
  0
VERTEX
  5
1181
  8
LAYER01
  6
CONTINUOUS
 62
     7
 10
5952.9811970000001
 20
1631.48747
 30
0.0
  0
VERTEX
  5
1182
  8
LAYER01
  6
CONTINUOUS
 62
     7
 10
5958.9286110000012
 20
1628.5137629999999
 30
0.0
  0
VERTEX
  5
1183
  8
LAYER01
  6
CONTINUOUS
 62
     7
 10
5964.8760249999987
 20
1625.540056
 30
0.0
  0
VERTEX
  5
1184
  8
LAYER01
  6
CONTINUOUS
 62
     7
 10
5971.8146749999996
 20
1622.5663489999999
 30
0.0
  0
VERTEX
  5
1185
  8
LAYER01
  6
CONTINUOUS
 62
     7
 10
5977.7620889999998
 20
1620.583877
 30
0.0
  0
VERTEX
  5
1186
  8
LAYER01
  6
CONTINUOUS
 62
     7
 10
5984.7007389999999
 20
1619.592641
 30
0.0
  0
VERTEX
  5
1187
  8
LAYER01
  6
CONTINUOUS
 62
     7
 10
5992.6306240000004
 20
1619.592641
 30
0.0
  0
VERTEX
  5
1188
  8
LAYER01
  6
CONTINUOUS
 62
     7
 10
5992.6306240000004
 20
1619.592641
 30
0.0
  0
VERTEX
  5
1189
  8
LAYER01
  6
CONTINUOUS
 62
     7
 10
6003.5342170000013
 20
1620.583877
 30
0.0
  0
VERTEX
  5
118A
  8
LAYER01
  6
CONTINUOUS
 62
     7
 10
6012.4553380000007
 20
1622.5663489999999
 30
0.0
  0
VERTEX
  5
118B
  8
LAYER01
  6
CONTINUOUS
 62
     7
 10
6021.3764590000001
 20
1627.5225270000001
 30
0.0
  0
VERTEX
  5
118C
  8
LAYER01
  6
CONTINUOUS
 62
     7
 10
6030.2975800000004
 20
1633.4699410000001
 30
0.0
  0
VERTEX
  5
118D
  8
LAYER01
  6
CONTINUOUS
 62
     7
 10
6056.069708
 20
1598.7766919999999
 30
0.0
  0
VERTEX
  5
118E
  8
LAYER01
  6
CONTINUOUS
 62
     7
 10
6056.069708
 20
1598.7766919999999
 30
0.0
  0
VERTEX
  5
118F
  8
LAYER01
  6
CONTINUOUS
 62
     7
 10
6041.2011730000004
 20
1589.8555710000001
 30
0.0
  0
VERTEX
  5
1190
  8
LAYER01
  6
CONTINUOUS
 62
     7
 10
6033.2712869999987
 20
1586.881864
 30
0.0
  0
VERTEX
  5
1191
  8
LAYER01
  6
CONTINUOUS
 62
     7
 10
6026.3326379999999
 20
1583.9081570000001
 30
0.0
  0
VERTEX
  5
1192
  8
LAYER01
  6
CONTINUOUS
 62
     7
 10
6018.402752
 20
1581.9256849999999
 30
0.0
  0
VERTEX
  5
1193
  8
LAYER01
  6
CONTINUOUS
 62
     7
 10
6010.4728670000004
 20
1580.93445
 30
0.0
  0
VERTEX
  5
1194
  8
LAYER01
  6
CONTINUOUS
 62
     7
 10
5992.6306240000004
 20
1579.9432139999999
 30
0.0
  0
VERTEX
  5
1195
  8
LAYER01
  6
CONTINUOUS
 62
     7
 10
5992.6306240000004
 20
1579.9432139999999
 30
0.0
  0
VERTEX
  5
1196
  8
LAYER01
  6
CONTINUOUS
 62
     7
 10
5980.7357959999999
 20
1580.93445
 30
0.0
  0
VERTEX
  5
1197
  8
LAYER01
  6
CONTINUOUS
 62
     7
 10
5969.8322029999999
 20
1582.916921
 30
0.0
  0
VERTEX
  5
1198
  8
LAYER01
  6
CONTINUOUS
 62
     7
 10
5958.9286110000012
 20
1584.899392
 30
0.0
  0
VERTEX
  5
1199
  8
LAYER01
  6
CONTINUOUS
 62
     7
 10
5949.0162540000001
 20
1588.864335
 30
0.0
  0
VERTEX
  5
119A
  8
LAYER01
  6
CONTINUOUS
 62
     7
 10
5939.103897
 20
1593.820514
 30
0.0
  0
VERTEX
  5
119B
  8
LAYER01
  6
CONTINUOUS
 62
     7
 10
5930.1827759999987
 20
1598.7766919999999
 30
0.0
  0
VERTEX
  5
119C
  8
LAYER01
  6
CONTINUOUS
 62
     7
 10
5921.2616549999993
 20
1605.715342
 30
0.0
  0
VERTEX
  5
119D
  8
LAYER01
  6
CONTINUOUS
 62
     7
 10
5913.3317690000003
 20
1612.653992
 30
0.0
  0
VERTEX
  5
119E
  8
LAYER01
  6
CONTINUOUS
 62
     7
 10
5905.4018840000008
 20
1620.583877
 30
0.0
  0
VERTEX
  5
119F
  8
LAYER01
  6
CONTINUOUS
 62
     7
 10
5899.4544700000006
 20
1629.5049979999999
 30
0.0
  0
VERTEX
  5
11A0
  8
LAYER01
  6
CONTINUOUS
 62
     7
 10
5893.5070560000004
 20
1638.4261200000001
 30
0.0
  0
VERTEX
  5
11A1
  8
LAYER01
  6
CONTINUOUS
 62
     7
 10
5888.5508770000006
 20
1648.3384759999999
 30
0.0
  0
VERTEX
  5
11A2
  8
LAYER01
  6
CONTINUOUS
 62
     7
 10
5885.5771700000014
 20
1658.2508330000001
 30
0.0
  0
VERTEX
  5
11A3
  8
LAYER01
  6
CONTINUOUS
 62
     7
 10
5882.6034630000004
 20
1669.1544260000001
 30
0.0
  0
VERTEX
  5
11A4
  8
LAYER01
  6
CONTINUOUS
 62
     7
 10
5880.6209920000001
 20
1680.0580179999999
 30
0.0
  0
VERTEX
  5
11A5
  8
LAYER01
  6
CONTINUOUS
 62
     7
 10
5879.6297560000003
 20
1691.952847
 30
0.0
  0
VERTEX
  5
11A6
  8
LAYER01
  6
CONTINUOUS
 62
     7
 10
5879.6297560000003
 20
1691.952847
 30
0.0
  0
VERTEX
  5
11A7
  8
LAYER01
  6
CONTINUOUS
 62
     7
 10
5880.6209920000001
 20
1702.8564389999999
 30
0.0
  0
VERTEX
  5
11A8
  8
LAYER01
  6
CONTINUOUS
 62
     7
 10
5882.6034630000004
 20
1714.7512670000001
 30
0.0
  0
VERTEX
  5
11A9
  8
LAYER01
  6
CONTINUOUS
 62
     7
 10
5884.5859339999997
 20
1724.6636239999989
 30
0.0
  0
VERTEX
  5
11AA
  8
LAYER01
  6
CONTINUOUS
 62
     7
 10
5888.5508770000006
 20
1735.567217
 30
0.0
  0
VERTEX
  5
11AB
  8
LAYER01
  6
CONTINUOUS
 62
     7
 10
5893.5070560000004
 20
1745.479574
 30
0.0
  0
VERTEX
  5
11AC
  8
LAYER01
  6
CONTINUOUS
 62
     7
 10
5898.4632340000007
 20
1754.400695
 30
0.0
  0
VERTEX
  5
11AD
  8
LAYER01
  6
CONTINUOUS
 62
     7
 10
5905.4018840000008
 20
1763.3218159999999
 30
0.0
  0
VERTEX
  5
11AE
  8
LAYER01
  6
CONTINUOUS
 62
     7
 10
5912.3405339999999
 20
1771.251702
 30
0.0
  0
VERTEX
  5
11AF
  8
LAYER01
  6
CONTINUOUS
 62
     7
 10
5920.2704190000004
 20
1778.190351
 30
0.0
  0
VERTEX
  5
11B0
  8
LAYER01
  6
CONTINUOUS
 62
     7
 10
5929.1915399999998
 20
1785.129001
 30
0.0
  0
VERTEX
  5
11B1
  8
LAYER01
  6
CONTINUOUS
 62
     7
 10
5938.1126610000001
 20
1790.08518
 30
0.0
  0
VERTEX
  5
11B2
  8
LAYER01
  6
CONTINUOUS
 62
     7
 10
5948.0250180000003
 20
1795.0413579999999
 30
0.0
  0
VERTEX
  5
11B3
  8
LAYER01
  6
CONTINUOUS
 62
     7
 10
5957.9373750000004
 20
1799.0063009999999
 30
0.0
  0
VERTEX
  5
11B4
  8
LAYER01
  6
CONTINUOUS
 62
     7
 10
5968.8409680000004
 20
1801.980008
 30
0.0
  0
VERTEX
  5
11B5
  8
LAYER01
  6
CONTINUOUS
 62
     7
 10
5980.7357959999999
 20
1802.9712440000001
 30
0.0
  0
VERTEX
  5
11B6
  8
LAYER01
  6
CONTINUOUS
 62
     7
 10
5991.6393889999999
 20
1803.962479
 30
0.0
  0
VERTEX
  5
11B7
  8
LAYER01
  6
CONTINUOUS
 62
     7
 10
5991.6393889999999
 20
1803.962479
 30
0.0
  0
VERTEX
  5
11B8
  8
LAYER01
  6
CONTINUOUS
 62
     7
 10
6009.4816309999997
 20
1802.9712440000001
 30
0.0
  0
VERTEX
  5
11B9
  8
LAYER01
  6
CONTINUOUS
 62
     7
 10
6018.402752
 20
1801.980008
 30
0.0
  0
VERTEX
  5
11BA
  8
LAYER01
  6
CONTINUOUS
 62
     7
 10
6026.3326379999999
 20
1799.997537
 30
0.0
  0
VERTEX
  5
11BB
  8
LAYER01
  6
CONTINUOUS
 62
     7
 10
6033.2712869999987
 20
1797.0238300000001
 30
0.0
  0
VERTEX
  5
11BC
  8
LAYER01
  6
CONTINUOUS
 62
     7
 10
6041.2011730000004
 20
1794.050121999999
 30
0.0
  0
VERTEX
  5
11BD
  8
LAYER01
  6
CONTINUOUS
 62
     7
 10
6049.1310579999999
 20
1789.093944
 30
0.0
  0
VERTEX
  5
11BE
  8
LAYER01
  6
CONTINUOUS
 62
     7
 10
6057.0609439999989
 20
1784.1377660000001
 30
0.0
  0
VERTEX
  5
11BF
  8
LAYER01
  6
CONTINUOUS
 62
     7
 10
6057.0609439999989
 20
1784.1377660000001
 30
0.0
  0
SEQEND
  5
11C0
  8
LAYER01
  6
CONTINUOUS
 62
     7
  0
POLYLINE
  5
8DE
  8
LAYER01
  6
CONTINUOUS
 62
     7
 66
     1
 10
0.0
 20
0.0
 30
0.0
 70
     1
  0
VERTEX
  5
11C1
  8
LAYER01
  6
CONTINUOUS
 62
     7
 10
6153.210806
 20
1802.9712440000001
 30
0.0
  0
VERTEX
  5
11C2
  8
LAYER01
  6
CONTINUOUS
 62
     7
 10
6153.210806
 20
1802.9712440000001
 30
0.0
  0
VERTEX
  5
11C3
  8
LAYER01
  6
CONTINUOUS
 62
     7
 10
6142.307213
 20
1801.980008
 30
0.0
  0
VERTEX
  5
11C4
  8
LAYER01
  6
CONTINUOUS
 62
     7
 10
6130.4123849999996
 20
1800.9887719999999
 30
0.0
  0
VERTEX
  5
11C5
  8
LAYER01
  6
CONTINUOUS
 62
     7
 10
6120.5000280000013
 20
1798.015065
 30
0.0
  0
VERTEX
  5
11C6
  8
LAYER01
  6
CONTINUOUS
 62
     7
 10
6109.5964350000004
 20
1794.050121999999
 30
0.0
  0
VERTEX
  5
11C7
  8
LAYER01
  6
CONTINUOUS
 62
     7
 10
6099.6840789999997
 20
1790.08518
 30
0.0
  0
VERTEX
  5
11C8
  8
LAYER01
  6
CONTINUOUS
 62
     7
 10
6090.762956999999
 20
1784.1377660000001
 30
0.0
  0
VERTEX
  5
11C9
  8
LAYER01
  6
CONTINUOUS
 62
     7
 10
6081.8418359999987
 20
1778.190351
 30
0.0
  0
VERTEX
  5
11CA
  8
LAYER01
  6
CONTINUOUS
 62
     7
 10
6073.911951
 20
1770.260466
 30
0.0
  0
VERTEX
  5
11CB
  8
LAYER01
  6
CONTINUOUS
 62
     7
 10
6066.973301
 20
1762.3305800000001
 30
0.0
  0
VERTEX
  5
11CC
  8
LAYER01
  6
CONTINUOUS
 62
     7
 10
6060.0346509999999
 20
1754.400695
 30
0.0
  0
VERTEX
  5
11CD
  8
LAYER01
  6
CONTINUOUS
 62
     7
 10
6054.0872369999997
 20
1745.479574
 30
0.0
  0
VERTEX
  5
11CE
  8
LAYER01
  6
CONTINUOUS
 62
     7
 10
6049.1310579999999
 20
1735.567217
 30
0.0
  0
VERTEX
  5
11CF
  8
LAYER01
  6
CONTINUOUS
 62
     7
 10
6046.1573509999998
 20
1724.6636239999989
 30
0.0
  0
VERTEX
  5
11D0
  8
LAYER01
  6
CONTINUOUS
 62
     7
 10
6043.1836439999988
 20
1714.7512670000001
 30
0.0
  0
VERTEX
  5
11D1
  8
LAYER01
  6
CONTINUOUS
 62
     7
 10
6041.2011730000004
 20
1702.8564389999999
 30
0.0
  0
VERTEX
  5
11D2
  8
LAYER01
  6
CONTINUOUS
 62
     7
 10
6040.2099369999996
 20
1691.952847
 30
0.0
  0
VERTEX
  5
11D3
  8
LAYER01
  6
CONTINUOUS
 62
     7
 10
6040.2099369999996
 20
1691.952847
 30
0.0
  0
VERTEX
  5
11D4
  8
LAYER01
  6
CONTINUOUS
 62
     7
 10
6041.2011730000004
 20
1680.0580179999999
 30
0.0
  0
VERTEX
  5
11D5
  8
LAYER01
  6
CONTINUOUS
 62
     7
 10
6042.1924090000002
 20
1669.1544260000001
 30
0.0
  0
VERTEX
  5
11D6
  8
LAYER01
  6
CONTINUOUS
 62
     7
 10
6045.1661159999994
 20
1658.2508330000001
 30
0.0
  0
VERTEX
  5
11D7
  8
LAYER01
  6
CONTINUOUS
 62
     7
 10
6049.1310579999999
 20
1648.3384759999999
 30
0.0
  0
VERTEX
  5
11D8
  8
LAYER01
  6
CONTINUOUS
 62
     7
 10
6053.0960009999999
 20
1638.4261200000001
 30
0.0
  0
VERTEX
  5
11D9
  8
LAYER01
  6
CONTINUOUS
 62
     7
 10
6059.0434150000001
 20
1629.5049979999999
 30
0.0
  0
VERTEX
  5
11DA
  8
LAYER01
  6
CONTINUOUS
 62
     7
 10
6064.9908290000003
 20
1620.583877
 30
0.0
  0
VERTEX
  5
11DB
  8
LAYER01
  6
CONTINUOUS
 62
     7
 10
6071.9294790000013
 20
1612.653992
 30
0.0
  0
VERTEX
  5
11DC
  8
LAYER01
  6
CONTINUOUS
 62
     7
 10
6079.8593650000003
 20
1604.7241059999999
 30
0.0
  0
VERTEX
  5
11DD
  8
LAYER01
  6
CONTINUOUS
 62
     7
 10
6088.7804859999997
 20
1598.7766919999999
 30
0.0
  0
VERTEX
  5
11DE
  8
LAYER01
  6
CONTINUOUS
 62
     7
 10
6097.701607
 20
1592.8292779999999
 30
0.0
  0
VERTEX
  5
11DF
  8
LAYER01
  6
CONTINUOUS
 62
     7
 10
6107.6139640000001
 20
1587.8730989999999
 30
0.0
  0
VERTEX
  5
11E0
  8
LAYER01
  6
CONTINUOUS
 62
     7
 10
6117.5263210000003
 20
1583.9081570000001
 30
0.0
  0
VERTEX
  5
11E1
  8
LAYER01
  6
CONTINUOUS
 62
     7
 10
6128.4299129999999
 20
1581.9256849999999
 30
0.0
  0
VERTEX
  5
11E2
  8
LAYER01
  6
CONTINUOUS
 62
     7
 10
6139.333505999999
 20
1579.9432139999999
 30
0.0
  0
VERTEX
  5
11E3
  8
LAYER01
  6
CONTINUOUS
 62
     7
 10
6150.2370989999999
 20
1578.9519780000001
 30
0.0
  0
VERTEX
  5
11E4
  8
LAYER01
  6
CONTINUOUS
 62
     7
 10
6150.2370989999999
 20
1578.9519780000001
 30
0.0
  0
VERTEX
  5
11E5
  8
LAYER01
  6
CONTINUOUS
 62
     7
 10
6162.1319270000004
 20
1579.9432139999999
 30
0.0
  0
VERTEX
  5
11E6
  8
LAYER01
  6
CONTINUOUS
 62
     7
 10
6173.035519
 20
1581.9256849999999
 30
0.0
  0
VERTEX
  5
11E7
  8
LAYER01
  6
CONTINUOUS
 62
     7
 10
6183.939112
 20
1584.899392
 30
0.0
  0
VERTEX
  5
11E8
  8
LAYER01
  6
CONTINUOUS
 62
     7
 10
6193.8514690000011
 20
1588.864335
 30
0.0
  0
VERTEX
  5
11E9
  8
LAYER01
  6
CONTINUOUS
 62
     7
 10
6203.7638259999994
 20
1593.820514
 30
0.0
  0
VERTEX
  5
11EA
  8
LAYER01
  6
CONTINUOUS
 62
     7
 10
6212.6849469999988
 20
1599.767928
 30
0.0
  0
VERTEX
  5
11EB
  8
LAYER01
  6
CONTINUOUS
 62
     7
 10
6221.6060680000001
 20
1605.715342
 30
0.0
  0
VERTEX
  5
11EC
  8
LAYER01
  6
CONTINUOUS
 62
     7
 10
6229.5359539999999
 20
1613.645227
 30
0.0
  0
VERTEX
  5
11ED
  8
LAYER01
  6
CONTINUOUS
 62
     7
 10
6236.4746030000006
 20
1621.5751130000001
 30
0.0
  0
VERTEX
  5
11EE
  8
LAYER01
  6
CONTINUOUS
 62
     7
 10
6242.422016999999
 20
1630.496234
 30
0.0
  0
VERTEX
  5
11EF
  8
LAYER01
  6
CONTINUOUS
 62
     7
 10
6247.3781959999988
 20
1639.417355
 30
0.0
  0
VERTEX
  5
11F0
  8
LAYER01
  6
CONTINUOUS
 62
     7
 10
6252.334374
 20
1649.329712
 30
0.0
  0
VERTEX
  5
11F1
  8
LAYER01
  6
CONTINUOUS
 62
     7
 10
6256.2993169999991
 20
1660.233305
 30
0.0
  0
VERTEX
  5
11F2
  8
LAYER01
  6
CONTINUOUS
 62
     7
 10
6258.2817880000002
 20
1671.1368970000001
 30
0.0
  0
VERTEX
  5
11F3
  8
LAYER01
  6
CONTINUOUS
 62
     7
 10
6259.2730240000001
 20
1682.0404900000001
 30
0.0
  0
VERTEX
  5
11F4
  8
LAYER01
  6
CONTINUOUS
 62
     7
 10
6260.2642599999999
 20
1693.9353180000001
 30
0.0
  0
VERTEX
  5
11F5
  8
LAYER01
  6
CONTINUOUS
 62
     7
 10
6260.2642599999999
 20
1693.9353180000001
 30
0.0
  0
VERTEX
  5
11F6
  8
LAYER01
  6
CONTINUOUS
 62
     7
 10
6259.2730240000001
 20
1704.8389110000001
 30
0.0
  0
VERTEX
  5
11F7
  8
LAYER01
  6
CONTINUOUS
 62
     7
 10
6257.2905529999998
 20
1715.7425029999999
 30
0.0
  0
VERTEX
  5
11F8
  8
LAYER01
  6
CONTINUOUS
 62
     7
 10
6254.3168459999997
 20
1725.6548600000001
 30
0.0
  0
VERTEX
  5
11F9
  8
LAYER01
  6
CONTINUOUS
 62
     7
 10
6251.3431389999996
 20
1735.567217
 30
0.0
  0
VERTEX
  5
11FA
  8
LAYER01
  6
CONTINUOUS
 62
     7
 10
6246.3869599999998
 20
1744.4883380000001
 30
0.0
  0
VERTEX
  5
11FB
  8
LAYER01
  6
CONTINUOUS
 62
     7
 10
6241.4307820000013
 20
1753.409459
 30
0.0
  0
VERTEX
  5
11FC
  8
LAYER01
  6
CONTINUOUS
 62
     7
 10
6235.4833680000002
 20
1762.3305800000001
 30
0.0
  0
VERTEX
  5
11FD
  8
LAYER01
  6
CONTINUOUS
 62
     7
 10
6228.544718000001
 20
1769.2692300000001
 30
0.0
  0
VERTEX
  5
11FE
  8
LAYER01
  6
CONTINUOUS
 62
     7
 10
6220.6148320000002
 20
1776.2078799999999
 30
0.0
  0
VERTEX
  5
11FF
  8
LAYER01
  6
CONTINUOUS
 62
     7
 10
6212.6849469999988
 20
1783.14653
 30
0.0
  0
VERTEX
  5
1200
  8
LAYER01
  6
CONTINUOUS
 62
     7
 10
6203.7638259999994
 20
1788.1027079999999
 30
0.0
  0
VERTEX
  5
1201
  8
LAYER01
  6
CONTINUOUS
 62
     7
 10
6194.842705
 20
1793.0588869999999
 30
0.0
  0
VERTEX
  5
1202
  8
LAYER01
  6
CONTINUOUS
 62
     7
 10
6184.9303479999999
 20
1797.0238300000001
 30
0.0
  0
VERTEX
  5
1203
  8
LAYER01
  6
CONTINUOUS
 62
     7
 10
6175.0179909999997
 20
1799.997537
 30
0.0
  0
VERTEX
  5
1204
  8
LAYER01
  6
CONTINUOUS
 62
     7
 10
6164.1143979999988
 20
1801.980008
 30
0.0
  0
VERTEX
  5
1205
  8
LAYER01
  6
CONTINUOUS
 62
     7
 10
6153.210806
 20
1802.9712440000001
 30
0.0
  0
VERTEX
  5
1206
  8
LAYER01
  6
CONTINUOUS
 62
     7
 10
6153.210806
 20
1802.9712440000001
 30
0.0
  0
SEQEND
  5
1207
  8
LAYER01
  6
CONTINUOUS
 62
     7
  0
POLYLINE
  5
8DF
  8
LAYER01
  6
CONTINUOUS
 62
     7
 66
     1
 10
0.0
 20
0.0
 30
0.0
 70
     1
  0
VERTEX
  5
1208
  8
LAYER01
  6
CONTINUOUS
 62
     7
 10
6150.2370989999999
 20
1619.592641
 30
0.0
  0
VERTEX
  5
1209
  8
LAYER01
  6
CONTINUOUS
 62
     7
 10
6150.2370989999999
 20
1619.592641
 30
0.0
  0
VERTEX
  5
120A
  8
LAYER01
  6
CONTINUOUS
 62
     7
 10
6143.2984489999999
 20
1620.583877
 30
0.0
  0
VERTEX
  5
120B
  8
LAYER01
  6
CONTINUOUS
 62
     7
 10
6136.3597989999998
 20
1621.5751130000001
 30
0.0
  0
VERTEX
  5
120C
  8
LAYER01
  6
CONTINUOUS
 62
     7
 10
6129.4211489999998
 20
1622.5663489999999
 30
0.0
  0
VERTEX
  5
120D
  8
LAYER01
  6
CONTINUOUS
 62
     7
 10
6122.4824990000006
 20
1625.540056
 30
0.0
  0
VERTEX
  5
120E
  8
LAYER01
  6
CONTINUOUS
 62
     7
 10
6116.5350850000004
 20
1628.5137629999999
 30
0.0
  0
VERTEX
  5
120F
  8
LAYER01
  6
CONTINUOUS
 62
     7
 10
6110.5876710000011
 20
1632.478705
 30
0.0
  0
VERTEX
  5
1210
  8
LAYER01
  6
CONTINUOUS
 62
     7
 10
6105.6314929999999
 20
1636.4436479999999
 30
0.0
  0
VERTEX
  5
1211
  8
LAYER01
  6
CONTINUOUS
 62
     7
 10
6100.6753140000001
 20
1641.399827
 30
0.0
  0
VERTEX
  5
1212
  8
LAYER01
  6
CONTINUOUS
 62
     7
 10
6095.7191359999988
 20
1646.3560050000001
 30
0.0
  0
VERTEX
  5
1213
  8
LAYER01
  6
CONTINUOUS
 62
     7
 10
6091.7541929999988
 20
1651.312183
 30
0.0
  0
VERTEX
  5
1214
  8
LAYER01
  6
CONTINUOUS
 62
     7
 10
6088.7804859999997
 20
1657.2595980000001
 30
0.0
  0
VERTEX
  5
1215
  8
LAYER01
  6
CONTINUOUS
 62
     7
 10
6085.8067789999996
 20
1664.198247
 30
0.0
  0
VERTEX
  5
1216
  8
LAYER01
  6
CONTINUOUS
 62
     7
 10
6082.8330719999994
 20
1670.1456619999999
 30
0.0
  0
VERTEX
  5
1217
  8
LAYER01
  6
CONTINUOUS
 62
     7
 10
6081.8418359999987
 20
1677.0843109999989
 30
0.0
  0
VERTEX
  5
1218
  8
LAYER01
  6
CONTINUOUS
 62
     7
 10
6079.8593650000003
 20
1684.0229609999999
 30
0.0
  0
VERTEX
  5
1219
  8
LAYER01
  6
CONTINUOUS
 62
     7
 10
6079.8593650000003
 20
1691.952847
 30
0.0
  0
VERTEX
  5
121A
  8
LAYER01
  6
CONTINUOUS
 62
     7
 10
6079.8593650000003
 20
1691.952847
 30
0.0
  0
VERTEX
  5
121B
  8
LAYER01
  6
CONTINUOUS
 62
     7
 10
6080.8505999999998
 20
1698.891496
 30
0.0
  0
VERTEX
  5
121C
  8
LAYER01
  6
CONTINUOUS
 62
     7
 10
6081.8418359999987
 20
1705.830146
 30
0.0
  0
VERTEX
  5
121D
  8
LAYER01
  6
CONTINUOUS
 62
     7
 10
6083.8243080000002
 20
1712.7687960000001
 30
0.0
  0
VERTEX
  5
121E
  8
LAYER01
  6
CONTINUOUS
 62
     7
 10
6085.8067789999996
 20
1719.7074459999999
 30
0.0
  0
VERTEX
  5
121F
  8
LAYER01
  6
CONTINUOUS
 62
     7
 10
6088.7804859999997
 20
1725.6548600000001
 30
0.0
  0
VERTEX
  5
1220
  8
LAYER01
  6
CONTINUOUS
 62
     7
 10
6092.7454289999996
 20
1731.6022740000001
 30
0.0
  0
VERTEX
  5
1221
  8
LAYER01
  6
CONTINUOUS
 62
     7
 10
6096.7103710000001
 20
1736.5584530000001
 30
0.0
  0
VERTEX
  5
1222
  8
LAYER01
  6
CONTINUOUS
 62
     7
 10
6101.6665499999999
 20
1741.514631
 30
0.0
  0
VERTEX
  5
1223
  8
LAYER01
  6
CONTINUOUS
 62
     7
 10
6106.6227280000012
 20
1746.4708089999999
 30
0.0
  0
VERTEX
  5
1224
  8
LAYER01
  6
CONTINUOUS
 62
     7
 10
6111.578907000001
 20
1750.4357520000001
 30
0.0
  0
VERTEX
  5
1225
  8
LAYER01
  6
CONTINUOUS
 62
     7
 10
6117.5263210000003
 20
1754.400695
 30
0.0
  0
VERTEX
  5
1226
  8
LAYER01
  6
CONTINUOUS
 62
     7
 10
6124.4649710000003
 20
1757.3744019999999
 30
0.0
  0
VERTEX
  5
1227
  8
LAYER01
  6
CONTINUOUS
 62
     7
 10
6130.4123849999996
 20
1759.356873
 30
0.0
  0
VERTEX
  5
1228
  8
LAYER01
  6
CONTINUOUS
 62
     7
 10
6137.3510349999997
 20
1761.3393450000001
 30
0.0
  0
VERTEX
  5
1229
  8
LAYER01
  6
CONTINUOUS
 62
     7
 10
6144.2896840000003
 20
1762.3305800000001
 30
0.0
  0
VERTEX
  5
122A
  8
LAYER01
  6
CONTINUOUS
 62
     7
 10
6152.2195700000002
 20
1762.3305800000001
 30
0.0
  0
VERTEX
  5
122B
  8
LAYER01
  6
CONTINUOUS
 62
     7
 10
6152.2195700000002
 20
1762.3305800000001
 30
0.0
  0
VERTEX
  5
122C
  8
LAYER01
  6
CONTINUOUS
 62
     7
 10
6159.1582200000012
 20
1761.3393450000001
 30
0.0
  0
VERTEX
  5
122D
  8
LAYER01
  6
CONTINUOUS
 62
     7
 10
6166.0968700000003
 20
1760.348109
 30
0.0
  0
VERTEX
  5
122E
  8
LAYER01
  6
CONTINUOUS
 62
     7
 10
6172.0442839999996
 20
1758.365638
 30
0.0
  0
VERTEX
  5
122F
  8
LAYER01
  6
CONTINUOUS
 62
     7
 10
6178.9829339999997
 20
1756.3831660000001
 30
0.0
  0
VERTEX
  5
1230
  8
LAYER01
  6
CONTINUOUS
 62
     7
 10
6183.939112
 20
1753.409459
 30
0.0
  0
VERTEX
  5
1231
  8
LAYER01
  6
CONTINUOUS
 62
     7
 10
6189.8865260000002
 20
1749.4445169999999
 30
0.0
  0
VERTEX
  5
1232
  8
LAYER01
  6
CONTINUOUS
 62
     7
 10
6194.842705
 20
1745.479574
 30
0.0
  0
VERTEX
  5
1233
  8
LAYER01
  6
CONTINUOUS
 62
     7
 10
6199.7988829999986
 20
1741.514631
 30
0.0
  0
VERTEX
  5
1234
  8
LAYER01
  6
CONTINUOUS
 62
     7
 10
6203.7638259999994
 20
1736.5584530000001
 30
0.0
  0
VERTEX
  5
1235
  8
LAYER01
  6
CONTINUOUS
 62
     7
 10
6207.728767999999
 20
1730.611038
 30
0.0
  0
VERTEX
  5
1236
  8
LAYER01
  6
CONTINUOUS
 62
     7
 10
6211.6937109999999
 20
1725.6548600000001
 30
0.0
  0
VERTEX
  5
1237
  8
LAYER01
  6
CONTINUOUS
 62
     7
 10
6214.667418
 20
1719.7074459999999
 30
0.0
  0
VERTEX
  5
1238
  8
LAYER01
  6
CONTINUOUS
 62
     7
 10
6216.6498899999997
 20
1712.7687960000001
 30
0.0
  0
VERTEX
  5
1239
  8
LAYER01
  6
CONTINUOUS
 62
     7
 10
6218.6323609999999
 20
1706.8213820000001
 30
0.0
  0
VERTEX
  5
123A
  8
LAYER01
  6
CONTINUOUS
 62
     7
 10
6219.6235969999998
 20
1699.882732
 30
0.0
  0
VERTEX
  5
123B
  8
LAYER01
  6
CONTINUOUS
 62
     7
 10
6219.6235969999998
 20
1692.944082
 30
0.0
  0
VERTEX
  5
123C
  8
LAYER01
  6
CONTINUOUS
 62
     7
 10
6219.6235969999998
 20
1692.944082
 30
0.0
  0
VERTEX
  5
123D
  8
LAYER01
  6
CONTINUOUS
 62
     7
 10
6219.6235969999998
 20
1685.014197
 30
0.0
  0
VERTEX
  5
123E
  8
LAYER01
  6
CONTINUOUS
 62
     7
 10
6218.6323609999999
 20
1678.0755469999999
 30
0.0
  0
VERTEX
  5
123F
  8
LAYER01
  6
CONTINUOUS
 62
     7
 10
6217.6411250000001
 20
1671.1368970000001
 30
0.0
  0
VERTEX
  5
1240
  8
LAYER01
  6
CONTINUOUS
 62
     7
 10
6214.667418
 20
1665.1894830000001
 30
0.0
  0
VERTEX
  5
1241
  8
LAYER01
  6
CONTINUOUS
 62
     7
 10
6212.6849469999988
 20
1658.2508330000001
 30
0.0
  0
VERTEX
  5
1242
  8
LAYER01
  6
CONTINUOUS
 62
     7
 10
6208.7200039999989
 20
1652.3034190000001
 30
0.0
  0
VERTEX
  5
1243
  8
LAYER01
  6
CONTINUOUS
 62
     7
 10
6204.7550609999998
 20
1646.3560050000001
 30
0.0
  0
VERTEX
  5
1244
  8
LAYER01
  6
CONTINUOUS
 62
     7
 10
6199.7988829999986
 20
1641.399827
 30
0.0
  0
VERTEX
  5
1245
  8
LAYER01
  6
CONTINUOUS
 62
     7
 10
6194.842705
 20
1636.4436479999999
 30
0.0
  0
VERTEX
  5
1246
  8
LAYER01
  6
CONTINUOUS
 62
     7
 10
6189.8865260000002
 20
1632.478705
 30
0.0
  0
VERTEX
  5
1247
  8
LAYER01
  6
CONTINUOUS
 62
     7
 10
6183.939112
 20
1628.5137629999999
 30
0.0
  0
VERTEX
  5
1248
  8
LAYER01
  6
CONTINUOUS
 62
     7
 10
6177.9916979999998
 20
1625.540056
 30
0.0
  0
VERTEX
  5
1249
  8
LAYER01
  6
CONTINUOUS
 62
     7
 10
6171.0530479999998
 20
1623.5575839999999
 30
0.0
  0
VERTEX
  5
124A
  8
LAYER01
  6
CONTINUOUS
 62
     7
 10
6164.1143979999988
 20
1621.5751130000001
 30
0.0
  0
VERTEX
  5
124B
  8
LAYER01
  6
CONTINUOUS
 62
     7
 10
6157.1757479999997
 20
1620.583877
 30
0.0
  0
VERTEX
  5
124C
  8
LAYER01
  6
CONTINUOUS
 62
     7
 10
6150.2370989999999
 20
1619.592641
 30
0.0
  0
VERTEX
  5
124D
  8
LAYER01
  6
CONTINUOUS
 62
     7
 10
6150.2370989999999
 20
1619.592641
 30
0.0
  0
SEQEND
  5
124E
  8
LAYER01
  6
CONTINUOUS
 62
     7
  0
POLYLINE
  5
8E0
  8
LAYER01
  6
CONTINUOUS
 62
     7
 66
     1
 10
0.0
 20
0.0
 30
0.0
 70
     1
  0
VERTEX
  5
124F
  8
LAYER01
  6
CONTINUOUS
 62
     7
 10
6229.5359539999999
 20
1798.015065
 30
0.0
  0
VERTEX
  5
1250
  8
LAYER01
  6
CONTINUOUS
 62
     7
 10
6334.6069360000001
 20
1798.015065
 30
0.0
  0
VERTEX
  5
1251
  8
LAYER01
  6
CONTINUOUS
 62
     7
 10
6334.6069360000001
 20
1798.015065
 30
0.0
  0
VERTEX
  5
1252
  8
LAYER01
  6
CONTINUOUS
 62
     7
 10
6346.501765
 20
1796.032594
 30
0.0
  0
VERTEX
  5
1253
  8
LAYER01
  6
CONTINUOUS
 62
     7
 10
6357.4053569999996
 20
1791.076415
 30
0.0
  0
VERTEX
  5
1254
  8
LAYER01
  6
CONTINUOUS
 62
     7
 10
6366.326478
 20
1785.129001
 30
0.0
  0
VERTEX
  5
1255
  8
LAYER01
  6
CONTINUOUS
 62
     7
 10
6374.2563639999998
 20
1777.199116
 30
0.0
  0
VERTEX
  5
1256
  8
LAYER01
  6
CONTINUOUS
 62
     7
 10
6381.1950139999999
 20
1769.2692300000001
 30
0.0
  0
VERTEX
  5
1257
  8
LAYER01
  6
CONTINUOUS
 62
     7
 10
6386.1511920000003
 20
1759.356873
 30
0.0
  0
VERTEX
  5
1258
  8
LAYER01
  6
CONTINUOUS
 62
     7
 10
6389.1248990000013
 20
1747.462045
 30
0.0
  0
VERTEX
  5
1259
  8
LAYER01
  6
CONTINUOUS
 62
     7
 10
6390.1161350000002
 20
1736.5584530000001
 30
0.0
  0
VERTEX
  5
125A
  8
LAYER01
  6
CONTINUOUS
 62
     7
 10
6390.1161350000002
 20
1736.5584530000001
 30
0.0
  0
VERTEX
  5
125B
  8
LAYER01
  6
CONTINUOUS
 62
     7
 10
6389.1248990000013
 20
1724.6636239999989
 30
0.0
  0
VERTEX
  5
125C
  8
LAYER01
  6
CONTINUOUS
 62
     7
 10
6387.1424280000001
 20
1714.7512670000001
 30
0.0
  0
VERTEX
  5
125D
  8
LAYER01
  6
CONTINUOUS
 62
     7
 10
6383.1774850000002
 20
1704.8389110000001
 30
0.0
  0
VERTEX
  5
125E
  8
LAYER01
  6
CONTINUOUS
 62
     7
 10
6378.2213069999998
 20
1695.9177890000001
 30
0.0
  0
VERTEX
  5
125F
  8
LAYER01
  6
CONTINUOUS
 62
     7
 10
6371.2826569999997
 20
1687.9879040000001
 30
0.0
  0
VERTEX
  5
1260
  8
LAYER01
  6
CONTINUOUS
 62
     7
 10
6364.3440069999988
 20
1682.0404900000001
 30
0.0
  0
VERTEX
  5
1261
  8
LAYER01
  6
CONTINUOUS
 62
     7
 10
6354.4316500000014
 20
1676.0930760000001
 30
0.0
  0
VERTEX
  5
1262
  8
LAYER01
  6
CONTINUOUS
 62
     7
 10
6344.5192930000012
 20
1672.1281329999999
 30
0.0
  0
VERTEX
  5
1263
  8
LAYER01
  6
CONTINUOUS
 62
     7
 10
6408.9496130000007
 20
1585.8906280000001
 30
0.0
  0
VERTEX
  5
1264
  8
LAYER01
  6
CONTINUOUS
 62
     7
 10
6359.3878290000002
 20
1585.8906280000001
 30
0.0
  0
VERTEX
  5
1265
  8
LAYER01
  6
CONTINUOUS
 62
     7
 10
6273.1503240000002
 20
1695.9177890000001
 30
0.0
  0
VERTEX
  5
1266
  8
LAYER01
  6
CONTINUOUS
 62
     7
 10
6321.7208719999999
 20
1695.9177890000001
 30
0.0
  0
VERTEX
  5
1267
  8
LAYER01
  6
CONTINUOUS
 62
     7
 10
6321.7208719999999
 20
1695.9177890000001
 30
0.0
  0
VERTEX
  5
1268
  8
LAYER01
  6
CONTINUOUS
 62
     7
 10
6327.6682869999986
 20
1697.900261
 30
0.0
  0
VERTEX
  5
1269
  8
LAYER01
  6
CONTINUOUS
 62
     7
 10
6332.6244649999999
 20
1699.882732
 30
0.0
  0
VERTEX
  5
126A
  8
LAYER01
  6
CONTINUOUS
 62
     7
 10
6336.5894079999998
 20
1703.847675
 30
0.0
  0
VERTEX
  5
126B
  8
LAYER01
  6
CONTINUOUS
 62
     7
 10
6340.5543509999998
 20
1707.8126179999999
 30
0.0
  0
VERTEX
  5
126C
  8
LAYER01
  6
CONTINUOUS
 62
     7
 10
6343.5280579999999
 20
1712.7687960000001
 30
0.0
  0
VERTEX
  5
126D
  8
LAYER01
  6
CONTINUOUS
 62
     7
 10
6346.501765
 20
1717.7249750000001
 30
0.0
  0
VERTEX
  5
126E
  8
LAYER01
  6
CONTINUOUS
 62
     7
 10
6347.4930000000004
 20
1723.6723890000001
 30
0.0
  0
VERTEX
  5
126F
  8
LAYER01
  6
CONTINUOUS
 62
     7
 10
6347.4930000000004
 20
1729.619803
 30
0.0
  0
VERTEX
  5
1270
  8
LAYER01
  6
CONTINUOUS
 62
     7
 10
6347.4930000000004
 20
1729.619803
 30
0.0
  0
VERTEX
  5
1271
  8
LAYER01
  6
CONTINUOUS
 62
     7
 10
6347.4930000000004
 20
1735.567217
 30
0.0
  0
VERTEX
  5
1272
  8
LAYER01
  6
CONTINUOUS
 62
     7
 10
6345.510529000001
 20
1740.5233949999999
 30
0.0
  0
VERTEX
  5
1273
  8
LAYER01
  6
CONTINUOUS
 62
     7
 10
6343.5280579999999
 20
1745.479574
 30
0.0
  0
VERTEX
  5
1274
  8
LAYER01
  6
CONTINUOUS
 62
     7
 10
6340.5543509999998
 20
1750.4357520000001
 30
0.0
  0
VERTEX
  5
1275
  8
LAYER01
  6
CONTINUOUS
 62
     7
 10
6336.5894079999998
 20
1754.400695
 30
0.0
  0
VERTEX
  5
1276
  8
LAYER01
  6
CONTINUOUS
 62
     7
 10
6332.6244649999999
 20
1757.3744019999999
 30
0.0
  0
VERTEX
  5
1277
  8
LAYER01
  6
CONTINUOUS
 62
     7
 10
6326.6770509999997
 20
1760.348109
 30
0.0
  0
VERTEX
  5
1278
  8
LAYER01
  6
CONTINUOUS
 62
     7
 10
6321.7208719999999
 20
1762.3305800000001
 30
0.0
  0
VERTEX
  5
1279
  8
LAYER01
  6
CONTINUOUS
 62
     7
 10
6265.2204380000003
 20
1762.3305800000001
 30
0.0
  0
VERTEX
  5
127A
  8
LAYER01
  6
CONTINUOUS
 62
     7
 10
6229.5359539999999
 20
1798.015065
 30
0.0
  0
VERTEX
  5
127B
  8
LAYER01
  6
CONTINUOUS
 62
     7
 10
6229.5359539999999
 20
1798.015065
 30
0.0
  0
SEQEND
  5
127C
  8
LAYER01
  6
CONTINUOUS
 62
     7
  0
POLYLINE
  5
8E1
  8
LAYER01
  6
CONTINUOUS
 62
     7
 66
     1
 10
0.0
 20
0.0
 30
0.0
 70
     1
  0
VERTEX
  5
127D
  8
LAYER01
  6
CONTINUOUS
 62
     7
 10
6435.7129770000001
 20
1745.479574
 30
0.0
  0
VERTEX
  5
127E
  8
LAYER01
  6
CONTINUOUS
 62
     7
 10
6435.7129770000001
 20
1745.479574
 30
0.0
  0
VERTEX
  5
127F
  8
LAYER01
  6
CONTINUOUS
 62
     7
 10
6440.6691549999987
 20
1746.4708089999999
 30
0.0
  0
VERTEX
  5
1280
  8
LAYER01
  6
CONTINUOUS
 62
     7
 10
6445.625332999999
 20
1747.462045
 30
0.0
  0
VERTEX
  5
1281
  8
LAYER01
  6
CONTINUOUS
 62
     7
 10
6450.5815119999988
 20
1750.4357520000001
 30
0.0
  0
VERTEX
  5
1282
  8
LAYER01
  6
CONTINUOUS
 62
     7
 10
6454.5464549999988
 20
1753.409459
 30
0.0
  0
VERTEX
  5
1283
  8
LAYER01
  6
CONTINUOUS
 62
     7
 10
6457.5201619999998
 20
1757.3744019999999
 30
0.0
  0
VERTEX
  5
1284
  8
LAYER01
  6
CONTINUOUS
 62
     7
 10
6459.5026329999992
 20
1761.3393450000001
 30
0.0
  0
VERTEX
  5
1285
  8
LAYER01
  6
CONTINUOUS
 62
     7
 10
6461.4851040000012
 20
1766.295523
 30
0.0
  0
VERTEX
  5
1286
  8
LAYER01
  6
CONTINUOUS
 62
     7
 10
6461.4851040000012
 20
1772.242937
 30
0.0
  0
VERTEX
  5
1287
  8
LAYER01
  6
CONTINUOUS
 62
     7
 10
6461.4851040000012
 20
1772.242937
 30
0.0
  0
VERTEX
  5
1288
  8
LAYER01
  6
CONTINUOUS
 62
     7
 10
6461.4851040000012
 20
1777.199116
 30
0.0
  0
VERTEX
  5
1289
  8
LAYER01
  6
CONTINUOUS
 62
     7
 10
6459.5026329999992
 20
1782.1552939999999
 30
0.0
  0
VERTEX
  5
128A
  8
LAYER01
  6
CONTINUOUS
 62
     7
 10
6457.5201619999998
 20
1786.1202370000001
 30
0.0
  0
VERTEX
  5
128B
  8
LAYER01
  6
CONTINUOUS
 62
     7
 10
6454.5464549999988
 20
1790.08518
 30
0.0
  0
VERTEX
  5
128C
  8
LAYER01
  6
CONTINUOUS
 62
     7
 10
6450.5815119999988
 20
1793.0588869999999
 30
0.0
  0
VERTEX
  5
128D
  8
LAYER01
  6
CONTINUOUS
 62
     7
 10
6445.625332999999
 20
1796.032594
 30
0.0
  0
VERTEX
  5
128E
  8
LAYER01
  6
CONTINUOUS
 62
     7
 10
6440.6691549999987
 20
1797.0238300000001
 30
0.0
  0
VERTEX
  5
128F
  8
LAYER01
  6
CONTINUOUS
 62
     7
 10
6435.7129770000001
 20
1798.015065
 30
0.0
  0
VERTEX
  5
1290
  8
LAYER01
  6
CONTINUOUS
 62
     7
 10
6435.7129770000001
 20
1798.015065
 30
0.0
  0
VERTEX
  5
1291
  8
LAYER01
  6
CONTINUOUS
 62
     7
 10
6430.7567980000003
 20
1797.0238300000001
 30
0.0
  0
VERTEX
  5
1292
  8
LAYER01
  6
CONTINUOUS
 62
     7
 10
6425.80062
 20
1796.032594
 30
0.0
  0
VERTEX
  5
1293
  8
LAYER01
  6
CONTINUOUS
 62
     7
 10
6420.8444409999993
 20
1793.0588869999999
 30
0.0
  0
VERTEX
  5
1294
  8
LAYER01
  6
CONTINUOUS
 62
     7
 10
6416.8794980000002
 20
1790.08518
 30
0.0
  0
VERTEX
  5
1295
  8
LAYER01
  6
CONTINUOUS
 62
     7
 10
6413.9057909999992
 20
1786.1202370000001
 30
0.0
  0
VERTEX
  5
1296
  8
LAYER01
  6
CONTINUOUS
 62
     7
 10
6411.923319999999
 20
1782.1552939999999
 30
0.0
  0
VERTEX
  5
1297
  8
LAYER01
  6
CONTINUOUS
 62
     7
 10
6409.9408489999996
 20
1777.199116
 30
0.0
  0
VERTEX
  5
1298
  8
LAYER01
  6
CONTINUOUS
 62
     7
 10
6409.9408489999996
 20
1772.242937
 30
0.0
  0
VERTEX
  5
1299
  8
LAYER01
  6
CONTINUOUS
 62
     7
 10
6409.9408489999996
 20
1772.242937
 30
0.0
  0
VERTEX
  5
129A
  8
LAYER01
  6
CONTINUOUS
 62
     7
 10
6409.9408489999996
 20
1766.295523
 30
0.0
  0
VERTEX
  5
129B
  8
LAYER01
  6
CONTINUOUS
 62
     7
 10
6411.923319999999
 20
1761.3393450000001
 30
0.0
  0
VERTEX
  5
129C
  8
LAYER01
  6
CONTINUOUS
 62
     7
 10
6413.9057909999992
 20
1757.3744019999999
 30
0.0
  0
VERTEX
  5
129D
  8
LAYER01
  6
CONTINUOUS
 62
     7
 10
6416.8794980000002
 20
1753.409459
 30
0.0
  0
VERTEX
  5
129E
  8
LAYER01
  6
CONTINUOUS
 62
     7
 10
6420.8444409999993
 20
1750.4357520000001
 30
0.0
  0
VERTEX
  5
129F
  8
LAYER01
  6
CONTINUOUS
 62
     7
 10
6425.80062
 20
1747.462045
 30
0.0
  0
VERTEX
  5
12A0
  8
LAYER01
  6
CONTINUOUS
 62
     7
 10
6430.7567980000003
 20
1746.4708089999999
 30
0.0
  0
VERTEX
  5
12A1
  8
LAYER01
  6
CONTINUOUS
 62
     7
 10
6435.7129770000001
 20
1745.479574
 30
0.0
  0
VERTEX
  5
12A2
  8
LAYER01
  6
CONTINUOUS
 62
     7
 10
6435.7129770000001
 20
1745.479574
 30
0.0
  0
SEQEND
  5
12A3
  8
LAYER01
  6
CONTINUOUS
 62
     7
  0
POLYLINE
  5
8E2
  8
LAYER01
  6
CONTINUOUS
 62
     7
 66
     1
 10
0.0
 20
0.0
 30
0.0
 70
     1
  0
VERTEX
  5
12A4
  8
LAYER01
  6
CONTINUOUS
 62
     7
 10
6435.7129770000001
 20
1794.050121999999
 30
0.0
  0
VERTEX
  5
12A5
  8
LAYER01
  6
CONTINUOUS
 62
     7
 10
6435.7129770000001
 20
1794.050121999999
 30
0.0
  0
VERTEX
  5
12A6
  8
LAYER01
  6
CONTINUOUS
 62
     7
 10
6439.6779190000007
 20
1793.0588869999999
 30
0.0
  0
VERTEX
  5
12A7
  8
LAYER01
  6
CONTINUOUS
 62
     7
 10
6443.6428619999997
 20
1792.0676510000001
 30
0.0
  0
VERTEX
  5
12A8
  8
LAYER01
  6
CONTINUOUS
 62
     7
 10
6447.6078049999996
 20
1790.08518
 30
0.0
  0
VERTEX
  5
12A9
  8
LAYER01
  6
CONTINUOUS
 62
     7
 10
6450.5815119999988
 20
1787.1114729999999
 30
0.0
  0
VERTEX
  5
12AA
  8
LAYER01
  6
CONTINUOUS
 62
     7
 10
6453.5552189999999
 20
1784.1377660000001
 30
0.0
  0
VERTEX
  5
12AB
  8
LAYER01
  6
CONTINUOUS
 62
     7
 10
6455.5376899999992
 20
1780.1728230000001
 30
0.0
  0
VERTEX
  5
12AC
  8
LAYER01
  6
CONTINUOUS
 62
     7
 10
6457.5201619999998
 20
1776.2078799999999
 30
0.0
  0
VERTEX
  5
12AD
  8
LAYER01
  6
CONTINUOUS
 62
     7
 10
6457.5201619999998
 20
1772.242937
 30
0.0
  0
VERTEX
  5
12AE
  8
LAYER01
  6
CONTINUOUS
 62
     7
 10
6457.5201619999998
 20
1772.242937
 30
0.0
  0
VERTEX
  5
12AF
  8
LAYER01
  6
CONTINUOUS
 62
     7
 10
6457.5201619999998
 20
1767.2867590000001
 30
0.0
  0
VERTEX
  5
12B0
  8
LAYER01
  6
CONTINUOUS
 62
     7
 10
6455.5376899999992
 20
1763.3218159999999
 30
0.0
  0
VERTEX
  5
12B1
  8
LAYER01
  6
CONTINUOUS
 62
     7
 10
6453.5552189999999
 20
1759.356873
 30
0.0
  0
VERTEX
  5
12B2
  8
LAYER01
  6
CONTINUOUS
 62
     7
 10
6450.5815119999988
 20
1756.3831660000001
 30
0.0
  0
VERTEX
  5
12B3
  8
LAYER01
  6
CONTINUOUS
 62
     7
 10
6447.6078049999996
 20
1753.409459
 30
0.0
  0
VERTEX
  5
12B4
  8
LAYER01
  6
CONTINUOUS
 62
     7
 10
6443.6428619999997
 20
1751.4269879999999
 30
0.0
  0
VERTEX
  5
12B5
  8
LAYER01
  6
CONTINUOUS
 62
     7
 10
6439.6779190000007
 20
1750.4357520000001
 30
0.0
  0
VERTEX
  5
12B6
  8
LAYER01
  6
CONTINUOUS
 62
     7
 10
6435.7129770000001
 20
1750.4357520000001
 30
0.0
  0
VERTEX
  5
12B7
  8
LAYER01
  6
CONTINUOUS
 62
     7
 10
6435.7129770000001
 20
1750.4357520000001
 30
0.0
  0
VERTEX
  5
12B8
  8
LAYER01
  6
CONTINUOUS
 62
     7
 10
6431.7480340000002
 20
1750.4357520000001
 30
0.0
  0
VERTEX
  5
12B9
  8
LAYER01
  6
CONTINUOUS
 62
     7
 10
6426.7918549999986
 20
1751.4269879999999
 30
0.0
  0
VERTEX
  5
12BA
  8
LAYER01
  6
CONTINUOUS
 62
     7
 10
6423.8181479999994
 20
1753.409459
 30
0.0
  0
VERTEX
  5
12BB
  8
LAYER01
  6
CONTINUOUS
 62
     7
 10
6419.8532059999998
 20
1756.3831660000001
 30
0.0
  0
VERTEX
  5
12BC
  8
LAYER01
  6
CONTINUOUS
 62
     7
 10
6417.8707340000001
 20
1759.356873
 30
0.0
  0
VERTEX
  5
12BD
  8
LAYER01
  6
CONTINUOUS
 62
     7
 10
6415.8882629999989
 20
1763.3218159999999
 30
0.0
  0
VERTEX
  5
12BE
  8
LAYER01
  6
CONTINUOUS
 62
     7
 10
6413.9057909999992
 20
1767.2867590000001
 30
0.0
  0
VERTEX
  5
12BF
  8
LAYER01
  6
CONTINUOUS
 62
     7
 10
6413.9057909999992
 20
1772.242937
 30
0.0
  0
VERTEX
  5
12C0
  8
LAYER01
  6
CONTINUOUS
 62
     7
 10
6413.9057909999992
 20
1772.242937
 30
0.0
  0
VERTEX
  5
12C1
  8
LAYER01
  6
CONTINUOUS
 62
     7
 10
6413.9057909999992
 20
1776.2078799999999
 30
0.0
  0
VERTEX
  5
12C2
  8
LAYER01
  6
CONTINUOUS
 62
     7
 10
6415.8882629999989
 20
1780.1728230000001
 30
0.0
  0
VERTEX
  5
12C3
  8
LAYER01
  6
CONTINUOUS
 62
     7
 10
6417.8707340000001
 20
1784.1377660000001
 30
0.0
  0
VERTEX
  5
12C4
  8
LAYER01
  6
CONTINUOUS
 62
     7
 10
6419.8532059999998
 20
1787.1114729999999
 30
0.0
  0
VERTEX
  5
12C5
  8
LAYER01
  6
CONTINUOUS
 62
     7
 10
6423.8181479999994
 20
1790.08518
 30
0.0
  0
VERTEX
  5
12C6
  8
LAYER01
  6
CONTINUOUS
 62
     7
 10
6426.7918549999986
 20
1792.0676510000001
 30
0.0
  0
VERTEX
  5
12C7
  8
LAYER01
  6
CONTINUOUS
 62
     7
 10
6431.7480340000002
 20
1793.0588869999999
 30
0.0
  0
VERTEX
  5
12C8
  8
LAYER01
  6
CONTINUOUS
 62
     7
 10
6435.7129770000001
 20
1794.050121999999
 30
0.0
  0
VERTEX
  5
12C9
  8
LAYER01
  6
CONTINUOUS
 62
     7
 10
6435.7129770000001
 20
1794.050121999999
 30
0.0
  0
SEQEND
  5
12CA
  8
LAYER01
  6
CONTINUOUS
 62
     7
  0
POLYLINE
  5
8E3
  8
LAYER01
  6
CONTINUOUS
 62
     7
 66
     1
 10
0.0
 20
0.0
 30
0.0
 70
     1
  0
VERTEX
  5
12CB
  8
LAYER01
  6
CONTINUOUS
 62
     7
 10
6439.6779190000007
 20
1770.260466
 30
0.0
  0
VERTEX
  5
12CC
  8
LAYER01
  6
CONTINUOUS
 62
     7
 10
6439.6779190000007
 20
1770.260466
 30
0.0
  0
VERTEX
  5
12CD
  8
LAYER01
  6
CONTINUOUS
 62
     7
 10
6442.6516259999989
 20
1771.251702
 30
0.0
  0
VERTEX
  5
12CE
  8
LAYER01
  6
CONTINUOUS
 62
     7
 10
6445.625332999999
 20
1772.242937
 30
0.0
  0
VERTEX
  5
12CF
  8
LAYER01
  6
CONTINUOUS
 62
     7
 10
6447.6078049999996
 20
1775.2166440000001
 30
0.0
  0
VERTEX
  5
12D0
  8
LAYER01
  6
CONTINUOUS
 62
     7
 10
6447.6078049999996
 20
1778.190351
 30
0.0
  0
VERTEX
  5
12D1
  8
LAYER01
  6
CONTINUOUS
 62
     7
 10
6447.6078049999996
 20
1778.190351
 30
0.0
  0
VERTEX
  5
12D2
  8
LAYER01
  6
CONTINUOUS
 62
     7
 10
6447.6078049999996
 20
1782.1552939999999
 30
0.0
  0
VERTEX
  5
12D3
  8
LAYER01
  6
CONTINUOUS
 62
     7
 10
6444.6340980000004
 20
1785.129001
 30
0.0
  0
VERTEX
  5
12D4
  8
LAYER01
  6
CONTINUOUS
 62
     7
 10
6441.6603909999994
 20
1786.1202370000001
 30
0.0
  0
VERTEX
  5
12D5
  8
LAYER01
  6
CONTINUOUS
 62
     7
 10
6437.6954479999986
 20
1786.1202370000001
 30
0.0
  0
VERTEX
  5
12D6
  8
LAYER01
  6
CONTINUOUS
 62
     7
 10
6425.80062
 20
1786.1202370000001
 30
0.0
  0
VERTEX
  5
12D7
  8
LAYER01
  6
CONTINUOUS
 62
     7
 10
6425.80062
 20
1757.3744019999999
 30
0.0
  0
VERTEX
  5
12D8
  8
LAYER01
  6
CONTINUOUS
 62
     7
 10
6429.7655619999996
 20
1757.3744019999999
 30
0.0
  0
VERTEX
  5
12D9
  8
LAYER01
  6
CONTINUOUS
 62
     7
 10
6429.7655619999996
 20
1770.260466
 30
0.0
  0
VERTEX
  5
12DA
  8
LAYER01
  6
CONTINUOUS
 62
     7
 10
6435.7129770000001
 20
1770.260466
 30
0.0
  0
VERTEX
  5
12DB
  8
LAYER01
  6
CONTINUOUS
 62
     7
 10
6442.6516259999989
 20
1757.3744019999999
 30
0.0
  0
VERTEX
  5
12DC
  8
LAYER01
  6
CONTINUOUS
 62
     7
 10
6447.6078049999996
 20
1757.3744019999999
 30
0.0
  0
VERTEX
  5
12DD
  8
LAYER01
  6
CONTINUOUS
 62
     7
 10
6439.6779190000007
 20
1770.260466
 30
0.0
  0
VERTEX
  5
12DE
  8
LAYER01
  6
CONTINUOUS
 62
     7
 10
6439.6779190000007
 20
1770.260466
 30
0.0
  0
SEQEND
  5
12DF
  8
LAYER01
  6
CONTINUOUS
 62
     7
  0
POLYLINE
  5
8E4
  8
LAYER01
  6
CONTINUOUS
 62
     7
 66
     1
 10
0.0
 20
0.0
 30
0.0
 70
     1
  0
VERTEX
  5
12E0
  8
LAYER01
  6
CONTINUOUS
 62
     7
 10
6436.7042119999987
 20
1782.1552939999999
 30
0.0
  0
VERTEX
  5
12E1
  8
LAYER01
  6
CONTINUOUS
 62
     7
 10
6436.7042119999987
 20
1782.1552939999999
 30
0.0
  0
VERTEX
  5
12E2
  8
LAYER01
  6
CONTINUOUS
 62
     7
 10
6441.6603909999994
 20
1781.164059
 30
0.0
  0
VERTEX
  5
12E3
  8
LAYER01
  6
CONTINUOUS
 62
     7
 10
6443.6428619999997
 20
1780.1728230000001
 30
0.0
  0
VERTEX
  5
12E4
  8
LAYER01
  6
CONTINUOUS
 62
     7
 10
6443.6428619999997
 20
1778.190351
 30
0.0
  0
VERTEX
  5
12E5
  8
LAYER01
  6
CONTINUOUS
 62
     7
 10
6443.6428619999997
 20
1778.190351
 30
0.0
  0
VERTEX
  5
12E6
  8
LAYER01
  6
CONTINUOUS
 62
     7
 10
6442.6516259999989
 20
1776.2078799999999
 30
0.0
  0
VERTEX
  5
12E7
  8
LAYER01
  6
CONTINUOUS
 62
     7
 10
6440.6691549999987
 20
1775.2166440000001
 30
0.0
  0
VERTEX
  5
12E8
  8
LAYER01
  6
CONTINUOUS
 62
     7
 10
6434.7217410000003
 20
1774.2254089999999
 30
0.0
  0
VERTEX
  5
12E9
  8
LAYER01
  6
CONTINUOUS
 62
     7
 10
6429.7655619999996
 20
1774.2254089999999
 30
0.0
  0
VERTEX
  5
12EA
  8
LAYER01
  6
CONTINUOUS
 62
     7
 10
6429.7655619999996
 20
1782.1552939999999
 30
0.0
  0
VERTEX
  5
12EB
  8
LAYER01
  6
CONTINUOUS
 62
     7
 10
6436.7042119999987
 20
1782.1552939999999
 30
0.0
  0
VERTEX
  5
12EC
  8
LAYER01
  6
CONTINUOUS
 62
     7
 10
6436.7042119999987
 20
1782.1552939999999
 30
0.0
  0
SEQEND
  5
12ED
  8
LAYER01
  6
CONTINUOUS
 62
     7
  0
ENDBLK
  5
8E5
  8
0
  0
BLOCK
  8
0
  2
TRIGO-G11
 70
     0
 10
0.0
 20
0.0
 30
0.0
  3
TRIGO-G11
  1

  0
TEXT
  5
8E8
  8
LAYER01
  6
VERDECKT
 62
     1
 10
2133.219951
 20
-311.285303
 30
0.0
 40
13.0
  1
A. Sprenger GmbH
  7
SIMPLEX
  0
TEXT
  5
8E9
  8
LAYER01
  6
VERDECKT
 62
     1
 10
2133.219951
 20
-333.57101699999998
 30
0.0
 40
13.0
  1
Berner Str. 10
  7
SIMPLEX
  0
TEXT
  5
8EA
  8
LAYER01
  6
VERDECKT
 62
     1
 10
2133.219951
 20
-355.85673100000002
 30
0.0
 40
13.0
  1
60437 Frankfurt
  7
SIMPLEX
  0
TEXT
  5
8EB
  8
LAYER01
  6
VERDECKT
 62
     1
 10
2133.219951
 20
-378.14244500000001
 30
0.0
 40
13.0
  1
Tel.: 069 - 507 27 41
  7
SIMPLEX
  0
TEXT
  5
8EC
  8
LAYER01
  6
VERDECKT
 62
     1
 10
2133.219951
 20
-400.42815999999988
 30
0.0
 40
13.0
  1
Fax: 069 - 507 72 91
  7
SIMPLEX
  0
TEXT
  5
8ED
  8
LAYER01
  6
VERDECKT
 62
     1
 10
2133.219951
 20
-422.71387399999998
 30
0.0
 40
13.0
  1
info@varicor.org
  7
SIMPLEX
  0
ENDBLK
  5
8EE
  8
0
  0
BLOCK
  8
0
  2
TRIGO-G10
 70
     0
 10
0.0
 20
0.0
 30
0.0
  3
TRIGO-G10
  1

  0
TEXT
  5
8F1
  8
LAYER01
  6
CONTINUOUS
 62
     1
 10
3499.283942
 20
-616.88954599999988
 30
0.0
 40
13.0
  1
Blatt
  7
SIMPLEX
  0
LINE
  5
8F2
  8
LAYER01
  6
CONTINUOUS
 62
     1
 10
2114.783942
 20
-525.88954599999988
 30
0.0
 11
2894.783942
 21
-525.88954599999988
 31
0.0
  0
LINE
  5
8F3
  8
LAYER01
  6
CONTINUOUS
 62
     1
 10
2114.783942
 20
-558.38954599999988
 30
0.0
 11
2894.783942
 21
-558.38954599999988
 31
0.0
  0
LINE
  5
8F4
  8
LAYER01
  6
CONTINUOUS
 62
     1
 10
2114.783942
 20
-590.889546
 30
0.0
 11
3583.783942
 21
-590.889546
 31
0.0
  0
LINE
  5
8F5
  8
LAYER01
  6
CONTINUOUS
 62
     1
 10
2114.783942
 20
-688.38954599999988
 30
0.0
 11
3583.783942
 21
-688.38954599999988
 31
0.0
  0
LINE
  5
8F6
  8
LAYER01
  6
CONTINUOUS
 62
     1
 10
2114.783942
 20
-428.389546
 30
0.0
 11
3583.783942
 21
-428.389546
 31
0.0
  0
POLYLINE
  5
8F7
  8
LAYER01
  6
CONTINUOUS
 62
     1
 66
     1
 10
0.0
 20
0.0
 30
0.0
 70
     1
  0
VERTEX
  5
12EE
  8
LAYER01
  6
CONTINUOUS
 62
     1
 10
2114.783942
 20
-727.389546
 30
0.0
  0
VERTEX
  5
12EF
  8
LAYER01
  6
CONTINUOUS
 62
     1
 10
2114.783942
 20
-291.889546
 30
0.0
  0
VERTEX
  5
12F0
  8
LAYER01
  6
CONTINUOUS
 62
     1
 10
3583.783942
 20
-291.889546
 30
0.0
  0
VERTEX
  5
12F1
  8
LAYER01
  6
CONTINUOUS
 62
     1
 10
3583.783942
 20
-727.389546
 30
0.0
  0
SEQEND
  5
12F2
  8
LAYER01
  6
CONTINUOUS
 62
     1
  0
LINE
  5
8F8
  8
LAYER01
  6
CONTINUOUS
 62
     1
 10
2114.783942
 20
-460.889546
 30
0.0
 11
2894.783942
 21
-460.889546
 31
0.0
  0
LINE
  5
8F9
  8
LAYER01
  6
CONTINUOUS
 62
     1
 10
2114.783942
 20
-493.389546
 30
0.0
 11
2894.783942
 21
-493.389546
 31
0.0
  0
LINE
  5
8FA
  8
LAYER01
  6
CONTINUOUS
 62
     1
 10
2537.283942
 20
-291.889546
 30
0.0
 11
2537.283942
 21
-727.389546
 31
0.0
  0
INSERT
  5
8FB
  8
LAYER01
  2
TRIGO-G11
 10
0.0
 20
0.0
 30
0.0
  0
LINE
  5
8FC
  8
LAYER01
  6
CONTINUOUS
 62
     1
 10
2114.783942
 20
-655.889546
 30
0.0
 11
2537.283942
 21
-655.889546
 31
0.0
  0
LINE
  5
8FD
  8
LAYER01
  6
CONTINUOUS
 62
     1
 10
2114.783942
 20
-623.389546
 30
0.0
 11
2537.283942
 21
-623.389546
 31
0.0
  0
LINE
  5
8FE
  8
LAYER01
  6
CONTINUOUS
 62
     1
 10
2173.283942
 20
-428.389546
 30
0.0
 11
2173.283942
 21
-727.389546
 31
0.0
  0
TEXT
  5
8FF
  8
LAYER01
  6
CONTINUOUS
 62
     1
 10
2125.7029859999998
 20
-714.389546
 30
0.0
 40
12.35
  1
Zust
  7
SIMPLEX
  0
LINE
  5
900
  8
LAYER01
  6
CONTINUOUS
 62
     1
 10
2378.4039419999999
 20
-727.389546
 30
0.0
 11
2378.4039419999999
 21
-428.389546
 31
0.0
  0
LINE
  5
901
  8
LAYER01
  6
CONTINUOUS
 62
     1
 10
2478.783942
 20
-428.389546
 30
0.0
 11
2478.783942
 21
-727.389546
 31
0.0
  0
TEXT
  5
902
  8
LAYER01
  6
CONTINUOUS
 62
     1
 10
2230.6510469999998
 20
-714.389546
 30
0.0
 40
12.35
  1
Änderung
  7
SIMPLEX
  0
TEXT
  5
903
  8
LAYER01
  6
CONTINUOUS
 62
     1
 10
2396.6943299999998
 20
-714.389546
 30
0.0
 40
12.35
  1
Datum
  7
SIMPLEX
  0
TEXT
  5
904
  8
LAYER01
  6
CONTINUOUS
 62
     1
 10
2483.677017
 20
-714.389546
 30
0.0
 40
12.35
  1
Name
  7
SIMPLEX
  0
LINE
  5
905
  8
LAYER01
  6
CONTINUOUS
 62
     1
 10
3583.783942
 20
-343.889546
 30
0.0
 11
2894.783942
 21
-343.889546
 31
0.0
  0
LINE
  5
906
  8
LAYER01
  6
CONTINUOUS
 62
     1
 10
2621.783942
 20
-558.38954599999988
 30
0.0
 11
2621.783942
 21
-428.389546
 31
0.0
  0
TEXT
  5
907
  8
LAYER01
  6
CONTINUOUS
 62
     1
 10
2550.283942
 20
-486.889546
 30
0.0
 40
13.0
  1
Bearb.
  7
SIMPLEX
  0
TEXT
  5
908
  8
LAYER01
  6
CONTINUOUS
 62
     1
 10
2550.283942
 20
-551.889546
 30
0.0
 40
13.0
  1
Norm
  7
SIMPLEX
  0
TEXT
  5
909
  8
LAYER01
  6
CONTINUOUS
 62
     1
 10
2550.283942
 20
-519.389546
 30
0.0
 40
13.0
  1
Gepr.
  7
SIMPLEX
  0
TEXT
  5
90A
  8
LAYER01
  6
CONTINUOUS
 62
     1
 10
2654.283942
 20
-454.38954599999988
 30
0.0
 40
13.0
  1
Datum
  7
SIMPLEX
  0
TEXT
  5
90B
  8
LAYER01
  6
CONTINUOUS
 62
     1
 10
2784.283942
 20
-454.38954599999988
 30
0.0
 40
13.0
  1
Name
  7
SIMPLEX
  0
TEXT
  5
90C
  8
LAYER01
  6
CONTINUOUS
 62
     1
 10
3551.283942
 20
-681.889546
 30
0.0
 40
13.0
  1
Bl.
  7
SIMPLEX
  0
LINE
  5
90D
  8
LAYER01
  6
CONTINUOUS
 62
     1
 10
2894.783942
 20
-727.389546
 30
0.0
 11
2894.783942
 21
-291.889546
 31
0.0
  0
LINE
  5
90E
  8
LAYER01
  6
CONTINUOUS
 62
     1
 10
2745.283942
 20
-590.889546
 30
0.0
 11
2745.283942
 21
-291.889546
 31
0.0
  0
LINE
  5
90F
  8
LAYER01
  6
CONTINUOUS
 62
     1
 10
3304.283942
 20
-291.889546
 30
0.0
 11
3304.283942
 21
-343.889546
 31
0.0
  0
TEXT
  5
910
  8
LAYER01
  6
CONTINUOUS
 62
     1
 10
2908.9461409999999
 20
-325.07854900000001
 30
0.0
 40
13.0
  1
Maßstab
  7
SIMPLEX
  0
LINE
  5
911
  8
LAYER01
  6
CONTINUOUS
 62
     1
 10
3486.283942
 20
-590.889546
 30
0.0
 11
3486.283942
 21
-688.38954599999988
 31
0.0
  0
LINE
  5
912
  8
LAYER01
  6
CONTINUOUS
 62
     1
 10
3486.283942
 20
-655.889546
 30
0.0
 11
3583.783942
 21
-655.889546
 31
0.0
  0
ENDBLK
  5
913
  8
0
  0
ENDSEC
  0
SECTION
  2
ENTITIES
  0
LINE
  5
2B0
  8
KERA7
  6
CONTINUOUS
 62
    22
 10
-3023.2014429999999
 20
3508.4726770000002
 30
0.0
 11
-6206.0956489999999
 21
3508.4726770000002
 31
0.0
  0
DIMENSION
  5
2B1
  8
LAYER01
 62
     7
  2
*D0
 10
-4900.5975669999998
 20
3508.4726770000002
 30
0.0
 11
-4900.5975669999998
 21
3881.7414869999998
 31
0.0
 53
90.0
 13
-4991.853314
 23
4258.4726770000007
 33
0.0
 14
-4991.853314
 24
3508.4726770000002
 34
0.0
 50
90.0
  0
DIMENSION
  5
2B2
  8
LAYER01
 62
     7
  2
*D1
 10
-4788.1066849999988
 20
3508.4726770000002
 30
0.0
 11
-4788.1066849999988
 21
3906.7414869999998
 31
0.0
 53
90.0
 13
-4991.853314
 23
4308.4726770000007
 33
0.0
 14
-4991.853314
 24
3508.4726770000002
 34
0.0
 50
90.0
  0
DIMENSION
  5
2B3
  8
LAYER01
 62
     7
  2
*D2
 10
-5043.2041179999997
 20
3508.4726770000002
 30
0.0
 11
-5043.2041179999997
 21
3848.1360310000009
 31
0.0
 53
90.0
 13
-5333.7317509999993
 23
4193.4726769999997
 33
0.0
 14
-5333.7317509999993
 24
3508.4726770000002
 34
0.0
 50
90.0
  0
DIMENSION
  5
2B4
  8
LAYER01
 62
     7
  2
*D3
 10
-5150.3804700000001
 20
3508.4726770000002
 30
0.0
 11
-5150.3804700000001
 21
3796.7414869999998
 31
0.0
 53
90.0
 13
-5534.2765419999996
 23
4088.4726770000002
 33
0.0
 14
-5534.2765419999996
 24
3508.4726770000002
 34
0.0
 50
90.0
  0
DIMENSION
  5
2B5
  8
LAYER01
 62
     7
  2
*D4
 10
-5818.666541999999
 20
2440.0886310000001
 30
0.0
 11
-5580.11355
 21
2500.088631000001
 31
0.0
 13
-5338.6665419999999
 23
2537.4974560000001
 33
0.0
 14
-5818.666541999999
 24
2537.4974560000001
 34
0.0
  0
LINE
  5
2B6
  8
LAYER01
  6
GESTRICHELT
 62
     7
 10
-5891.6665419999999
 20
2549.4974560000001
 30
0.0
 11
-5265.6665419999999
 21
2549.4974560000001
 31
0.0
  0
DIMENSION
  5
2B7
  8
LAYER01
 62
     7
  2
*D5
 10
-5578.6665419999999
 20
3122.7040980000002
 30
0.0
 11
-5417.1353660000004
 21
3182.7040980000002
 31
0.0
 13
-5253.6665419999999
 23
3038.4974560000001
 33
0.0
 14
-5578.6665419999999
 24
3038.4974560000001
 34
0.0
  0
DIMENSION
  5
2B8
  8
LAYER01
 62
     7
  2
*D6
 10
-5902.6665419999999
 20
3241.1583719999999
 30
0.0
 11
-5580.2408219999998
 21
3301.1583719999999
 31
0.0
 13
-5253.6665419999999
 23
3038.4974560000001
 33
0.0
 14
-5902.6665419999999
 24
3038.4974560000001
 34
0.0
  0
LINE
  5
2B9
  8
LAYER01
  6
CONTINUOUS
 62
     7
 10
-5903.666541999999
 20
3022.4974560000001
 30
0.0
 11
-5253.6665419999999
 21
3022.4974560000001
 31
0.0
  0
LINE
  5
2BA
  8
LAYER01
  6
CONTINUOUS
 62
     7
 10
-5903.666541999999
 20
3037.4974560000001
 30
0.0
 11
-5253.6665419999999
 21
3037.4974560000001
 31
0.0
  0
LINE
  5
2BB
  8
LAYER01
  6
CONTINUOUS
 62
     7
 10
-5788.6665419999999
 20
2940.5389319999999
 30
0.0
 11
-5368.666541999999
 21
2940.5389319999999
 31
0.0
  0
LINE
  5
2BC
  8
LAYER01
  6
CONTINUOUS
 62
     7
 10
-5788.6665419999999
 20
2580.4974560000001
 30
0.0
 11
-5368.666541999999
 21
2580.4974560000001
 31
0.0
  0
LINE
  5
2BD
  8
LAYER01
  6
CONTINUOUS
 62
     7
 10
-5903.666541999999
 20
2537.4974560000001
 30
0.0
 11
-5253.6665419999999
 21
2537.4974560000001
 31
0.0
  0
POLYLINE
  5
2BE
  8
KERA2
  6
CONTINUOUS
 62
    18
 66
     1
 10
0.0
 20
0.0
 30
0.0
  0
VERTEX
  5
FCA
  8
KERA2
  6
CONTINUOUS
 62
    18
 10
-5578.6666079999986
 20
2945.4844320000011
 30
0.0
  0
VERTEX
  5
FCB
  8
KERA2
  6
CONTINUOUS
 62
    18
 10
-5578.6666109999996
 20
2887.8701019999999
 30
0.0
  0
VERTEX
  5
FCC
  8
KERA2
  6
CONTINUOUS
 62
    18
 10
-5578.6666139999998
 20
2825.5934309999998
 30
0.0
  0
SEQEND
  5
FCD
  8
KERA2
  6
CONTINUOUS
 62
    18
  0
DIMENSION
  5
2C3
  8
LAYER01
 62
     7
  2
*D7
 10
-6001.5329609999999
 20
2940.5389319999999
 30
0.0
 11
-6061.5329610000008
 21
2757.231753
 31
0.0
 53
90.0
 13
-5903.666541999999
 23
2580.4974560000001
 33
0.0
 14
-5903.666541999999
 24
2940.5389319999999
 34
0.0
 50
90.0
  0
DIMENSION
  5
2C4
  8
LAYER01
 62
     7
  2
*D8
 10
-6158.5204219999987
 20
3037.4974560000001
 30
0.0
 11
-6218.5204219999996
 21
2784.2110149999999
 31
0.0
 53
90.0
 13
-5903.666541999999
 23
2537.4974560000001
 33
0.0
 14
-5903.666541999999
 24
3037.4974560000001
 34
0.0
 50
90.0
  0
LINE
  5
2C5
  8
LAYER01
  6
GESTRICHELT
 62
     7
 10
-5891.6665419999999
 20
2549.4974560000001
 30
0.0
 11
-5891.6665419999999
 21
3037.4974560000001
 31
0.0
  0
LINE
  5
2C6
  8
LAYER01
  6
CONTINUOUS
 62
     7
 10
-5903.666541999999
 20
2537.4974560000001
 30
0.0
 11
-5903.666541999999
 21
3037.4974560000001
 31
0.0
  0
LINE
  5
2C7
  8
LAYER01
  6
CONTINUOUS
 62
     7
 10
-5818.666541999999
 20
2910.5389319999999
 30
0.0
 11
-5818.666541999999
 21
2610.4974560000001
 31
0.0
  0
POLYLINE
  5
2C8
  8
LAYER01
  6
CONTINUOUS
 62
     7
 66
     1
 10
0.0
 20
0.0
 30
0.0
  0
VERTEX
  5
FCE
  8
LAYER01
  6
CONTINUOUS
 62
     7
 10
-5578.6665419999999
 20
2922.1395649999999
 30
0.0
  0
VERTEX
  5
FCF
  8
LAYER01
  6
CONTINUOUS
 62
     7
 10
-5575.0869249999987
 20
2921.9562059999998
 30
0.0
  0
VERTEX
  5
FD0
  8
LAYER01
  6
CONTINUOUS
 62
     7
 10
-5571.5401220000003
 20
2921.4151920000008
 30
0.0
  0
VERTEX
  5
FD1
  8
LAYER01
  6
CONTINUOUS
 62
     7
 10
-5568.0589469999986
 20
2920.5301140000001
 30
0.0
  0
VERTEX
  5
FD2
  8
LAYER01
  6
CONTINUOUS
 62
     7
 10
-5564.6762140000001
 20
2919.3145639999998
 30
0.0
  0
VERTEX
  5
FD3
  8
LAYER01
  6
CONTINUOUS
 62
     7
 10
-5561.4247359999999
 20
2917.782134
 30
0.0
  0
VERTEX
  5
FD4
  8
LAYER01
  6
CONTINUOUS
 62
     7
 10
-5558.337329
 20
2915.9464160000002
 30
0.0
  0
VERTEX
  5
FD5
  8
LAYER01
  6
CONTINUOUS
 62
     7
 10
-5555.446805999999
 20
2913.8210020000001
 30
0.0
  0
VERTEX
  5
FD6
  8
LAYER01
  6
CONTINUOUS
 62
     7
 10
-5552.7859799999987
 20
2911.4194850000008
 30
0.0
  0
VERTEX
  5
FD7
  8
LAYER01
  6
CONTINUOUS
 62
     7
 10
-5550.384462
 20
2908.7586590000001
 30
0.0
  0
VERTEX
  5
FD8
  8
LAYER01
  6
CONTINUOUS
 62
     7
 10
-5548.2590490000011
 20
2905.868136
 30
0.0
  0
VERTEX
  5
FD9
  8
LAYER01
  6
CONTINUOUS
 62
     7
 10
-5546.4233309999991
 20
2902.7807280000002
 30
0.0
  0
VERTEX
  5
FDA
  8
LAYER01
  6
CONTINUOUS
 62
     7
 10
-5544.8909009999998
 20
2899.5292509999999
 30
0.0
  0
VERTEX
  5
FDB
  8
LAYER01
  6
CONTINUOUS
 62
     7
 10
-5543.6753509999999
 20
2896.146518
 30
0.0
  0
VERTEX
  5
FDC
  8
LAYER01
  6
CONTINUOUS
 62
     7
 10
-5542.7902729999996
 20
2892.6653430000001
 30
0.0
  0
VERTEX
  5
FDD
  8
LAYER01
  6
CONTINUOUS
 62
     7
 10
-5542.2492579999998
 20
2889.1185390000001
 30
0.0
  0
VERTEX
  5
FDE
  8
LAYER01
  6
CONTINUOUS
 62
     7
 10
-5542.0658999999996
 20
2885.5389220000002
 30
0.0
  0
VERTEX
  5
FDF
  8
LAYER01
  6
CONTINUOUS
 62
     7
 10
-5542.2492579999998
 20
2881.9593049999999
 30
0.0
  0
VERTEX
  5
FE0
  8
LAYER01
  6
CONTINUOUS
 62
     7
 10
-5542.7902729999996
 20
2878.4125020000001
 30
0.0
  0
VERTEX
  5
FE1
  8
LAYER01
  6
CONTINUOUS
 62
     7
 10
-5543.6753509999999
 20
2874.9313269999998
 30
0.0
  0
VERTEX
  5
FE2
  8
LAYER01
  6
CONTINUOUS
 62
     7
 10
-5544.8909009999998
 20
2871.5485939999999
 30
0.0
  0
VERTEX
  5
FE3
  8
LAYER01
  6
CONTINUOUS
 62
     7
 10
-5546.4233309999991
 20
2868.2971160000002
 30
0.0
  0
VERTEX
  5
FE4
  8
LAYER01
  6
CONTINUOUS
 62
     7
 10
-5548.2590490000011
 20
2865.2097090000002
 30
0.0
  0
VERTEX
  5
FE5
  8
LAYER01
  6
CONTINUOUS
 62
     7
 10
-5550.384462
 20
2862.3191849999998
 30
0.0
  0
VERTEX
  5
FE6
  8
LAYER01
  6
CONTINUOUS
 62
     7
 10
-5552.7859799999987
 20
2859.6583599999999
 30
0.0
  0
VERTEX
  5
FE7
  8
LAYER01
  6
CONTINUOUS
 62
     7
 10
-5555.446805999999
 20
2857.2568419999998
 30
0.0
  0
VERTEX
  5
FE8
  8
LAYER01
  6
CONTINUOUS
 62
     7
 10
-5558.337329
 20
2855.131429
 30
0.0
  0
VERTEX
  5
FE9
  8
LAYER01
  6
CONTINUOUS
 62
     7
 10
-5561.4247359999999
 20
2853.2957110000002
 30
0.0
  0
VERTEX
  5
FEA
  8
LAYER01
  6
CONTINUOUS
 62
     7
 10
-5564.6762140000001
 20
2851.763281
 30
0.0
  0
VERTEX
  5
FEB
  8
LAYER01
  6
CONTINUOUS
 62
     7
 10
-5568.0589469999986
 20
2850.5477310000001
 30
0.0
  0
VERTEX
  5
FEC
  8
LAYER01
  6
CONTINUOUS
 62
     7
 10
-5571.5401220000003
 20
2849.6626530000008
 30
0.0
  0
VERTEX
  5
FED
  8
LAYER01
  6
CONTINUOUS
 62
     7
 10
-5575.0869249999987
 20
2849.1216380000001
 30
0.0
  0
VERTEX
  5
FEE
  8
LAYER01
  6
CONTINUOUS
 62
     7
 10
-5578.6665419999999
 20
2848.9382799999998
 30
0.0
  0
SEQEND
  5
FEF
  8
LAYER01
  6
CONTINUOUS
 62
     7
  0
POLYLINE
  5
2EB
  8
LAYER01
  6
CONTINUOUS
 62
     7
 66
     1
 10
0.0
 20
0.0
 30
0.0
 70
     1
  0
VERTEX
  5
FF0
  8
LAYER01
  6
CONTINUOUS
 62
     7
 10
-5555.8901369999994
 20
2885.5389319999999
 30
0.0
 42
0.4142140000000001
  0
VERTEX
  5
FF1
  8
LAYER01
  6
CONTINUOUS
 62
     7
 10
-5578.6665419999999
 20
2908.315337
 30
0.0
 42
2.414213999999999
  0
VERTEX
  5
FF2
  8
LAYER01
  6
CONTINUOUS
 62
     7
 10
-5555.8901369999994
 20
2885.5389319999999
 30
0.0
  0
SEQEND
  5
FF3
  8
LAYER01
  6
CONTINUOUS
 62
     7
  0
POLYLINE
  5
2F0
  8
LAYER01
  6
CONTINUOUS
 62
     7
 66
     1
 10
0.0
 20
0.0
 30
0.0
  0
VERTEX
  5
FF4
  8
LAYER01
  6
CONTINUOUS
 62
     7
 10
-5578.6665419999999
 20
2922.1395649999999
 30
0.0
  0
VERTEX
  5
FF5
  8
LAYER01
  6
CONTINUOUS
 62
     7
 10
-5582.2461599999997
 20
2921.9562059999998
 30
0.0
  0
VERTEX
  5
FF6
  8
LAYER01
  6
CONTINUOUS
 62
     7
 10
-5585.7929629999999
 20
2921.4151920000008
 30
0.0
  0
VERTEX
  5
FF7
  8
LAYER01
  6
CONTINUOUS
 62
     7
 10
-5589.2741380000007
 20
2920.5301140000001
 30
0.0
  0
VERTEX
  5
FF8
  8
LAYER01
  6
CONTINUOUS
 62
     7
 10
-5592.6568710000001
 20
2919.3145639999998
 30
0.0
  0
VERTEX
  5
FF9
  8
LAYER01
  6
CONTINUOUS
 62
     7
 10
-5595.9083479999999
 20
2917.782134
 30
0.0
  0
VERTEX
  5
FFA
  8
LAYER01
  6
CONTINUOUS
 62
     7
 10
-5598.9957560000003
 20
2915.9464160000002
 30
0.0
  0
VERTEX
  5
FFB
  8
LAYER01
  6
CONTINUOUS
 62
     7
 10
-5601.8862790000012
 20
2913.8210020000001
 30
0.0
  0
VERTEX
  5
FFC
  8
LAYER01
  6
CONTINUOUS
 62
     7
 10
-5604.5471049999987
 20
2911.4194850000008
 30
0.0
  0
VERTEX
  5
FFD
  8
LAYER01
  6
CONTINUOUS
 62
     7
 10
-5606.9486219999999
 20
2908.7586590000001
 30
0.0
  0
VERTEX
  5
FFE
  8
LAYER01
  6
CONTINUOUS
 62
     7
 10
-5609.0740359999991
 20
2905.868136
 30
0.0
  0
VERTEX
  5
FFF
  8
LAYER01
  6
CONTINUOUS
 62
     7
 10
-5610.9097540000002
 20
2902.7807280000002
 30
0.0
  0
VERTEX
  5
1000
  8
LAYER01
  6
CONTINUOUS
 62
     7
 10
-5612.4421840000005
 20
2899.5292509999999
 30
0.0
  0
VERTEX
  5
1001
  8
LAYER01
  6
CONTINUOUS
 62
     7
 10
-5613.6577340000003
 20
2896.146518
 30
0.0
  0
VERTEX
  5
1002
  8
LAYER01
  6
CONTINUOUS
 62
     7
 10
-5614.5428119999988
 20
2892.6653430000001
 30
0.0
  0
VERTEX
  5
1003
  8
LAYER01
  6
CONTINUOUS
 62
     7
 10
-5615.083826
 20
2889.1185390000001
 30
0.0
  0
VERTEX
  5
1004
  8
LAYER01
  6
CONTINUOUS
 62
     7
 10
-5615.2671849999997
 20
2885.5389220000002
 30
0.0
  0
VERTEX
  5
1005
  8
LAYER01
  6
CONTINUOUS
 62
     7
 10
-5615.083826
 20
2881.9593049999999
 30
0.0
  0
VERTEX
  5
1006
  8
LAYER01
  6
CONTINUOUS
 62
     7
 10
-5614.5428119999988
 20
2878.4125020000001
 30
0.0
  0
VERTEX
  5
1007
  8
LAYER01
  6
CONTINUOUS
 62
     7
 10
-5613.6577340000003
 20
2874.9313269999998
 30
0.0
  0
VERTEX
  5
1008
  8
LAYER01
  6
CONTINUOUS
 62
     7
 10
-5612.4421840000005
 20
2871.5485939999999
 30
0.0
  0
VERTEX
  5
1009
  8
LAYER01
  6
CONTINUOUS
 62
     7
 10
-5610.9097540000002
 20
2868.2971160000002
 30
0.0
  0
VERTEX
  5
100A
  8
LAYER01
  6
CONTINUOUS
 62
     7
 10
-5609.0740359999991
 20
2865.2097090000002
 30
0.0
  0
VERTEX
  5
100B
  8
LAYER01
  6
CONTINUOUS
 62
     7
 10
-5606.9486219999999
 20
2862.3191849999998
 30
0.0
  0
VERTEX
  5
100C
  8
LAYER01
  6
CONTINUOUS
 62
     7
 10
-5604.5471049999987
 20
2859.6583599999999
 30
0.0
  0
VERTEX
  5
100D
  8
LAYER01
  6
CONTINUOUS
 62
     7
 10
-5601.8862790000012
 20
2857.2568419999998
 30
0.0
  0
VERTEX
  5
100E
  8
LAYER01
  6
CONTINUOUS
 62
     7
 10
-5598.9957560000003
 20
2855.131429
 30
0.0
  0
VERTEX
  5
100F
  8
LAYER01
  6
CONTINUOUS
 62
     7
 10
-5595.9083479999999
 20
2853.2957110000002
 30
0.0
  0
VERTEX
  5
1010
  8
LAYER01
  6
CONTINUOUS
 62
     7
 10
-5592.6568710000001
 20
2851.763281
 30
0.0
  0
VERTEX
  5
1011
  8
LAYER01
  6
CONTINUOUS
 62
     7
 10
-5589.2741380000007
 20
2850.5477310000001
 30
0.0
  0
VERTEX
  5
1012
  8
LAYER01
  6
CONTINUOUS
 62
     7
 10
-5585.7929629999999
 20
2849.6626530000008
 30
0.0
  0
VERTEX
  5
1013
  8
LAYER01
  6
CONTINUOUS
 62
     7
 10
-5582.2461599999997
 20
2849.1216380000001
 30
0.0
  0
VERTEX
  5
1014
  8
LAYER01
  6
CONTINUOUS
 62
     7
 10
-5578.6665419999999
 20
2848.9382799999998
 30
0.0
  0
SEQEND
  5
1015
  8
LAYER01
  6
CONTINUOUS
 62
     7
  0
POLYLINE
  5
313
  8
KERA2
  6
CONTINUOUS
 62
    18
 66
     1
 10
0.0
 20
0.0
 30
0.0
  0
VERTEX
  5
1016
  8
KERA2
  6
CONTINUOUS
 62
    18
 10
-5638.612043000001
 20
2885.5389319999999
 30
0.0
  0
VERTEX
  5
1017
  8
KERA2
  6
CONTINUOUS
 62
    18
 10
-5630.3623310000003
 20
2885.5389319999999
 30
0.0
  0
VERTEX
  5
1018
  8
KERA2
  6
CONTINUOUS
 62
    18
 10
-5623.0506569999998
 20
2885.5389319999999
 30
0.0
  0
VERTEX
  5
1019
  8
KERA2
  6
CONTINUOUS
 62
    18
 10
-5616.5702469999997
 20
2885.5389319999999
 30
0.0
  0
VERTEX
  5
101A
  8
KERA2
  6
CONTINUOUS
 62
    18
 10
-5610.8143300000002
 20
2885.5389319999999
 30
0.0
  0
VERTEX
  5
101B
  8
KERA2
  6
CONTINUOUS
 62
    18
 10
-5605.6761310000002
 20
2885.5389319999999
 30
0.0
  0
VERTEX
  5
101C
  8
KERA2
  6
CONTINUOUS
 62
    18
 10
-5601.0488800000003
 20
2885.5389319999999
 30
0.0
  0
VERTEX
  5
101D
  8
KERA2
  6
CONTINUOUS
 62
    18
 10
-5596.8258020000012
 20
2885.5389319999999
 30
0.0
  0
VERTEX
  5
101E
  8
KERA2
  6
CONTINUOUS
 62
    18
 10
-5592.9001259999986
 20
2885.5389319999999
 30
0.0
  0
VERTEX
  5
101F
  8
KERA2
  6
CONTINUOUS
 62
    18
 10
-5589.1749300000001
 20
2885.5389319999999
 30
0.0
  0
VERTEX
  5
1020
  8
KERA2
  6
CONTINUOUS
 62
    18
 10
-5585.5927060000004
 20
2885.5389319999999
 30
0.0
  0
VERTEX
  5
1021
  8
KERA2
  6
CONTINUOUS
 62
    18
 10
-5582.1057959999998
 20
2885.5389319999999
 30
0.0
  0
VERTEX
  5
1022
  8
KERA2
  6
CONTINUOUS
 62
    18
 10
-5578.6665419999999
 20
2885.5389319999999
 30
0.0
  0
VERTEX
  5
1023
  8
KERA2
  6
CONTINUOUS
 62
    18
 10
-5575.2272890000004
 20
2885.5389319999999
 30
0.0
  0
VERTEX
  5
1024
  8
KERA2
  6
CONTINUOUS
 62
    18
 10
-5571.7403789999998
 20
2885.5389319999999
 30
0.0
  0
VERTEX
  5
1025
  8
KERA2
  6
CONTINUOUS
 62
    18
 10
-5568.1581550000001
 20
2885.5389319999999
 30
0.0
  0
VERTEX
  5
1026
  8
KERA2
  6
CONTINUOUS
 62
    18
 10
-5564.4329590000007
 20
2885.5389319999999
 30
0.0
  0
VERTEX
  5
1027
  8
KERA2
  6
CONTINUOUS
 62
    18
 10
-5560.507282999999
 20
2885.5389319999999
 30
0.0
  0
VERTEX
  5
1028
  8
KERA2
  6
CONTINUOUS
 62
    18
 10
-5556.2842049999999
 20
2885.5389319999999
 30
0.0
  0
VERTEX
  5
1029
  8
KERA2
  6
CONTINUOUS
 62
    18
 10
-5551.656954
 20
2885.5389319999999
 30
0.0
  0
VERTEX
  5
102A
  8
KERA2
  6
CONTINUOUS
 62
    18
 10
-5546.518755000001
 20
2885.5389319999999
 30
0.0
  0
VERTEX
  5
102B
  8
KERA2
  6
CONTINUOUS
 62
    18
 10
-5540.7628379999996
 20
2885.5389319999999
 30
0.0
  0
VERTEX
  5
102C
  8
KERA2
  6
CONTINUOUS
 62
    18
 10
-5534.2824280000004
 20
2885.5389319999999
 30
0.0
  0
VERTEX
  5
102D
  8
KERA2
  6
CONTINUOUS
 62
    18
 10
-5526.9707539999999
 20
2885.5389319999999
 30
0.0
  0
VERTEX
  5
102E
  8
KERA2
  6
CONTINUOUS
 62
    18
 10
-5518.7210420000001
 20
2885.5389319999999
 30
0.0
  0
SEQEND
  5
102F
  8
KERA2
  6
CONTINUOUS
 62
    18
  0
ARC
  5
32E
  8
LAYER01
  6
CONTINUOUS
 62
     7
 10
-5788.6665419999999
 20
2610.4974560000001
 30
0.0
 40
30.0
 50
180.0
 51
270.0
  0
POLYLINE
  5
32F
  8
KERA2
  6
CONTINUOUS
 62
    18
 66
     1
 10
0.0
 20
0.0
 30
0.0
  0
VERTEX
  5
1030
  8
KERA2
  6
CONTINUOUS
 62
    18
 10
-5578.6665409999996
 20
3016.9283340000011
 30
0.0
  0
VERTEX
  5
1031
  8
KERA2
  6
CONTINUOUS
 62
    18
 10
-5578.6665419999999
 20
2983.9367139999999
 30
0.0
  0
VERTEX
  5
1032
  8
KERA2
  6
CONTINUOUS
 62
    18
 10
-5578.6665439999997
 20
2948.0665770000001
 30
0.0
  0
SEQEND
  5
1033
  8
KERA2
  6
CONTINUOUS
 62
    18
  0
LINE
  5
334
  8
KERA2
  6
CONTINUOUS
 62
    18
 10
-5613.0981499999989
 20
2982.4974560000001
 30
0.0
 11
-5544.2349350000013
 21
2982.4974560000001
 31
0.0
  0
DIMENSION
  5
335
  8
LAYER01
 62
     7
  2
*D9
 10
-5902.6665419999999
 20
3122.7040980000002
 30
0.0
 11
-5741.6353660000004
 21
3182.7040980000002
 31
0.0
 13
-5578.6665419999999
 23
3038.4974560000001
 33
0.0
 14
-5902.6665419999999
 24
3038.4974560000001
 34
0.0
  0
ARC
  5
336
  8
LAYER01
  6
CONTINUOUS
 62
     7
 10
-5788.6665419999999
 20
2910.5389319999999
 30
0.0
 40
30.0
 50
90.0
 51
180.0
  0
POLYLINE
  5
337
  8
LAYER01
  6
CONTINUOUS
 62
     7
 66
     1
 10
0.0
 20
0.0
 30
0.0
 70
     1
  0
VERTEX
  5
1034
  8
LAYER01
  6
CONTINUOUS
 62
     7
 10
-5560.9424130000007
 20
2982.509548
 30
0.0
  0
VERTEX
  5
1035
  8
LAYER01
  6
CONTINUOUS
 62
     7
 10
-5561.1384509999998
 20
2979.9471480000002
 30
0.0
  0
VERTEX
  5
1036
  8
LAYER01
  6
CONTINUOUS
 62
     7
 10
-5561.711945
 20
2977.4376999999999
 30
0.0
  0
VERTEX
  5
1037
  8
LAYER01
  6
CONTINUOUS
 62
     7
 10
-5562.6409610000001
 20
2975.0341549999998
 30
0.0
  0
VERTEX
  5
1038
  8
LAYER01
  6
CONTINUOUS
 62
     7
 10
-5563.903566
 20
2972.7894670000001
 30
0.0
  0
VERTEX
  5
1039
  8
LAYER01
  6
CONTINUOUS
 62
     7
 10
-5565.4778249999999
 20
2970.756586
 30
0.0
  0
VERTEX
  5
103A
  8
LAYER01
  6
CONTINUOUS
 62
     7
 10
-5567.3402740000001
 20
2968.9869330000001
 30
0.0
  0
VERTEX
  5
103B
  8
LAYER01
  6
CONTINUOUS
 62
     7
 10
-5569.4496409999992
 20
2967.514122
 30
0.0
  0
VERTEX
  5
103C
  8
LAYER01
  6
CONTINUOUS
 62
     7
 10
-5571.7531650000001
 20
2966.3602770000002
 30
0.0
  0
VERTEX
  5
103D
  8
LAYER01
  6
CONTINUOUS
 62
     7
 10
-5574.1978939999999
 20
2965.5473310000002
 30
0.0
  0
VERTEX
  5
103E
  8
LAYER01
  6
CONTINUOUS
 62
     7
 10
-5576.730877
 20
2965.0972179999999
 30
0.0
  0
VERTEX
  5
103F
  8
LAYER01
  6
CONTINUOUS
 62
     7
 10
-5579.2991609999999
 20
2965.0316010000001
 30
0.0
  0
VERTEX
  5
1040
  8
LAYER01
  6
CONTINUOUS
 62
     7
 10
-5581.8497939999997
 20
2965.3558950000001
 30
0.0
  0
VERTEX
  5
1041
  8
LAYER01
  6
CONTINUOUS
 62
     7
 10
-5584.3298249999998
 20
2966.050334
 30
0.0
  0
VERTEX
  5
1042
  8
LAYER01
  6
CONTINUOUS
 62
     7
 10
-5586.6863009999997
 20
2967.092983
 30
0.0
  0
VERTEX
  5
1043
  8
LAYER01
  6
CONTINUOUS
 62
     7
 10
-5588.8662700000004
 20
2968.4619090000001
 30
0.0
  0
VERTEX
  5
1044
  8
LAYER01
  6
CONTINUOUS
 62
     7
 10
-5590.8167810000004
 20
2970.1351800000002
 30
0.0
  0
VERTEX
  5
1045
  8
LAYER01
  6
CONTINUOUS
 62
     7
 10
-5592.4900520000001
 20
2972.0856910000002
 30
0.0
  0
VERTEX
  5
1046
  8
LAYER01
  6
CONTINUOUS
 62
     7
 10
-5593.8589780000002
 20
2974.26566
 30
0.0
  0
VERTEX
  5
1047
  8
LAYER01
  6
CONTINUOUS
 62
     7
 10
-5594.9016270000002
 20
2976.622136
 30
0.0
  0
VERTEX
  5
1048
  8
LAYER01
  6
CONTINUOUS
 62
     7
 10
-5595.5960649999997
 20
2979.102167
 30
0.0
  0
VERTEX
  5
1049
  8
LAYER01
  6
CONTINUOUS
 62
     7
 10
-5595.9203600000001
 20
2981.6527999999998
 30
0.0
  0
VERTEX
  5
104A
  8
LAYER01
  6
CONTINUOUS
 62
     7
 10
-5595.8547429999999
 20
2984.2210839999998
 30
0.0
  0
VERTEX
  5
104B
  8
LAYER01
  6
CONTINUOUS
 62
     7
 10
-5595.40463
 20
2986.754066
 30
0.0
  0
VERTEX
  5
104C
  8
LAYER01
  6
CONTINUOUS
 62
     7
 10
-5594.591684
 20
2989.1987960000001
 30
0.0
  0
VERTEX
  5
104D
  8
LAYER01
  6
CONTINUOUS
 62
     7
 10
-5593.4378390000002
 20
2991.5023200000001
 30
0.0
  0
VERTEX
  5
104E
  8
LAYER01
  6
CONTINUOUS
 62
     7
 10
-5591.9650279999996
 20
2993.6116870000001
 30
0.0
  0
VERTEX
  5
104F
  8
LAYER01
  6
CONTINUOUS
 62
     7
 10
-5590.1953750000002
 20
2995.4741359999998
 30
0.0
  0
VERTEX
  5
1050
  8
LAYER01
  6
CONTINUOUS
 62
     7
 10
-5588.1624940000002
 20
2997.0483949999998
 30
0.0
  0
VERTEX
  5
1051
  8
LAYER01
  6
CONTINUOUS
 62
     7
 10
-5585.9178060000013
 20
2998.3110000000001
 30
0.0
  0
VERTEX
  5
1052
  8
LAYER01
  6
CONTINUOUS
 62
     7
 10
-5583.5142610000012
 20
2999.2400160000002
 30
0.0
  0
VERTEX
  5
1053
  8
LAYER01
  6
CONTINUOUS
 62
     7
 10
-5581.0048129999996
 20
2999.81351
 30
0.0
  0
VERTEX
  5
1054
  8
LAYER01
  6
CONTINUOUS
 62
     7
 10
-5578.4424130000007
 20
3000.009548
 30
0.0
  0
VERTEX
  5
1055
  8
LAYER01
  6
CONTINUOUS
 62
     7
 10
-5575.8800119999987
 20
2999.81351
 30
0.0
  0
VERTEX
  5
1056
  8
LAYER01
  6
CONTINUOUS
 62
     7
 10
-5573.3705639999998
 20
2999.2400160000002
 30
0.0
  0
VERTEX
  5
1057
  8
LAYER01
  6
CONTINUOUS
 62
     7
 10
-5570.9670189999997
 20
2998.3110000000001
 30
0.0
  0
VERTEX
  5
1058
  8
LAYER01
  6
CONTINUOUS
 62
     7
 10
-5568.7223309999999
 20
2997.0483949999998
 30
0.0
  0
VERTEX
  5
1059
  8
LAYER01
  6
CONTINUOUS
 62
     7
 10
-5566.6894499999999
 20
2995.4741359999998
 30
0.0
  0
VERTEX
  5
105A
  8
LAYER01
  6
CONTINUOUS
 62
     7
 10
-5564.9197969999987
 20
2993.6116870000001
 30
0.0
  0
VERTEX
  5
105B
  8
LAYER01
  6
CONTINUOUS
 62
     7
 10
-5563.4469859999999
 20
2991.5023200000001
 30
0.0
  0
VERTEX
  5
105C
  8
LAYER01
  6
CONTINUOUS
 62
     7
 10
-5562.2931409999992
 20
2989.1987960000001
 30
0.0
  0
VERTEX
  5
105D
  8
LAYER01
  6
CONTINUOUS
 62
     7
 10
-5561.4801950000001
 20
2986.754066
 30
0.0
  0
VERTEX
  5
105E
  8
LAYER01
  6
CONTINUOUS
 62
     7
 10
-5561.0300820000011
 20
2984.2210839999998
 30
0.0
  0
SEQEND
  5
105F
  8
LAYER01
  6
CONTINUOUS
 62
     7
  0
LINE
  5
364
  8
LAYER01
  6
GESTRICHELT
 62
     7
 10
-5265.6665419999999
 20
2549.4974560000001
 30
0.0
 11
-5265.6665419999999
 21
3037.4974560000001
 31
0.0
  0
DIMENSION
  5
365
  8
LAYER01
 62
     7
  2
*D10
 10
-5102.2722729999996
 20
3037.4974560000001
 30
0.0
 11
-5162.2722729999996
 21
3193.3447529999999
 31
0.0
 53
90.0
 13
-5253.6665419999999
 23
2982.4974560000001
 33
0.0
 14
-5253.6665419999999
 24
3037.4974560000001
 34
0.0
 50
90.0
  0
DIMENSION
  5
366
  8
LAYER01
 62
     7
  2
*D11
 10
-4943.6828999999989
 20
2885.5389319999999
 30
0.0
 11
-5003.6828999999998
 21
2958.231753
 31
0.0
 53
90.0
 13
-5253.6665419999999
 23
3037.4974560000001
 33
0.0
 14
-5253.6665419999999
 24
2885.5389319999999
 34
0.0
 50
90.0
  0
LINE
  5
367
  8
LAYER01
  6
CONTINUOUS
 62
     7
 10
-5338.6665419999999
 20
2910.5389319999999
 30
0.0
 11
-5338.6665419999999
 21
2610.4974560000001
 31
0.0
  0
LINE
  5
368
  8
LAYER01
  6
CONTINUOUS
 62
     7
 10
-5253.6665419999999
 20
2537.4974560000001
 30
0.0
 11
-5253.6665419999999
 21
3037.4974560000001
 31
0.0
  0
ARC
  5
369
  8
LAYER01
  6
CONTINUOUS
 62
     7
 10
-5368.666541999999
 20
2610.4974560000001
 30
0.0
 40
30.0
 50
270.0
 51
0.0
  0
ARC
  5
36A
  8
LAYER01
  6
CONTINUOUS
 62
     7
 10
-5368.666541999999
 20
2910.5389319999999
 30
0.0
 40
30.0
 50
0.0
 51
90.0
  0
DIMENSION
  5
36B
  8
LAYER01
 62
     7
  2
*D12
 10
-5718.6665419999999
 20
4459.1703870000001
 30
0.0
 11
-5581.7311879999997
 21
4459.1703870000001
 31
0.0
 13
-5438.666541999999
 23
4395.3895990000001
 33
0.0
 14
-5718.6665419999999
 24
4395.3895990000001
 34
0.0
  0
DIMENSION
  5
36C
  8
LAYER01
 62
     7
  2
*D13
 10
-5728.6615419999998
 20
3937.2799560000012
 30
0.0
 11
-5584.0519720000011
 21
3997.2799560000012
 31
0.0
 13
-5428.6615419999998
 23
4042.0614950000008
 33
0.0
 14
-5728.6615419999998
 24
4042.0614950000008
 34
0.0
  0
LINE
  5
36D
  8
LAYER01
  6
CONTINUOUS
 62
     7
 10
-5903.666541999999
 20
4258.4726770000007
 30
0.0
 11
-5253.6665419999999
 21
4258.4726770000007
 31
0.0
  0
LINE
  5
36E
  8
LAYER01
  6
CONTINUOUS
 62
     7
 10
-5903.666541999999
 20
4348.4726770000007
 30
0.0
 11
-5253.6665419999999
 21
4348.4726770000007
 31
0.0
  0
LINE
  5
36F
  8
LAYER01
  6
CONTINUOUS
 62
     7
 10
-5903.666541999999
 20
4308.4726770000007
 30
0.0
 11
-5253.6665419999999
 21
4308.4726770000007
 31
0.0
  0
LINE
  5
370
  8
LAYER01
  6
CONTINUOUS
 62
     7
 10
-5375.1112210000001
 20
4213.2668759999988
 30
0.0
 11
-5554.6665419999999
 21
4204.0677949999999
 31
0.0
  0
LINE
  5
371
  8
0
  6
CONTINUOUS
 62
     7
 10
-5743.666541999999
 20
4258.4726770000007
 30
0.0
 11
-5693.666541999999
 21
4258.4726770000007
 31
0.0
  0
POLYLINE
  5
372
  8
0
  6
CONTINUOUS
 62
     7
 66
     1
 10
0.0
 20
0.0
 30
0.0
  0
VERTEX
  5
1060
  8
0
  6
CONTINUOUS
 62
     7
 10
-5718.6665419999999
 20
4283.4726770000007
 30
0.0
  0
VERTEX
  5
1061
  8
0
  6
CONTINUOUS
 62
     7
 10
-5718.6665419999999
 20
4283.3566080000001
 30
0.0
  0
VERTEX
  5
1062
  8
0
  6
CONTINUOUS
 62
     7
 10
-5718.6665419999999
 20
4275.4955869999994
 30
0.0
  0
VERTEX
  5
1063
  8
0
  6
CONTINUOUS
 62
     7
 10
-5718.6665419999999
 20
4267.6345659999988
 30
0.0
  0
VERTEX
  5
1064
  8
0
  6
CONTINUOUS
 62
     7
 10
-5718.6665419999999
 20
4259.773545
 30
0.0
  0
VERTEX
  5
1065
  8
0
  6
CONTINUOUS
 62
     7
 10
-5718.6665419999999
 20
4251.9125240000003
 30
0.0
  0
VERTEX
  5
1066
  8
0
  6
CONTINUOUS
 62
     7
 10
-5718.6665419999999
 20
4244.0515029999997
 30
0.0
  0
VERTEX
  5
1067
  8
0
  6
CONTINUOUS
 62
     7
 10
-5718.6665419999999
 20
4236.1904809999996
 30
0.0
  0
VERTEX
  5
1068
  8
0
  6
CONTINUOUS
 62
     7
 10
-5718.6665419999999
 20
4233.4726769999997
 30
0.0
  0
SEQEND
  5
1069
  8
0
  6
CONTINUOUS
 62
     7
  0
POLYLINE
  5
37D
  8
KERA4
  6
CONTINUOUS
 62
     1
 66
     1
 10
0.0
 20
0.0
 30
0.0
  0
VERTEX
  5
106A
  8
KERA4
  6
CONTINUOUS
 62
     1
 10
-5713.6536259999993
 20
4269.500884
 30
0.0
  0
VERTEX
  5
106B
  8
KERA4
  6
CONTINUOUS
 62
     1
 10
-5712.0388419999999
 20
4269.3773439999986
 30
0.0
  0
VERTEX
  5
106C
  8
KERA4
  6
CONTINUOUS
 62
     1
 10
-5710.4574279999997
 20
4269.0159370000001
 30
0.0
  0
VERTEX
  5
106D
  8
KERA4
  6
CONTINUOUS
 62
     1
 10
-5708.9427519999999
 20
4268.4304860000002
 30
0.0
  0
VERTEX
  5
106E
  8
KERA4
  6
CONTINUOUS
 62
     1
 10
-5707.528185000001
 20
4267.6348129999997
 30
0.0
  0
VERTEX
  5
106F
  8
KERA4
  6
CONTINUOUS
 62
     1
 10
-5706.2470960000001
 20
4266.6427389999999
 30
0.0
  0
VERTEX
  5
1070
  8
KERA4
  6
CONTINUOUS
 62
     1
 10
-5705.1318890000002
 20
4265.4690529999989
 30
0.0
  0
VERTEX
  5
1071
  8
KERA4
  6
CONTINUOUS
 62
     1
 10
-5704.2037469999996
 20
4264.1397640000014
 30
0.0
  0
VERTEX
  5
1072
  8
KERA4
  6
CONTINUOUS
 62
     1
 10
-5703.4766119999986
 20
4262.6881199999998
 30
0.0
  0
VERTEX
  5
1073
  8
KERA4
  6
CONTINUOUS
 62
     1
 10
-5702.9643059999999
 20
4261.1474900000003
 30
0.0
  0
VERTEX
  5
1074
  8
KERA4
  6
CONTINUOUS
 62
     1
 10
-5702.680652
 20
4259.5512449999997
 30
0.0
  0
VERTEX
  5
1075
  8
KERA4
  6
CONTINUOUS
 62
     1
 10
-5702.6393020000014
 20
4257.932753
 30
0.0
  0
VERTEX
  5
1076
  8
KERA4
  6
CONTINUOUS
 62
     1
 10
-5702.8436670000001
 20
4256.3253850000001
 30
0.0
  0
VERTEX
  5
1077
  8
KERA4
  6
CONTINUOUS
 62
     1
 10
-5703.2812909999993
 20
4254.7625090000001
 30
0.0
  0
VERTEX
  5
1078
  8
KERA4
  6
CONTINUOUS
 62
     1
 10
-5703.9383520000001
 20
4253.2774950000003
 30
0.0
  0
VERTEX
  5
1079
  8
KERA4
  6
CONTINUOUS
 62
     1
 10
-5704.8010270000013
 20
4251.9037129999997
 30
0.0
  0
VERTEX
  5
107A
  8
KERA4
  6
CONTINUOUS
 62
     1
 10
-5705.8554960000001
 20
4250.674532
 30
0.0
  0
VERTEX
  5
107B
  8
KERA4
  6
CONTINUOUS
 62
     1
 10
-5707.0846769999998
 20
4249.6200639999997
 30
0.0
  0
VERTEX
  5
107C
  8
KERA4
  6
CONTINUOUS
 62
     1
 10
-5708.4584590000004
 20
4248.757388
 30
0.0
  0
VERTEX
  5
107D
  8
KERA4
  6
CONTINUOUS
 62
     1
 10
-5709.943471999999
 20
4248.1003270000001
 30
0.0
  0
VERTEX
  5
107E
  8
KERA4
  6
CONTINUOUS
 62
     1
 10
-5711.5063479999999
 20
4247.662703
 30
0.0
  0
VERTEX
  5
107F
  8
KERA4
  6
CONTINUOUS
 62
     1
 10
-5713.1137170000002
 20
4247.4583380000004
 30
0.0
  0
VERTEX
  5
1080
  8
KERA4
  6
CONTINUOUS
 62
     1
 10
-5713.6536259999993
 20
4247.4444409999987
 30
0.0
  0
SEQEND
  5
1081
  8
KERA4
  6
CONTINUOUS
 62
     1
  0
POLYLINE
  5
396
  8
KERA4
  6
CONTINUOUS
 62
     1
 66
     1
 10
0.0
 20
0.0
 30
0.0
  0
VERTEX
  5
1082
  8
KERA4
  6
CONTINUOUS
 62
     1
 10
-5713.6536259999993
 20
4269.500884
 30
0.0
  0
VERTEX
  5
1083
  8
KERA4
  6
CONTINUOUS
 62
     1
 10
-5714.906833
 20
4269.500884
 30
0.0
  0
VERTEX
  5
1084
  8
KERA4
  6
CONTINUOUS
 62
     1
 10
-5716.1600399999998
 20
4269.500884
 30
0.0
  0
VERTEX
  5
1085
  8
KERA4
  6
CONTINUOUS
 62
     1
 10
-5717.4132469999986
 20
4269.500884
 30
0.0
  0
VERTEX
  5
1086
  8
KERA4
  6
CONTINUOUS
 62
     1
 10
-5718.6664540000002
 20
4269.500884
 30
0.0
  0
VERTEX
  5
1087
  8
KERA4
  6
CONTINUOUS
 62
     1
 10
-5719.9196609999999
 20
4269.500884
 30
0.0
  0
VERTEX
  5
1088
  8
KERA4
  6
CONTINUOUS
 62
     1
 10
-5721.1728679999997
 20
4269.500884
 30
0.0
  0
VERTEX
  5
1089
  8
KERA4
  6
CONTINUOUS
 62
     1
 10
-5722.4260750000012
 20
4269.500884
 30
0.0
  0
VERTEX
  5
108A
  8
KERA4
  6
CONTINUOUS
 62
     1
 10
-5723.6792820000001
 20
4269.500884
 30
0.0
  0
SEQEND
  5
108B
  8
KERA4
  6
CONTINUOUS
 62
     1
  0
POLYLINE
  5
3A1
  8
KERA4
  6
CONTINUOUS
 62
     1
 66
     1
 10
0.0
 20
0.0
 30
0.0
  0
VERTEX
  5
108C
  8
KERA4
  6
CONTINUOUS
 62
     1
 10
-5713.6536259999993
 20
4247.4444409999987
 30
0.0
  0
VERTEX
  5
108D
  8
KERA4
  6
CONTINUOUS
 62
     1
 10
-5714.906833
 20
4247.4444409999987
 30
0.0
  0
VERTEX
  5
108E
  8
KERA4
  6
CONTINUOUS
 62
     1
 10
-5716.1600399999998
 20
4247.4444409999987
 30
0.0
  0
VERTEX
  5
108F
  8
KERA4
  6
CONTINUOUS
 62
     1
 10
-5717.4132469999986
 20
4247.4444409999987
 30
0.0
  0
VERTEX
  5
1090
  8
KERA4
  6
CONTINUOUS
 62
     1
 10
-5718.6664540000002
 20
4247.4444409999987
 30
0.0
  0
VERTEX
  5
1091
  8
KERA4
  6
CONTINUOUS
 62
     1
 10
-5719.9196609999999
 20
4247.4444409999987
 30
0.0
  0
VERTEX
  5
1092
  8
KERA4
  6
CONTINUOUS
 62
     1
 10
-5721.1728679999997
 20
4247.4444409999987
 30
0.0
  0
VERTEX
  5
1093
  8
KERA4
  6
CONTINUOUS
 62
     1
 10
-5722.4260750000012
 20
4247.4444409999987
 30
0.0
  0
VERTEX
  5
1094
  8
KERA4
  6
CONTINUOUS
 62
     1
 10
-5723.6792820000001
 20
4247.4444409999987
 30
0.0
  0
SEQEND
  5
1095
  8
KERA4
  6
CONTINUOUS
 62
     1
  0
POLYLINE
  5
3AC
  8
KERA4
  6
CONTINUOUS
 62
     1
 66
     1
 10
0.0
 20
0.0
 30
0.0
  0
VERTEX
  5
1096
  8
KERA4
  6
CONTINUOUS
 62
     1
 10
-5723.6792820000001
 20
4247.4444409999987
 30
0.0
  0
VERTEX
  5
1097
  8
KERA4
  6
CONTINUOUS
 62
     1
 10
-5725.2940660000004
 20
4247.5679810000001
 30
0.0
  0
VERTEX
  5
1098
  8
KERA4
  6
CONTINUOUS
 62
     1
 10
-5726.875481
 20
4247.9293880000014
 30
0.0
  0
VERTEX
  5
1099
  8
KERA4
  6
CONTINUOUS
 62
     1
 10
-5728.3901560000004
 20
4248.5148390000013
 30
0.0
  0
VERTEX
  5
109A
  8
KERA4
  6
CONTINUOUS
 62
     1
 10
-5729.8047229999993
 20
4249.310512
 30
0.0
  0
VERTEX
  5
109B
  8
KERA4
  6
CONTINUOUS
 62
     1
 10
-5731.0858119999994
 20
4250.3025850000004
 30
0.0
  0
VERTEX
  5
109C
  8
KERA4
  6
CONTINUOUS
 62
     1
 10
-5732.2010190000001
 20
4251.4762710000005
 30
0.0
  0
VERTEX
  5
109D
  8
KERA4
  6
CONTINUOUS
 62
     1
 10
-5733.1291620000002
 20
4252.8055610000001
 30
0.0
  0
VERTEX
  5
109E
  8
KERA4
  6
CONTINUOUS
 62
     1
 10
-5733.8562970000003
 20
4254.2572049999999
 30
0.0
  0
VERTEX
  5
109F
  8
KERA4
  6
CONTINUOUS
 62
     1
 10
-5734.3686019999996
 20
4255.7978350000003
 30
0.0
  0
VERTEX
  5
10A0
  8
KERA4
  6
CONTINUOUS
 62
     1
 10
-5734.6522560000003
 20
4257.39408
 30
0.0
  0
VERTEX
  5
10A1
  8
KERA4
  6
CONTINUOUS
 62
     1
 10
-5734.6936070000002
 20
4259.0125719999987
 30
0.0
  0
VERTEX
  5
10A2
  8
KERA4
  6
CONTINUOUS
 62
     1
 10
-5734.4892420000006
 20
4260.6199399999987
 30
0.0
  0
VERTEX
  5
10A3
  8
KERA4
  6
CONTINUOUS
 62
     1
 10
-5734.0516170000001
 20
4262.1828159999995
 30
0.0
  0
VERTEX
  5
10A4
  8
KERA4
  6
CONTINUOUS
 62
     1
 10
-5733.3945569999996
 20
4263.6678299999994
 30
0.0
  0
VERTEX
  5
10A5
  8
KERA4
  6
CONTINUOUS
 62
     1
 10
-5732.531880999999
 20
4265.041612
 30
0.0
  0
VERTEX
  5
10A6
  8
KERA4
  6
CONTINUOUS
 62
     1
 10
-5731.4774129999996
 20
4266.2707929999988
 30
0.0
  0
VERTEX
  5
10A7
  8
KERA4
  6
CONTINUOUS
 62
     1
 10
-5730.2482319999999
 20
4267.325260999999
 30
0.0
  0
VERTEX
  5
10A8
  8
KERA4
  6
CONTINUOUS
 62
     1
 10
-5728.8744489999999
 20
4268.1879369999988
 30
0.0
  0
VERTEX
  5
10A9
  8
KERA4
  6
CONTINUOUS
 62
     1
 10
-5727.3894360000013
 20
4268.8449979999987
 30
0.0
  0
VERTEX
  5
10AA
  8
KERA4
  6
CONTINUOUS
 62
     1
 10
-5725.8265600000013
 20
4269.2826219999997
 30
0.0
  0
VERTEX
  5
10AB
  8
KERA4
  6
CONTINUOUS
 62
     1
 10
-5724.2191909999992
 20
4269.4869869999993
 30
0.0
  0
VERTEX
  5
10AC
  8
KERA4
  6
CONTINUOUS
 62
     1
 10
-5723.6792820000001
 20
4269.500884
 30
0.0
  0
SEQEND
  5
10AD
  8
KERA4
  6
CONTINUOUS
 62
     1
  0
LINE
  5
3C5
  8
LAYER01
  6
CONTINUOUS
 62
     7
 10
-5578.6665419999999
 20
4239.3458469999996
 30
0.0
 11
-5578.6665419999999
 21
4177.6109169999991
 31
0.0
  0
LINE
  5
3C6
  8
KERA4
  6
CONTINUOUS
 62
     1
 10
-5903.666541999999
 20
4216.4726770000007
 30
0.0
 11
-5802.1676500000012
 21
4216.4726770000007
 31
0.0
  0
LINE
  5
3C7
  8
LAYER01
  6
CONTINUOUS
 62
     7
 10
-5903.666541999999
 20
4216.4726770000007
 30
0.0
 11
-5903.666541999999
 21
4348.4726770000007
 31
0.0
  0
ARC
  5
3C8
  8
LAYER01
  6
CONTINUOUS
 62
     7
 10
-5779.9194180000013
 20
4258.2079350000004
 30
0.0
 40
45.0
 50
189.417722
 51
267.06715400000002
  0
LINE
  5
3C9
  8
LAYER01
  6
CONTINUOUS
 62
     7
 10
-5825.5877119999986
 20
4258.5303599999988
 30
0.0
 11
-5824.3128900000002
 21
4250.8445350000002
 31
0.0
  0
LINE
  5
3CA
  8
LAYER01
  6
CONTINUOUS
 62
     7
 10
-5782.2218640000001
 20
4213.2668759999988
 30
0.0
 11
-5602.6665419999999
 21
4204.0677949999999
 31
0.0
  0
LINE
  5
3CB
  8
LAYER01
  6
CONTINUOUS
 62
     7
 10
-5602.6665419999999
 20
4193.4726769999997
 30
0.0
 11
-5554.6665419999999
 21
4193.4726769999997
 31
0.0
  0
LINE
  5
3CC
  8
LAYER01
  6
CONTINUOUS
 62
     7
 10
-5602.6665419999999
 20
4204.0677949999999
 30
0.0
 11
-5602.6665419999999
 21
4193.4726769999997
 31
0.0
  0
LINE
  5
3CD
  8
LAYER01
  6
CONTINUOUS
 62
     7
 10
-5554.6665419999999
 20
4204.0677949999999
 30
0.0
 11
-5554.6665419999999
 21
4193.4726769999997
 31
0.0
  0
LINE
  5
3CE
  8
LAYER01
  6
CONTINUOUS
 62
     7
 10
-5728.6615419999998
 20
4118.4726769999997
 30
0.0
 11
-5728.6615419999998
 21
4158.4726770000007
 31
0.0
  0
LINE
  5
3CF
  8
LAYER01
  6
CONTINUOUS
 62
     7
 10
-5728.6615419999998
 20
4118.4726769999997
 30
0.0
 11
-5728.6615419999998
 21
4158.4726770000007
 31
0.0
  0
POLYLINE
  5
3D0
  8
LAYER01
  6
CONTINUOUS
 62
     7
 66
     1
 10
0.0
 20
0.0
 30
0.0
 70
     1
  0
VERTEX
  5
10AE
  8
LAYER01
  6
CONTINUOUS
 62
     7
 10
-5716.1615419999998
 20
4138.4726770000007
 30
0.0
 42
0.4142140000000001
  0
VERTEX
  5
10AF
  8
LAYER01
  6
CONTINUOUS
 62
     7
 10
-5728.6615419999998
 20
4150.9726770000007
 30
0.0
 42
2.414213999999999
  0
VERTEX
  5
10B0
  8
LAYER01
  6
CONTINUOUS
 62
     7
 10
-5716.1615419999998
 20
4138.4726770000007
 30
0.0
  0
SEQEND
  5
10B1
  8
LAYER01
  6
CONTINUOUS
 62
     7
  0
LINE
  5
3D5
  8
LAYER01
  6
CONTINUOUS
 62
     7
 10
-5578.6665419999999
 20
4050.290677
 30
0.0
 11
-5578.6665419999999
 21
4132.1806770000003
 31
0.0
  0
LINE
  5
3D6
  8
LAYER01
  6
CONTINUOUS
 62
     7
 10
-5620.3265419999998
 20
4088.4726770000002
 30
0.0
 11
-5539.2765419999996
 21
4088.4726770000002
 31
0.0
  0
LINE
  5
3D7
  8
LAYER01
  6
CONTINUOUS
 62
     7
 10
-5748.6615419999998
 20
4138.4726770000007
 30
0.0
 11
-5708.6615419999998
 21
4138.4726770000007
 31
0.0
  0
LINE
  5
3D8
  8
LAYER01
  6
CONTINUOUS
 62
     7
 10
-5578.6665419999999
 20
4050.290677
 30
0.0
 11
-5578.6665419999999
 21
4132.1806770000003
 31
0.0
  0
POLYLINE
  5
3D9
  8
LAYER01
  6
CONTINUOUS
 62
     7
 66
     1
 10
0.0
 20
0.0
 30
0.0
 70
     1
  0
VERTEX
  5
10B2
  8
LAYER01
  6
CONTINUOUS
 62
     7
 10
-5553.6665419999999
 20
4088.4726770000002
 30
0.0
 42
0.4142140000000001
  0
VERTEX
  5
10B3
  8
LAYER01
  6
CONTINUOUS
 62
     7
 10
-5578.6665419999999
 20
4113.4726769999997
 30
0.0
 42
2.414213999999999
  0
VERTEX
  5
10B4
  8
LAYER01
  6
CONTINUOUS
 62
     7
 10
-5553.6665419999999
 20
4088.4726770000002
 30
0.0
  0
SEQEND
  5
10B5
  8
LAYER01
  6
CONTINUOUS
 62
     7
  0
LINE
  5
3DE
  8
LAYER01
  6
CONTINUOUS
 62
     7
 10
-5620.3265419999998
 20
4088.4726770000002
 30
0.0
 11
-5539.2765419999996
 21
4088.4726770000002
 31
0.0
  0
LINE
  5
3DF
  8
LAYER01
  6
CONTINUOUS
 62
     7
 10
-5748.6615419999998
 20
4138.4726770000007
 30
0.0
 11
-5708.6615419999998
 21
4138.4726770000007
 31
0.0
  0
POLYLINE
  5
3E0
  8
LAYER01
  6
CONTINUOUS
 62
     7
 66
     1
 10
0.0
 20
0.0
 30
0.0
 70
     1
  0
VERTEX
  5
10B6
  8
LAYER01
  6
CONTINUOUS
 62
     7
 10
-5716.1615419999998
 20
4138.4726770000007
 30
0.0
 42
0.4142140000000001
  0
VERTEX
  5
10B7
  8
LAYER01
  6
CONTINUOUS
 62
     7
 10
-5728.6615419999998
 20
4150.9726770000007
 30
0.0
 42
2.414213999999999
  0
VERTEX
  5
10B8
  8
LAYER01
  6
CONTINUOUS
 62
     7
 10
-5716.1615419999998
 20
4138.4726770000007
 30
0.0
  0
SEQEND
  5
10B9
  8
LAYER01
  6
CONTINUOUS
 62
     7
  0
POLYLINE
  5
3E5
  8
LAYER01
  6
CONTINUOUS
 62
     7
 66
     1
 10
0.0
 20
0.0
 30
0.0
 70
     1
  0
VERTEX
  5
10BA
  8
LAYER01
  6
CONTINUOUS
 62
     7
 10
-5553.6665419999999
 20
4088.4726770000002
 30
0.0
 42
0.4142140000000001
  0
VERTEX
  5
10BB
  8
LAYER01
  6
CONTINUOUS
 62
     7
 10
-5578.6665419999999
 20
4113.4726769999997
 30
0.0
 42
2.414213999999999
  0
VERTEX
  5
10BC
  8
LAYER01
  6
CONTINUOUS
 62
     7
 10
-5553.6665419999999
 20
4088.4726770000002
 30
0.0
  0
SEQEND
  5
10BD
  8
LAYER01
  6
CONTINUOUS
 62
     7
  0
DIMENSION
  5
3EA
  8
LAYER01
 62
     7
  2
*D14
 10
-4787.2209299999986
 20
4348.4726770000007
 30
0.0
 11
-4787.2209299999986
 21
4504.319974
 31
0.0
 53
90.0
 13
-4991.853314
 23
4308.4726770000007
 33
0.0
 14
-4991.853314
 24
4348.4726770000007
 34
0.0
 50
90.0
  0
DIMENSION
  5
3EB
  8
LAYER01
 62
     7
  2
*D15
 10
-5291.7867369999994
 20
4088.4726770000002
 30
0.0
 11
-5296.0998420000014
 21
4108.1639429999996
 31
0.0
 53
90.0
 13
-5379.4764789999999
 23
4138.4726770000007
 33
0.0
 14
-5379.4764789999999
 24
4088.4726770000002
 34
0.0
 50
90.0
  0
LINE
  5
3EC
  8
0
  6
CONTINUOUS
 62
     7
 10
-5463.6665419999999
 20
4258.4726770000007
 30
0.0
 11
-5413.6665419999999
 21
4258.4726770000007
 31
0.0
  0
POLYLINE
  5
3ED
  8
KERA4
  6
CONTINUOUS
 62
     1
 66
     1
 10
0.0
 20
0.0
 30
0.0
  0
VERTEX
  5
10BE
  8
KERA4
  6
CONTINUOUS
 62
     1
 10
-5443.6792820000001
 20
4247.4444409999987
 30
0.0
  0
VERTEX
  5
10BF
  8
KERA4
  6
CONTINUOUS
 62
     1
 10
-5445.2940659999986
 20
4247.5679810000001
 30
0.0
  0
VERTEX
  5
10C0
  8
KERA4
  6
CONTINUOUS
 62
     1
 10
-5446.875481
 20
4247.9293880000014
 30
0.0
  0
VERTEX
  5
10C1
  8
KERA4
  6
CONTINUOUS
 62
     1
 10
-5448.3901560000013
 20
4248.5148390000013
 30
0.0
  0
VERTEX
  5
10C2
  8
KERA4
  6
CONTINUOUS
 62
     1
 10
-5449.8047229999993
 20
4249.310512
 30
0.0
  0
VERTEX
  5
10C3
  8
KERA4
  6
CONTINUOUS
 62
     1
 10
-5451.0858119999994
 20
4250.3025850000004
 30
0.0
  0
VERTEX
  5
10C4
  8
KERA4
  6
CONTINUOUS
 62
     1
 10
-5452.2010190000001
 20
4251.4762710000005
 30
0.0
  0
VERTEX
  5
10C5
  8
KERA4
  6
CONTINUOUS
 62
     1
 10
-5453.1291620000002
 20
4252.8055610000001
 30
0.0
  0
VERTEX
  5
10C6
  8
KERA4
  6
CONTINUOUS
 62
     1
 10
-5453.8562970000003
 20
4254.2572049999999
 30
0.0
  0
VERTEX
  5
10C7
  8
KERA4
  6
CONTINUOUS
 62
     1
 10
-5454.3686019999996
 20
4255.7978350000003
 30
0.0
  0
VERTEX
  5
10C8
  8
KERA4
  6
CONTINUOUS
 62
     1
 10
-5454.6522560000012
 20
4257.39408
 30
0.0
  0
VERTEX
  5
10C9
  8
KERA4
  6
CONTINUOUS
 62
     1
 10
-5454.6936070000002
 20
4259.0125719999987
 30
0.0
  0
VERTEX
  5
10CA
  8
KERA4
  6
CONTINUOUS
 62
     1
 10
-5454.4892420000006
 20
4260.6199399999987
 30
0.0
  0
VERTEX
  5
10CB
  8
KERA4
  6
CONTINUOUS
 62
     1
 10
-5454.051617000001
 20
4262.1828159999995
 30
0.0
  0
VERTEX
  5
10CC
  8
KERA4
  6
CONTINUOUS
 62
     1
 10
-5453.3945569999996
 20
4263.6678299999994
 30
0.0
  0
VERTEX
  5
10CD
  8
KERA4
  6
CONTINUOUS
 62
     1
 10
-5452.5318809999999
 20
4265.041612
 30
0.0
  0
VERTEX
  5
10CE
  8
KERA4
  6
CONTINUOUS
 62
     1
 10
-5451.4774129999996
 20
4266.2707929999988
 30
0.0
  0
VERTEX
  5
10CF
  8
KERA4
  6
CONTINUOUS
 62
     1
 10
-5450.248231999999
 20
4267.325260999999
 30
0.0
  0
VERTEX
  5
10D0
  8
KERA4
  6
CONTINUOUS
 62
     1
 10
-5448.8744489999999
 20
4268.1879369999988
 30
0.0
  0
VERTEX
  5
10D1
  8
KERA4
  6
CONTINUOUS
 62
     1
 10
-5447.3894360000004
 20
4268.8449979999987
 30
0.0
  0
VERTEX
  5
10D2
  8
KERA4
  6
CONTINUOUS
 62
     1
 10
-5445.8265600000004
 20
4269.2826219999997
 30
0.0
  0
VERTEX
  5
10D3
  8
KERA4
  6
CONTINUOUS
 62
     1
 10
-5444.2191909999992
 20
4269.4869869999993
 30
0.0
  0
VERTEX
  5
10D4
  8
KERA4
  6
CONTINUOUS
 62
     1
 10
-5443.6792820000001
 20
4269.500884
 30
0.0
  0
SEQEND
  5
10D5
  8
KERA4
  6
CONTINUOUS
 62
     1
  0
POLYLINE
  5
406
  8
0
  6
CONTINUOUS
 62
     7
 66
     1
 10
0.0
 20
0.0
 30
0.0
  0
VERTEX
  5
10D6
  8
0
  6
CONTINUOUS
 62
     7
 10
-5438.666541999999
 20
4283.4726770000007
 30
0.0
  0
VERTEX
  5
10D7
  8
0
  6
CONTINUOUS
 62
     7
 10
-5438.666541999999
 20
4283.3566080000001
 30
0.0
  0
VERTEX
  5
10D8
  8
0
  6
CONTINUOUS
 62
     7
 10
-5438.666541999999
 20
4275.4955869999994
 30
0.0
  0
VERTEX
  5
10D9
  8
0
  6
CONTINUOUS
 62
     7
 10
-5438.666541999999
 20
4267.6345659999988
 30
0.0
  0
VERTEX
  5
10DA
  8
0
  6
CONTINUOUS
 62
     7
 10
-5438.666541999999
 20
4259.773545
 30
0.0
  0
VERTEX
  5
10DB
  8
0
  6
CONTINUOUS
 62
     7
 10
-5438.666541999999
 20
4251.9125240000003
 30
0.0
  0
VERTEX
  5
10DC
  8
0
  6
CONTINUOUS
 62
     7
 10
-5438.666541999999
 20
4244.0515029999997
 30
0.0
  0
VERTEX
  5
10DD
  8
0
  6
CONTINUOUS
 62
     7
 10
-5438.666541999999
 20
4236.1904809999996
 30
0.0
  0
VERTEX
  5
10DE
  8
0
  6
CONTINUOUS
 62
     7
 10
-5438.666541999999
 20
4233.4726769999997
 30
0.0
  0
SEQEND
  5
10DF
  8
0
  6
CONTINUOUS
 62
     7
  0
POLYLINE
  5
411
  8
KERA4
  6
CONTINUOUS
 62
     1
 66
     1
 10
0.0
 20
0.0
 30
0.0
  0
VERTEX
  5
10E0
  8
KERA4
  6
CONTINUOUS
 62
     1
 10
-5433.6536259999993
 20
4269.500884
 30
0.0
  0
VERTEX
  5
10E1
  8
KERA4
  6
CONTINUOUS
 62
     1
 10
-5432.0388419999999
 20
4269.3773439999986
 30
0.0
  0
VERTEX
  5
10E2
  8
KERA4
  6
CONTINUOUS
 62
     1
 10
-5430.4574279999997
 20
4269.0159370000001
 30
0.0
  0
VERTEX
  5
10E3
  8
KERA4
  6
CONTINUOUS
 62
     1
 10
-5428.9427520000008
 20
4268.4304860000002
 30
0.0
  0
VERTEX
  5
10E4
  8
KERA4
  6
CONTINUOUS
 62
     1
 10
-5427.5281849999992
 20
4267.6348129999997
 30
0.0
  0
VERTEX
  5
10E5
  8
KERA4
  6
CONTINUOUS
 62
     1
 10
-5426.2470960000001
 20
4266.6427389999999
 30
0.0
  0
VERTEX
  5
10E6
  8
KERA4
  6
CONTINUOUS
 62
     1
 10
-5425.1318890000002
 20
4265.4690529999989
 30
0.0
  0
VERTEX
  5
10E7
  8
KERA4
  6
CONTINUOUS
 62
     1
 10
-5424.2037469999987
 20
4264.1397640000014
 30
0.0
  0
VERTEX
  5
10E8
  8
KERA4
  6
CONTINUOUS
 62
     1
 10
-5423.4766119999986
 20
4262.6881199999998
 30
0.0
  0
VERTEX
  5
10E9
  8
KERA4
  6
CONTINUOUS
 62
     1
 10
-5422.9643059999999
 20
4261.1474900000003
 30
0.0
  0
VERTEX
  5
10EA
  8
KERA4
  6
CONTINUOUS
 62
     1
 10
-5422.680652
 20
4259.5512449999997
 30
0.0
  0
VERTEX
  5
10EB
  8
KERA4
  6
CONTINUOUS
 62
     1
 10
-5422.6393019999996
 20
4257.932753
 30
0.0
  0
VERTEX
  5
10EC
  8
KERA4
  6
CONTINUOUS
 62
     1
 10
-5422.8436670000001
 20
4256.3253850000001
 30
0.0
  0
VERTEX
  5
10ED
  8
KERA4
  6
CONTINUOUS
 62
     1
 10
-5423.2812909999993
 20
4254.7625090000001
 30
0.0
  0
VERTEX
  5
10EE
  8
KERA4
  6
CONTINUOUS
 62
     1
 10
-5423.9383520000001
 20
4253.2774950000003
 30
0.0
  0
VERTEX
  5
10EF
  8
KERA4
  6
CONTINUOUS
 62
     1
 10
-5424.8010270000004
 20
4251.9037129999997
 30
0.0
  0
VERTEX
  5
10F0
  8
KERA4
  6
CONTINUOUS
 62
     1
 10
-5425.8554960000001
 20
4250.674532
 30
0.0
  0
VERTEX
  5
10F1
  8
KERA4
  6
CONTINUOUS
 62
     1
 10
-5427.0846769999998
 20
4249.6200639999997
 30
0.0
  0
VERTEX
  5
10F2
  8
KERA4
  6
CONTINUOUS
 62
     1
 10
-5428.4584590000013
 20
4248.757388
 30
0.0
  0
VERTEX
  5
10F3
  8
KERA4
  6
CONTINUOUS
 62
     1
 10
-5429.9434719999999
 20
4248.1003270000001
 30
0.0
  0
VERTEX
  5
10F4
  8
KERA4
  6
CONTINUOUS
 62
     1
 10
-5431.5063479999999
 20
4247.662703
 30
0.0
  0
VERTEX
  5
10F5
  8
KERA4
  6
CONTINUOUS
 62
     1
 10
-5433.1137170000011
 20
4247.4583380000004
 30
0.0
  0
VERTEX
  5
10F6
  8
KERA4
  6
CONTINUOUS
 62
     1
 10
-5433.6536259999993
 20
4247.4444409999987
 30
0.0
  0
SEQEND
  5
10F7
  8
KERA4
  6
CONTINUOUS
 62
     1
  0
POLYLINE
  5
42A
  8
KERA4
  6
CONTINUOUS
 62
     1
 66
     1
 10
0.0
 20
0.0
 30
0.0
  0
VERTEX
  5
10F8
  8
KERA4
  6
CONTINUOUS
 62
     1
 10
-5433.6536259999993
 20
4247.4444409999987
 30
0.0
  0
VERTEX
  5
10F9
  8
KERA4
  6
CONTINUOUS
 62
     1
 10
-5434.906833
 20
4247.4444409999987
 30
0.0
  0
VERTEX
  5
10FA
  8
KERA4
  6
CONTINUOUS
 62
     1
 10
-5436.1600399999998
 20
4247.4444409999987
 30
0.0
  0
VERTEX
  5
10FB
  8
KERA4
  6
CONTINUOUS
 62
     1
 10
-5437.4132470000004
 20
4247.4444409999987
 30
0.0
  0
VERTEX
  5
10FC
  8
KERA4
  6
CONTINUOUS
 62
     1
 10
-5438.6664540000002
 20
4247.4444409999987
 30
0.0
  0
VERTEX
  5
10FD
  8
KERA4
  6
CONTINUOUS
 62
     1
 10
-5439.9196609999999
 20
4247.4444409999987
 30
0.0
  0
VERTEX
  5
10FE
  8
KERA4
  6
CONTINUOUS
 62
     1
 10
-5441.1728679999987
 20
4247.4444409999987
 30
0.0
  0
VERTEX
  5
10FF
  8
KERA4
  6
CONTINUOUS
 62
     1
 10
-5442.4260750000003
 20
4247.4444409999987
 30
0.0
  0
VERTEX
  5
1100
  8
KERA4
  6
CONTINUOUS
 62
     1
 10
-5443.6792820000001
 20
4247.4444409999987
 30
0.0
  0
SEQEND
  5
1101
  8
KERA4
  6
CONTINUOUS
 62
     1
  0
POLYLINE
  5
435
  8
KERA4
  6
CONTINUOUS
 62
     1
 66
     1
 10
0.0
 20
0.0
 30
0.0
  0
VERTEX
  5
1102
  8
KERA4
  6
CONTINUOUS
 62
     1
 10
-5433.6536259999993
 20
4269.500884
 30
0.0
  0
VERTEX
  5
1103
  8
KERA4
  6
CONTINUOUS
 62
     1
 10
-5434.906833
 20
4269.500884
 30
0.0
  0
VERTEX
  5
1104
  8
KERA4
  6
CONTINUOUS
 62
     1
 10
-5436.1600399999998
 20
4269.500884
 30
0.0
  0
VERTEX
  5
1105
  8
KERA4
  6
CONTINUOUS
 62
     1
 10
-5437.4132470000004
 20
4269.500884
 30
0.0
  0
VERTEX
  5
1106
  8
KERA4
  6
CONTINUOUS
 62
     1
 10
-5438.6664540000002
 20
4269.500884
 30
0.0
  0
VERTEX
  5
1107
  8
KERA4
  6
CONTINUOUS
 62
     1
 10
-5439.9196609999999
 20
4269.500884
 30
0.0
  0
VERTEX
  5
1108
  8
KERA4
  6
CONTINUOUS
 62
     1
 10
-5441.1728679999987
 20
4269.500884
 30
0.0
  0
VERTEX
  5
1109
  8
KERA4
  6
CONTINUOUS
 62
     1
 10
-5442.4260750000003
 20
4269.500884
 30
0.0
  0
VERTEX
  5
110A
  8
KERA4
  6
CONTINUOUS
 62
     1
 10
-5443.6792820000001
 20
4269.500884
 30
0.0
  0
SEQEND
  5
110B
  8
KERA4
  6
CONTINUOUS
 62
     1
  0
LINE
  5
440
  8
KERA4
  6
CONTINUOUS
 62
     1
 10
-5348.9938590000002
 20
4216.4726770000007
 30
0.0
 11
-5253.6665419999999
 21
4216.4726770000007
 31
0.0
  0
ARC
  5
441
  8
LAYER01
  6
CONTINUOUS
 62
     7
 10
-5377.4136669999989
 20
4258.2079350000004
 30
0.0
 40
45.0
 50
272.93284599999998
 51
350.58227799999997
  0
LINE
  5
442
  8
LAYER01
  6
CONTINUOUS
 62
     7
 10
-5331.7368880000004
 20
4258.5815140000013
 30
0.0
 11
-5333.0201950000001
 21
4250.8445350000002
 31
0.0
  0
LINE
  5
443
  8
LAYER01
  6
CONTINUOUS
 62
     7
 10
-5253.6665419999999
 20
4348.4726770000007
 30
0.0
 11
-5253.6665419999999
 21
4216.4726770000007
 31
0.0
  0
LINE
  5
444
  8
LAYER01
  6
CONTINUOUS
 62
     7
 10
-5428.6615419999998
 20
4118.4726769999997
 30
0.0
 11
-5428.6615419999998
 21
4158.4726770000007
 31
0.0
  0
POLYLINE
  5
445
  8
LAYER01
  6
CONTINUOUS
 62
     7
 66
     1
 10
0.0
 20
0.0
 30
0.0
 70
     1
  0
VERTEX
  5
110C
  8
LAYER01
  6
CONTINUOUS
 62
     7
 10
-5416.1615419999998
 20
4138.4726770000007
 30
0.0
 42
0.4142140000000001
  0
VERTEX
  5
110D
  8
LAYER01
  6
CONTINUOUS
 62
     7
 10
-5428.6615419999998
 20
4150.9726770000007
 30
0.0
 42
2.414213999999999
  0
VERTEX
  5
110E
  8
LAYER01
  6
CONTINUOUS
 62
     7
 10
-5416.1615419999998
 20
4138.4726770000007
 30
0.0
  0
SEQEND
  5
110F
  8
LAYER01
  6
CONTINUOUS
 62
     7
  0
LINE
  5
44A
  8
LAYER01
  6
CONTINUOUS
 62
     7
 10
-5428.6615419999998
 20
4118.4726769999997
 30
0.0
 11
-5428.6615419999998
 21
4158.4726770000007
 31
0.0
  0
POLYLINE
  5
44B
  8
LAYER01
  6
CONTINUOUS
 62
     7
 66
     1
 10
0.0
 20
0.0
 30
0.0
 70
     1
  0
VERTEX
  5
1110
  8
LAYER01
  6
CONTINUOUS
 62
     7
 10
-5416.1615419999998
 20
4138.4726770000007
 30
0.0
 42
0.4142140000000001
  0
VERTEX
  5
1111
  8
LAYER01
  6
CONTINUOUS
 62
     7
 10
-5428.6615419999998
 20
4150.9726770000007
 30
0.0
 42
2.414213999999999
  0
VERTEX
  5
1112
  8
LAYER01
  6
CONTINUOUS
 62
     7
 10
-5416.1615419999998
 20
4138.4726770000007
 30
0.0
  0
SEQEND
  5
1113
  8
LAYER01
  6
CONTINUOUS
 62
     7
  0
LINE
  5
450
  8
LAYER01
  6
CONTINUOUS
 62
     7
 10
-5448.6615419999989
 20
4138.4726770000007
 30
0.0
 11
-5408.6615419999998
 21
4138.4726770000007
 31
0.0
  0
LINE
  5
451
  8
LAYER01
  6
CONTINUOUS
 62
     7
 10
-5448.6615419999989
 20
4138.4726770000007
 30
0.0
 11
-5408.6615419999998
 21
4138.4726770000007
 31
0.0
  0
LINE
  5
452
  8
KERA0
  6
CONTINUOUS
 62
     5
 10
-3957.373517
 20
4536.5471040000002
 30
0.0
 11
-3957.373517
 21
3508.4726770000002
 31
0.0
  0
DIMENSION
  5
453
  8
LAYER01
 62
     7
  2
*D16
 10
-3755.7883740000002
 20
3508.4726770000002
 30
0.0
 11
-3815.7883740000002
 21
3856.961554
 31
0.0
 53
90.0
 13
-3760.5541710000011
 23
4206.1592269999992
 33
0.0
 14
-3760.5541710000011
 24
3508.4726770000002
 34
0.0
 50
90.0
  0
LINE
  5
454
  8
KERA7
  6
CONTINUOUS
 62
    22
 10
-4257.3410409999997
 20
3508.4726770000002
 30
0.0
 11
-3252.7777129999999
 21
3508.4726770000002
 31
0.0
  0
LINE
  5
455
  8
KERA7
  6
CONTINUOUS
 62
    22
 10
-4127.373517
 20
3508.4726770000002
 30
0.0
 11
-4039.6443450000002
 21
3508.4726770000002
 31
0.0
  0
DIMENSION
  5
456
  8
LAYER01
 62
     7
  2
*D17
 10
-3341.4933310000001
 20
4308.4726770000007
 30
0.0
 11
-3401.493331000001
 21
4464.319974
 31
0.0
 53
90.0
 13
-3421.4122219999999
 23
4258.4726770000007
 33
0.0
 14
-3421.4122219999999
 24
4308.4726770000007
 34
0.0
 50
90.0
  0
DIMENSION
  5
457
  8
LAYER01
 62
     7
  2
*D18
 10
-4035.0719309999999
 20
4258.4726770000007
 30
0.0
 11
-4095.0719309999999
 21
4504.3039899999994
 31
0.0
 53
90.0
 13
-3982.3882950000011
 23
4348.4566930000001
 33
0.0
 14
-3982.3882950000011
 24
4258.4726770000007
 34
0.0
 50
90.0
  0
LINE
  5
458
  8
LAYER01
  6
CONTINUOUS
 62
     7
 10
-3866.373039000001
 20
4258.4726770000007
 30
0.0
 11
-3943.373517
 21
4258.4726770000007
 31
0.0
  0
LINE
  5
459
  8
LAYER01
  6
CONTINUOUS
 62
     7
 10
-3932.373517
 20
4308.4726770000007
 30
0.0
 11
-3860.4684630000002
 21
4308.4726770000007
 31
0.0
  0
LINE
  5
45A
  8
LAYER01
  6
CONTINUOUS
 62
     7
 10
-3937.3735170000009
 20
4293.4726769999997
 30
0.0
 11
-3877.0341279999998
 21
4293.4726769999997
 31
0.0
  0
DIMENSION
  5
45B
  8
LAYER01
 62
     7
  2
*D19
 10
-4147.0544039999986
 20
4232.6804780000002
 30
0.0
 11
-4207.0544039999986
 21
4290.2868079999998
 31
0.0
 53
90.0
 13
-3982.3335499999998
 23
4348.5449630000012
 33
0.0
 14
-3982.3335499999998
 24
4232.6804780000002
 34
0.0
 50
90.0
  0
DIMENSION
  5
45C
  8
LAYER01
 62
     7
  2
*D20
 10
-4287.8935879999999
 20
4198.8519829999987
 30
0.0
 11
-4347.8935879999999
 21
4270.5896919999996
 31
0.0
 53
90.0
 13
-3982.3882950000011
 23
4348.4566930000001
 33
0.0
 14
-3982.3882950000011
 24
4198.8519829999987
 34
0.0
 50
90.0
  0
LINE
  5
45D
  8
KERA2
  6
CONTINUOUS
 62
    18
 10
-3910.2630119999999
 20
4258.4726770000007
 30
0.0
 11
-3985.0325889999999
 21
4258.4726770000007
 31
0.0
  0
LINE
  5
45E
  8
LAYER01
  6
CONTINUOUS
 62
     7
 10
-3902.373517
 20
4271.1044099999999
 30
0.0
 11
-3902.373517
 21
4345.101142999999
 31
0.0
  0
LINE
  5
45F
  8
LAYER01
  6
CONTINUOUS
 62
     7
 10
-3918.373517
 20
4293.4726769999997
 30
0.0
 11
-3918.373517
 21
4308.4726770000007
 31
0.0
  0
LINE
  5
460
  8
LAYER01
  6
CONTINUOUS
 62
     7
 10
-3942.373517
 20
4348.4726770000007
 30
0.0
 11
-3942.373517
 21
4318.4726769999997
 31
0.0
  0
LINE
  5
461
  8
LAYER01
  6
CONTINUOUS
 62
     7
 10
-3957.373517
 20
4348.4726770000007
 30
0.0
 11
-3942.373517
 21
4348.4726770000007
 31
0.0
  0
LINE
  5
462
  8
LAYER01
  6
CONTINUOUS
 62
     7
 10
-3957.373517
 20
4198.4726769999997
 30
0.0
 11
-3957.373517
 21
4348.4726770000007
 31
0.0
  0
ARC
  5
463
  8
LAYER01
  6
CONTINUOUS
 62
     7
 10
-3932.373517
 20
4318.4726769999997
 30
0.0
 40
10.0
 50
180.0
 51
270.0
  0
ARC
  5
464
  8
LAYER01
  6
CONTINUOUS
 62
     7
 10
-3937.3735170000009
 20
4288.4726769999997
 30
0.0
 40
5.0
 50
90.0
 51
180.0
  0
LINE
  5
465
  8
LAYER01
  6
CONTINUOUS
 62
     7
 10
-3942.373517
 20
4288.4726769999997
 30
0.0
 11
-3942.373517
 21
4262.4208060000001
 31
0.0
  0
LINE
  5
466
  8
LAYER01
  6
CONTINUOUS
 62
     7
 10
-3942.373517
 20
4258.4726770000007
 30
0.0
 11
-3942.373517
 21
4216.4726770000007
 31
0.0
  0
LINE
  5
467
  8
LAYER01
  6
CONTINUOUS
 62
     7
 10
-3942.373517
 20
4232.4726769999997
 30
0.0
 11
-3942.373517
 21
4198.4726769999997
 31
0.0
  0
LINE
  5
468
  8
LAYER01
  6
CONTINUOUS
 62
     7
 10
-3957.373517
 20
4232.4726769999997
 30
0.0
 11
-3942.373517
 21
4232.4726769999997
 31
0.0
  0
LINE
  5
469
  8
LAYER01
  6
CONTINUOUS
 62
     7
 10
-3957.373517
 20
4198.4726769999997
 30
0.0
 11
-3942.373517
 21
4198.4726769999997
 31
0.0
  0
DIMENSION
  5
46A
  8
LAYER01
 62
     7
  2
*D21
 10
-3755.8045780000002
 20
4024.2148599999991
 30
0.0
 11
-3607.4851319999998
 21
4024.2148599999991
 31
0.0
 13
-3455.8045780000002
 23
4134.4021359999997
 33
0.0
 14
-3755.8045780000002
 24
4134.4021359999997
 34
0.0
  0
TEXT
  5
46B
  8
LAYER01
  6
CONTINUOUS
 62
     7
 10
-3729.4078979999999
 20
3924.3110230000002
 30
0.0
 40
60.0
  1
Kniefreiheit
  0
LINE
  5
46C
  8
KERA4
  6
CONTINUOUS
 62
     1
 10
-3859.426774
 20
4308.4726770000007
 30
0.0
 11
-3502.6230049999999
 21
4308.4726770000007
 31
0.0
  0
LINE
  5
46D
  8
LAYER01
  6
CONTINUOUS
 62
     7
 10
-3805.3735170000009
 20
4232.5514380000004
 30
0.0
 11
-3805.3735170000009
 21
4170.8165079999999
 31
0.0
  0
LINE
  5
46E
  8
LAYER01
  6
CONTINUOUS
 62
     7
 10
-3860.373517
 20
4308.4726770000007
 30
0.0
 11
-3848.938935000001
 21
4246.2276789999987
 31
0.0
  0
LINE
  5
46F
  8
LAYER01
  6
CONTINUOUS
 62
     7
 10
-3872.1164180000001
 20
4289.3760750000001
 30
0.0
 11
-3866.4330789999999
 21
4258.4383989999997
 31
0.0
  0
LINE
  5
470
  8
LAYER01
  6
CONTINUOUS
 62
     7
 10
-3866.2302399999999
 20
4257.3342309999998
 30
0.0
 11
-3863.6920660000001
 21
4243.5174870000001
 31
0.0
  0
ARC
  5
471
  8
LAYER01
  6
CONTINUOUS
 62
     7
 10
-3877.0341279999998
 20
4288.4726769999997
 30
0.0
 40
5.0
 50
10.409338
 51
90.0
  0
LINE
  5
472
  8
LAYER01
  6
CONTINUOUS
 62
     7
 10
-3886.373517
 20
4293.4726769999997
 30
0.0
 11
-3886.373517
 21
4308.4726770000007
 31
0.0
  0
ARC
  5
473
  8
LAYER01
  6
CONTINUOUS
 62
     7
 10
-3819.4326740000001
 20
4251.6480629999996
 30
0.0
 40
45.0
 50
190.40933799999999
 51
248.04676699999999
  0
ARC
  5
474
  8
LAYER01
  6
CONTINUOUS
 62
     7
 10
-3819.4326740000001
 20
4251.6480629999996
 30
0.0
 40
30.0
 50
190.40933799999999
 51
248.04676699999999
  0
LINE
  5
475
  8
LAYER01
  6
CONTINUOUS
 62
     7
 10
-3830.6481640000002
 20
4223.8233829999999
 30
0.0
 11
-3817.373517
 21
4218.4726769999997
 31
0.0
  0
ARC
  5
476
  8
LAYER01
  6
CONTINUOUS
 62
     7
 10
-3776.3735170000009
 20
4198.830199
 30
0.0
 40
5.0
 50
91.220068999999995
 51
180.0
  0
LINE
  5
477
  8
LAYER01
  6
CONTINUOUS
 62
     7
 10
-3781.373517
 20
4198.830199
 30
0.0
 11
-3781.373517
 21
4193.4726769999997
 31
0.0
  0
LINE
  5
478
  8
LAYER01
  6
CONTINUOUS
 62
     7
 10
-3793.373517
 20
4218.4726769999997
 30
0.0
 11
-3793.373517
 21
4193.4726769999997
 31
0.0
  0
LINE
  5
479
  8
LAYER01
  6
CONTINUOUS
 62
     7
 10
-3829.373517
 20
4193.4726769999997
 30
0.0
 11
-3781.373517
 21
4193.4726769999997
 31
0.0
  0
LINE
  5
47A
  8
LAYER01
  6
CONTINUOUS
 62
     7
 10
-3817.373517
 20
4218.4726769999997
 30
0.0
 11
-3793.373517
 21
4218.4726769999997
 31
0.0
  0
LINE
  5
47B
  8
LAYER01
  6
CONTINUOUS
 62
     7
 10
-3817.373517
 20
4207.6698349999997
 30
0.0
 11
-3793.373517
 21
4207.6698349999997
 31
0.0
  0
LINE
  5
47C
  8
LAYER01
  6
CONTINUOUS
 62
     7
 10
-3817.373517
 20
4218.4726769999997
 30
0.0
 11
-3817.373517
 21
4193.4726769999997
 31
0.0
  0
LINE
  5
47D
  8
LAYER01
  6
CONTINUOUS
 62
     7
 10
-3829.373517
 20
4204.0677949999999
 30
0.0
 11
-3829.373517
 21
4193.4726769999997
 31
0.0
  0
ARC
  5
47E
  8
LAYER01
  6
CONTINUOUS
 62
     7
 10
-3837.7397409999999
 20
4201.2211809999999
 30
0.0
 40
8.8156369999999988
 50
18.373677000000001
 51
80.309949000000003
  0
LINE
  5
47F
  8
LAYER01
  6
CONTINUOUS
 62
     7
 10
-3776.4799800000001
 20
4203.829064999999
 30
0.0
 11
-3541.652818
 21
4215.1545070000002
 31
0.0
  0
LINE
  5
480
  8
LAYER01
  6
CONTINUOUS
 62
     7
 10
-3793.373517
 20
4218.4726769999997
 30
0.0
 11
-3541.9722070000012
 21
4230.1511060000003
 31
0.0
  0
ARC
  5
481
  8
LAYER01
  6
CONTINUOUS
 62
     7
 10
-3542.6109849999998
 20
4260.1443049999989
 30
0.0
 40
45.0
 50
271.22006899999991
 51
346.97108100000003
  0
ARC
  5
482
  8
LAYER01
  6
CONTINUOUS
 62
     7
 10
-3542.6109849999998
 20
4260.1443049999989
 30
0.0
 40
30.0
 50
271.22006899999991
 51
346.97108100000003
  0
ARC
  5
483
  8
LAYER01
  6
CONTINUOUS
 62
     7
 10
-3462.373517
 20
4303.4726770000007
 30
0.0
 40
5.0
 50
0.0
 51
90.0
  0
LINE
  5
484
  8
LAYER01
  6
CONTINUOUS
 62
     7
 10
-3489.3443200000002
 20
4289.5998920000002
 30
0.0
 11
-3495.3462399999999
 21
4264.7928460000003
 31
0.0
  0
LINE
  5
485
  8
LAYER01
  6
CONTINUOUS
 62
     7
 10
-3472.373517
 20
4288.4726769999997
 30
0.0
 11
-3472.373517
 21
4258.4726770000007
 31
0.0
  0
LINE
  5
486
  8
LAYER01
  6
CONTINUOUS
 62
     7
 10
-3499.9155019999998
 20
4308.4726770000007
 30
0.0
 11
-3462.373517
 21
4308.4726770000007
 31
0.0
  0
LINE
  5
487
  8
LAYER01
  6
CONTINUOUS
 62
     7
 10
-3484.4730380000001
 20
4293.4726769999997
 30
0.0
 11
-3477.373517
 21
4293.4726769999997
 31
0.0
  0
ARC
  5
488
  8
LAYER01
  6
CONTINUOUS
 62
     7
 10
-3484.4730380000001
 20
4288.4726769999997
 30
0.0
 40
5.0
 50
90.0
 51
166.971081
  0
ARC
  5
489
  8
LAYER01
  6
CONTINUOUS
 62
     7
 10
-3477.373517
 20
4288.4726769999997
 30
0.0
 40
5.0
 50
0.0
 51
90.0
  0
LINE
  5
48A
  8
LAYER01
  6
CONTINUOUS
 62
     7
 10
-3457.373517
 20
4303.4726770000007
 30
0.0
 11
-3457.373517
 21
4258.4726770000007
 31
0.0
  0
LINE
  5
48B
  8
LAYER01
  6
CONTINUOUS
 62
     7
 10
-3500.373517
 20
4308.4726770000007
 30
0.0
 11
-3513.3832929999999
 21
4253.3810199999998
 31
0.0
  0
LINE
  5
48C
  8
LAYER01
  6
CONTINUOUS
 62
     7
 10
-3472.373517
 20
4258.4726770000007
 30
0.0
 11
-3457.373517
 21
4258.4726770000007
 31
0.0
  0
LINE
  5
48D
  8
LAYER01
  6
CONTINUOUS
 62
     7
 10
-3495.618665
 20
4263.6155529999996
 30
0.0
 11
-3498.7694470000001
 21
4249.9993770000001
 31
0.0
  0
LINE
  5
48E
  8
LAYER01
  6
CONTINUOUS
 62
     7
 10
-3472.373517
 20
4258.4726770000007
 30
0.0
 11
-3496.2809560000001
 21
4258.4726770000007
 31
0.0
  0
DIMENSION
  5
48F
  8
LAYER01
 62
     7
  2
*D22
 10
-3092.5768929999999
 20
4198.4726769999997
 30
0.0
 11
-3092.5768929999999
 21
4479.2436229999994
 31
0.0
 53
90.0
 13
-3275.8703010000008
 23
4308.4726770000007
 33
0.0
 14
-3275.8703010000008
 24
4198.4726769999997
 34
0.0
 50
90.0
  0
DIMENSION
  5
490
  8
LAYER01
 62
     7
  2
*D23
 10
-3190.9294540000001
 20
4218.4726769999997
 30
0.0
 11
-3190.9294540000001
 21
4464.319974
 31
0.0
 53
90.0
 13
-3275.8703010000008
 23
4308.4726770000007
 33
0.0
 14
-3275.8703010000008
 24
4218.4726769999997
 34
0.0
 50
90.0
  0
INSERT
  5
926
  8
LAYER01
  2
TRIGO-G1
 10
-9244.5755544149706
 20
1452.7484945219881
 30
0.0
  0
POLYLINE
  5
927
  8
LAYER01
  6
CONTINUOUS
 62
     7
 66
     1
 10
0.0
 20
0.0
 30
0.0
 70
     1
  0
VERTEX
  5
12F8
  8
LAYER01
  6
CONTINUOUS
 62
     7
 10
-6487.4454800833046
 20
2251.5432044800818
 30
0.0
  0
VERTEX
  5
12F9
  8
LAYER01
  6
CONTINUOUS
 62
     7
 10
-6487.4454800833046
 20
5009.2191654800818
 30
0.0
  0
VERTEX
  5
12FA
  8
LAYER01
  6
CONTINUOUS
 62
     7
 10
-2517.6042610833051
 20
5009.2191654800818
 30
0.0
  0
VERTEX
  5
12FB
  8
LAYER01
  6
CONTINUOUS
 62
     7
 10
-2517.6042610833051
 20
2251.5432044800818
 30
0.0
  0
SEQEND
  5
12FC
  8
LAYER01
  6
CONTINUOUS
 62
     7
  0
INSERT
  5
928
  8
LAYER01
  2
TRIGO-G10
 10
-6101.3882030833038
 20
2978.9327504800822
 30
0.0
  0
TEXT
  5
929
  8
LAYER01
  6
STRICHPUNKTIERT
 62
     7
 10
-3904.0748700833051
 20
2878.3668294800818
 30
0.0
 40
60.0
  1
http://www.varicor.org
  0
TEXT
  5
92A
  8
LAYER01
  6
VERDECKT
 62
     1
 10
-3166.994648083305
 20
2569.418351480082
 30
0.0
 40
32.5
  1
A. Sprenger GmbH
  7
SIMPLEX
  0
TEXT
  5
92B
  8
LAYER01
  6
CONTINUOUS
 62
     7
 10
-3177.5378510833052
 20
2770.6865204800829
 30
0.0
 40
9.75
  1
Diese Zeichnung ist geistiges Eigentum der A. Sprenger GmbH
  7
SIMPLEX
  0
TEXT
  5
92C
  8
LAYER01
  6
CONTINUOUS
 62
     7
 10
-3177.5378510833052
 20
2753.9722344800821
 30
0.0
 40
9.75
  1
und urheberrechtlich geschützt. Ohne unsere Zustimmung darf 
  7
SIMPLEX
  0
TEXT
  5
92D
  8
LAYER01
  6
CONTINUOUS
 62
     7
 10
-3177.5378510833052
 20
2737.2579484800822
 30
0.0
 40
9.75
  1
sie in keiner Form verwendet oder Dritten zugänglich gemacht
  7
SIMPLEX
  0
TEXT
  5
92E
  8
LAYER01
  6
CONTINUOUS
 62
     7
 10
-3177.5378510833052
 20
2720.5436634800831
 30
0.0
 40
9.75
  1
werden. (§106 Urheberrecht)
  7
SIMPLEX
  0
TEXT
  5
92F
  8
LAYER01
  6
VERDECKT
 62
     1
 10
-3166.994648083305
 20
2441.7806014800822
 30
0.0
 40
45.499999999999993
  1
Jerico Integra
  7
SIMPLEX
  0
TEXT
  5
930
  8
LAYER01
  6
VERDECKT
 62
     1
 10
-3468.1605300833048
 20
2494.168113480082
 30
0.0
 40
13.0
  1
Jan. 2015
  7
SIMPLEX
  0
TEXT
  5
931
  8
LAYER01
  6
VERDECKT
 62
     1
 10
-3343.1562270833051
 20
2494.1206154800821
 30
0.0
 40
13.0
  1
b.s.
  7
SIMPLEX
  0
TEXT
  5
932
  8
LAYER01
  6
VERDECKT
 62
     1
 10
-3081.267802083305
 20
2653.2401564800821
 30
0.0
 40
13.0
  1
1 : 10 (DIN A3)
  7
SIMPLEX
  0
TEXT
  5
933
  8
LAYER01
  6
VERDECKT
 62
     1
 10
-2746.220630083305
 20
2653.2401564800821
 30
0.0
 40
13.0
  1
trigo.skd
  7
SIMPLEX
  0
ENDSEC
  0
EOF
