  0
SECTION
  2
HEADER
  9
$ACADVER
  1
AC1015
  9
$ACADMAINTVER
 70
    13
  9
$DWGCODEPAGE
  3
ANSI_1252
  9
$INSBASE
 10
0.0
 20
0.0
 30
0.0
  9
$EXTMIN
 10
1896.94279577353
 20
-320.413526104161
 30
-28.75165635561388
  9
$EXTMAX
 10
3003.421415822127
 20
1387.11530180619
 30
0.0042162269916588
  9
$LIMMIN
 10
1711.234538020701
 20
-531.6157259759815
  9
$LIMMAX
 10
3240.585647917727
 20
2071.119692892064
  9
$ORTHOMODE
 70
     1
  9
$REGENMODE
 70
     1
  9
$FILLMODE
 70
     1
  9
$QTEXTMODE
 70
     0
  9
$MIRRTEXT
 70
     1
  9
$LTSCALE
 40
2.0
  9
$ATTMODE
 70
     1
  9
$TEXTSIZE
 40
0.2
  9
$TRACEWID
 40
0.05
  9
$TEXTSTYLE
  7
Standard
  9
$CLAYER
  8
KERA4
  9
$CELTYPE
  6
ByLayer
  9
$CECOLOR
 62
   256
  9
$CELTSCALE
 40
1.0
  9
$DISPSILH
 70
     0
  9
$DIMSCALE
 40
1.0
  9
$DIMASZ
 40
40.0
  9
$DIMEXO
 40
20.0
  9
$DIMDLI
 40
30.0
  9
$DIMRND
 40
0.0
  9
$DIMDLE
 40
0.0
  9
$DIMEXE
 40
15.0
  9
$DIMTP
 40
0.0
  9
$DIMTM
 40
0.0
  9
$DIMTXT
 40
45.0
  9
$DIMCEN
 40
4.0
  9
$DIMTSZ
 40
0.0
  9
$DIMTOL
 70
     0
  9
$DIMLIM
 70
     0
  9
$DIMTIH
 70
     1
  9
$DIMTOH
 70
     1
  9
$DIMSE1
 70
     0
  9
$DIMSE2
 70
     0
  9
$DIMTAD
 70
     0
  9
$DIMZIN
 70
     9
  9
$DIMBLK
  1

  9
$DIMASO
 70
     1
  9
$DIMSHO
 70
     1
  9
$DIMPOST
  1

  9
$DIMAPOST
  1

  9
$DIMALT
 70
     0
  9
$DIMALTD
 70
     2
  9
$DIMALTF
 40
25.4
  9
$DIMLFAC
 40
1.0
  9
$DIMTOFL
 70
     0
  9
$DIMTVP
 40
0.0
  9
$DIMTIX
 70
     0
  9
$DIMSOXD
 70
     0
  9
$DIMSAH
 70
     0
  9
$DIMBLK1
  1

  9
$DIMBLK2
  1

  9
$DIMSTYLE
  2
STANDARD
  9
$DIMCLRD
 70
     0
  9
$DIMCLRE
 70
     0
  9
$DIMCLRT
 70
     0
  9
$DIMTFAC
 40
1.0
  9
$DIMGAP
 40
15.0
  9
$DIMJUST
 70
     0
  9
$DIMSD1
 70
     0
  9
$DIMSD2
 70
     0
  9
$DIMTOLJ
 70
     1
  9
$DIMTZIN
 70
     0
  9
$DIMALTZ
 70
     0
  9
$DIMALTTZ
 70
     0
  9
$DIMUPT
 70
     0
  9
$DIMDEC
 70
     0
  9
$DIMTDEC
 70
     0
  9
$DIMALTU
 70
     2
  9
$DIMALTTD
 70
     2
  9
$DIMTXSTY
  7
Standard
  9
$DIMAUNIT
 70
     0
  9
$DIMADEC
 70
     0
  9
$DIMALTRND
 40
0.0
  9
$DIMAZIN
 70
     0
  9
$DIMDSEP
 70
    46
  9
$DIMATFIT
 70
     3
  9
$DIMFRAC
 70
     0
  9
$DIMLDRBLK
  1

  9
$DIMLUNIT
 70
     2
  9
$DIMLWD
 70
    -2
  9
$DIMLWE
 70
    -2
  9
$DIMTMOVE
 70
     0
  9
$LUNITS
 70
     2
  9
$LUPREC
 70
     4
  9
$SKETCHINC
 40
0.1
  9
$FILLETRAD
 40
10.0
  9
$AUNITS
 70
     0
  9
$AUPREC
 70
     0
  9
$MENU
  1
.
  9
$ELEVATION
 40
0.0
  9
$PELEVATION
 40
0.0
  9
$THICKNESS
 40
0.0
  9
$LIMCHECK
 70
     0
  9
$CHAMFERA
 40
0.0
  9
$CHAMFERB
 40
0.0
  9
$CHAMFERC
 40
0.0
  9
$CHAMFERD
 40
0.0
  9
$SKPOLY
 70
     0
  9
$TDCREATE
 40
2453206.537812858
  9
$TDUCREATE
 40
2453206.454479525
  9
$TDUPDATE
 40
2454595.413640300
  9
$TDUUPDATE
 40
2454595.330306967
  9
$TDINDWG
 40
1.2160749074
  9
$TDUSRTIMER
 40
1.2160749074
  9
$USRTIMER
 70
     1
  9
$ANGBASE
 50
0.0
  9
$ANGDIR
 70
     0
  9
$PDMODE
 70
     0
  9
$PDSIZE
 40
0.0
  9
$PLINEWID
 40
0.0
  9
$SPLFRAME
 70
     0
  9
$SPLINETYPE
 70
     6
  9
$SPLINESEGS
 70
     8
  9
$HANDSEED
  5
1D09E
  9
$SURFTAB1
 70
     6
  9
$SURFTAB2
 70
     6
  9
$SURFTYPE
 70
     6
  9
$SURFU
 70
     6
  9
$SURFV
 70
     6
  9
$UCSBASE
  2

  9
$UCSNAME
  2

  9
$UCSORG
 10
0.0
 20
0.0
 30
0.0
  9
$UCSXDIR
 10
1.0
 20
0.0
 30
0.0
  9
$UCSYDIR
 10
0.0
 20
1.0
 30
0.0
  9
$UCSORTHOREF
  2

  9
$UCSORTHOVIEW
 70
     1
  9
$UCSORGTOP
 10
0.0
 20
0.0
 30
0.0
  9
$UCSORGBOTTOM
 10
0.0
 20
0.0
 30
0.0
  9
$UCSORGLEFT
 10
0.0
 20
0.0
 30
0.0
  9
$UCSORGRIGHT
 10
0.0
 20
0.0
 30
0.0
  9
$UCSORGFRONT
 10
0.0
 20
0.0
 30
0.0
  9
$UCSORGBACK
 10
0.0
 20
0.0
 30
0.0
  9
$PUCSBASE
  2

  9
$PUCSNAME
  2

  9
$PUCSORG
 10
0.0
 20
0.0
 30
0.0
  9
$PUCSXDIR
 10
1.0
 20
0.0
 30
0.0
  9
$PUCSYDIR
 10
0.0
 20
1.0
 30
0.0
  9
$PUCSORTHOREF
  2

  9
$PUCSORTHOVIEW
 70
     0
  9
$PUCSORGTOP
 10
0.0
 20
0.0
 30
0.0
  9
$PUCSORGBOTTOM
 10
0.0
 20
0.0
 30
0.0
  9
$PUCSORGLEFT
 10
0.0
 20
0.0
 30
0.0
  9
$PUCSORGRIGHT
 10
0.0
 20
0.0
 30
0.0
  9
$PUCSORGFRONT
 10
0.0
 20
0.0
 30
0.0
  9
$PUCSORGBACK
 10
0.0
 20
0.0
 30
0.0
  9
$USERI1
 70
     0
  9
$USERI2
 70
     0
  9
$USERI3
 70
     0
  9
$USERI4
 70
     0
  9
$USERI5
 70
     0
  9
$USERR1
 40
0.0
  9
$USERR2
 40
0.0
  9
$USERR3
 40
0.0
  9
$USERR4
 40
0.0
  9
$USERR5
 40
0.0
  9
$WORLDVIEW
 70
     1
  9
$SHADEDGE
 70
     3
  9
$SHADEDIF
 70
    70
  9
$TILEMODE
 70
     1
  9
$MAXACTVP
 70
    64
  9
$PINSBASE
 10
0.0
 20
0.0
 30
0.0
  9
$PLIMCHECK
 70
     0
  9
$PEXTMIN
 10
1.000000000000000E+20
 20
1.000000000000000E+20
 30
1.000000000000000E+20
  9
$PEXTMAX
 10
-1.000000000000000E+20
 20
-1.000000000000000E+20
 30
-1.000000000000000E+20
  9
$PLIMMIN
 10
0.0
 20
0.0
  9
$PLIMMAX
 10
12.0
 20
9.0
  9
$UNITMODE
 70
     0
  9
$VISRETAIN
 70
     1
  9
$PLINEGEN
 70
     0
  9
$PSLTSCALE
 70
     1
  9
$TREEDEPTH
 70
  3020
  9
$CMLSTYLE
  2
Standard
  9
$CMLJUST
 70
     0
  9
$CMLSCALE
 40
1.0
  9
$PROXYGRAPHICS
 70
     1
  9
$MEASUREMENT
 70
     0
  9
$CELWEIGHT
370
    -1
  9
$ENDCAPS
280
     0
  9
$JOINSTYLE
280
     0
  9
$LWDISPLAY
290
     0
  9
$INSUNITS
 70
     0
  9
$HYPERLINKBASE
  1

  9
$STYLESHEET
  1

  9
$XEDIT
290
     1
  9
$CEPSNTYPE
380
     0
  9
$PSTYLEMODE
290
     1
  9
$FINGERPRINTGUID
  2
{77FBDECF-49F4-4993-9EF0-C4F1C0454A89}
  9
$VERSIONGUID
  2
{C8A81C8E-5D32-42BC-9A53-4C4EB65AB3BE}
  9
$EXTNAMES
290
     1
  9
$PSVPSCALE
 40
0.0
  9
$OLESTARTUP
290
     0
  0
ENDSEC
  0
SECTION
  2
CLASSES
  0
CLASS
  1
ACDBDICTIONARYWDFLT
  2
AcDbDictionaryWithDefault
  3
AutoCAD 2000
 90
        0
280
     0
281
     0
  0
CLASS
  1
ACDBPLACEHOLDER
  2
AcDbPlaceHolder
  3
AutoCAD 2000
 90
        0
280
     0
281
     0
  0
CLASS
  1
LAYOUT
  2
AcDbLayout
  3
AutoCAD 2000
 90
        0
280
     0
281
     0
  0
CLASS
  1
DICTIONARYVAR
  2
AcDbDictionaryVar
  3
AutoCAD 2000
 90
        0
280
     0
281
     0
  0
ENDSEC
  0
SECTION
  2
TABLES
  0
TABLE
  2
VPORT
  5
8
330
0
100
AcDbSymbolTable
 70
     4
  0
VPORT
  5
1D09D
330
8
100
AcDbSymbolTableRecord
100
AcDbViewportTableRecord
  2
*Active
 70
     0
 10
0.0
 20
0.0
 11
1.0
 21
1.0
 12
2450.182105797829
 22
533.3508878510148
 13
0.0
 23
0.0
 14
1.0
 24
1.0
 15
50.0
 25
50.0
 16
0.0
 26
0.0
 36
1.0
 17
0.0
 27
0.0
 37
0.0
 40
1720.015365103369
 41
1.401162790697674
 42
50.0
 43
0.0
 44
0.0
 50
0.0
 51
0.0
 71
     0
 72
   100
 73
     1
 74
     0
 75
     0
 76
     1
 77
     0
 78
     0
281
     0
 65
     1
110
0.0
120
0.0
130
0.0
111
1.0
121
0.0
131
0.0
112
0.0
122
1.0
132
0.0
 79
     1
146
0.0
  0
ENDTAB
  0
TABLE
  2
LTYPE
  5
5
330
0
100
AcDbSymbolTable
 70
     3
  0
LTYPE
  5
13
330
5
100
AcDbSymbolTableRecord
100
AcDbLinetypeTableRecord
  2
ByBlock
 70
     0
  3

 72
    65
 73
     0
 40
0.0
  0
LTYPE
  5
14
330
5
100
AcDbSymbolTableRecord
100
AcDbLinetypeTableRecord
  2
ByLayer
 70
     0
  3

 72
    65
 73
     0
 40
0.0
  0
LTYPE
  5
15
330
5
100
AcDbSymbolTableRecord
100
AcDbLinetypeTableRecord
  2
Continuous
 70
     0
  3
Solid line
 72
    65
 73
     0
 40
0.0
  0
LTYPE
  5
295F
330
5
100
AcDbSymbolTableRecord
100
AcDbLinetypeTableRecord
  2
ACAD_ISO10W100
 70
     0
  3
ISO Strichpunktlinie __ . __ . __ . __ . __ . _
 72
    65
 73
     4
 40
18.0
 49
12.0
 74
     0
 49
-3.0
 74
     0
 49
0.0
 74
     0
 49
-3.0
 74
     0
  0
LTYPE
  5
2960
330
5
100
AcDbSymbolTableRecord
100
AcDbLinetypeTableRecord
  2
ACAD_ISO02W100
 70
     0
  3
ISO Strichlinie __ __ __ __ __ __ __ __ __ __ _
 72
    65
 73
     2
 40
15.0
 49
12.0
 74
     0
 49
-3.0
 74
     0
  0
ENDTAB
  0
TABLE
  2
LAYER
  5
2
330
0
100
AcDbSymbolTable
 70
     6
  0
LAYER
  5
10
330
2
100
AcDbSymbolTableRecord
100
AcDbLayerTableRecord
  2
0
 70
     0
 62
     7
  6
Continuous
370
    -3
390
F
  0
LAYER
  5
2961
330
2
100
AcDbSymbolTableRecord
100
AcDbLayerTableRecord
  2
Defpoints
 70
     0
 62
     7
  6
Continuous
290
     0
370
    -3
390
F
  0
LAYER
  5
2962
330
2
100
AcDbSymbolTableRecord
100
AcDbLayerTableRecord
  2
KERA0
 70
     0
 62
     5
  6
Continuous
370
    40
390
F
  0
LAYER
  5
2963
330
2
100
AcDbSymbolTableRecord
100
AcDbLayerTableRecord
  2
KERA2
 70
     0
 62
     7
  6
ACAD_ISO10W100
370
    18
390
F
  0
LAYER
  5
2964
330
2
100
AcDbSymbolTableRecord
100
AcDbLayerTableRecord
  2
KERA4
 70
     0
 62
     1
  6
Continuous
370
    18
390
F
  0
LAYER
  5
2967
330
2
100
AcDbSymbolTableRecord
100
AcDbLayerTableRecord
  2
KERA1
 70
     0
 62
     1
  6
ACAD_ISO02W100
370
    25
390
F
  0
ENDTAB
  0
TABLE
  2
STYLE
  5
3
330
0
100
AcDbSymbolTable
 70
     1
  0
STYLE
  5
11
330
3
100
AcDbSymbolTableRecord
100
AcDbTextStyleTableRecord
  2
Standard
 70
     0
 40
45.0
 41
1.0
 50
0.0
 71
     0
 42
0.2
  3
ARIAL.TTF
  4

1001
ACAD
1000
Arial
1071
       34
  0
ENDTAB
  0
TABLE
  2
VIEW
  5
6
330
0
100
AcDbSymbolTable
 70
     0
  0
ENDTAB
  0
TABLE
  2
UCS
  5
7
330
0
100
AcDbSymbolTable
 70
     0
  0
ENDTAB
  0
TABLE
  2
APPID
  5
9
330
0
100
AcDbSymbolTable
 70
     2
  0
APPID
  5
12
330
9
100
AcDbSymbolTableRecord
100
AcDbRegAppTableRecord
  2
ACAD
 70
     0
  0
APPID
  5
22A9
330
9
100
AcDbSymbolTableRecord
100
AcDbRegAppTableRecord
  2
DCO15
 70
     0
  0
ENDTAB
  0
TABLE
  2
DIMSTYLE
  5
A
330
0
100
AcDbSymbolTable
 70
     1
100
AcDbDimStyleTable
 71
     1
340
10EF3
  0
DIMSTYLE
105
10EF3
102
{ACAD_REACTORS
330
1C757
330
1CFB8
330
1D002
330
1D024
102
}
330
A
100
AcDbSymbolTableRecord
100
AcDbDimStyleTableRecord
  2
STANDARD
 70
     0
 41
40.0
 42
20.0
 43
30.0
 44
15.0
 78
     9
140
45.0
141
4.0
147
15.0
271
     0
272
     0
340
11
  0
ENDTAB
  0
TABLE
  2
BLOCK_RECORD
  5
1
330
0
100
AcDbSymbolTable
 70
     4
  0
BLOCK_RECORD
  5
1E
330
1
100
AcDbSymbolTableRecord
100
AcDbBlockTableRecord
  2
*Model_Space
340
21
  0
BLOCK_RECORD
  5
1A
330
1
100
AcDbSymbolTableRecord
100
AcDbBlockTableRecord
  2
*Paper_Space
340
1D
  0
BLOCK_RECORD
  5
1C758
330
1
100
AcDbSymbolTableRecord
100
AcDbBlockTableRecord
  2
*D0
340
0
  0
BLOCK_RECORD
  5
1CFB9
330
1
100
AcDbSymbolTableRecord
100
AcDbBlockTableRecord
  2
*D1
340
0
  0
BLOCK_RECORD
  5
1D003
330
1
100
AcDbSymbolTableRecord
100
AcDbBlockTableRecord
  2
*D2
340
0
  0
BLOCK_RECORD
  5
1D025
330
1
100
AcDbSymbolTableRecord
100
AcDbBlockTableRecord
  2
*D3
340
0
  0
ENDTAB
  0
ENDSEC
  0
SECTION
  2
BLOCKS
  0
BLOCK
  5
1F
330
1E
100
AcDbEntity
  8
0
100
AcDbBlockBegin
  2
*Model_Space
 70
     0
 10
0.0
 20
0.0
 30
0.0
  3
*Model_Space
  1

  0
ENDBLK
  5
20
330
1E
100
AcDbEntity
  8
0
100
AcDbBlockEnd
  0
BLOCK
  5
1B
330
1A
100
AcDbEntity
 67
     1
  8
0
100
AcDbBlockBegin
  2
*Paper_Space
 70
     0
 10
0.0
 20
0.0
 30
0.0
  3
*Paper_Space
  1

  0
ENDBLK
  5
1C
330
1A
100
AcDbEntity
 67
     1
  8
0
100
AcDbBlockEnd
  0
BLOCK
  5
1C763
330
1C758
100
AcDbEntity
  8
0
100
AcDbBlockBegin
  2
*D0
 70
     1
 10
0.0
 20
0.0
 30
0.0
  3
*D0
  1

  0
LINE
  5
1D07F
330
1C758
100
AcDbEntity
  8
KERA4
 62
     0
370
    -2
100
AcDbLine
 10
2117.523230799554
 20
503.2454147237728
 30
0.0
 11
2117.523230799554
 21
943.4191539455413
 31
0.0
  0
LINE
  5
1D080
330
1C758
100
AcDbEntity
  8
KERA4
 62
     0
370
    -2
100
AcDbLine
 10
2544.504585516046
 20
503.245415211815
 30
0.0
 11
2544.504585516046
 21
943.4191539455413
 31
0.0
  0
LINE
  5
1D081
330
1C758
100
AcDbEntity
  8
KERA4
 62
     0
370
    -2
100
AcDbLine
 10
2157.523230799554
 20
928.4191539455415
 30
0.0
 11
2271.014447744457
 21
928.4191539455415
 31
0.0
  0
LINE
  5
1D082
330
1C758
100
AcDbEntity
  8
KERA4
 62
     0
370
    -2
100
AcDbLine
 10
2504.504585516047
 20
928.4191539455415
 30
0.0
 11
2402.064925234225
 21
928.4191539455415
 31
0.0
  0
SOLID
  5
1D083
330
1C758
100
AcDbEntity
  8
KERA4
 62
     0
100
AcDbTrace
 10
2157.523230799554
 20
935.0858206122081
 30
0.0
 11
2157.523230799554
 21
921.7524872788748
 31
0.0
 12
2117.523230799554
 22
928.4191539455415
 32
0.0
 13
2117.523230799554
 23
928.4191539455415
 33
0.0
  0
SOLID
  5
1D084
330
1C758
100
AcDbEntity
  8
KERA4
 62
     0
100
AcDbTrace
 10
2504.504585516047
 20
935.0858206122081
 30
0.0
 11
2504.504585516047
 21
921.7524872788748
 31
0.0
 12
2544.504585516046
 22
928.4191539455415
 32
0.0
 13
2544.504585516046
 23
928.4191539455415
 33
0.0
  0
MTEXT
  5
1D085
330
1C758
100
AcDbEntity
  8
KERA4
 62
     0
100
AcDbMText
 10
2336.539686489341
 20
928.4191539455415
 30
0.0
 40
45.0
 41
0.0
 71
     5
 72
     1
  1
\A1;434
 73
     1
 44
1.0
  0
POINT
  5
1D086
330
1C758
100
AcDbEntity
  8
Defpoints
 62
     0
100
AcDbPoint
 10
2117.523230799554
 20
483.2454147237728
 30
0.0
  0
POINT
  5
1D087
330
1C758
100
AcDbEntity
  8
Defpoints
 62
     0
100
AcDbPoint
 10
2544.504585516046
 20
483.245415211815
 30
0.0
  0
POINT
  5
1D088
330
1C758
100
AcDbEntity
  8
Defpoints
 62
     0
100
AcDbPoint
 10
2544.504585516046
 20
928.4191539455415
 30
0.0
  0
ENDBLK
  5
1C764
330
1C758
100
AcDbEntity
  8
0
100
AcDbBlockEnd
  0
BLOCK
  5
1CFC4
330
1CFB9
100
AcDbEntity
  8
0
100
AcDbBlockBegin
  2
*D1
 70
     1
 10
0.0
 20
0.0
 30
0.0
  3
*D1
  1

  0
LINE
  5
1D091
330
1CFB9
100
AcDbEntity
  8
KERA4
 62
     0
370
    -2
100
AcDbLine
 10
2308.145984197912
 20
1156.507057790672
 30
0.0
 11
2308.145984197912
 21
1098.600441802384
 31
0.0
  0
LINE
  5
1D092
330
1CFB9
100
AcDbEntity
  8
KERA4
 62
     0
370
    -2
100
AcDbLine
 10
2353.345090227121
 20
1156.507057790672
 30
0.0
 11
2353.345090227121
 21
1098.600441802384
 31
0.0
  0
LINE
  5
1D093
330
1CFB9
100
AcDbEntity
  8
KERA4
 62
     0
370
    -2
100
AcDbLine
 10
2268.145984197912
 20
1113.600441802385
 30
0.0
 11
2228.145984197912
 21
1113.600441802385
 31
0.0
  0
LINE
  5
1D094
330
1CFB9
100
AcDbEntity
  8
KERA4
 62
     0
370
    -2
100
AcDbLine
 10
2393.345090227121
 20
1113.600441802385
 30
0.0
 11
2433.34509022712
 21
1113.600441802385
 31
0.0
  0
SOLID
  5
1D095
330
1CFB9
100
AcDbEntity
  8
KERA4
 62
     0
100
AcDbTrace
 10
2268.145984197912
 20
1120.267108469051
 30
0.0
 11
2268.145984197912
 21
1106.933775135718
 31
0.0
 12
2308.145984197912
 22
1113.600441802385
 32
0.0
 13
2308.145984197912
 23
1113.600441802385
 33
0.0
  0
SOLID
  5
1D096
330
1CFB9
100
AcDbEntity
  8
KERA4
 62
     0
100
AcDbTrace
 10
2393.345090227121
 20
1120.267108469051
 30
0.0
 11
2393.345090227121
 21
1106.933775135718
 31
0.0
 12
2353.345090227121
 22
1113.600441802385
 32
0.0
 13
2353.345090227121
 23
1113.600441802385
 33
0.0
  0
MTEXT
  5
1D097
330
1CFB9
100
AcDbEntity
  8
KERA4
 62
     0
100
AcDbMText
 10
2481.46582692562
 20
1113.600441802385
 30
0.0
 40
45.0
 41
0.0
 71
     5
 72
     1
  1
\A1;46
 73
     1
 44
1.0
  0
POINT
  5
1D098
330
1CFB9
100
AcDbEntity
  8
Defpoints
 62
     0
100
AcDbPoint
 10
2308.145984197912
 20
1176.507057790672
 30
0.0003017900500879
  0
POINT
  5
1D099
330
1CFB9
100
AcDbEntity
  8
Defpoints
 62
     0
100
AcDbPoint
 10
2353.345090227121
 20
1176.507057790672
 30
0.0003017900500879
  0
POINT
  5
1D09A
330
1CFB9
100
AcDbEntity
  8
Defpoints
 62
     0
100
AcDbPoint
 10
2353.345090227121
 20
1113.600441802385
 30
0.0
  0
ENDBLK
  5
1CFC5
330
1CFB9
100
AcDbEntity
  8
0
100
AcDbBlockEnd
  0
BLOCK
  5
1D00E
330
1D003
100
AcDbEntity
  8
0
100
AcDbBlockBegin
  2
*D2
 70
     1
 10
0.0
 20
0.0
 30
0.0
  3
*D2
  1

  0
LINE
  5
1D004
330
1D003
100
AcDbEntity
  8
KERA4
 62
     0
370
    -2
100
AcDbLine
 10
2141.222620921081
 20
503.2454147237728
 30
0.0
 11
2141.222620921081
 21
841.5463880411024
 31
0.0
  0
LINE
  5
1D005
330
1D003
100
AcDbEntity
  8
KERA4
 62
     0
370
    -2
100
AcDbLine
 10
2520.745537212517
 20
503.245415211815
 30
0.0
 11
2520.745537212517
 21
841.5463880411024
 31
0.0
  0
LINE
  5
1D006
330
1D003
100
AcDbEntity
  8
KERA4
 62
     0
370
    -2
100
AcDbLine
 10
2181.222620921081
 20
826.5463880411026
 30
0.0
 11
2266.36436556066
 21
826.5463880411026
 31
0.0
  0
LINE
  5
1D007
330
1D003
100
AcDbEntity
  8
KERA4
 62
     0
370
    -2
100
AcDbLine
 10
2480.745537212517
 20
826.5463880411026
 30
0.0
 11
2395.603792572939
 21
826.5463880411026
 31
0.0
  0
SOLID
  5
1D008
330
1D003
100
AcDbEntity
  8
KERA4
 62
     0
100
AcDbTrace
 10
2181.222620921081
 20
833.2130547077692
 30
0.0
 11
2181.222620921081
 21
819.8797213744359
 31
0.0
 12
2141.222620921081
 22
826.5463880411026
 32
0.0
 13
2141.222620921081
 23
826.5463880411026
 33
0.0
  0
SOLID
  5
1D009
330
1D003
100
AcDbEntity
  8
KERA4
 62
     0
100
AcDbTrace
 10
2480.745537212517
 20
833.2130547077692
 30
0.0
 11
2480.745537212517
 21
819.8797213744359
 31
0.0
 12
2520.745537212517
 22
826.5463880411026
 32
0.0
 13
2520.745537212517
 23
826.5463880411026
 33
0.0
  0
MTEXT
  5
1D00A
330
1D003
100
AcDbEntity
  8
KERA4
 62
     0
100
AcDbMText
 10
2330.984079066799
 20
826.5463880411026
 30
0.0
 40
45.0
 41
0.0
 71
     5
 72
     1
  1
\A1;380
 73
     1
 44
1.0
  0
POINT
  5
1D00B
330
1D003
100
AcDbEntity
  8
Defpoints
 62
     0
100
AcDbPoint
 10
2141.222620921081
 20
483.2454147237728
 30
0.0
  0
POINT
  5
1D00C
330
1D003
100
AcDbEntity
  8
Defpoints
 62
     0
100
AcDbPoint
 10
2520.745537212517
 20
483.245415211815
 30
0.0
  0
POINT
  5
1D00D
330
1D003
100
AcDbEntity
  8
Defpoints
 62
     0
100
AcDbPoint
 10
2520.745537212517
 20
826.5463880411026
 30
0.0
  0
ENDBLK
  5
1D00F
330
1D003
100
AcDbEntity
  8
0
100
AcDbBlockEnd
  0
BLOCK
  5
1D030
330
1D025
100
AcDbEntity
  8
0
100
AcDbBlockBegin
  2
*D3
 70
     1
 10
0.0
 20
0.0
 30
0.0
  3
*D3
  1

  0
LINE
  5
1D06B
330
1D025
100
AcDbEntity
  8
KERA4
 62
     0
370
    -2
100
AcDbLine
 10
2564.445534749728
 20
1306.930948530309
 30
0.0
 11
2665.427046445492
 21
1306.930948530309
 31
0.0
  0
LINE
  5
1D06C
330
1D025
100
AcDbEntity
  8
KERA4
 62
     0
370
    -2
100
AcDbLine
 10
2350.745535774966
 20
1199.930948530309
 30
0.0
 11
2665.427046445492
 21
1199.930948530309
 31
0.0
  0
LINE
  5
1D06D
330
1D025
100
AcDbEntity
  8
KERA4
 62
     0
370
    -2
100
AcDbLine
 10
2650.427046445492
 20
1346.930948530309
 30
0.0
 11
2650.427046445492
 21
1386.930948530309
 31
0.0
  0
LINE
  5
1D06E
330
1D025
100
AcDbEntity
  8
KERA4
 62
     0
370
    -2
100
AcDbLine
 10
2650.427046445492
 20
1159.930948530309
 30
0.0
 11
2650.427046445492
 21
1119.930948530309
 31
0.0
  0
SOLID
  5
1D06F
330
1D025
100
AcDbEntity
  8
KERA4
 62
     0
100
AcDbTrace
 10
2643.760379778825
 20
1346.930948530309
 30
0.0
 11
2657.093713112158
 21
1346.930948530309
 31
0.0
 12
2650.427046445492
 22
1306.930948530309
 32
0.0
 13
2650.427046445492
 23
1306.930948530309
 33
0.0
  0
SOLID
  5
1D070
330
1D025
100
AcDbEntity
  8
KERA4
 62
     0
100
AcDbTrace
 10
2643.760379778825
 20
1159.930948530309
 30
0.0
 11
2657.093713112158
 21
1159.930948530309
 31
0.0
 12
2650.427046445492
 22
1199.930948530309
 32
0.0
 13
2650.427046445492
 23
1199.930948530309
 33
0.0
  0
MTEXT
  5
1D071
330
1D025
100
AcDbEntity
  8
KERA4
 62
     0
100
AcDbMText
 10
2650.427046445491
 20
1253.430948530309
 30
0.0
 40
45.0
 41
0.0
 71
     5
 72
     1
  1
\A1;110
 73
     1
 44
1.0
  0
POINT
  5
1D072
330
1D025
100
AcDbEntity
  8
Defpoints
 62
     0
100
AcDbPoint
 10
2544.445534749728
 20
1306.930948530309
 30
0.0
  0
POINT
  5
1D073
330
1D025
100
AcDbEntity
  8
Defpoints
 62
     0
100
AcDbPoint
 10
2330.745535774966
 20
1199.930948530309
 30
0.0
  0
POINT
  5
1D074
330
1D025
100
AcDbEntity
  8
Defpoints
 62
     0
100
AcDbPoint
 10
2650.427046445492
 20
1199.930948530309
 30
0.0
  0
ENDBLK
  5
1D031
330
1D025
100
AcDbEntity
  8
0
100
AcDbBlockEnd
  0
ENDSEC
  0
SECTION
  2
ENTITIES
  0
MTEXT
  5
3441
330
1E
100
AcDbEntity
  8
KERA4
100
AcDbMText
 10
1901.988948390646
 20
-33.71245194653784
 30
0.0
 40
45.0
 41
0.0
 71
     1
 72
     5
  1
Washtop Design - Zeichnung\PUnterbauwaschtisch R \U+2205 380 mm,\PMod.-Nr. VSA_UBS38_WA   \P08.05.08/Th                                            \P{\Ftxt.shx;        }
 73
     1
 44
1.0
  0
LINE
  5
10E1D
330
1E
100
AcDbEntity
  8
KERA2
100
AcDbLine
 10
2075.619505025015
 20
483.2454147237728
 30
0.0
 11
2585.871569400018
 21
483.2454147237727
 31
0.0
  0
LINE
  5
10E1E
330
1E
100
AcDbEntity
  8
KERA2
100
AcDbLine
 10
2330.745537212516
 20
738.3714469112742
 30
0.0
 11
2330.745537212516
 21
228.1193825362711
 31
0.0
  0
POLYLINE
  5
1C252
330
1E
100
AcDbEntity
  8
KERA0
100
AcDb3dPolyline
 66
     1
 10
0.0
 20
0.0
 30
0.0
 70
    12
 75
     6
  0
VERTEX
  5
1C253
330
1C252
100
AcDbEntity
  8
KERA0
100
AcDbVertex
100
AcDb3dPolylineVertex
 10
2294.14489491305
 20
1199.930940520956
 30
-0.0000000000000711
 70
    48
  0
VERTEX
  5
1C254
330
1C252
100
AcDbEntity
  8
KERA0
100
AcDbVertex
100
AcDb3dPolylineVertex
 10
2294.14489491305
 20
1199.930940520956
 30
-9.560229657688999
 70
    48
  0
VERTEX
  5
1C255
330
1C252
100
AcDbEntity
  8
KERA0
100
AcDbVertex
100
AcDb3dPolylineVertex
 10
2298.703595063646
 20
1199.930940520956
 30
-20.56590538805
 70
    48
  0
VERTEX
  5
1C256
330
1C252
100
AcDbEntity
  8
KERA0
100
AcDbVertex
100
AcDb3dPolylineVertex
 10
2306.973153907653
 20
1199.930940520956
 30
-27.860722425002
 70
    48
  0
VERTEX
  5
1C257
330
1C252
100
AcDbEntity
  8
KERA0
100
AcDbVertex
100
AcDb3dPolylineVertex
 10
2308.113579890864
 20
1199.930940520956
 30
-28.750779351722
 70
    48
  0
VERTEX
  5
1C258
330
1C252
100
AcDbEntity
  8
KERA0
100
AcDbVertex
100
AcDb3dPolylineVertex
 10
2294.14489491305
 20
1199.930940520956
 30
-0.0000000000000711
 70
    40
  0
VERTEX
  5
1C259
330
1C252
100
AcDbEntity
  8
KERA0
100
AcDbVertex
100
AcDb3dPolylineVertex
 10
2294.554903216557
 20
1199.930940520956
 30
-5.359171317752999
 70
    40
  0
VERTEX
  5
1C25A
330
1C252
100
AcDbEntity
  8
KERA0
100
AcDbVertex
100
AcDb3dPolylineVertex
 10
2295.754346135518
 20
1199.930940520956
 30
-10.607595447322
 70
    40
  0
VERTEX
  5
1C25B
330
1C252
100
AcDbEntity
  8
KERA0
100
AcDbVertex
100
AcDb3dPolylineVertex
 10
2297.697350682593
 20
1199.930940520956
 30
-15.634525200524
 70
    40
  0
VERTEX
  5
1C25C
330
1C252
100
AcDbEntity
  8
KERA0
100
AcDbVertex
100
AcDb3dPolylineVertex
 10
2300.338043870439
 20
1199.930940520956
 30
-20.32921338917499
 70
    40
  0
VERTEX
  5
1C25D
330
1C252
100
AcDbEntity
  8
KERA0
100
AcDbVertex
100
AcDb3dPolylineVertex
 10
2303.630552711719
 20
1199.930940520956
 30
-24.580912825093
 70
    40
  0
VERTEX
  5
1C25E
330
1C252
100
AcDbEntity
  8
KERA0
100
AcDbVertex
100
AcDb3dPolylineVertex
 10
2306.24240617185
 20
1199.930940520956
 30
-27.184957557836
 70
    40
  0
VERTEX
  5
1C25F
330
1C252
100
AcDbEntity
  8
KERA0
100
AcDbVertex
100
AcDb3dPolylineVertex
 10
2308.113579890864
 20
1199.930940520956
 30
-28.750779351722
 70
    40
  0
SEQEND
  5
1C260
330
1C252
100
AcDbEntity
  8
KERA0
  0
POLYLINE
  5
1C261
330
1E
100
AcDbEntity
  8
KERA0
100
AcDb3dPolyline
 66
     1
 10
0.0
 20
0.0
 30
0.0
 70
    12
 75
     6
  0
VERTEX
  5
1C262
330
1C261
100
AcDbEntity
  8
KERA0
100
AcDbVertex
100
AcDb3dPolylineVertex
 10
2117.045539675305
 20
1306.930948530309
 30
0.0
 70
    48
  0
VERTEX
  5
1C263
330
1C261
100
AcDbEntity
  8
KERA0
100
AcDbVertex
100
AcDb3dPolylineVertex
 10
2188.278872187708
 20
1306.930948530309
 30
0.0
 70
    48
  0
VERTEX
  5
1C264
330
1C261
100
AcDbEntity
  8
KERA0
100
AcDbVertex
100
AcDb3dPolylineVertex
 10
2259.512204700112
 20
1306.930948530309
 30
0.0
 70
    48
  0
VERTEX
  5
1C265
330
1C261
100
AcDbEntity
  8
KERA0
100
AcDbVertex
100
AcDb3dPolylineVertex
 10
2330.745537212516
 20
1306.930948530309
 30
0.0
 70
    48
  0
VERTEX
  5
1C266
330
1C261
100
AcDbEntity
  8
KERA0
100
AcDbVertex
100
AcDb3dPolylineVertex
 10
2117.045539675305
 20
1306.930948530309
 30
0.0
 70
    40
  0
VERTEX
  5
1C267
330
1C261
100
AcDbEntity
  8
KERA0
100
AcDbVertex
100
AcDb3dPolylineVertex
 10
2143.758039367457
 20
1306.930948530309
 30
0.0
 70
    40
  0
VERTEX
  5
1C268
330
1C261
100
AcDbEntity
  8
KERA0
100
AcDbVertex
100
AcDb3dPolylineVertex
 10
2170.470539059607
 20
1306.930948530309
 30
0.0
 70
    40
  0
VERTEX
  5
1C269
330
1C261
100
AcDbEntity
  8
KERA0
100
AcDbVertex
100
AcDb3dPolylineVertex
 10
2197.183038751759
 20
1306.930948530309
 30
0.0
 70
    40
  0
VERTEX
  5
1C26A
330
1C261
100
AcDbEntity
  8
KERA0
100
AcDbVertex
100
AcDb3dPolylineVertex
 10
2223.89553844391
 20
1306.930948530309
 30
0.0
 70
    40
  0
VERTEX
  5
1C26B
330
1C261
100
AcDbEntity
  8
KERA0
100
AcDbVertex
100
AcDb3dPolylineVertex
 10
2250.608038136062
 20
1306.930948530309
 30
0.0
 70
    40
  0
VERTEX
  5
1C26C
330
1C261
100
AcDbEntity
  8
KERA0
100
AcDbVertex
100
AcDb3dPolylineVertex
 10
2277.320537828213
 20
1306.930948530309
 30
0.0
 70
    40
  0
VERTEX
  5
1C26D
330
1C261
100
AcDbEntity
  8
KERA0
100
AcDbVertex
100
AcDb3dPolylineVertex
 10
2304.033037520365
 20
1306.930948530309
 30
0.0
 70
    40
  0
VERTEX
  5
1C26E
330
1C261
100
AcDbEntity
  8
KERA0
100
AcDbVertex
100
AcDb3dPolylineVertex
 10
2330.745537212516
 20
1306.930948530309
 30
0.0
 70
    40
  0
SEQEND
  5
1C26F
330
1C261
100
AcDbEntity
  8
KERA0
  0
POLYLINE
  5
1C270
330
1E
100
AcDbEntity
  8
KERA0
100
AcDb3dPolyline
 66
     1
 10
0.0
 20
0.0
 30
0.0
 70
    12
 75
     6
  0
VERTEX
  5
1C271
330
1C270
100
AcDbEntity
  8
KERA0
100
AcDbVertex
100
AcDb3dPolylineVertex
 10
2275.026471728665
 20
1188.555329113132
 30
0.0
 70
    48
  0
VERTEX
  5
1C272
330
1C270
100
AcDbEntity
  8
KERA0
100
AcDbVertex
100
AcDb3dPolylineVertex
 10
2236.636398896652
 20
1189.56060853341
 30
0.0
 70
    48
  0
VERTEX
  5
1C273
330
1C270
100
AcDbEntity
  8
KERA0
100
AcDbVertex
100
AcDb3dPolylineVertex
 10
2198.24632606464
 20
1190.565887953688
 30
0.0
 70
    48
  0
VERTEX
  5
1C274
330
1C270
100
AcDbEntity
  8
KERA0
100
AcDbVertex
100
AcDb3dPolylineVertex
 10
2159.856253232626
 20
1191.571167373966
 30
0.0
 70
    48
  0
VERTEX
  5
1C275
330
1C270
100
AcDbEntity
  8
KERA0
100
AcDbVertex
100
AcDb3dPolylineVertex
 10
2275.026471728665
 20
1188.555329113132
 30
0.0
 70
    40
  0
VERTEX
  5
1C276
330
1C270
100
AcDbEntity
  8
KERA0
100
AcDbVertex
100
AcDb3dPolylineVertex
 10
2260.63019441666
 20
1188.932308895736
 30
0.0
 70
    40
  0
VERTEX
  5
1C277
330
1C270
100
AcDbEntity
  8
KERA0
100
AcDbVertex
100
AcDb3dPolylineVertex
 10
2246.233917104656
 20
1189.30928867834
 30
0.0
 70
    40
  0
VERTEX
  5
1C278
330
1C270
100
AcDbEntity
  8
KERA0
100
AcDbVertex
100
AcDb3dPolylineVertex
 10
2231.837639792651
 20
1189.686268460945
 30
0.0
 70
    40
  0
VERTEX
  5
1C279
330
1C270
100
AcDbEntity
  8
KERA0
100
AcDbVertex
100
AcDb3dPolylineVertex
 10
2217.441362480646
 20
1190.063248243549
 30
0.0
 70
    40
  0
VERTEX
  5
1C27A
330
1C270
100
AcDbEntity
  8
KERA0
100
AcDbVertex
100
AcDb3dPolylineVertex
 10
2203.045085168642
 20
1190.440228026153
 30
0.0
 70
    40
  0
VERTEX
  5
1C27B
330
1C270
100
AcDbEntity
  8
KERA0
100
AcDbVertex
100
AcDb3dPolylineVertex
 10
2188.648807856636
 20
1190.817207808757
 30
0.0
 70
    40
  0
VERTEX
  5
1C27C
330
1C270
100
AcDbEntity
  8
KERA0
100
AcDbVertex
100
AcDb3dPolylineVertex
 10
2174.252530544632
 20
1191.194187591361
 30
0.0
 70
    40
  0
VERTEX
  5
1C27D
330
1C270
100
AcDbEntity
  8
KERA0
100
AcDbVertex
100
AcDb3dPolylineVertex
 10
2159.856253232626
 20
1191.571167373966
 30
0.0
 70
    40
  0
SEQEND
  5
1C27E
330
1C270
100
AcDbEntity
  8
KERA0
  0
POLYLINE
  5
1C28E
330
1E
100
AcDbEntity
  8
KERA0
100
AcDb3dPolyline
 66
     1
 10
0.0
 20
0.0
 30
0.0
 70
    12
 75
     6
  0
VERTEX
  5
1C28F
330
1C28E
100
AcDbEntity
  8
KERA0
100
AcDbVertex
100
AcDb3dPolylineVertex
 10
2130.335937169049
 20
1293.428467166519
 30
0.0
 70
    48
  0
VERTEX
  5
1C290
330
1C28E
100
AcDbEntity
  8
KERA0
100
AcDbVertex
100
AcDb3dPolylineVertex
 10
2133.071067544839
 20
1266.077165690992
 30
0.0
 70
    48
  0
VERTEX
  5
1C291
330
1C28E
100
AcDbEntity
  8
KERA0
100
AcDbVertex
100
AcDb3dPolylineVertex
 10
2135.806197920627
 20
1238.725864215466
 30
0.0
 70
    48
  0
VERTEX
  5
1C292
330
1C28E
100
AcDbEntity
  8
KERA0
100
AcDbVertex
100
AcDb3dPolylineVertex
 10
2138.541328296417
 20
1211.374562739939
 30
0.0
 70
    48
  0
VERTEX
  5
1C293
330
1C28E
100
AcDbEntity
  8
KERA0
100
AcDbVertex
100
AcDb3dPolylineVertex
 10
2130.335937169049
 20
1293.428467166519
 30
0.0
 70
    40
  0
VERTEX
  5
1C294
330
1C28E
100
AcDbEntity
  8
KERA0
100
AcDbVertex
100
AcDb3dPolylineVertex
 10
2131.361611059969
 20
1283.171729113196
 30
0.0
 70
    40
  0
VERTEX
  5
1C295
330
1C28E
100
AcDbEntity
  8
KERA0
100
AcDbVertex
100
AcDb3dPolylineVertex
 10
2132.38728495089
 20
1272.914991059874
 30
0.0
 70
    40
  0
VERTEX
  5
1C296
330
1C28E
100
AcDbEntity
  8
KERA0
100
AcDbVertex
100
AcDb3dPolylineVertex
 10
2133.412958841812
 20
1262.658253006551
 30
0.0
 70
    40
  0
VERTEX
  5
1C297
330
1C28E
100
AcDbEntity
  8
KERA0
100
AcDbVertex
100
AcDb3dPolylineVertex
 10
2134.438632732734
 20
1252.401514953229
 30
0.0
 70
    40
  0
VERTEX
  5
1C298
330
1C28E
100
AcDbEntity
  8
KERA0
100
AcDbVertex
100
AcDb3dPolylineVertex
 10
2135.464306623654
 20
1242.144776899906
 30
0.0
 70
    40
  0
VERTEX
  5
1C299
330
1C28E
100
AcDbEntity
  8
KERA0
100
AcDbVertex
100
AcDb3dPolylineVertex
 10
2136.489980514576
 20
1231.888038846584
 30
0.0
 70
    40
  0
VERTEX
  5
1C29A
330
1C28E
100
AcDbEntity
  8
KERA0
100
AcDbVertex
100
AcDb3dPolylineVertex
 10
2137.515654405496
 20
1221.631300793261
 30
0.0
 70
    40
  0
VERTEX
  5
1C29B
330
1C28E
100
AcDbEntity
  8
KERA0
100
AcDbVertex
100
AcDb3dPolylineVertex
 10
2138.541328296417
 20
1211.374562739939
 30
0.0
 70
    40
  0
SEQEND
  5
1C29C
330
1C28E
100
AcDbEntity
  8
KERA0
  0
ARC
  5
1C2AC
330
1E
100
AcDbEntity
  8
KERA0
100
AcDbCircle
 10
2160.432150729691
 20
1213.563647657509
 30
0.0
 40
22.0
100
AcDbArc
 50
185.7105936108807
 51
268.5000000000103
  0
POLYLINE
  5
1C2AE
330
1E
100
AcDbEntity
  8
KERA0
100
AcDb3dPolyline
 66
     1
 10
0.0
 20
0.0
 30
0.0
 70
    12
 75
     6
  0
VERTEX
  5
1C2AF
330
1C2AE
100
AcDbEntity
  8
KERA0
100
AcDbVertex
100
AcDb3dPolylineVertex
 10
2117.045539675305
 20
1297.930948530309
 30
0.0
 70
    48
  0
VERTEX
  5
1C2B0
330
1C2AE
100
AcDbEntity
  8
KERA0
100
AcDbVertex
100
AcDb3dPolylineVertex
 10
2117.045539675305
 20
1300.930948530309
 30
0.0
 70
    48
  0
VERTEX
  5
1C2B1
330
1C2AE
100
AcDbEntity
  8
KERA0
100
AcDbVertex
100
AcDb3dPolylineVertex
 10
2117.045539675305
 20
1303.930948530309
 30
0.0
 70
    48
  0
VERTEX
  5
1C2B2
330
1C2AE
100
AcDbEntity
  8
KERA0
100
AcDbVertex
100
AcDb3dPolylineVertex
 10
2117.045539675305
 20
1306.930948530309
 30
0.0
 70
    48
  0
VERTEX
  5
1C2B3
330
1C2AE
100
AcDbEntity
  8
KERA0
100
AcDbVertex
100
AcDb3dPolylineVertex
 10
2117.045539675305
 20
1297.930948530309
 30
0.0
 70
    40
  0
VERTEX
  5
1C2B4
330
1C2AE
100
AcDbEntity
  8
KERA0
100
AcDbVertex
100
AcDb3dPolylineVertex
 10
2117.045539675305
 20
1299.055948530309
 30
0.0
 70
    40
  0
VERTEX
  5
1C2B5
330
1C2AE
100
AcDbEntity
  8
KERA0
100
AcDbVertex
100
AcDb3dPolylineVertex
 10
2117.045539675305
 20
1300.180948530309
 30
0.0
 70
    40
  0
VERTEX
  5
1C2B6
330
1C2AE
100
AcDbEntity
  8
KERA0
100
AcDbVertex
100
AcDb3dPolylineVertex
 10
2117.045539675305
 20
1301.305948530309
 30
0.0
 70
    40
  0
VERTEX
  5
1C2B7
330
1C2AE
100
AcDbEntity
  8
KERA0
100
AcDbVertex
100
AcDb3dPolylineVertex
 10
2117.045539675305
 20
1302.430948530309
 30
0.0
 70
    40
  0
VERTEX
  5
1C2B8
330
1C2AE
100
AcDbEntity
  8
KERA0
100
AcDbVertex
100
AcDb3dPolylineVertex
 10
2117.045539675305
 20
1303.555948530309
 30
0.0
 70
    40
  0
VERTEX
  5
1C2B9
330
1C2AE
100
AcDbEntity
  8
KERA0
100
AcDbVertex
100
AcDb3dPolylineVertex
 10
2117.045539675305
 20
1304.680948530309
 30
0.0
 70
    40
  0
VERTEX
  5
1C2BA
330
1C2AE
100
AcDbEntity
  8
KERA0
100
AcDbVertex
100
AcDb3dPolylineVertex
 10
2117.045539675305
 20
1305.805948530309
 30
0.0
 70
    40
  0
VERTEX
  5
1C2BB
330
1C2AE
100
AcDbEntity
  8
KERA0
100
AcDbVertex
100
AcDb3dPolylineVertex
 10
2117.045539675305
 20
1306.930948530309
 30
0.0
 70
    40
  0
SEQEND
  5
1C2BC
330
1C2AE
100
AcDbEntity
  8
KERA0
  0
POLYLINE
  5
1C2BD
330
1E
100
AcDbEntity
  8
KERA0
100
AcDb3dPolyline
 66
     1
 10
0.0
 20
0.0
 30
0.0
 70
    12
 75
     6
  0
VERTEX
  5
1C2BE
330
1C2BD
100
AcDbEntity
  8
KERA0
100
AcDbVertex
100
AcDb3dPolylineVertex
 10
2117.045539675305
 20
1297.930948530309
 30
0.0
 70
    48
  0
VERTEX
  5
1C2BF
330
1C2BD
100
AcDbEntity
  8
KERA0
100
AcDbVertex
100
AcDb3dPolylineVertex
 10
2119.817276857572
 20
1297.930948530309
 30
0.0
 70
    48
  0
VERTEX
  5
1C2C0
330
1C2BD
100
AcDbEntity
  8
KERA0
100
AcDbVertex
100
AcDb3dPolylineVertex
 10
2122.58901403984
 20
1297.930948530309
 30
0.0
 70
    48
  0
VERTEX
  5
1C2C1
330
1C2BD
100
AcDbEntity
  8
KERA0
100
AcDbVertex
100
AcDb3dPolylineVertex
 10
2125.360751222108
 20
1297.930948530309
 30
0.0
 70
    48
  0
VERTEX
  5
1C2C2
330
1C2BD
100
AcDbEntity
  8
KERA0
100
AcDbVertex
100
AcDb3dPolylineVertex
 10
2117.045539675305
 20
1297.930948530309
 30
0.0
 70
    40
  0
VERTEX
  5
1C2C3
330
1C2BD
100
AcDbEntity
  8
KERA0
100
AcDbVertex
100
AcDb3dPolylineVertex
 10
2118.084941118655
 20
1297.930948530309
 30
0.0
 70
    40
  0
VERTEX
  5
1C2C4
330
1C2BD
100
AcDbEntity
  8
KERA0
100
AcDbVertex
100
AcDb3dPolylineVertex
 10
2119.124342562006
 20
1297.930948530309
 30
0.0
 70
    40
  0
VERTEX
  5
1C2C5
330
1C2BD
100
AcDbEntity
  8
KERA0
100
AcDbVertex
100
AcDb3dPolylineVertex
 10
2120.163744005357
 20
1297.930948530309
 30
0.0
 70
    40
  0
VERTEX
  5
1C2C6
330
1C2BD
100
AcDbEntity
  8
KERA0
100
AcDbVertex
100
AcDb3dPolylineVertex
 10
2121.203145448706
 20
1297.930948530309
 30
0.0
 70
    40
  0
VERTEX
  5
1C2C7
330
1C2BD
100
AcDbEntity
  8
KERA0
100
AcDbVertex
100
AcDb3dPolylineVertex
 10
2122.242546892058
 20
1297.930948530309
 30
0.0
 70
    40
  0
VERTEX
  5
1C2C8
330
1C2BD
100
AcDbEntity
  8
KERA0
100
AcDbVertex
100
AcDb3dPolylineVertex
 10
2123.281948335407
 20
1297.930948530309
 30
0.0
 70
    40
  0
VERTEX
  5
1C2C9
330
1C2BD
100
AcDbEntity
  8
KERA0
100
AcDbVertex
100
AcDb3dPolylineVertex
 10
2124.321349778758
 20
1297.930948530309
 30
0.0
 70
    40
  0
VERTEX
  5
1C2CA
330
1C2BD
100
AcDbEntity
  8
KERA0
100
AcDbVertex
100
AcDb3dPolylineVertex
 10
2125.360751222108
 20
1297.930948530309
 30
0.0
 70
    40
  0
SEQEND
  5
1C2CB
330
1C2BD
100
AcDbEntity
  8
KERA0
  0
ARC
  5
1C2CC
330
1E
100
AcDbEntity
  8
KERA0
100
AcDbCircle
 10
2125.360751222109
 20
1292.930948530309
 30
0.0
 40
5.0
100
AcDbArc
 50
5.710593610880727
 51
90.0
  0
POLYLINE
  5
1C2DC
330
1E
100
AcDbEntity
  8
KERA0
100
AcDb3dPolyline
 66
     1
 10
0.0
 20
0.0
 30
0.0
 70
    12
 75
     6
  0
VERTEX
  5
1C2DD
330
1C2DC
100
AcDbEntity
  8
KERA0
100
AcDbVertex
100
AcDb3dPolylineVertex
 10
2531.155137255984
 20
1293.428467166519
 30
0.0
 70
    48
  0
VERTEX
  5
1C2DE
330
1C2DC
100
AcDbEntity
  8
KERA0
100
AcDbVertex
100
AcDb3dPolylineVertex
 10
2528.420006880194
 20
1266.077165690992
 30
0.0
 70
    48
  0
VERTEX
  5
1C2DF
330
1C2DC
100
AcDbEntity
  8
KERA0
100
AcDbVertex
100
AcDb3dPolylineVertex
 10
2525.684876504405
 20
1238.725864215466
 30
0.0
 70
    48
  0
VERTEX
  5
1C2E0
330
1C2DC
100
AcDbEntity
  8
KERA0
100
AcDbVertex
100
AcDb3dPolylineVertex
 10
2522.949746128615
 20
1211.374562739939
 30
0.0
 70
    48
  0
VERTEX
  5
1C2E1
330
1C2DC
100
AcDbEntity
  8
KERA0
100
AcDbVertex
100
AcDb3dPolylineVertex
 10
2531.155137255984
 20
1293.428467166519
 30
0.0
 70
    40
  0
VERTEX
  5
1C2E2
330
1C2DC
100
AcDbEntity
  8
KERA0
100
AcDbVertex
100
AcDb3dPolylineVertex
 10
2530.129463365062
 20
1283.171729113196
 30
0.0
 70
    40
  0
VERTEX
  5
1C2E3
330
1C2DC
100
AcDbEntity
  8
KERA0
100
AcDbVertex
100
AcDb3dPolylineVertex
 10
2529.103789474142
 20
1272.914991059874
 30
0.0
 70
    40
  0
VERTEX
  5
1C2E4
330
1C2DC
100
AcDbEntity
  8
KERA0
100
AcDbVertex
100
AcDb3dPolylineVertex
 10
2528.078115583221
 20
1262.658253006551
 30
0.0
 70
    40
  0
VERTEX
  5
1C2E5
330
1C2DC
100
AcDbEntity
  8
KERA0
100
AcDbVertex
100
AcDb3dPolylineVertex
 10
2527.052441692299
 20
1252.401514953229
 30
0.0
 70
    40
  0
VERTEX
  5
1C2E6
330
1C2DC
100
AcDbEntity
  8
KERA0
100
AcDbVertex
100
AcDb3dPolylineVertex
 10
2526.026767801379
 20
1242.144776899906
 30
0.0
 70
    40
  0
VERTEX
  5
1C2E7
330
1C2DC
100
AcDbEntity
  8
KERA0
100
AcDbVertex
100
AcDb3dPolylineVertex
 10
2525.001093910457
 20
1231.888038846584
 30
0.0
 70
    40
  0
VERTEX
  5
1C2E8
330
1C2DC
100
AcDbEntity
  8
KERA0
100
AcDbVertex
100
AcDb3dPolylineVertex
 10
2523.975420019537
 20
1221.631300793261
 30
0.0
 70
    40
  0
VERTEX
  5
1C2E9
330
1C2DC
100
AcDbEntity
  8
KERA0
100
AcDbVertex
100
AcDb3dPolylineVertex
 10
2522.949746128615
 20
1211.374562739939
 30
0.0
 70
    40
  0
SEQEND
  5
1C2EA
330
1C2DC
100
AcDbEntity
  8
KERA0
  0
POLYLINE
  5
1C2FA
330
1E
100
AcDbEntity
  8
KERA0
100
AcDb3dPolyline
 66
     1
 10
0.0
 20
0.0
 30
0.0
 70
    12
 75
     6
  0
VERTEX
  5
1C2FB
330
1C2FA
100
AcDbEntity
  8
KERA0
100
AcDbVertex
100
AcDb3dPolylineVertex
 10
2386.464602696367
 20
1188.555329113132
 30
0.0
 70
    48
  0
VERTEX
  5
1C2FC
330
1C2FA
100
AcDbEntity
  8
KERA0
100
AcDbVertex
100
AcDb3dPolylineVertex
 10
2424.854675528379
 20
1189.56060853341
 30
0.0
 70
    48
  0
VERTEX
  5
1C2FD
330
1C2FA
100
AcDbEntity
  8
KERA0
100
AcDbVertex
100
AcDb3dPolylineVertex
 10
2463.244748360393
 20
1190.565887953688
 30
0.0
 70
    48
  0
VERTEX
  5
1C2FE
330
1C2FA
100
AcDbEntity
  8
KERA0
100
AcDbVertex
100
AcDb3dPolylineVertex
 10
2501.634821192406
 20
1191.571167373966
 30
0.0
 70
    48
  0
VERTEX
  5
1C2FF
330
1C2FA
100
AcDbEntity
  8
KERA0
100
AcDbVertex
100
AcDb3dPolylineVertex
 10
2386.464602696367
 20
1188.555329113132
 30
0.0
 70
    40
  0
VERTEX
  5
1C300
330
1C2FA
100
AcDbEntity
  8
KERA0
100
AcDbVertex
100
AcDb3dPolylineVertex
 10
2400.860880008372
 20
1188.932308895736
 30
0.0
 70
    40
  0
VERTEX
  5
1C301
330
1C2FA
100
AcDbEntity
  8
KERA0
100
AcDbVertex
100
AcDb3dPolylineVertex
 10
2415.257157320377
 20
1189.30928867834
 30
0.0
 70
    40
  0
VERTEX
  5
1C302
330
1C2FA
100
AcDbEntity
  8
KERA0
100
AcDbVertex
100
AcDb3dPolylineVertex
 10
2429.653434632382
 20
1189.686268460945
 30
0.0
 70
    40
  0
VERTEX
  5
1C303
330
1C2FA
100
AcDbEntity
  8
KERA0
100
AcDbVertex
100
AcDb3dPolylineVertex
 10
2444.049711944387
 20
1190.063248243549
 30
0.0
 70
    40
  0
VERTEX
  5
1C304
330
1C2FA
100
AcDbEntity
  8
KERA0
100
AcDbVertex
100
AcDb3dPolylineVertex
 10
2458.445989256392
 20
1190.440228026153
 30
0.0
 70
    40
  0
VERTEX
  5
1C305
330
1C2FA
100
AcDbEntity
  8
KERA0
100
AcDbVertex
100
AcDb3dPolylineVertex
 10
2472.842266568395
 20
1190.817207808757
 30
0.0
 70
    40
  0
VERTEX
  5
1C306
330
1C2FA
100
AcDbEntity
  8
KERA0
100
AcDbVertex
100
AcDb3dPolylineVertex
 10
2487.238543880401
 20
1191.194187591361
 30
0.0
 70
    40
  0
VERTEX
  5
1C307
330
1C2FA
100
AcDbEntity
  8
KERA0
100
AcDbVertex
100
AcDb3dPolylineVertex
 10
2501.634821192406
 20
1191.571167373966
 30
0.0
 70
    40
  0
SEQEND
  5
1C308
330
1C2FA
100
AcDbEntity
  8
KERA0
  0
POLYLINE
  5
1C318
330
1E
100
AcDbEntity
  8
KERA0
100
AcDb3dPolyline
 66
     1
 10
0.0
 20
0.0
 30
0.0
 70
    12
 75
     6
  0
VERTEX
  5
1C319
330
1C318
100
AcDbEntity
  8
KERA0
100
AcDbVertex
100
AcDb3dPolylineVertex
 10
2330.745537223802
 20
1176.507057790672
 30
0.0
 70
    48
  0
VERTEX
  5
1C31A
330
1C318
100
AcDbEntity
  8
KERA0
100
AcDbVertex
100
AcDb3dPolylineVertex
 10
2344.984230044204
 20
1176.507057790672
 30
0.0
 70
    48
  0
VERTEX
  5
1C31B
330
1C318
100
AcDbEntity
  8
KERA0
100
AcDbVertex
100
AcDb3dPolylineVertex
 10
2359.222922864606
 20
1176.507057790672
 30
0.0
 70
    48
  0
VERTEX
  5
1C31C
330
1C318
100
AcDbEntity
  8
KERA0
100
AcDbVertex
100
AcDb3dPolylineVertex
 10
2373.461615685009
 20
1176.507057790672
 30
0.0
 70
    48
  0
VERTEX
  5
1C31D
330
1C318
100
AcDbEntity
  8
KERA0
100
AcDbVertex
100
AcDb3dPolylineVertex
 10
2330.745537223802
 20
1176.507057790672
 30
0.0
 70
    40
  0
VERTEX
  5
1C31E
330
1C318
100
AcDbEntity
  8
KERA0
100
AcDbVertex
100
AcDb3dPolylineVertex
 10
2336.085047031454
 20
1176.507057790672
 30
0.0
 70
    40
  0
VERTEX
  5
1C31F
330
1C318
100
AcDbEntity
  8
KERA0
100
AcDbVertex
100
AcDb3dPolylineVertex
 10
2341.424556839104
 20
1176.507057790672
 30
0.0
 70
    40
  0
VERTEX
  5
1C320
330
1C318
100
AcDbEntity
  8
KERA0
100
AcDbVertex
100
AcDb3dPolylineVertex
 10
2346.764066646755
 20
1176.507057790672
 30
0.0
 70
    40
  0
VERTEX
  5
1C321
330
1C318
100
AcDbEntity
  8
KERA0
100
AcDbVertex
100
AcDb3dPolylineVertex
 10
2352.103576454406
 20
1176.507057790672
 30
0.0
 70
    40
  0
VERTEX
  5
1C322
330
1C318
100
AcDbEntity
  8
KERA0
100
AcDbVertex
100
AcDb3dPolylineVertex
 10
2357.443086262057
 20
1176.507057790672
 30
0.0
 70
    40
  0
VERTEX
  5
1C323
330
1C318
100
AcDbEntity
  8
KERA0
100
AcDbVertex
100
AcDb3dPolylineVertex
 10
2362.782596069707
 20
1176.507057790672
 30
0.0
 70
    40
  0
VERTEX
  5
1C324
330
1C318
100
AcDbEntity
  8
KERA0
100
AcDbVertex
100
AcDb3dPolylineVertex
 10
2368.122105877359
 20
1176.507057790672
 30
0.0
 70
    40
  0
VERTEX
  5
1C325
330
1C318
100
AcDbEntity
  8
KERA0
100
AcDbVertex
100
AcDb3dPolylineVertex
 10
2373.461615685009
 20
1176.507057790672
 30
0.0
 70
    40
  0
SEQEND
  5
1C326
330
1C318
100
AcDbEntity
  8
KERA0
  0
POLYLINE
  5
1C354
330
1E
100
AcDbEntity
  8
KERA0
100
AcDb3dPolyline
 66
     1
 10
0.0
 20
0.0
 30
0.0
 70
    12
 75
     6
  0
VERTEX
  5
1C355
330
1C354
100
AcDbEntity
  8
KERA0
100
AcDbVertex
100
AcDb3dPolylineVertex
 10
2330.745537223802
 20
1176.507057790672
 30
0.0
 70
    48
  0
VERTEX
  5
1C356
330
1C354
100
AcDbEntity
  8
KERA0
100
AcDbVertex
100
AcDb3dPolylineVertex
 10
2316.506844395875
 20
1176.507057790672
 30
0.0
 70
    48
  0
VERTEX
  5
1C357
330
1C354
100
AcDbEntity
  8
KERA0
100
AcDbVertex
100
AcDb3dPolylineVertex
 10
2302.268151567949
 20
1176.507057790672
 30
0.0
 70
    48
  0
VERTEX
  5
1C358
330
1C354
100
AcDbEntity
  8
KERA0
100
AcDbVertex
100
AcDb3dPolylineVertex
 10
2288.029458740024
 20
1176.507057790672
 30
0.0
 70
    48
  0
VERTEX
  5
1C359
330
1C354
100
AcDbEntity
  8
KERA0
100
AcDbVertex
100
AcDb3dPolylineVertex
 10
2330.745537223802
 20
1176.507057790672
 30
0.0
 70
    40
  0
VERTEX
  5
1C35A
330
1C354
100
AcDbEntity
  8
KERA0
100
AcDbVertex
100
AcDb3dPolylineVertex
 10
2325.406027413329
 20
1176.507057790672
 30
0.0
 70
    40
  0
VERTEX
  5
1C35B
330
1C354
100
AcDbEntity
  8
KERA0
100
AcDbVertex
100
AcDb3dPolylineVertex
 10
2320.066517602858
 20
1176.507057790672
 30
0.0
 70
    40
  0
VERTEX
  5
1C35C
330
1C354
100
AcDbEntity
  8
KERA0
100
AcDbVertex
100
AcDb3dPolylineVertex
 10
2314.727007792384
 20
1176.507057790672
 30
0.0
 70
    40
  0
VERTEX
  5
1C35D
330
1C354
100
AcDbEntity
  8
KERA0
100
AcDbVertex
100
AcDb3dPolylineVertex
 10
2309.387497981913
 20
1176.507057790672
 30
0.0
 70
    40
  0
VERTEX
  5
1C35E
330
1C354
100
AcDbEntity
  8
KERA0
100
AcDbVertex
100
AcDb3dPolylineVertex
 10
2304.047988171441
 20
1176.507057790672
 30
0.0
 70
    40
  0
VERTEX
  5
1C35F
330
1C354
100
AcDbEntity
  8
KERA0
100
AcDbVertex
100
AcDb3dPolylineVertex
 10
2298.708478360968
 20
1176.507057790672
 30
0.0
 70
    40
  0
VERTEX
  5
1C360
330
1C354
100
AcDbEntity
  8
KERA0
100
AcDbVertex
100
AcDb3dPolylineVertex
 10
2293.368968550495
 20
1176.507057790672
 30
0.0
 70
    40
  0
VERTEX
  5
1C361
330
1C354
100
AcDbEntity
  8
KERA0
100
AcDbVertex
100
AcDb3dPolylineVertex
 10
2288.029458740024
 20
1176.507057790672
 30
0.0
 70
    40
  0
SEQEND
  5
1C362
330
1C354
100
AcDbEntity
  8
KERA0
  0
POLYLINE
  5
1C363
330
1E
100
AcDbEntity
  8
KERA0
100
AcDb3dPolyline
 66
     1
 10
0.0
 20
0.0
 30
0.0
 70
    12
 75
     6
  0
VERTEX
  5
1C364
330
1C363
100
AcDbEntity
  8
KERA0
100
AcDbVertex
100
AcDb3dPolylineVertex
 10
2274.694069704016
 20
1188.538741170912
 30
0.0
 70
    48
  0
VERTEX
  5
1C365
330
1C363
100
AcDbEntity
  8
KERA0
100
AcDbVertex
100
AcDb3dPolylineVertex
 10
2278.254914248223
 20
1188.314297619054
 30
0.0
 70
    48
  0
VERTEX
  5
1C366
330
1C363
100
AcDbEntity
  8
KERA0
100
AcDbVertex
100
AcDb3dPolylineVertex
 10
2281.043984840481
 20
1186.045689966208
 30
0.0
 70
    48
  0
VERTEX
  5
1C367
330
1C363
100
AcDbEntity
  8
KERA0
100
AcDbVertex
100
AcDb3dPolylineVertex
 10
2281.941374870786
 20
1182.536732926354
 30
0.0
 70
    48
  0
VERTEX
  5
1C368
330
1C363
100
AcDbEntity
  8
KERA0
100
AcDbVertex
100
AcDb3dPolylineVertex
 10
2274.694069704016
 20
1188.538741170912
 30
0.0
 70
    40
  0
VERTEX
  5
1C369
330
1C363
100
AcDbEntity
  8
KERA0
100
AcDbVertex
100
AcDb3dPolylineVertex
 10
2275.991022186498
 20
1188.360324597345
 30
0.0
 70
    40
  0
VERTEX
  5
1C36A
330
1C363
100
AcDbEntity
  8
KERA0
100
AcDbVertex
100
AcDb3dPolylineVertex
 10
2277.202496955399
 20
1187.999687342989
 30
0.0
 70
    40
  0
VERTEX
  5
1C36B
330
1C363
100
AcDbEntity
  8
KERA0
100
AcDbVertex
100
AcDb3dPolylineVertex
 10
2278.315370105133
 20
1187.466249111525
 30
0.0
 70
    40
  0
VERTEX
  5
1C36C
330
1C363
100
AcDbEntity
  8
KERA0
100
AcDbVertex
100
AcDb3dPolylineVertex
 10
2279.316517730114
 20
1186.769429606632
 30
0.0
 70
    40
  0
VERTEX
  5
1C36D
330
1C363
100
AcDbEntity
  8
KERA0
100
AcDbVertex
100
AcDb3dPolylineVertex
 10
2280.192815924756
 20
1185.918648531988
 30
0.0
 70
    40
  0
VERTEX
  5
1C36E
330
1C363
100
AcDbEntity
  8
KERA0
100
AcDbVertex
100
AcDb3dPolylineVertex
 10
2280.931140783473
 20
1184.923325591275
 30
0.0
 70
    40
  0
VERTEX
  5
1C36F
330
1C363
100
AcDbEntity
  8
KERA0
100
AcDbVertex
100
AcDb3dPolylineVertex
 10
2281.518368400679
 20
1183.79288048817
 30
0.0
 70
    40
  0
VERTEX
  5
1C370
330
1C363
100
AcDbEntity
  8
KERA0
100
AcDbVertex
100
AcDb3dPolylineVertex
 10
2281.941374870786
 20
1182.536732926354
 30
0.0
 70
    40
  0
SEQEND
  5
1C371
330
1C363
100
AcDbEntity
  8
KERA0
  0
POLYLINE
  5
1C372
330
1E
100
AcDbEntity
  8
KERA0
100
AcDb3dPolyline
 66
     1
 10
0.0
 20
0.0
 30
0.0
 70
    12
 75
     6
  0
VERTEX
  5
1C373
330
1C372
100
AcDbEntity
  8
KERA0
100
AcDbVertex
100
AcDb3dPolylineVertex
 10
2288.046830991774
 20
1176.507030514075
 30
0.003338453145148
 70
    48
  0
VERTEX
  5
1C374
330
1C372
100
AcDbEntity
  8
KERA0
100
AcDbVertex
100
AcDb3dPolylineVertex
 10
2285.199121880519
 20
1176.507030514075
 30
0.0008701890181592
 70
    48
  0
VERTEX
  5
1C375
330
1C372
100
AcDbEntity
  8
KERA0
100
AcDbVertex
100
AcDb3dPolylineVertex
 10
2282.652805013478
 20
1178.706013992748
 30
-0.001336842084071
 70
    48
  0
VERTEX
  5
1C376
330
1C372
100
AcDbEntity
  8
KERA0
100
AcDbVertex
100
AcDb3dPolylineVertex
 10
2282.14097882964
 20
1181.467116097732
 30
-0.001780469631426
 70
    48
  0
VERTEX
  5
1C377
330
1C372
100
AcDbEntity
  8
KERA0
100
AcDbVertex
100
AcDb3dPolylineVertex
 10
2288.046830991774
 20
1176.507030514075
 30
0.003338453145148
 70
    40
  0
VERTEX
  5
1C378
330
1C372
100
AcDbEntity
  8
KERA0
100
AcDbVertex
100
AcDb3dPolylineVertex
 10
2287.516840593512
 20
1176.532400226508
 30
0.002879081686699
 70
    40
  0
VERTEX
  5
1C379
330
1C372
100
AcDbEntity
  8
KERA0
100
AcDbVertex
100
AcDb3dPolylineVertex
 10
2286.99645279439
 20
1176.606910862973
 30
0.00242803332238
 70
    40
  0
VERTEX
  5
1C37A
330
1C372
100
AcDbEntity
  8
KERA0
100
AcDbVertex
100
AcDb3dPolylineVertex
 10
2286.488206312824
 20
1176.728164672223
 30
0.001987508497303
 70
    40
  0
VERTEX
  5
1C37B
330
1C372
100
AcDbEntity
  8
KERA0
100
AcDbVertex
100
AcDb3dPolylineVertex
 10
2285.51829217603
 20
1177.101310804081
 30
0.001146831245328
 70
    40
  0
VERTEX
  5
1C37C
330
1C372
100
AcDbEntity
  8
KERA0
100
AcDbVertex
100
AcDb3dPolylineVertex
 10
2284.62740793046
 20
1177.632656612092
 30
0.000374653491674
 70
    40
  0
VERTEX
  5
1C37D
330
1C372
100
AcDbEntity
  8
KERA0
100
AcDbVertex
100
AcDb3dPolylineVertex
 10
2283.835863323448
 20
1178.30302008627
 30
-0.0003114212027599
 70
    40
  0
VERTEX
  5
1C37E
330
1C372
100
AcDbEntity
  8
KERA0
100
AcDbVertex
100
AcDb3dPolylineVertex
 10
2283.163968102323
 20
1179.093219216624
 30
-0.0008937892770734
 70
    40
  0
VERTEX
  5
1C37F
330
1C372
100
AcDbEntity
  8
KERA0
100
AcDbVertex
100
AcDb3dPolylineVertex
 10
2282.63203201442
 20
1179.984071993166
 30
-0.001354847170367
 70
    40
  0
VERTEX
  5
1C380
330
1C372
100
AcDbEntity
  8
KERA0
100
AcDbVertex
100
AcDb3dPolylineVertex
 10
2282.424895441466
 20
1180.461249120636
 30
-0.00153438368635
 70
    40
  0
VERTEX
  5
1C381
330
1C372
100
AcDbEntity
  8
KERA0
100
AcDbVertex
100
AcDb3dPolylineVertex
 10
2282.260364807067
 20
1180.956396405908
 30
-0.001676991321741
 70
    40
  0
VERTEX
  5
1C382
330
1C372
100
AcDbEntity
  8
KERA0
100
AcDbVertex
100
AcDb3dPolylineVertex
 10
2282.14097882964
 20
1181.467116097732
 30
-0.001780469631426
 70
    40
  0
SEQEND
  5
1C383
330
1C372
100
AcDbEntity
  8
KERA0
  0
POLYLINE
  5
1C384
330
1E
100
AcDbEntity
  8
KERA0
100
AcDb3dPolyline
 66
     1
 10
0.0
 20
0.0
 30
0.0
 70
    12
 75
     6
  0
VERTEX
  5
1C385
330
1C384
100
AcDbEntity
  8
KERA0
100
AcDbVertex
100
AcDb3dPolylineVertex
 10
2281.941383528353
 20
1182.536735168052
 30
0.0
 70
    48
  0
VERTEX
  5
1C386
330
1C384
100
AcDbEntity
  8
KERA0
100
AcDbVertex
100
AcDb3dPolylineVertex
 10
2282.007916355185
 20
1182.18019956583
 30
0.0005934898771405
 70
    48
  0
VERTEX
  5
1C387
330
1C384
100
AcDbEntity
  8
KERA0
100
AcDbVertex
100
AcDb3dPolylineVertex
 10
2282.074449182016
 20
1181.823663963609
 30
0.001186979754281
 70
    48
  0
VERTEX
  5
1C388
330
1C384
100
AcDbEntity
  8
KERA0
100
AcDbVertex
100
AcDb3dPolylineVertex
 10
2282.140982008848
 20
1181.467128361388
 30
0.001780469631422
 70
    48
  0
VERTEX
  5
1C389
330
1C384
100
AcDbEntity
  8
KERA0
100
AcDbVertex
100
AcDb3dPolylineVertex
 10
2281.941383528353
 20
1182.536735168052
 30
0.0
 70
    40
  0
VERTEX
  5
1C38A
330
1C384
100
AcDbEntity
  8
KERA0
100
AcDbVertex
100
AcDb3dPolylineVertex
 10
2281.966333338414
 20
1182.403034317219
 30
0.0002225587039277
 70
    40
  0
VERTEX
  5
1C38B
330
1C384
100
AcDbEntity
  8
KERA0
100
AcDbVertex
100
AcDb3dPolylineVertex
 10
2281.991283148476
 20
1182.269333466386
 30
0.0004451174078554
 70
    40
  0
VERTEX
  5
1C38C
330
1C384
100
AcDbEntity
  8
KERA0
100
AcDbVertex
100
AcDb3dPolylineVertex
 10
2282.016232958538
 20
1182.135632615553
 30
0.0006676761117831
 70
    40
  0
VERTEX
  5
1C38D
330
1C384
100
AcDbEntity
  8
KERA0
100
AcDbVertex
100
AcDb3dPolylineVertex
 10
2282.041182768601
 20
1182.00193176472
 30
0.0008902348157108
 70
    40
  0
VERTEX
  5
1C38E
330
1C384
100
AcDbEntity
  8
KERA0
100
AcDbVertex
100
AcDb3dPolylineVertex
 10
2282.066132578662
 20
1181.868230913887
 30
0.001112793519638
 70
    40
  0
VERTEX
  5
1C38F
330
1C384
100
AcDbEntity
  8
KERA0
100
AcDbVertex
100
AcDb3dPolylineVertex
 10
2282.091082388724
 20
1181.734530063054
 30
0.001335352223566
 70
    40
  0
VERTEX
  5
1C390
330
1C384
100
AcDbEntity
  8
KERA0
100
AcDbVertex
100
AcDb3dPolylineVertex
 10
2282.116032198785
 20
1181.600829212221
 30
0.001557910927494
 70
    40
  0
VERTEX
  5
1C391
330
1C384
100
AcDbEntity
  8
KERA0
100
AcDbVertex
100
AcDb3dPolylineVertex
 10
2282.140982008848
 20
1181.467128361388
 30
0.001780469631422
 70
    40
  0
SEQEND
  5
1C392
330
1C384
100
AcDbEntity
  8
KERA0
  0
POLYLINE
  5
1C3C0
330
1E
100
AcDbEntity
  8
KERA0
100
AcDb3dPolyline
 66
     1
 10
0.0
 20
0.0
 30
0.0
 70
    12
 75
     6
  0
VERTEX
  5
1C3C1
330
1C3C0
100
AcDbEntity
  8
KERA0
100
AcDbVertex
100
AcDb3dPolylineVertex
 10
2312.495537212516
 20
1188.507050176362
 30
0.0
 70
    48
  0
VERTEX
  5
1C3C2
330
1C3C0
100
AcDbEntity
  8
KERA0
100
AcDbVertex
100
AcDb3dPolylineVertex
 10
2311.31675403545
 20
1188.507050176362
 30
0.0
 70
    48
  0
VERTEX
  5
1C3C3
330
1C3C0
100
AcDbEntity
  8
KERA0
100
AcDbVertex
100
AcDb3dPolylineVertex
 10
2310.137970858381
 20
1188.507050176362
 30
0.0
 70
    48
  0
VERTEX
  5
1C3C4
330
1C3C0
100
AcDbEntity
  8
KERA0
100
AcDbVertex
100
AcDb3dPolylineVertex
 10
2308.959187681315
 20
1188.507050176362
 30
0.0
 70
    48
  0
VERTEX
  5
1C3C5
330
1C3C0
100
AcDbEntity
  8
KERA0
100
AcDbVertex
100
AcDb3dPolylineVertex
 10
2312.495537212516
 20
1188.507050176362
 30
0.0
 70
    40
  0
VERTEX
  5
1C3C6
330
1C3C0
100
AcDbEntity
  8
KERA0
100
AcDbVertex
100
AcDb3dPolylineVertex
 10
2312.053493521116
 20
1188.507050176362
 30
0.0
 70
    40
  0
VERTEX
  5
1C3C7
330
1C3C0
100
AcDbEntity
  8
KERA0
100
AcDbVertex
100
AcDb3dPolylineVertex
 10
2311.611449829715
 20
1188.507050176362
 30
0.0
 70
    40
  0
VERTEX
  5
1C3C8
330
1C3C0
100
AcDbEntity
  8
KERA0
100
AcDbVertex
100
AcDb3dPolylineVertex
 10
2311.169406138315
 20
1188.507050176362
 30
0.0
 70
    40
  0
VERTEX
  5
1C3C9
330
1C3C0
100
AcDbEntity
  8
KERA0
100
AcDbVertex
100
AcDb3dPolylineVertex
 10
2310.727362446916
 20
1188.507050176362
 30
0.0
 70
    40
  0
VERTEX
  5
1C3CA
330
1C3C0
100
AcDbEntity
  8
KERA0
100
AcDbVertex
100
AcDb3dPolylineVertex
 10
2310.285318755515
 20
1188.507050176362
 30
0.0
 70
    40
  0
VERTEX
  5
1C3CB
330
1C3C0
100
AcDbEntity
  8
KERA0
100
AcDbVertex
100
AcDb3dPolylineVertex
 10
2309.843275064115
 20
1188.507050176362
 30
0.0
 70
    40
  0
VERTEX
  5
1C3CC
330
1C3C0
100
AcDbEntity
  8
KERA0
100
AcDbVertex
100
AcDb3dPolylineVertex
 10
2309.401231372715
 20
1188.507050176362
 30
0.0
 70
    40
  0
VERTEX
  5
1C3CD
330
1C3C0
100
AcDbEntity
  8
KERA0
100
AcDbVertex
100
AcDb3dPolylineVertex
 10
2308.959187681315
 20
1188.507050176362
 30
0.0
 70
    40
  0
SEQEND
  5
1C3CE
330
1C3C0
100
AcDbEntity
  8
KERA0
  0
POLYLINE
  5
1C447
330
1E
100
AcDbEntity
  8
KERA0
100
AcDb3dPolyline
 66
     1
 10
0.0
 20
0.0
 30
0.0
 70
    12
 75
     6
  0
VERTEX
  5
1C448
330
1C447
100
AcDbEntity
  8
KERA0
100
AcDbVertex
100
AcDb3dPolylineVertex
 10
2386.797004721017
 20
1188.538741170912
 30
0.0
 70
    48
  0
VERTEX
  5
1C449
330
1C447
100
AcDbEntity
  8
KERA0
100
AcDbVertex
100
AcDb3dPolylineVertex
 10
2383.23616017681
 20
1188.314297619054
 30
0.0
 70
    48
  0
VERTEX
  5
1C44A
330
1C447
100
AcDbEntity
  8
KERA0
100
AcDbVertex
100
AcDb3dPolylineVertex
 10
2380.447089584552
 20
1186.045689966208
 30
0.0
 70
    48
  0
VERTEX
  5
1C44B
330
1C447
100
AcDbEntity
  8
KERA0
100
AcDbVertex
100
AcDb3dPolylineVertex
 10
2379.549699554246
 20
1182.536732926354
 30
0.0
 70
    48
  0
VERTEX
  5
1C44C
330
1C447
100
AcDbEntity
  8
KERA0
100
AcDbVertex
100
AcDb3dPolylineVertex
 10
2386.797004721017
 20
1188.538741170912
 30
0.0
 70
    40
  0
VERTEX
  5
1C44D
330
1C447
100
AcDbEntity
  8
KERA0
100
AcDbVertex
100
AcDb3dPolylineVertex
 10
2385.500052238535
 20
1188.360324597345
 30
0.0
 70
    40
  0
VERTEX
  5
1C44E
330
1C447
100
AcDbEntity
  8
KERA0
100
AcDbVertex
100
AcDb3dPolylineVertex
 10
2384.288577469634
 20
1187.999687342989
 30
0.0
 70
    40
  0
VERTEX
  5
1C44F
330
1C447
100
AcDbEntity
  8
KERA0
100
AcDbVertex
100
AcDb3dPolylineVertex
 10
2383.1757043199
 20
1187.466249111525
 30
0.0
 70
    40
  0
VERTEX
  5
1C450
330
1C447
100
AcDbEntity
  8
KERA0
100
AcDbVertex
100
AcDb3dPolylineVertex
 10
2382.174556694919
 20
1186.769429606632
 30
0.0
 70
    40
  0
VERTEX
  5
1C451
330
1C447
100
AcDbEntity
  8
KERA0
100
AcDbVertex
100
AcDb3dPolylineVertex
 10
2381.298258500276
 20
1185.918648531988
 30
0.0
 70
    40
  0
VERTEX
  5
1C452
330
1C447
100
AcDbEntity
  8
KERA0
100
AcDbVertex
100
AcDb3dPolylineVertex
 10
2380.55993364156
 20
1184.923325591275
 30
0.0
 70
    40
  0
VERTEX
  5
1C453
330
1C447
100
AcDbEntity
  8
KERA0
100
AcDbVertex
100
AcDb3dPolylineVertex
 10
2379.972706024355
 20
1183.79288048817
 30
0.0
 70
    40
  0
VERTEX
  5
1C454
330
1C447
100
AcDbEntity
  8
KERA0
100
AcDbVertex
100
AcDb3dPolylineVertex
 10
2379.549699554246
 20
1182.536732926354
 30
0.0
 70
    40
  0
SEQEND
  5
1C455
330
1C447
100
AcDbEntity
  8
KERA0
  0
POLYLINE
  5
1C456
330
1E
100
AcDbEntity
  8
KERA0
100
AcDb3dPolyline
 66
     1
 10
0.0
 20
0.0
 30
0.0
 70
    12
 75
     6
  0
VERTEX
  5
1C457
330
1C456
100
AcDbEntity
  8
KERA0
100
AcDbVertex
100
AcDb3dPolylineVertex
 10
2379.54969089668
 20
1182.536735168052
 30
0.0
 70
    48
  0
VERTEX
  5
1C458
330
1C456
100
AcDbEntity
  8
KERA0
100
AcDbVertex
100
AcDb3dPolylineVertex
 10
2379.483158069848
 20
1182.18019956583
 30
0.0005934898771405
 70
    48
  0
VERTEX
  5
1C459
330
1C456
100
AcDbEntity
  8
KERA0
100
AcDbVertex
100
AcDb3dPolylineVertex
 10
2379.416625243016
 20
1181.823663963609
 30
0.001186979754281
 70
    48
  0
VERTEX
  5
1C45A
330
1C456
100
AcDbEntity
  8
KERA0
100
AcDbVertex
100
AcDb3dPolylineVertex
 10
2379.350092416185
 20
1181.467128361388
 30
0.001780469631422
 70
    48
  0
VERTEX
  5
1C45B
330
1C456
100
AcDbEntity
  8
KERA0
100
AcDbVertex
100
AcDb3dPolylineVertex
 10
2379.54969089668
 20
1182.536735168052
 30
0.0
 70
    40
  0
VERTEX
  5
1C45C
330
1C456
100
AcDbEntity
  8
KERA0
100
AcDbVertex
100
AcDb3dPolylineVertex
 10
2379.524741086618
 20
1182.403034317219
 30
0.0002225587039277
 70
    40
  0
VERTEX
  5
1C45D
330
1C456
100
AcDbEntity
  8
KERA0
100
AcDbVertex
100
AcDb3dPolylineVertex
 10
2379.499791276556
 20
1182.269333466386
 30
0.0004451174078554
 70
    40
  0
VERTEX
  5
1C45E
330
1C456
100
AcDbEntity
  8
KERA0
100
AcDbVertex
100
AcDb3dPolylineVertex
 10
2379.474841466494
 20
1182.135632615553
 30
0.0006676761117831
 70
    40
  0
VERTEX
  5
1C45F
330
1C456
100
AcDbEntity
  8
KERA0
100
AcDbVertex
100
AcDb3dPolylineVertex
 10
2379.449891656432
 20
1182.00193176472
 30
0.0008902348157108
 70
    40
  0
VERTEX
  5
1C460
330
1C456
100
AcDbEntity
  8
KERA0
100
AcDbVertex
100
AcDb3dPolylineVertex
 10
2379.424941846371
 20
1181.868230913887
 30
0.001112793519638
 70
    40
  0
VERTEX
  5
1C461
330
1C456
100
AcDbEntity
  8
KERA0
100
AcDbVertex
100
AcDb3dPolylineVertex
 10
2379.399992036308
 20
1181.734530063054
 30
0.001335352223566
 70
    40
  0
VERTEX
  5
1C462
330
1C456
100
AcDbEntity
  8
KERA0
100
AcDbVertex
100
AcDb3dPolylineVertex
 10
2379.375042226246
 20
1181.600829212221
 30
0.001557910927494
 70
    40
  0
VERTEX
  5
1C463
330
1C456
100
AcDbEntity
  8
KERA0
100
AcDbVertex
100
AcDb3dPolylineVertex
 10
2379.350092416185
 20
1181.467128361388
 30
0.001780469631422
 70
    40
  0
SEQEND
  5
1C464
330
1C456
100
AcDbEntity
  8
KERA0
  0
POLYLINE
  5
1C465
330
1E
100
AcDbEntity
  8
KERA0
100
AcDb3dPolyline
 66
     1
 10
0.0
 20
0.0
 30
0.0
 70
    12
 75
     6
  0
VERTEX
  5
1C466
330
1C465
100
AcDbEntity
  8
KERA0
100
AcDbVertex
100
AcDb3dPolylineVertex
 10
2373.444243433259
 20
1176.507030514075
 30
-0.003338453145218
 70
    48
  0
VERTEX
  5
1C467
330
1C465
100
AcDbEntity
  8
KERA0
100
AcDbVertex
100
AcDb3dPolylineVertex
 10
2376.291952544512
 20
1176.507030514075
 30
-0.0008701890182286
 70
    48
  0
VERTEX
  5
1C468
330
1C465
100
AcDbEntity
  8
KERA0
100
AcDbVertex
100
AcDb3dPolylineVertex
 10
2378.838269411554
 20
1178.706013992748
 30
0.001336842084002
 70
    48
  0
VERTEX
  5
1C469
330
1C465
100
AcDbEntity
  8
KERA0
100
AcDbVertex
100
AcDb3dPolylineVertex
 10
2379.350095595392
 20
1181.467116097732
 30
0.001780469631357
 70
    48
  0
VERTEX
  5
1C46A
330
1C465
100
AcDbEntity
  8
KERA0
100
AcDbVertex
100
AcDb3dPolylineVertex
 10
2373.444243433259
 20
1176.507030514075
 30
-0.003338453145218
 70
    40
  0
VERTEX
  5
1C46B
330
1C465
100
AcDbEntity
  8
KERA0
100
AcDbVertex
100
AcDb3dPolylineVertex
 10
2373.974233831521
 20
1176.532400226508
 30
-0.002879081686768
 70
    40
  0
VERTEX
  5
1C46C
330
1C465
100
AcDbEntity
  8
KERA0
100
AcDbVertex
100
AcDb3dPolylineVertex
 10
2374.494621630643
 20
1176.606910862973
 30
-0.002428033322449
 70
    40
  0
VERTEX
  5
1C46D
330
1C465
100
AcDbEntity
  8
KERA0
100
AcDbVertex
100
AcDb3dPolylineVertex
 10
2375.002868112209
 20
1176.728164672223
 30
-0.001987508497373
 70
    40
  0
VERTEX
  5
1C46E
330
1C465
100
AcDbEntity
  8
KERA0
100
AcDbVertex
100
AcDb3dPolylineVertex
 10
2375.972782249002
 20
1177.101310804081
 30
-0.001146831245398
 70
    40
  0
VERTEX
  5
1C46F
330
1C465
100
AcDbEntity
  8
KERA0
100
AcDbVertex
100
AcDb3dPolylineVertex
 10
2376.863666494573
 20
1177.632656612093
 30
-0.0003746534917433
 70
    40
  0
VERTEX
  5
1C470
330
1C465
100
AcDbEntity
  8
KERA0
100
AcDbVertex
100
AcDb3dPolylineVertex
 10
2377.655211101585
 20
1178.30302008627
 30
0.0003114212026905
 70
    40
  0
VERTEX
  5
1C471
330
1C465
100
AcDbEntity
  8
KERA0
100
AcDbVertex
100
AcDb3dPolylineVertex
 10
2378.327106322709
 20
1179.093219216624
 30
0.0008937892770041
 70
    40
  0
VERTEX
  5
1C472
330
1C465
100
AcDbEntity
  8
KERA0
100
AcDbVertex
100
AcDb3dPolylineVertex
 10
2378.859042410613
 20
1179.984071993166
 30
0.001354847170298
 70
    40
  0
VERTEX
  5
1C473
330
1C465
100
AcDbEntity
  8
KERA0
100
AcDbVertex
100
AcDb3dPolylineVertex
 10
2379.066178983566
 20
1180.461249120636
 30
0.001534383686281
 70
    40
  0
VERTEX
  5
1C474
330
1C465
100
AcDbEntity
  8
KERA0
100
AcDbVertex
100
AcDb3dPolylineVertex
 10
2379.230709617965
 20
1180.956396405908
 30
0.001676991321671
 70
    40
  0
VERTEX
  5
1C475
330
1C465
100
AcDbEntity
  8
KERA0
100
AcDbVertex
100
AcDb3dPolylineVertex
 10
2379.350095595392
 20
1181.467116097732
 30
0.001780469631357
 70
    40
  0
SEQEND
  5
1C476
330
1C465
100
AcDbEntity
  8
KERA0
  0
POLYLINE
  5
1C477
330
1E
100
AcDbEntity
  8
KERA0
100
AcDb3dPolyline
 66
     1
 10
0.0
 20
0.0
 30
0.0
 70
    12
 75
     6
  0
VERTEX
  5
1C478
330
1C477
100
AcDbEntity
  8
KERA0
100
AcDbVertex
100
AcDb3dPolylineVertex
 10
2371.401708305386
 20
1200.164600793831
 30
0.0
 70
    48
  0
VERTEX
  5
1C479
330
1C477
100
AcDbEntity
  8
KERA0
100
AcDbVertex
100
AcDb3dPolylineVertex
 10
2371.43046817373
 20
1200.167071428326
 30
0.0000000000065069
 70
    48
  0
VERTEX
  5
1C47A
330
1C477
100
AcDbEntity
  8
KERA0
100
AcDbVertex
100
AcDb3dPolylineVertex
 10
2371.459236997148
 20
1200.169437819558
 30
-0.0000000000385282
 70
    48
  0
VERTEX
  5
1C47B
330
1C477
100
AcDbEntity
  8
KERA0
100
AcDbVertex
100
AcDb3dPolylineVertex
 10
2371.488014019749
 20
1200.171699905353
 30
-0.0000000000874356
 70
    48
  0
VERTEX
  5
1C47C
330
1C477
100
AcDbEntity
  8
KERA0
100
AcDbVertex
100
AcDb3dPolylineVertex
 10
2371.401708305386
 20
1200.164600793831
 30
0.0
 70
    40
  0
VERTEX
  5
1C47D
330
1C477
100
AcDbEntity
  8
KERA0
100
AcDbVertex
100
AcDb3dPolylineVertex
 10
2371.412493674308
 20
1200.165522395242
 30
0.0000000000001172
 70
    40
  0
VERTEX
  5
1C47E
330
1C477
100
AcDbEntity
  8
KERA0
100
AcDbVertex
100
AcDb3dPolylineVertex
 10
2371.42327987391
 20
1200.166434223119
 30
-0.0000000000040391
 70
    40
  0
VERTEX
  5
1C47F
330
1C477
100
AcDbEntity
  8
KERA0
100
AcDbVertex
100
AcDb3dPolylineVertex
 10
2371.434066895333
 20
1200.167336276733
 30
-0.0000000000119102
 70
    40
  0
VERTEX
  5
1C480
330
1C477
100
AcDbEntity
  8
KERA0
100
AcDbVertex
100
AcDb3dPolylineVertex
 10
2371.444854729721
 20
1200.168228555355
 30
-0.0000000000229374
 70
    40
  0
VERTEX
  5
1C481
330
1C477
100
AcDbEntity
  8
KERA0
100
AcDbVertex
100
AcDb3dPolylineVertex
 10
2371.455643368214
 20
1200.169111058256
 30
-0.0000000000365622
 70
    40
  0
VERTEX
  5
1C482
330
1C477
100
AcDbEntity
  8
KERA0
100
AcDbVertex
100
AcDb3dPolylineVertex
 10
2371.466432801956
 20
1200.169983784709
 30
-0.000000000052226
 70
    40
  0
VERTEX
  5
1C483
330
1C477
100
AcDbEntity
  8
KERA0
100
AcDbVertex
100
AcDb3dPolylineVertex
 10
2371.477223022087
 20
1200.170846733984
 30
-0.00000000006937
 70
    40
  0
VERTEX
  5
1C484
330
1C477
100
AcDbEntity
  8
KERA0
100
AcDbVertex
100
AcDb3dPolylineVertex
 10
2371.488014019749
 20
1200.171699905353
 30
-0.0000000000874356
 70
    40
  0
SEQEND
  5
1C485
330
1C477
100
AcDbEntity
  8
KERA0
  0
ARC
  5
1C486
330
1E
100
AcDbEntity
  8
KERA0
100
AcDbCircle
 10
2501.058927962081
 20
1213.563644739264
 30
0.0
 40
22.0
100
AcDbArc
 50
271.4999999999896
 51
354.2894063891192
  0
POLYLINE
  5
1C488
330
1E
100
AcDbEntity
  8
KERA0
100
AcDb3dPolyline
 66
     1
 10
0.0
 20
0.0
 30
0.0
 70
    12
 75
     6
  0
VERTEX
  5
1C489
330
1C488
100
AcDbEntity
  8
KERA0
100
AcDbVertex
100
AcDb3dPolylineVertex
 10
2544.445534749728
 20
1306.930948530309
 30
0.0
 70
    48
  0
VERTEX
  5
1C48A
330
1C488
100
AcDbEntity
  8
KERA0
100
AcDbVertex
100
AcDb3dPolylineVertex
 10
2473.212202237323
 20
1306.930948530309
 30
0.0
 70
    48
  0
VERTEX
  5
1C48B
330
1C488
100
AcDbEntity
  8
KERA0
100
AcDbVertex
100
AcDb3dPolylineVertex
 10
2401.978869724921
 20
1306.930948530309
 30
0.0
 70
    48
  0
VERTEX
  5
1C48C
330
1C488
100
AcDbEntity
  8
KERA0
100
AcDbVertex
100
AcDb3dPolylineVertex
 10
2330.745537212516
 20
1306.930948530309
 30
0.0
 70
    48
  0
VERTEX
  5
1C48D
330
1C488
100
AcDbEntity
  8
KERA0
100
AcDbVertex
100
AcDb3dPolylineVertex
 10
2544.445534749728
 20
1306.930948530309
 30
0.0
 70
    40
  0
VERTEX
  5
1C48E
330
1C488
100
AcDbEntity
  8
KERA0
100
AcDbVertex
100
AcDb3dPolylineVertex
 10
2517.733035057577
 20
1306.930948530309
 30
0.0
 70
    40
  0
VERTEX
  5
1C48F
330
1C488
100
AcDbEntity
  8
KERA0
100
AcDbVertex
100
AcDb3dPolylineVertex
 10
2491.020535365425
 20
1306.930948530309
 30
0.0
 70
    40
  0
VERTEX
  5
1C490
330
1C488
100
AcDbEntity
  8
KERA0
100
AcDbVertex
100
AcDb3dPolylineVertex
 10
2464.308035673274
 20
1306.930948530309
 30
0.0
 70
    40
  0
VERTEX
  5
1C491
330
1C488
100
AcDbEntity
  8
KERA0
100
AcDbVertex
100
AcDb3dPolylineVertex
 10
2437.595535981122
 20
1306.930948530309
 30
0.0
 70
    40
  0
VERTEX
  5
1C492
330
1C488
100
AcDbEntity
  8
KERA0
100
AcDbVertex
100
AcDb3dPolylineVertex
 10
2410.883036288971
 20
1306.930948530309
 30
0.0
 70
    40
  0
VERTEX
  5
1C493
330
1C488
100
AcDbEntity
  8
KERA0
100
AcDbVertex
100
AcDb3dPolylineVertex
 10
2384.17053659682
 20
1306.930948530309
 30
0.0
 70
    40
  0
VERTEX
  5
1C494
330
1C488
100
AcDbEntity
  8
KERA0
100
AcDbVertex
100
AcDb3dPolylineVertex
 10
2357.458036904668
 20
1306.930948530309
 30
0.0
 70
    40
  0
VERTEX
  5
1C495
330
1C488
100
AcDbEntity
  8
KERA0
100
AcDbVertex
100
AcDb3dPolylineVertex
 10
2330.745537212516
 20
1306.930948530309
 30
0.0
 70
    40
  0
SEQEND
  5
1C496
330
1C488
100
AcDbEntity
  8
KERA0
  0
POLYLINE
  5
1C497
330
1E
100
AcDbEntity
  8
KERA0
100
AcDb3dPolyline
 66
     1
 10
0.0
 20
0.0
 30
0.0
 70
    12
 75
     6
  0
VERTEX
  5
1C498
330
1C497
100
AcDbEntity
  8
KERA0
100
AcDbVertex
100
AcDb3dPolylineVertex
 10
2544.445534749728
 20
1297.930948530309
 30
0.0
 70
    48
  0
VERTEX
  5
1C499
330
1C497
100
AcDbEntity
  8
KERA0
100
AcDbVertex
100
AcDb3dPolylineVertex
 10
2544.445534749728
 20
1300.930948530309
 30
0.0
 70
    48
  0
VERTEX
  5
1C49A
330
1C497
100
AcDbEntity
  8
KERA0
100
AcDbVertex
100
AcDb3dPolylineVertex
 10
2544.445534749728
 20
1303.930948530309
 30
0.0
 70
    48
  0
VERTEX
  5
1C49B
330
1C497
100
AcDbEntity
  8
KERA0
100
AcDbVertex
100
AcDb3dPolylineVertex
 10
2544.445534749728
 20
1306.930948530309
 30
0.0
 70
    48
  0
VERTEX
  5
1C49C
330
1C497
100
AcDbEntity
  8
KERA0
100
AcDbVertex
100
AcDb3dPolylineVertex
 10
2544.445534749728
 20
1297.930948530309
 30
0.0
 70
    40
  0
VERTEX
  5
1C49D
330
1C497
100
AcDbEntity
  8
KERA0
100
AcDbVertex
100
AcDb3dPolylineVertex
 10
2544.445534749728
 20
1299.055948530309
 30
0.0
 70
    40
  0
VERTEX
  5
1C49E
330
1C497
100
AcDbEntity
  8
KERA0
100
AcDbVertex
100
AcDb3dPolylineVertex
 10
2544.445534749728
 20
1300.180948530309
 30
0.0
 70
    40
  0
VERTEX
  5
1C49F
330
1C497
100
AcDbEntity
  8
KERA0
100
AcDbVertex
100
AcDb3dPolylineVertex
 10
2544.445534749728
 20
1301.305948530309
 30
0.0
 70
    40
  0
VERTEX
  5
1C4A0
330
1C497
100
AcDbEntity
  8
KERA0
100
AcDbVertex
100
AcDb3dPolylineVertex
 10
2544.445534749728
 20
1302.430948530309
 30
0.0
 70
    40
  0
VERTEX
  5
1C4A1
330
1C497
100
AcDbEntity
  8
KERA0
100
AcDbVertex
100
AcDb3dPolylineVertex
 10
2544.445534749728
 20
1303.555948530309
 30
0.0
 70
    40
  0
VERTEX
  5
1C4A2
330
1C497
100
AcDbEntity
  8
KERA0
100
AcDbVertex
100
AcDb3dPolylineVertex
 10
2544.445534749728
 20
1304.680948530309
 30
0.0
 70
    40
  0
VERTEX
  5
1C4A3
330
1C497
100
AcDbEntity
  8
KERA0
100
AcDbVertex
100
AcDb3dPolylineVertex
 10
2544.445534749728
 20
1305.805948530309
 30
0.0
 70
    40
  0
VERTEX
  5
1C4A4
330
1C497
100
AcDbEntity
  8
KERA0
100
AcDbVertex
100
AcDb3dPolylineVertex
 10
2544.445534749728
 20
1306.930948530309
 30
0.0
 70
    40
  0
SEQEND
  5
1C4A5
330
1C497
100
AcDbEntity
  8
KERA0
  0
POLYLINE
  5
1C4A6
330
1E
100
AcDbEntity
  8
KERA0
100
AcDb3dPolyline
 66
     1
 10
0.0
 20
0.0
 30
0.0
 70
    12
 75
     6
  0
VERTEX
  5
1C4A7
330
1C4A6
100
AcDbEntity
  8
KERA0
100
AcDbVertex
100
AcDb3dPolylineVertex
 10
2544.445534749728
 20
1297.930948530309
 30
0.0
 70
    48
  0
VERTEX
  5
1C4A8
330
1C4A6
100
AcDbEntity
  8
KERA0
100
AcDbVertex
100
AcDb3dPolylineVertex
 10
2541.673797567459
 20
1297.930948530309
 30
0.0
 70
    48
  0
VERTEX
  5
1C4A9
330
1C4A6
100
AcDbEntity
  8
KERA0
100
AcDbVertex
100
AcDb3dPolylineVertex
 10
2538.902060385192
 20
1297.930948530309
 30
0.0
 70
    48
  0
VERTEX
  5
1C4AA
330
1C4A6
100
AcDbEntity
  8
KERA0
100
AcDbVertex
100
AcDb3dPolylineVertex
 10
2536.130323202923
 20
1297.930948530309
 30
0.0
 70
    48
  0
VERTEX
  5
1C4AB
330
1C4A6
100
AcDbEntity
  8
KERA0
100
AcDbVertex
100
AcDb3dPolylineVertex
 10
2544.445534749728
 20
1297.930948530309
 30
0.0
 70
    40
  0
VERTEX
  5
1C4AC
330
1C4A6
100
AcDbEntity
  8
KERA0
100
AcDbVertex
100
AcDb3dPolylineVertex
 10
2543.406133306377
 20
1297.930948530309
 30
0.0
 70
    40
  0
VERTEX
  5
1C4AD
330
1C4A6
100
AcDbEntity
  8
KERA0
100
AcDbVertex
100
AcDb3dPolylineVertex
 10
2542.366731863026
 20
1297.930948530309
 30
0.0
 70
    40
  0
VERTEX
  5
1C4AE
330
1C4A6
100
AcDbEntity
  8
KERA0
100
AcDbVertex
100
AcDb3dPolylineVertex
 10
2541.327330419676
 20
1297.930948530309
 30
0.0
 70
    40
  0
VERTEX
  5
1C4AF
330
1C4A6
100
AcDbEntity
  8
KERA0
100
AcDbVertex
100
AcDb3dPolylineVertex
 10
2540.287928976326
 20
1297.930948530309
 30
0.0
 70
    40
  0
VERTEX
  5
1C4B0
330
1C4A6
100
AcDbEntity
  8
KERA0
100
AcDbVertex
100
AcDb3dPolylineVertex
 10
2539.248527532976
 20
1297.930948530309
 30
0.0
 70
    40
  0
VERTEX
  5
1C4B1
330
1C4A6
100
AcDbEntity
  8
KERA0
100
AcDbVertex
100
AcDb3dPolylineVertex
 10
2538.209126089625
 20
1297.930948530309
 30
0.0
 70
    40
  0
VERTEX
  5
1C4B2
330
1C4A6
100
AcDbEntity
  8
KERA0
100
AcDbVertex
100
AcDb3dPolylineVertex
 10
2537.169724646275
 20
1297.930948530309
 30
0.0
 70
    40
  0
VERTEX
  5
1C4B3
330
1C4A6
100
AcDbEntity
  8
KERA0
100
AcDbVertex
100
AcDb3dPolylineVertex
 10
2536.130323202923
 20
1297.930948530309
 30
0.0
 70
    40
  0
SEQEND
  5
1C4B4
330
1C4A6
100
AcDbEntity
  8
KERA0
  0
ARC
  5
1C4B5
330
1E
100
AcDbEntity
  8
KERA0
100
AcDbCircle
 10
2536.130323202923
 20
1292.930948530309
 30
0.0
 40
5.0
100
AcDbArc
 50
90.0
 51
174.2894063891192
  0
POLYLINE
  5
1C55C
330
1E
100
AcDbEntity
  8
0
100
AcDb3dPolyline
 66
     1
 10
0.0
 20
0.0
 30
0.0
 70
    12
 75
     6
  0
VERTEX
  5
1C55D
330
1C55C
100
AcDbEntity
  8
0
100
AcDbVertex
100
AcDb3dPolylineVertex
 10
2598.745538635254
 20
1344.930943761951
 30
0.0
 70
    48
  0
VERTEX
  5
1C55E
330
1C55C
100
AcDbEntity
  8
0
100
AcDbVertex
100
AcDb3dPolylineVertex
 10
2598.745797919858
 20
1344.930943761951
 30
0.0
 70
    48
  0
VERTEX
  5
1C55F
330
1C55C
100
AcDbEntity
  8
0
100
AcDbVertex
100
AcDb3dPolylineVertex
 10
2598.746057204463
 20
1344.930943761146
 30
0.0
 70
    48
  0
VERTEX
  5
1C560
330
1C55C
100
AcDbEntity
  8
0
100
AcDbVertex
100
AcDb3dPolylineVertex
 10
2598.746316489068
 20
1344.930943759537
 30
0.0
 70
    48
  0
VERTEX
  5
1C561
330
1C55C
100
AcDbEntity
  8
0
100
AcDbVertex
100
AcDb3dPolylineVertex
 10
2598.745538635254
 20
1344.930943761951
 30
0.0
 70
    40
  0
VERTEX
  5
1C562
330
1C55C
100
AcDbEntity
  8
0
100
AcDbVertex
100
AcDb3dPolylineVertex
 10
2598.745635866979
 20
1344.930943761913
 30
0.0
 70
    40
  0
VERTEX
  5
1C563
330
1C55C
100
AcDbEntity
  8
0
100
AcDbVertex
100
AcDb3dPolylineVertex
 10
2598.745733098707
 20
1344.9309437618
 30
0.0
 70
    40
  0
VERTEX
  5
1C564
330
1C55C
100
AcDbEntity
  8
0
100
AcDbVertex
100
AcDb3dPolylineVertex
 10
2598.745830330434
 20
1344.930943761612
 30
0.0
 70
    40
  0
VERTEX
  5
1C565
330
1C55C
100
AcDbEntity
  8
0
100
AcDbVertex
100
AcDb3dPolylineVertex
 10
2598.745927562161
 20
1344.930943761348
 30
0.0
 70
    40
  0
VERTEX
  5
1C566
330
1C55C
100
AcDbEntity
  8
0
100
AcDbVertex
100
AcDb3dPolylineVertex
 10
2598.746024793888
 20
1344.930943761008
 30
0.0
 70
    40
  0
VERTEX
  5
1C567
330
1C55C
100
AcDbEntity
  8
0
100
AcDbVertex
100
AcDb3dPolylineVertex
 10
2598.746122025613
 20
1344.930943760593
 30
0.0
 70
    40
  0
VERTEX
  5
1C568
330
1C55C
100
AcDbEntity
  8
0
100
AcDbVertex
100
AcDb3dPolylineVertex
 10
2598.74621925734
 20
1344.930943760103
 30
0.0
 70
    40
  0
VERTEX
  5
1C569
330
1C55C
100
AcDbEntity
  8
0
100
AcDbVertex
100
AcDb3dPolylineVertex
 10
2598.746316489068
 20
1344.930943759537
 30
0.0
 70
    40
  0
SEQEND
  5
1C56A
330
1C55C
100
AcDbEntity
  8
0
  0
POLYLINE
  5
1C674
330
1E
100
AcDbEntity
  8
KERA0
100
AcDb3dPolyline
 66
     1
 10
0.0
 20
0.0
 30
0.0
 70
    13
 75
     6
  0
VERTEX
  5
1C675
330
1C674
100
AcDbEntity
  8
KERA0
100
AcDbVertex
100
AcDb3dPolylineVertex
 10
2498.249612388847
 20
315.7413400354844
 30
0.0
 70
    48
  0
VERTEX
  5
1C676
330
1C674
100
AcDbEntity
  8
KERA0
100
AcDbVertex
100
AcDb3dPolylineVertex
 10
2567.632072079645
 20
483.245415211815
 30
0.0
 70
    48
  0
VERTEX
  5
1C677
330
1C674
100
AcDbEntity
  8
KERA0
100
AcDbVertex
100
AcDb3dPolylineVertex
 10
2498.249612388847
 20
650.7494903881454
 30
0.0
 70
    48
  0
VERTEX
  5
1C678
330
1C674
100
AcDbEntity
  8
KERA0
100
AcDbVertex
100
AcDb3dPolylineVertex
 10
2330.745537212517
 20
720.1319500789434
 30
0.0
 70
    48
  0
VERTEX
  5
1C679
330
1C674
100
AcDbEntity
  8
KERA0
100
AcDbVertex
100
AcDb3dPolylineVertex
 10
2163.241462036187
 20
650.7494903881454
 30
0.0
 70
    48
  0
VERTEX
  5
1C67A
330
1C674
100
AcDbEntity
  8
KERA0
100
AcDbVertex
100
AcDb3dPolylineVertex
 10
2093.859002345388
 20
483.245415211815
 30
0.0
 70
    48
  0
VERTEX
  5
1C67B
330
1C674
100
AcDbEntity
  8
KERA0
100
AcDbVertex
100
AcDb3dPolylineVertex
 10
2163.241462036187
 20
315.7413400354854
 30
0.0
 70
    48
  0
VERTEX
  5
1C67C
330
1C674
100
AcDbEntity
  8
KERA0
100
AcDbVertex
100
AcDb3dPolylineVertex
 10
2330.745537212517
 20
246.3588803446864
 30
0.0
 70
    48
  0
VERTEX
  5
1C67D
330
1C674
100
AcDbEntity
  8
KERA0
100
AcDbVertex
100
AcDb3dPolylineVertex
 10
2544.504585516046
 20
483.245415211815
 30
0.0
 70
    40
  0
VERTEX
  5
1C67E
330
1C674
100
AcDbEntity
  8
KERA0
100
AcDbVertex
100
AcDb3dPolylineVertex
 10
2542.11001048481
 20
514.5446296809893
 30
0.0
 70
    40
  0
VERTEX
  5
1C67F
330
1C674
100
AcDbEntity
  8
KERA0
100
AcDbVertex
100
AcDb3dPolylineVertex
 10
2535.104893660176
 20
545.1970463918354
 30
0.0
 70
    40
  0
VERTEX
  5
1C680
330
1C674
100
AcDbEntity
  8
KERA0
100
AcDbVertex
100
AcDb3dPolylineVertex
 10
2523.757147445757
 20
574.5558675860273
 30
0.0
 70
    40
  0
VERTEX
  5
1C681
330
1C674
100
AcDbEntity
  8
KERA0
100
AcDbVertex
100
AcDb3dPolylineVertex
 10
2508.334684245164
 20
601.9742955052365
 30
0.0
 70
    40
  0
VERTEX
  5
1C682
330
1C674
100
AcDbEntity
  8
KERA0
100
AcDbVertex
100
AcDb3dPolylineVertex
 10
2489.105416462008
 20
626.8055323911353
 30
0.0
 70
    40
  0
VERTEX
  5
1C683
330
1C674
100
AcDbEntity
  8
KERA0
100
AcDbVertex
100
AcDb3dPolylineVertex
 10
2466.35596688779
 20
648.4214908732844
 30
0.0
 70
    40
  0
VERTEX
  5
1C684
330
1C674
100
AcDbEntity
  8
KERA0
100
AcDbVertex
100
AcDb3dPolylineVertex
 10
2440.590466573195
 20
666.4115918404315
 30
0.0
 70
    40
  0
VERTEX
  5
1C685
330
1C674
100
AcDbEntity
  8
KERA0
100
AcDbVertex
100
AcDb3dPolylineVertex
 10
2412.453374478067
 20
680.5055840904794
 30
0.0
 70
    40
  0
VERTEX
  5
1C686
330
1C674
100
AcDbEntity
  8
KERA0
100
AcDbVertex
100
AcDb3dPolylineVertex
 10
2382.591488360731
 20
690.4355552198153
 30
0.0
 70
    40
  0
VERTEX
  5
1C687
330
1C674
100
AcDbEntity
  8
KERA0
100
AcDbVertex
100
AcDb3dPolylineVertex
 10
2351.651605979517
 20
695.9335928248293
 30
0.0
 70
    40
  0
VERTEX
  5
1C688
330
1C674
100
AcDbEntity
  8
KERA0
100
AcDbVertex
100
AcDb3dPolylineVertex
 10
2320.280525092751
 20
696.7350920624463
 30
0.0
 70
    40
  0
VERTEX
  5
1C689
330
1C674
100
AcDbEntity
  8
KERA0
100
AcDbVertex
100
AcDb3dPolylineVertex
 10
2289.125043458761
 20
692.7739017218985
 30
0.0
 70
    40
  0
VERTEX
  5
1C68A
330
1C674
100
AcDbEntity
  8
KERA0
100
AcDbVertex
100
AcDb3dPolylineVertex
 10
2258.831958835874
 20
684.2914737224904
 30
0.0
 70
    40
  0
VERTEX
  5
1C68B
330
1C674
100
AcDbEntity
  8
KERA0
100
AcDbVertex
100
AcDb3dPolylineVertex
 10
2230.048068982418
 20
671.5557204678344
 30
0.0
 70
    40
  0
VERTEX
  5
1C68C
330
1C674
100
AcDbEntity
  8
KERA0
100
AcDbVertex
100
AcDb3dPolylineVertex
 10
2203.420171656721
 20
654.8345543615414
 30
0.0
 70
    40
  0
VERTEX
  5
1C68D
330
1C674
100
AcDbEntity
  8
KERA0
100
AcDbVertex
100
AcDb3dPolylineVertex
 10
2179.595064617108
 20
634.3958878072234
 30
0.0
 70
    40
  0
VERTEX
  5
1C68E
330
1C674
100
AcDbEntity
  8
KERA0
100
AcDbVertex
100
AcDb3dPolylineVertex
 10
2159.15639806279
 20
610.5707807676114
 30
0.0
 70
    40
  0
VERTEX
  5
1C68F
330
1C674
100
AcDbEntity
  8
KERA0
100
AcDbVertex
100
AcDb3dPolylineVertex
 10
2142.435231956497
 20
583.9428834419134
 30
0.0
 70
    40
  0
VERTEX
  5
1C690
330
1C674
100
AcDbEntity
  8
KERA0
100
AcDbVertex
100
AcDb3dPolylineVertex
 10
2129.699478701841
 20
555.1589935884574
 30
0.0
 70
    40
  0
VERTEX
  5
1C691
330
1C674
100
AcDbEntity
  8
KERA0
100
AcDbVertex
100
AcDb3dPolylineVertex
 10
2121.217050702433
 20
524.8659089655704
 30
0.0
 70
    40
  0
VERTEX
  5
1C692
330
1C674
100
AcDbEntity
  8
KERA0
100
AcDbVertex
100
AcDb3dPolylineVertex
 10
2117.255860361886
 20
493.7104273315803
 30
0.0
 70
    40
  0
VERTEX
  5
1C693
330
1C674
100
AcDbEntity
  8
KERA0
100
AcDbVertex
100
AcDb3dPolylineVertex
 10
2118.057359599503
 20
462.3393464448144
 30
0.0
 70
    40
  0
VERTEX
  5
1C694
330
1C674
100
AcDbEntity
  8
KERA0
100
AcDbVertex
100
AcDb3dPolylineVertex
 10
2123.555397204516
 20
431.3994640636003
 30
0.0
 70
    40
  0
VERTEX
  5
1C695
330
1C674
100
AcDbEntity
  8
KERA0
100
AcDbVertex
100
AcDb3dPolylineVertex
 10
2133.485368333853
 20
401.5375779462654
 30
0.0
 70
    40
  0
VERTEX
  5
1C696
330
1C674
100
AcDbEntity
  8
KERA0
100
AcDbVertex
100
AcDb3dPolylineVertex
 10
2147.5793605839
 20
373.4004858511364
 30
0.0
 70
    40
  0
VERTEX
  5
1C697
330
1C674
100
AcDbEntity
  8
KERA0
100
AcDbVertex
100
AcDb3dPolylineVertex
 10
2165.569461551047
 20
347.6349855365424
 30
0.0
 70
    40
  0
VERTEX
  5
1C698
330
1C674
100
AcDbEntity
  8
KERA0
100
AcDbVertex
100
AcDb3dPolylineVertex
 10
2187.185420033196
 20
324.8855359623234
 30
0.0
 70
    40
  0
VERTEX
  5
1C699
330
1C674
100
AcDbEntity
  8
KERA0
100
AcDbVertex
100
AcDb3dPolylineVertex
 10
2212.016656919096
 20
305.6562681791683
 30
0.0
 70
    40
  0
VERTEX
  5
1C69A
330
1C674
100
AcDbEntity
  8
KERA0
100
AcDbVertex
100
AcDb3dPolylineVertex
 10
2239.435084838305
 20
290.2338049785744
 30
0.0
 70
    40
  0
VERTEX
  5
1C69B
330
1C674
100
AcDbEntity
  8
KERA0
100
AcDbVertex
100
AcDb3dPolylineVertex
 10
2268.793906032496
 20
278.8860587641554
 30
0.0
 70
    40
  0
VERTEX
  5
1C69C
330
1C674
100
AcDbEntity
  8
KERA0
100
AcDbVertex
100
AcDb3dPolylineVertex
 10
2299.446322743343
 20
271.8809419395213
 30
0.0
 70
    40
  0
VERTEX
  5
1C69D
330
1C674
100
AcDbEntity
  8
KERA0
100
AcDbVertex
100
AcDb3dPolylineVertex
 10
2330.745537212516
 20
269.4863669082853
 30
0.0
 70
    40
  0
VERTEX
  5
1C69E
330
1C674
100
AcDbEntity
  8
KERA0
100
AcDbVertex
100
AcDb3dPolylineVertex
 10
2362.044751681691
 20
271.8809419395213
 30
0.0
 70
    40
  0
VERTEX
  5
1C69F
330
1C674
100
AcDbEntity
  8
KERA0
100
AcDbVertex
100
AcDb3dPolylineVertex
 10
2392.697168392537
 20
278.8860587641554
 30
0.0
 70
    40
  0
VERTEX
  5
1C6A0
330
1C674
100
AcDbEntity
  8
KERA0
100
AcDbVertex
100
AcDb3dPolylineVertex
 10
2422.055989586729
 20
290.2338049785744
 30
0.0
 70
    40
  0
VERTEX
  5
1C6A1
330
1C674
100
AcDbEntity
  8
KERA0
100
AcDbVertex
100
AcDb3dPolylineVertex
 10
2449.474417505938
 20
305.6562681791674
 30
0.0
 70
    40
  0
VERTEX
  5
1C6A2
330
1C674
100
AcDbEntity
  8
KERA0
100
AcDbVertex
100
AcDb3dPolylineVertex
 10
2474.305654391837
 20
324.8855359623234
 30
0.0
 70
    40
  0
VERTEX
  5
1C6A3
330
1C674
100
AcDbEntity
  8
KERA0
100
AcDbVertex
100
AcDb3dPolylineVertex
 10
2495.921612873986
 20
347.6349855365424
 30
0.0
 70
    40
  0
VERTEX
  5
1C6A4
330
1C674
100
AcDbEntity
  8
KERA0
100
AcDbVertex
100
AcDb3dPolylineVertex
 10
2513.911713841133
 20
373.4004858511364
 30
0.0
 70
    40
  0
VERTEX
  5
1C6A5
330
1C674
100
AcDbEntity
  8
KERA0
100
AcDbVertex
100
AcDb3dPolylineVertex
 10
2528.005706091181
 20
401.5375779462654
 30
0.0
 70
    40
  0
VERTEX
  5
1C6A6
330
1C674
100
AcDbEntity
  8
KERA0
100
AcDbVertex
100
AcDb3dPolylineVertex
 10
2537.935677220517
 20
431.3994640636003
 30
0.0
 70
    40
  0
VERTEX
  5
1C6A7
330
1C674
100
AcDbEntity
  8
KERA0
100
AcDbVertex
100
AcDb3dPolylineVertex
 10
2543.433714825531
 20
462.3393464448144
 30
0.0
 70
    40
  0
SEQEND
  5
1C6A8
330
1C674
100
AcDbEntity
  8
KERA0
  0
POLYLINE
  5
1C6A9
330
1E
100
AcDbEntity
  8
KERA0
100
AcDb3dPolyline
 66
     1
 10
0.0
 20
0.0
 30
0.0
 70
    13
 75
     6
  0
VERTEX
  5
1C6AA
330
1C6A9
100
AcDbEntity
  8
KERA0
100
AcDbVertex
100
AcDb3dPolylineVertex
 10
2479.631745941849
 20
334.3592064824824
 30
0.0
 70
    48
  0
VERTEX
  5
1C6AB
330
1C6A9
100
AcDbEntity
  8
KERA0
100
AcDbVertex
100
AcDb3dPolylineVertex
 10
2541.302432847851
 20
483.245415211815
 30
0.0
 70
    48
  0
VERTEX
  5
1C6AC
330
1C6A9
100
AcDbEntity
  8
KERA0
100
AcDbVertex
100
AcDb3dPolylineVertex
 10
2479.631745941849
 20
632.1316239411474
 30
0.0
 70
    48
  0
VERTEX
  5
1C6AD
330
1C6A9
100
AcDbEntity
  8
KERA0
100
AcDbVertex
100
AcDb3dPolylineVertex
 10
2330.745537212517
 20
693.8023108471484
 30
0.0
 70
    48
  0
VERTEX
  5
1C6AE
330
1C6A9
100
AcDbEntity
  8
KERA0
100
AcDbVertex
100
AcDb3dPolylineVertex
 10
2181.859328483184
 20
632.1316239411474
 30
0.0
 70
    48
  0
VERTEX
  5
1C6AF
330
1C6A9
100
AcDbEntity
  8
KERA0
100
AcDbVertex
100
AcDb3dPolylineVertex
 10
2120.188641577183
 20
483.245415211815
 30
0.0
 70
    48
  0
VERTEX
  5
1C6B0
330
1C6A9
100
AcDbEntity
  8
KERA0
100
AcDbVertex
100
AcDb3dPolylineVertex
 10
2181.859328483184
 20
334.3592064824824
 30
0.0
 70
    48
  0
VERTEX
  5
1C6B1
330
1C6A9
100
AcDbEntity
  8
KERA0
100
AcDbVertex
100
AcDb3dPolylineVertex
 10
2330.745537212517
 20
272.6885195764814
 30
0.0
 70
    48
  0
VERTEX
  5
1C6B2
330
1C6A9
100
AcDbEntity
  8
KERA0
100
AcDbVertex
100
AcDb3dPolylineVertex
 10
2520.745537212517
 20
483.245415211815
 30
0.0
 70
    40
  0
VERTEX
  5
1C6B3
330
1C6A9
100
AcDbEntity
  8
KERA0
100
AcDbVertex
100
AcDb3dPolylineVertex
 10
2518.617116172352
 20
511.0657615145304
 30
0.0
 70
    40
  0
VERTEX
  5
1C6B4
330
1C6A9
100
AcDbEntity
  8
KERA0
100
AcDbVertex
100
AcDb3dPolylineVertex
 10
2512.390609237355
 20
538.3112008130393
 30
0.0
 70
    40
  0
VERTEX
  5
1C6B5
330
1C6A9
100
AcDbEntity
  8
KERA0
100
AcDbVertex
100
AcDb3dPolylineVertex
 10
2502.30415068577
 20
564.4068261031353
 30
0.0
 70
    40
  0
VERTEX
  5
1C6B6
330
1C6A9
100
AcDbEntity
  8
KERA0
100
AcDbVertex
100
AcDb3dPolylineVertex
 10
2488.595874795845
 20
588.7777303806114
 30
0.0
 70
    40
  0
VERTEX
  5
1C6B7
330
1C6A9
100
AcDbEntity
  8
KERA0
100
AcDbVertex
100
AcDb3dPolylineVertex
 10
2471.503915845823
 20
610.8490066412614
 30
0.0
 70
    40
  0
VERTEX
  5
1C6B8
330
1C6A9
100
AcDbEntity
  8
KERA0
100
AcDbVertex
100
AcDb3dPolylineVertex
 10
2451.283038865851
 20
630.0623786327784
 30
0.0
 70
    40
  0
VERTEX
  5
1C6B9
330
1C6A9
100
AcDbEntity
  8
KERA0
100
AcDbVertex
100
AcDb3dPolylineVertex
 10
2428.381341376903
 20
646.0529025936843
 30
0.0
 70
    40
  0
VERTEX
  5
1C6BA
330
1C6A9
100
AcDbEntity
  8
KERA0
100
AcDbVertex
100
AcDb3dPolylineVertex
 10
2403.371651539197
 20
658.5803654017454
 30
0.0
 70
    40
  0
VERTEX
  5
1C6BB
330
1C6A9
100
AcDbEntity
  8
KERA0
100
AcDbVertex
100
AcDb3dPolylineVertex
 10
2376.828876356941
 20
667.4066327787174
 30
0.0
 70
    40
  0
VERTEX
  5
1C6BC
330
1C6A9
100
AcDbEntity
  8
KERA0
100
AcDbVertex
100
AcDb3dPolylineVertex
 10
2349.32792283434
 20
672.2935704463534
 30
0.0
 70
    40
  0
VERTEX
  5
1C6BD
330
1C6A9
100
AcDbEntity
  8
KERA0
100
AcDbVertex
100
AcDb3dPolylineVertex
 10
2321.443697975601
 20
673.0059840557694
 30
0.0
 70
    40
  0
VERTEX
  5
1C6BE
330
1C6A9
100
AcDbEntity
  8
KERA0
100
AcDbVertex
100
AcDb3dPolylineVertex
 10
2293.751108784932
 20
669.4850750197444
 30
0.0
 70
    40
  0
VERTEX
  5
1C6BF
330
1C6A9
100
AcDbEntity
  8
KERA0
100
AcDbVertex
100
AcDb3dPolylineVertex
 10
2266.825062266538
 20
661.9454581816344
 30
0.0
 70
    40
  0
VERTEX
  5
1C6C0
330
1C6A9
100
AcDbEntity
  8
KERA0
100
AcDbVertex
100
AcDb3dPolylineVertex
 10
2241.240465424625
 20
650.6252678196874
 30
0.0
 70
    40
  0
VERTEX
  5
1C6C1
330
1C6A9
100
AcDbEntity
  8
KERA0
100
AcDbVertex
100
AcDb3dPolylineVertex
 10
2217.572225263402
 20
635.7626382121464
 30
0.0
 70
    40
  0
VERTEX
  5
1C6C2
330
1C6A9
100
AcDbEntity
  8
KERA0
100
AcDbVertex
100
AcDb3dPolylineVertex
 10
2196.395248787073
 20
617.5957036372594
 30
0.0
 70
    40
  0
VERTEX
  5
1C6C3
330
1C6A9
100
AcDbEntity
  8
KERA0
100
AcDbVertex
100
AcDb3dPolylineVertex
 10
2178.228314212185
 20
596.4187271609303
 30
0.0
 70
    40
  0
VERTEX
  5
1C6C4
330
1C6A9
100
AcDbEntity
  8
KERA0
100
AcDbVertex
100
AcDb3dPolylineVertex
 10
2163.365684604645
 20
572.7504869997063
 30
0.0
 70
    40
  0
VERTEX
  5
1C6C5
330
1C6A9
100
AcDbEntity
  8
KERA0
100
AcDbVertex
100
AcDb3dPolylineVertex
 10
2152.045494242697
 20
547.1658901577943
 30
0.0
 70
    40
  0
VERTEX
  5
1C6C6
330
1C6A9
100
AcDbEntity
  8
KERA0
100
AcDbVertex
100
AcDb3dPolylineVertex
 10
2144.505877404588
 20
520.2398436394004
 30
0.0
 70
    40
  0
VERTEX
  5
1C6C7
330
1C6A9
100
AcDbEntity
  8
KERA0
100
AcDbVertex
100
AcDb3dPolylineVertex
 10
2140.984968368563
 20
492.5472544487304
 30
0.0
 70
    40
  0
VERTEX
  5
1C6C8
330
1C6A9
100
AcDbEntity
  8
KERA0
100
AcDbVertex
100
AcDb3dPolylineVertex
 10
2141.697381977979
 20
464.6630295899924
 30
0.0
 70
    40
  0
VERTEX
  5
1C6C9
330
1C6A9
100
AcDbEntity
  8
KERA0
100
AcDbVertex
100
AcDb3dPolylineVertex
 10
2146.584319645615
 20
437.1620760673913
 30
0.0
 70
    40
  0
VERTEX
  5
1C6CA
330
1C6A9
100
AcDbEntity
  8
KERA0
100
AcDbVertex
100
AcDb3dPolylineVertex
 10
2155.410587022586
 20
410.6193008851343
 30
0.0
 70
    40
  0
VERTEX
  5
1C6CB
330
1C6A9
100
AcDbEntity
  8
KERA0
100
AcDbVertex
100
AcDb3dPolylineVertex
 10
2167.938049830648
 20
385.6096110474294
 30
0.0
 70
    40
  0
VERTEX
  5
1C6CC
330
1C6A9
100
AcDbEntity
  8
KERA0
100
AcDbVertex
100
AcDb3dPolylineVertex
 10
2183.928573791553
 20
362.7079135584803
 30
0.0
 70
    40
  0
VERTEX
  5
1C6CD
330
1C6A9
100
AcDbEntity
  8
KERA0
100
AcDbVertex
100
AcDb3dPolylineVertex
 10
2203.14194578307
 20
342.4870365785084
 30
0.0
 70
    40
  0
VERTEX
  5
1C6CE
330
1C6A9
100
AcDbEntity
  8
KERA0
100
AcDbVertex
100
AcDb3dPolylineVertex
 10
2225.213222043719
 20
325.3950776284874
 30
0.0
 70
    40
  0
VERTEX
  5
1C6CF
330
1C6A9
100
AcDbEntity
  8
KERA0
100
AcDbVertex
100
AcDb3dPolylineVertex
 10
2249.584126321197
 20
311.6868017385613
 30
0.0
 70
    40
  0
VERTEX
  5
1C6D0
330
1C6A9
100
AcDbEntity
  8
KERA0
100
AcDbVertex
100
AcDb3dPolylineVertex
 10
2275.679751611292
 20
301.6003431869774
 30
0.0
 70
    40
  0
VERTEX
  5
1C6D1
330
1C6A9
100
AcDbEntity
  8
KERA0
100
AcDbVertex
100
AcDb3dPolylineVertex
 10
2302.925190909801
 20
295.3738362519794
 30
0.0
 70
    40
  0
VERTEX
  5
1C6D2
330
1C6A9
100
AcDbEntity
  8
KERA0
100
AcDbVertex
100
AcDb3dPolylineVertex
 10
2330.745537212516
 20
293.2454152118154
 30
0.0
 70
    40
  0
VERTEX
  5
1C6D3
330
1C6A9
100
AcDbEntity
  8
KERA0
100
AcDbVertex
100
AcDb3dPolylineVertex
 10
2358.565883515232
 20
295.3738362519794
 30
0.0
 70
    40
  0
VERTEX
  5
1C6D4
330
1C6A9
100
AcDbEntity
  8
KERA0
100
AcDbVertex
100
AcDb3dPolylineVertex
 10
2385.811322813741
 20
301.6003431869774
 30
0.0
 70
    40
  0
VERTEX
  5
1C6D5
330
1C6A9
100
AcDbEntity
  8
KERA0
100
AcDbVertex
100
AcDb3dPolylineVertex
 10
2411.906948103837
 20
311.6868017385613
 30
0.0
 70
    40
  0
VERTEX
  5
1C6D6
330
1C6A9
100
AcDbEntity
  8
KERA0
100
AcDbVertex
100
AcDb3dPolylineVertex
 10
2436.277852381313
 20
325.3950776284874
 30
0.0
 70
    40
  0
VERTEX
  5
1C6D7
330
1C6A9
100
AcDbEntity
  8
KERA0
100
AcDbVertex
100
AcDb3dPolylineVertex
 10
2458.349128641963
 20
342.4870365785084
 30
0.0
 70
    40
  0
VERTEX
  5
1C6D8
330
1C6A9
100
AcDbEntity
  8
KERA0
100
AcDbVertex
100
AcDb3dPolylineVertex
 10
2477.56250063348
 20
362.7079135584803
 30
0.0
 70
    40
  0
VERTEX
  5
1C6D9
330
1C6A9
100
AcDbEntity
  8
KERA0
100
AcDbVertex
100
AcDb3dPolylineVertex
 10
2493.553024594386
 20
385.6096110474294
 30
0.0
 70
    40
  0
VERTEX
  5
1C6DA
330
1C6A9
100
AcDbEntity
  8
KERA0
100
AcDbVertex
100
AcDb3dPolylineVertex
 10
2506.080487402448
 20
410.6193008851343
 30
0.0
 70
    40
  0
VERTEX
  5
1C6DB
330
1C6A9
100
AcDbEntity
  8
KERA0
100
AcDbVertex
100
AcDb3dPolylineVertex
 10
2514.906754779419
 20
437.1620760673913
 30
0.0
 70
    40
  0
VERTEX
  5
1C6DC
330
1C6A9
100
AcDbEntity
  8
KERA0
100
AcDbVertex
100
AcDb3dPolylineVertex
 10
2519.793692447055
 20
464.6630295899924
 30
0.0
 70
    40
  0
SEQEND
  5
1C6DD
330
1C6A9
100
AcDbEntity
  8
KERA0
  0
POLYLINE
  5
1C6DE
330
1E
100
AcDbEntity
  8
KERA4
100
AcDb3dPolyline
 66
     1
 10
0.0
 20
0.0
 30
0.0
 70
    13
 75
     6
  0
VERTEX
  5
1C6DF
330
1C6DE
100
AcDbEntity
  8
KERA4
100
AcDbVertex
100
AcDb3dPolylineVertex
 10
2359.732287335851
 20
454.2586738923383
 30
0.0
 70
    48
  0
VERTEX
  5
1C6E0
330
1C6DE
100
AcDbEntity
  8
KERA4
100
AcDbVertex
100
AcDb3dPolylineVertex
 10
2371.738991770603
 20
483.2454225781214
 30
0.0
 70
    48
  0
VERTEX
  5
1C6E1
330
1C6DE
100
AcDbEntity
  8
KERA4
100
AcDbVertex
100
AcDb3dPolylineVertex
 10
2359.732287335851
 20
512.2321712639044
 30
0.0
 70
    48
  0
VERTEX
  5
1C6E2
330
1C6DE
100
AcDbEntity
  8
KERA4
100
AcDbVertex
100
AcDb3dPolylineVertex
 10
2330.745538650068
 20
524.2388756986564
 30
0.0
 70
    48
  0
VERTEX
  5
1C6E3
330
1C6DE
100
AcDbEntity
  8
KERA4
100
AcDbVertex
100
AcDb3dPolylineVertex
 10
2301.758789964285
 20
512.2321712639044
 30
0.0
 70
    48
  0
VERTEX
  5
1C6E4
330
1C6DE
100
AcDbEntity
  8
KERA4
100
AcDbVertex
100
AcDb3dPolylineVertex
 10
2289.752085529533
 20
483.2454225781214
 30
0.0
 70
    48
  0
VERTEX
  5
1C6E5
330
1C6DE
100
AcDbEntity
  8
KERA4
100
AcDbVertex
100
AcDb3dPolylineVertex
 10
2301.758789964285
 20
454.2586738923383
 30
0.0
 70
    48
  0
VERTEX
  5
1C6E6
330
1C6DE
100
AcDbEntity
  8
KERA4
100
AcDbVertex
100
AcDb3dPolylineVertex
 10
2330.745538650068
 20
442.2519694575864
 30
0.0
 70
    48
  0
VERTEX
  5
1C6E7
330
1C6DE
100
AcDbEntity
  8
KERA4
100
AcDbVertex
100
AcDb3dPolylineVertex
 10
2367.736756959019
 20
483.2454225781214
 30
0.0
 70
    40
  0
VERTEX
  5
1C6E8
330
1C6DE
100
AcDbEntity
  8
KERA4
100
AcDbVertex
100
AcDb3dPolylineVertex
 10
2367.322373341387
 20
488.6617831229334
 30
0.0
 70
    40
  0
VERTEX
  5
1C6E9
330
1C6DE
100
AcDbEntity
  8
KERA4
100
AcDbVertex
100
AcDb3dPolylineVertex
 10
2366.110130829099
 20
493.9662146651143
 30
0.0
 70
    40
  0
VERTEX
  5
1C6EA
330
1C6DE
100
AcDbEntity
  8
KERA4
100
AcDbVertex
100
AcDb3dPolylineVertex
 10
2364.146391933068
 20
499.0467882020334
 30
0.0
 70
    40
  0
VERTEX
  5
1C6EB
330
1C6DE
100
AcDbEntity
  8
KERA4
100
AcDbVertex
100
AcDb3dPolylineVertex
 10
2361.477519164207
 20
503.7915747310574
 30
0.0
 70
    40
  0
VERTEX
  5
1C6EC
330
1C6DE
100
AcDbEntity
  8
KERA4
100
AcDbVertex
100
AcDb3dPolylineVertex
 10
2358.149875033429
 20
508.0886452495574
 30
0.0
 70
    40
  0
VERTEX
  5
1C6ED
330
1C6DE
100
AcDbEntity
  8
KERA4
100
AcDbVertex
100
AcDb3dPolylineVertex
 10
2354.213059903089
 20
511.8293086063424
 30
0.0
 70
    40
  0
VERTEX
  5
1C6EE
330
1C6DE
100
AcDbEntity
  8
KERA4
100
AcDbVertex
100
AcDb3dPolylineVertex
 10
2349.754314158567
 20
514.9425136732504
 30
0.0
 70
    40
  0
VERTEX
  5
1C6EF
330
1C6DE
100
AcDbEntity
  8
KERA4
100
AcDbVertex
100
AcDb3dPolylineVertex
 10
2344.885162071063
 20
517.3814932079353
 30
0.0
 70
    40
  0
VERTEX
  5
1C6F0
330
1C6DE
100
AcDbEntity
  8
KERA4
100
AcDbVertex
100
AcDb3dPolylineVertex
 10
2339.717532643209
 20
519.0998846994864
 30
0.0
 70
    40
  0
VERTEX
  5
1C6F1
330
1C6DE
100
AcDbEntity
  8
KERA4
100
AcDbVertex
100
AcDb3dPolylineVertex
 10
2334.363354877635
 20
520.0513256369904
 30
0.0
 70
    40
  0
VERTEX
  5
1C6F2
330
1C6DE
100
AcDbEntity
  8
KERA4
100
AcDbVertex
100
AcDb3dPolylineVertex
 10
2328.934557776976
 20
520.1900258862123
 30
0.0
 70
    40
  0
VERTEX
  5
1C6F3
330
1C6DE
100
AcDbEntity
  8
KERA4
100
AcDbVertex
100
AcDb3dPolylineVertex
 10
2323.543070343859
 20
519.5045379135944
 30
0.0
 70
    40
  0
VERTEX
  5
1C6F4
330
1C6DE
100
AcDbEntity
  8
KERA4
100
AcDbVertex
100
AcDb3dPolylineVertex
 10
2318.300821580918
 20
518.0366452166233
 30
0.0
 70
    40
  0
VERTEX
  5
1C6F5
330
1C6DE
100
AcDbEntity
  8
KERA4
100
AcDbVertex
100
AcDb3dPolylineVertex
 10
2313.319740490783
 20
515.8327103062154
 30
0.0
 70
    40
  0
VERTEX
  5
1C6F6
330
1C6DE
100
AcDbEntity
  8
KERA4
100
AcDbVertex
100
AcDb3dPolylineVertex
 10
2308.711756076085
 20
512.9390956932804
 30
0.0
 70
    40
  0
VERTEX
  5
1C6F7
330
1C6DE
100
AcDbEntity
  8
KERA4
100
AcDbVertex
100
AcDb3dPolylineVertex
 10
2304.588797339457
 20
509.4021638887324
 30
0.0
 70
    40
  0
VERTEX
  5
1C6F8
330
1C6DE
100
AcDbEntity
  8
KERA4
100
AcDbVertex
100
AcDb3dPolylineVertex
 10
2301.051865534909
 20
505.2792051521044
 30
0.0
 70
    40
  0
VERTEX
  5
1C6F9
330
1C6DE
100
AcDbEntity
  8
KERA4
100
AcDbVertex
100
AcDb3dPolylineVertex
 10
2298.158250921974
 20
500.6712207374063
 30
0.0
 70
    40
  0
VERTEX
  5
1C6FA
330
1C6DE
100
AcDbEntity
  8
KERA4
100
AcDbVertex
100
AcDb3dPolylineVertex
 10
2295.954316011566
 20
495.6901396472714
 30
0.0
 70
    40
  0
VERTEX
  5
1C6FB
330
1C6DE
100
AcDbEntity
  8
KERA4
100
AcDbVertex
100
AcDb3dPolylineVertex
 10
2294.486423314595
 20
490.4478908843304
 30
0.0
 70
    40
  0
VERTEX
  5
1C6FC
330
1C6DE
100
AcDbEntity
  8
KERA4
100
AcDbVertex
100
AcDb3dPolylineVertex
 10
2293.800935341976
 20
485.0564034512133
 30
0.0
 70
    40
  0
VERTEX
  5
1C6FD
330
1C6DE
100
AcDbEntity
  8
KERA4
100
AcDbVertex
100
AcDb3dPolylineVertex
 10
2293.939635591199
 20
479.6276063505533
 30
0.0
 70
    40
  0
VERTEX
  5
1C6FE
330
1C6DE
100
AcDbEntity
  8
KERA4
100
AcDbVertex
100
AcDb3dPolylineVertex
 10
2294.891076528703
 20
474.2734285849803
 30
0.0
 70
    40
  0
VERTEX
  5
1C6FF
330
1C6DE
100
AcDbEntity
  8
KERA4
100
AcDbVertex
100
AcDb3dPolylineVertex
 10
2296.609468020254
 20
469.1057991571264
 30
0.0
 70
    40
  0
VERTEX
  5
1C700
330
1C6DE
100
AcDbEntity
  8
KERA4
100
AcDbVertex
100
AcDb3dPolylineVertex
 10
2299.048447554939
 20
464.2366470696224
 30
0.0
 70
    40
  0
VERTEX
  5
1C701
330
1C6DE
100
AcDbEntity
  8
KERA4
100
AcDbVertex
100
AcDb3dPolylineVertex
 10
2302.161652621847
 20
459.7779013251003
 30
0.0
 70
    40
  0
VERTEX
  5
1C702
330
1C6DE
100
AcDbEntity
  8
KERA4
100
AcDbVertex
100
AcDb3dPolylineVertex
 10
2305.902315978632
 20
455.8410861947605
 30
0.0
 70
    40
  0
VERTEX
  5
1C703
330
1C6DE
100
AcDbEntity
  8
KERA4
100
AcDbVertex
100
AcDb3dPolylineVertex
 10
2310.199386497131
 20
452.5134420639824
 30
0.0
 70
    40
  0
VERTEX
  5
1C704
330
1C6DE
100
AcDbEntity
  8
KERA4
100
AcDbVertex
100
AcDb3dPolylineVertex
 10
2314.944173026156
 20
449.8445692951213
 30
0.0
 70
    40
  0
VERTEX
  5
1C705
330
1C6DE
100
AcDbEntity
  8
KERA4
100
AcDbVertex
100
AcDb3dPolylineVertex
 10
2320.024746563075
 20
447.8808303990904
 30
0.0
 70
    40
  0
VERTEX
  5
1C706
330
1C6DE
100
AcDbEntity
  8
KERA4
100
AcDbVertex
100
AcDb3dPolylineVertex
 10
2325.329178105256
 20
446.6685878868024
 30
0.0
 70
    40
  0
VERTEX
  5
1C707
330
1C6DE
100
AcDbEntity
  8
KERA4
100
AcDbVertex
100
AcDb3dPolylineVertex
 10
2330.745538650068
 20
446.2542042691705
 30
0.0
 70
    40
  0
VERTEX
  5
1C708
330
1C6DE
100
AcDbEntity
  8
KERA4
100
AcDbVertex
100
AcDb3dPolylineVertex
 10
2336.16189919488
 20
446.6685878868024
 30
0.0
 70
    40
  0
VERTEX
  5
1C709
330
1C6DE
100
AcDbEntity
  8
KERA4
100
AcDbVertex
100
AcDb3dPolylineVertex
 10
2341.466330737061
 20
447.8808303990904
 30
0.0
 70
    40
  0
VERTEX
  5
1C70A
330
1C6DE
100
AcDbEntity
  8
KERA4
100
AcDbVertex
100
AcDb3dPolylineVertex
 10
2346.54690427398
 20
449.8445692951213
 30
0.0
 70
    40
  0
VERTEX
  5
1C70B
330
1C6DE
100
AcDbEntity
  8
KERA4
100
AcDbVertex
100
AcDb3dPolylineVertex
 10
2351.291690803004
 20
452.5134420639824
 30
0.0
 70
    40
  0
VERTEX
  5
1C70C
330
1C6DE
100
AcDbEntity
  8
KERA4
100
AcDbVertex
100
AcDb3dPolylineVertex
 10
2355.588761321504
 20
455.8410861947605
 30
0.0
 70
    40
  0
VERTEX
  5
1C70D
330
1C6DE
100
AcDbEntity
  8
KERA4
100
AcDbVertex
100
AcDb3dPolylineVertex
 10
2359.329424678289
 20
459.7779013251003
 30
0.0
 70
    40
  0
VERTEX
  5
1C70E
330
1C6DE
100
AcDbEntity
  8
KERA4
100
AcDbVertex
100
AcDb3dPolylineVertex
 10
2362.442629745197
 20
464.2366470696224
 30
0.0
 70
    40
  0
VERTEX
  5
1C70F
330
1C6DE
100
AcDbEntity
  8
KERA4
100
AcDbVertex
100
AcDb3dPolylineVertex
 10
2364.881609279882
 20
469.1057991571264
 30
0.0
 70
    40
  0
VERTEX
  5
1C710
330
1C6DE
100
AcDbEntity
  8
KERA4
100
AcDbVertex
100
AcDb3dPolylineVertex
 10
2366.600000771433
 20
474.2734285849803
 30
0.0
 70
    40
  0
VERTEX
  5
1C711
330
1C6DE
100
AcDbEntity
  8
KERA4
100
AcDbVertex
100
AcDb3dPolylineVertex
 10
2367.551441708937
 20
479.6276063505533
 30
0.0
 70
    40
  0
SEQEND
  5
1C712
330
1C6DE
100
AcDbEntity
  8
KERA4
  0
POLYLINE
  5
1C713
330
1E
100
AcDbEntity
  8
KERA4
100
AcDb3dPolyline
 66
     1
 10
0.0
 20
0.0
 30
0.0
 70
    13
 75
     6
  0
VERTEX
  5
1C714
330
1C713
100
AcDbEntity
  8
KERA4
100
AcDbVertex
100
AcDb3dPolylineVertex
 10
2348.376800210121
 20
465.6141610180684
 30
0.0
 70
    48
  0
VERTEX
  5
1C715
330
1C713
100
AcDbEntity
  8
KERA4
100
AcDbVertex
100
AcDb3dPolylineVertex
 10
2355.679907870042
 20
483.2454225781214
 30
0.0
 70
    48
  0
VERTEX
  5
1C716
330
1C713
100
AcDbEntity
  8
KERA4
100
AcDbVertex
100
AcDb3dPolylineVertex
 10
2348.376800210121
 20
500.8766841381743
 30
0.0
 70
    48
  0
VERTEX
  5
1C717
330
1C713
100
AcDbEntity
  8
KERA4
100
AcDbVertex
100
AcDb3dPolylineVertex
 10
2330.745538650068
 20
508.1797917980954
 30
0.0
 70
    48
  0
VERTEX
  5
1C718
330
1C713
100
AcDbEntity
  8
KERA4
100
AcDbVertex
100
AcDb3dPolylineVertex
 10
2313.114277090015
 20
500.8766841381743
 30
0.0
 70
    48
  0
VERTEX
  5
1C719
330
1C713
100
AcDbEntity
  8
KERA4
100
AcDbVertex
100
AcDb3dPolylineVertex
 10
2305.811169430094
 20
483.2454225781214
 30
0.0
 70
    48
  0
VERTEX
  5
1C71A
330
1C713
100
AcDbEntity
  8
KERA4
100
AcDbVertex
100
AcDb3dPolylineVertex
 10
2313.114277090015
 20
465.6141610180684
 30
0.0
 70
    48
  0
VERTEX
  5
1C71B
330
1C713
100
AcDbEntity
  8
KERA4
100
AcDbVertex
100
AcDb3dPolylineVertex
 10
2330.745538650068
 20
458.3110533581474
 30
0.0
 70
    48
  0
VERTEX
  5
1C71C
330
1C713
100
AcDbEntity
  8
KERA4
100
AcDbVertex
100
AcDb3dPolylineVertex
 10
2353.245538650068
 20
483.2454225781214
 30
0.0
 70
    40
  0
VERTEX
  5
1C71D
330
1C713
100
AcDbEntity
  8
KERA4
100
AcDbVertex
100
AcDb3dPolylineVertex
 10
2352.993488790048
 20
486.5399372718643
 30
0.0
 70
    40
  0
VERTEX
  5
1C71E
330
1C713
100
AcDbEntity
  8
KERA4
100
AcDbVertex
100
AcDb3dPolylineVertex
 10
2352.256139284588
 20
489.7663708730033
 30
0.0
 70
    40
  0
VERTEX
  5
1C71F
330
1C713
100
AcDbEntity
  8
KERA4
100
AcDbVertex
100
AcDb3dPolylineVertex
 10
2351.061690245585
 20
492.8566422889353
 30
0.0
 70
    40
  0
VERTEX
  5
1C720
330
1C713
100
AcDbEntity
  8
KERA4
100
AcDbVertex
100
AcDb3dPolylineVertex
 10
2349.438341784936
 20
495.7426704270574
 30
0.0
 70
    40
  0
VERTEX
  5
1C721
330
1C713
100
AcDbEntity
  8
KERA4
100
AcDbVertex
100
AcDb3dPolylineVertex
 10
2347.414294014539
 20
498.3563741947664
 30
0.0
 70
    40
  0
VERTEX
  5
1C722
330
1C713
100
AcDbEntity
  8
KERA4
100
AcDbVertex
100
AcDb3dPolylineVertex
 10
2345.019716477437
 20
500.6316419306034
 30
0.0
 70
    40
  0
VERTEX
  5
1C723
330
1C713
100
AcDbEntity
  8
KERA4
100
AcDbVertex
100
AcDb3dPolylineVertex
 10
2342.307673353745
 20
502.5252566101844
 30
0.0
 70
    40
  0
VERTEX
  5
1C724
330
1C713
100
AcDbEntity
  8
KERA4
100
AcDbVertex
100
AcDb3dPolylineVertex
 10
2339.345999557175
 20
504.0087719427184
 30
0.0
 70
    40
  0
VERTEX
  5
1C725
330
1C713
100
AcDbEntity
  8
KERA4
100
AcDbVertex
100
AcDb3dPolylineVertex
 10
2336.202776180329
 20
505.0539878163074
 30
0.0
 70
    40
  0
VERTEX
  5
1C726
330
1C713
100
AcDbEntity
  8
KERA4
100
AcDbVertex
100
AcDb3dPolylineVertex
 10
2332.94608431581
 20
505.6327041190534
 30
0.0
 70
    40
  0
VERTEX
  5
1C727
330
1C713
100
AcDbEntity
  8
KERA4
100
AcDbVertex
100
AcDb3dPolylineVertex
 10
2329.644005056223
 20
505.7170688885894
 30
0.0
 70
    40
  0
VERTEX
  5
1C728
330
1C713
100
AcDbEntity
  8
KERA4
100
AcDbVertex
100
AcDb3dPolylineVertex
 10
2326.36461949417
 20
505.3001191343233
 30
0.0
 70
    40
  0
VERTEX
  5
1C729
330
1C713
100
AcDbEntity
  8
KERA4
100
AcDbVertex
100
AcDb3dPolylineVertex
 10
2323.176008722255
 20
504.4072697719153
 30
0.0
 70
    40
  0
VERTEX
  5
1C72A
330
1C713
100
AcDbEntity
  8
KERA4
100
AcDbVertex
100
AcDb3dPolylineVertex
 10
2320.146253833081
 20
503.0667209132643
 30
0.0
 70
    40
  0
VERTEX
  5
1C72B
330
1C713
100
AcDbEntity
  8
KERA4
100
AcDbVertex
100
AcDb3dPolylineVertex
 10
2317.343435919252
 20
501.3066726702663
 30
0.0
 70
    40
  0
VERTEX
  5
1C72C
330
1C713
100
AcDbEntity
  8
KERA4
100
AcDbVertex
100
AcDb3dPolylineVertex
 10
2314.835636073371
 20
499.1553251548184
 30
0.0
 70
    40
  0
VERTEX
  5
1C72D
330
1C713
100
AcDbEntity
  8
KERA4
100
AcDbVertex
100
AcDb3dPolylineVertex
 10
2312.684288557923
 20
496.6475253089375
 30
0.0
 70
    40
  0
VERTEX
  5
1C72E
330
1C713
100
AcDbEntity
  8
KERA4
100
AcDbVertex
100
AcDb3dPolylineVertex
 10
2310.924240314925
 20
493.8447073951083
 30
0.0
 70
    40
  0
VERTEX
  5
1C72F
330
1C713
100
AcDbEntity
  8
KERA4
100
AcDbVertex
100
AcDb3dPolylineVertex
 10
2309.583691456274
 20
490.8149525059343
 30
0.0
 70
    40
  0
VERTEX
  5
1C730
330
1C713
100
AcDbEntity
  8
KERA4
100
AcDbVertex
100
AcDb3dPolylineVertex
 10
2308.690842093866
 20
487.6263417340194
 30
0.0
 70
    40
  0
VERTEX
  5
1C731
330
1C713
100
AcDbEntity
  8
KERA4
100
AcDbVertex
100
AcDb3dPolylineVertex
 10
2308.2738923396
 20
484.3469561719664
 30
0.0
 70
    40
  0
VERTEX
  5
1C732
330
1C713
100
AcDbEntity
  8
KERA4
100
AcDbVertex
100
AcDb3dPolylineVertex
 10
2308.358257109136
 20
481.0448769123793
 30
0.0
 70
    40
  0
VERTEX
  5
1C733
330
1C713
100
AcDbEntity
  8
KERA4
100
AcDbVertex
100
AcDb3dPolylineVertex
 10
2308.936973411882
 20
477.7881850478604
 30
0.0
 70
    40
  0
VERTEX
  5
1C734
330
1C713
100
AcDbEntity
  8
KERA4
100
AcDbVertex
100
AcDb3dPolylineVertex
 10
2309.982189285471
 20
474.6449616710144
 30
0.0
 70
    40
  0
VERTEX
  5
1C735
330
1C713
100
AcDbEntity
  8
KERA4
100
AcDbVertex
100
AcDb3dPolylineVertex
 10
2311.465704618005
 20
471.6832878744444
 30
0.0
 70
    40
  0
VERTEX
  5
1C736
330
1C713
100
AcDbEntity
  8
KERA4
100
AcDbVertex
100
AcDb3dPolylineVertex
 10
2313.359319297585
 20
468.9712447507524
 30
0.0
 70
    40
  0
VERTEX
  5
1C737
330
1C713
100
AcDbEntity
  8
KERA4
100
AcDbVertex
100
AcDb3dPolylineVertex
 10
2315.634587033423
 20
466.5766672136514
 30
0.0
 70
    40
  0
VERTEX
  5
1C738
330
1C713
100
AcDbEntity
  8
KERA4
100
AcDbVertex
100
AcDb3dPolylineVertex
 10
2318.248290801132
 20
464.5526194432534
 30
0.0
 70
    40
  0
VERTEX
  5
1C739
330
1C713
100
AcDbEntity
  8
KERA4
100
AcDbVertex
100
AcDb3dPolylineVertex
 10
2321.134318939254
 20
462.9292709826044
 30
0.0
 70
    40
  0
VERTEX
  5
1C73A
330
1C713
100
AcDbEntity
  8
KERA4
100
AcDbVertex
100
AcDb3dPolylineVertex
 10
2324.224590355186
 20
461.7348219436014
 30
0.0
 70
    40
  0
VERTEX
  5
1C73B
330
1C713
100
AcDbEntity
  8
KERA4
100
AcDbVertex
100
AcDb3dPolylineVertex
 10
2327.451023956325
 20
460.9974724381413
 30
0.0
 70
    40
  0
VERTEX
  5
1C73C
330
1C713
100
AcDbEntity
  8
KERA4
100
AcDbVertex
100
AcDb3dPolylineVertex
 10
2330.745538650068
 20
460.7454225781213
 30
0.0
 70
    40
  0
VERTEX
  5
1C73D
330
1C713
100
AcDbEntity
  8
KERA4
100
AcDbVertex
100
AcDb3dPolylineVertex
 10
2334.040053343811
 20
460.9974724381413
 30
0.0
 70
    40
  0
VERTEX
  5
1C73E
330
1C713
100
AcDbEntity
  8
KERA4
100
AcDbVertex
100
AcDb3dPolylineVertex
 10
2337.26648694495
 20
461.7348219436014
 30
0.0
 70
    40
  0
VERTEX
  5
1C73F
330
1C713
100
AcDbEntity
  8
KERA4
100
AcDbVertex
100
AcDb3dPolylineVertex
 10
2340.356758360882
 20
462.9292709826044
 30
0.0
 70
    40
  0
VERTEX
  5
1C740
330
1C713
100
AcDbEntity
  8
KERA4
100
AcDbVertex
100
AcDb3dPolylineVertex
 10
2343.242786499004
 20
464.5526194432534
 30
0.0
 70
    40
  0
VERTEX
  5
1C741
330
1C713
100
AcDbEntity
  8
KERA4
100
AcDbVertex
100
AcDb3dPolylineVertex
 10
2345.856490266713
 20
466.5766672136503
 30
0.0
 70
    40
  0
VERTEX
  5
1C742
330
1C713
100
AcDbEntity
  8
KERA4
100
AcDbVertex
100
AcDb3dPolylineVertex
 10
2348.13175800255
 20
468.9712447507524
 30
0.0
 70
    40
  0
VERTEX
  5
1C743
330
1C713
100
AcDbEntity
  8
KERA4
100
AcDbVertex
100
AcDb3dPolylineVertex
 10
2350.02537268213
 20
471.6832878744444
 30
0.0
 70
    40
  0
VERTEX
  5
1C744
330
1C713
100
AcDbEntity
  8
KERA4
100
AcDbVertex
100
AcDb3dPolylineVertex
 10
2351.508888014665
 20
474.6449616710144
 30
0.0
 70
    40
  0
VERTEX
  5
1C745
330
1C713
100
AcDbEntity
  8
KERA4
100
AcDbVertex
100
AcDb3dPolylineVertex
 10
2352.554103888254
 20
477.7881850478604
 30
0.0
 70
    40
  0
VERTEX
  5
1C746
330
1C713
100
AcDbEntity
  8
KERA4
100
AcDbVertex
100
AcDb3dPolylineVertex
 10
2353.132820191
 20
481.0448769123793
 30
0.0
 70
    40
  0
SEQEND
  5
1C747
330
1C713
100
AcDbEntity
  8
KERA4
  0
DIMENSION
  5
1C757
330
1E
100
AcDbEntity
  8
KERA4
100
AcDbDimension
  2
*D0
 10
2544.504585516046
 20
928.4191539455415
 30
0.0
 11
2336.539686489341
 21
928.4191539455415
 31
0.0
 70
   160
  1
434
 71
     5
 42
426.9813547164922
  3
STANDARD
100
AcDbAlignedDimension
 13
2117.523230799554
 23
483.2454147237728
 33
0.0
 14
2544.504585516046
 24
483.245415211815
 34
0.0
100
AcDbRotatedDimension
  0
LINE
  5
1C765
330
1E
100
AcDbEntity
  8
KERA1
100
AcDbLine
 10
2141.045539675304
 20
1306.930948530309
 30
0.0
 11
2150.481774569074
 21
1212.568607466844
 31
0.0
  0
LINE
  5
1C766
330
1E
100
AcDbEntity
  8
KERA1
100
AcDbLine
 10
2160.170376979874
 20
1203.567071489508
 30
0.0
 11
2281.963396898621
 21
1200.377809022242
 31
0.0
  0
LINE
  5
1C767
330
1E
100
AcDbEntity
  8
KERA1
100
AcDbLine
 10
2299.438397615979
 20
1195.508020870755
 30
-0.0000000000000153
 11
2305.535434757473
 21
1190.450474914646
 31
-0.0000000000000015
  0
LINE
  5
1C768
330
1E
100
AcDbEntity
  8
KERA1
100
AcDbLine
 10
2307.999505188919
 20
1182.94379941132
 30
0.0002382579175668
 11
2308.145984197912
 21
1176.507057790672
 31
0.0003017900500879
  0
ARC
  5
1C769
330
1E
100
AcDbEntity
  8
KERA1
100
AcDbCircle
 10
2304.261696988688
 20
1186.779068178525
 30
0.0
 40
3.669772790634231
100
AcDbArc
 50
355.29108394908
 51
46.98944334462117
  0
ARC
  5
1C76B
330
1E
100
AcDbEntity
  8
KERA1
100
AcDbCircle
 10
2289.177163968322
 20
1187.410182950808
 30
-0.0000000000000213
 40
12.80477709006166
100
AcDbArc
 50
54.06095092149972
 51
85.65685219019465
  0
LINE
  5
1C76C
330
1E
100
AcDbEntity
  8
KERA1
100
AcDbLine
 10
2290.146865345894
 20
1200.178189669341
 30
-0.0000000000000213
 11
2286.589782590382
 21
1200.264957592068
 31
-0.000000000000012
  0
ARC
  5
1C76E
330
1E
100
AcDbEntity
  8
KERA1
100
AcDbCircle
 10
2160.432146462953
 20
1213.563644739264
 30
0.0
 40
10.0
100
AcDbArc
 50
185.7105936108796
 51
268.5000000000001
  0
POLYLINE
  5
1C76F
330
1E
100
AcDbEntity
  8
KERA1
100
AcDb3dPolyline
 66
     1
 10
0.0
 20
0.0
 30
0.0
 70
     8
  0
VERTEX
  5
1C770
330
1C76F
100
AcDbEntity
  8
KERA1
100
AcDbVertex
100
AcDb3dPolylineVertex
 10
2291.626890474005
 20
1199.930948530309
 30
0.0
 70
    32
  0
VERTEX
  5
1C771
330
1C76F
100
AcDbEntity
  8
KERA1
100
AcDbVertex
100
AcDb3dPolylineVertex
 10
2301.40655251802
 20
1199.930948530309
 30
0.0
 70
    32
  0
VERTEX
  5
1C772
330
1C76F
100
AcDbEntity
  8
KERA1
100
AcDbVertex
100
AcDb3dPolylineVertex
 10
2311.186214562036
 20
1199.930948530309
 30
0.0
 70
    32
  0
VERTEX
  5
1C773
330
1C76F
100
AcDbEntity
  8
KERA1
100
AcDbVertex
100
AcDb3dPolylineVertex
 10
2320.965876606052
 20
1199.930948530309
 30
0.0
 70
    32
  0
VERTEX
  5
1C774
330
1C76F
100
AcDbEntity
  8
KERA1
100
AcDbVertex
100
AcDb3dPolylineVertex
 10
2330.745538650067
 20
1199.930948530309
 30
0.0
 70
    32
  0
SEQEND
  5
1C775
330
1C76F
100
AcDbEntity
  8
KERA1
  0
POLYLINE
  5
1C776
330
1E
100
AcDbEntity
  8
KERA1
100
AcDb3dPolyline
 66
     1
 10
0.0
 20
0.0
 30
0.0
 70
     8
  0
VERTEX
  5
1C777
330
1C776
100
AcDbEntity
  8
KERA1
100
AcDbVertex
100
AcDb3dPolylineVertex
 10
2330.745538650067
 20
1188.50717017724
 30
0.0
 70
    32
  0
VERTEX
  5
1C778
330
1C776
100
AcDbEntity
  8
KERA1
100
AcDbVertex
100
AcDb3dPolylineVertex
 10
2325.02737966441
 20
1188.50717017724
 30
0.0
 70
    32
  0
VERTEX
  5
1C779
330
1C776
100
AcDbEntity
  8
KERA1
100
AcDbVertex
100
AcDb3dPolylineVertex
 10
2319.309220678753
 20
1188.50717017724
 30
0.0
 70
    32
  0
VERTEX
  5
1C77A
330
1C776
100
AcDbEntity
  8
KERA1
100
AcDbVertex
100
AcDb3dPolylineVertex
 10
2313.591061693097
 20
1188.50717017724
 30
0.0
 70
    32
  0
VERTEX
  5
1C77B
330
1C776
100
AcDbEntity
  8
KERA1
100
AcDbVertex
100
AcDb3dPolylineVertex
 10
2307.872902707439
 20
1188.50717017724
 30
0.0
 70
    32
  0
SEQEND
  5
1C77C
330
1C776
100
AcDbEntity
  8
KERA1
  0
LINE
  5
1C77D
330
1E
100
AcDbEntity
  8
KERA1
100
AcDbLine
 10
2520.445534749728
 20
1306.930948530309
 30
0.0
 11
2511.009299855959
 21
1212.568607466844
 31
0.0
  0
ARC
  5
1C77E
330
1E
100
AcDbEntity
  8
KERA1
100
AcDbCircle
 10
2501.05892796208
 20
1213.563644739264
 30
0.0
 40
10.0
100
AcDbArc
 50
271.4999999999998
 51
354.2894063891203
  0
LINE
  5
1C77F
330
1E
100
AcDbEntity
  8
KERA1
100
AcDbLine
 10
2501.320697445159
 20
1203.567071489508
 30
0.0
 11
2379.527677526412
 21
1200.377809022242
 31
0.0
  0
POLYLINE
  5
1C780
330
1E
100
AcDbEntity
  8
KERA1
100
AcDb3dPolyline
 66
     1
 10
0.0
 20
0.0
 30
0.0
 70
     8
  0
VERTEX
  5
1C781
330
1C780
100
AcDbEntity
  8
KERA1
100
AcDbVertex
100
AcDb3dPolylineVertex
 10
2369.864183951028
 20
1199.930948530309
 30
0.0
 70
    32
  0
VERTEX
  5
1C782
330
1C780
100
AcDbEntity
  8
KERA1
100
AcDbVertex
100
AcDb3dPolylineVertex
 10
2360.084521907013
 20
1199.930948530309
 30
0.0
 70
    32
  0
VERTEX
  5
1C783
330
1C780
100
AcDbEntity
  8
KERA1
100
AcDbVertex
100
AcDb3dPolylineVertex
 10
2350.304859862997
 20
1199.930948530309
 30
0.0
 70
    32
  0
VERTEX
  5
1C784
330
1C780
100
AcDbEntity
  8
KERA1
100
AcDbVertex
100
AcDb3dPolylineVertex
 10
2340.525197818981
 20
1199.930948530309
 30
0.0
 70
    32
  0
VERTEX
  5
1C785
330
1C780
100
AcDbEntity
  8
KERA1
100
AcDbVertex
100
AcDb3dPolylineVertex
 10
2330.745535774966
 20
1199.930948530309
 30
0.0
 70
    32
  0
SEQEND
  5
1C786
330
1C780
100
AcDbEntity
  8
KERA1
  0
POLYLINE
  5
1C787
330
1E
100
AcDbEntity
  8
KERA0
100
AcDb3dPolyline
 66
     1
 10
0.0
 20
0.0
 30
0.0
 70
    12
 75
     6
  0
VERTEX
  5
1C788
330
1C787
100
AcDbEntity
  8
KERA0
100
AcDbVertex
100
AcDb3dPolylineVertex
 10
2367.346179511983
 20
1199.930940520956
 30
-0.0000000000000711
 70
    48
  0
VERTEX
  5
1C789
330
1C787
100
AcDbEntity
  8
KERA0
100
AcDbVertex
100
AcDb3dPolylineVertex
 10
2367.346179511983
 20
1199.930940520956
 30
-9.560229657688999
 70
    48
  0
VERTEX
  5
1C78A
330
1C787
100
AcDbEntity
  8
KERA0
100
AcDbVertex
100
AcDb3dPolylineVertex
 10
2362.787479361386
 20
1199.930940520956
 30
-20.56590538805
 70
    48
  0
VERTEX
  5
1C78B
330
1C787
100
AcDbEntity
  8
KERA0
100
AcDbVertex
100
AcDb3dPolylineVertex
 10
2354.51792051738
 20
1199.930940520956
 30
-27.860722425002
 70
    48
  0
VERTEX
  5
1C78C
330
1C787
100
AcDbEntity
  8
KERA0
100
AcDbVertex
100
AcDb3dPolylineVertex
 10
2353.377494534169
 20
1199.930940520956
 30
-28.750779351722
 70
    48
  0
VERTEX
  5
1C78D
330
1C787
100
AcDbEntity
  8
KERA0
100
AcDbVertex
100
AcDb3dPolylineVertex
 10
2367.346179511983
 20
1199.930940520956
 30
-0.0000000000000711
 70
    40
  0
VERTEX
  5
1C78E
330
1C787
100
AcDbEntity
  8
KERA0
100
AcDbVertex
100
AcDb3dPolylineVertex
 10
2366.936171208476
 20
1199.930940520956
 30
-5.359171317752999
 70
    40
  0
VERTEX
  5
1C78F
330
1C787
100
AcDbEntity
  8
KERA0
100
AcDbVertex
100
AcDb3dPolylineVertex
 10
2365.736728289514
 20
1199.930940520956
 30
-10.607595447322
 70
    40
  0
VERTEX
  5
1C790
330
1C787
100
AcDbEntity
  8
KERA0
100
AcDbVertex
100
AcDb3dPolylineVertex
 10
2363.79372374244
 20
1199.930940520956
 30
-15.634525200524
 70
    40
  0
VERTEX
  5
1C791
330
1C787
100
AcDbEntity
  8
KERA0
100
AcDbVertex
100
AcDb3dPolylineVertex
 10
2361.153030554594
 20
1199.930940520956
 30
-20.32921338917499
 70
    40
  0
VERTEX
  5
1C792
330
1C787
100
AcDbEntity
  8
KERA0
100
AcDbVertex
100
AcDb3dPolylineVertex
 10
2357.860521713314
 20
1199.930940520956
 30
-24.580912825093
 70
    40
  0
VERTEX
  5
1C793
330
1C787
100
AcDbEntity
  8
KERA0
100
AcDbVertex
100
AcDb3dPolylineVertex
 10
2355.248668253183
 20
1199.930940520956
 30
-27.184957557836
 70
    40
  0
VERTEX
  5
1C794
330
1C787
100
AcDbEntity
  8
KERA0
100
AcDbVertex
100
AcDb3dPolylineVertex
 10
2353.377494534169
 20
1199.930940520956
 30
-28.750779351722
 70
    40
  0
SEQEND
  5
1C795
330
1C787
100
AcDbEntity
  8
KERA0
  0
POLYLINE
  5
1C796
330
1E
100
AcDbEntity
  8
KERA1
100
AcDb3dPolyline
 66
     1
 10
0.0
 20
0.0
 30
0.0
 70
     8
  0
VERTEX
  5
1C797
330
1C796
100
AcDbEntity
  8
KERA1
100
AcDbVertex
100
AcDb3dPolylineVertex
 10
2330.745535774966
 20
1188.50717017724
 30
0.0
 70
    32
  0
VERTEX
  5
1C798
330
1C796
100
AcDbEntity
  8
KERA1
100
AcDbVertex
100
AcDb3dPolylineVertex
 10
2336.463694760622
 20
1188.50717017724
 30
0.0
 70
    32
  0
VERTEX
  5
1C799
330
1C796
100
AcDbEntity
  8
KERA1
100
AcDbVertex
100
AcDb3dPolylineVertex
 10
2342.18185374628
 20
1188.50717017724
 30
0.0
 70
    32
  0
VERTEX
  5
1C79A
330
1C796
100
AcDbEntity
  8
KERA1
100
AcDbVertex
100
AcDb3dPolylineVertex
 10
2347.900012731936
 20
1188.50717017724
 30
0.0
 70
    32
  0
VERTEX
  5
1C79B
330
1C796
100
AcDbEntity
  8
KERA1
100
AcDbVertex
100
AcDb3dPolylineVertex
 10
2353.618171717594
 20
1188.50717017724
 30
0.0
 70
    32
  0
SEQEND
  5
1C79C
330
1C796
100
AcDbEntity
  8
KERA1
  0
LINE
  5
1C79D
330
1E
100
AcDbEntity
  8
KERA1
100
AcDbLine
 10
2362.052676809054
 20
1195.508020870755
 30
-0.0000000000000153
 11
2355.95563966756
 21
1190.450474914646
 31
-0.0000000000000015
  0
LINE
  5
1C79E
330
1E
100
AcDbEntity
  8
KERA1
100
AcDbLine
 10
2371.344209079139
 20
1200.178189669341
 30
-0.0000000000000213
 11
2374.901291834651
 21
1200.264957592068
 31
-0.000000000000012
  0
ARC
  5
1C79F
330
1E
100
AcDbEntity
  8
KERA1
100
AcDbCircle
 10
2372.313910456711
 20
1187.410182950808
 30
-0.0000000000000213
 40
12.80477709006166
100
AcDbArc
 50
94.34314780980534
 51
125.9390490785002
  0
ARC
  5
1C7A0
330
1E
100
AcDbEntity
  8
KERA1
100
AcDbCircle
 10
2357.229377436345
 20
1186.779068178525
 30
0.0
 40
3.669772790634231
100
AcDbArc
 50
133.0105566553788
 51
184.7089160509199
  0
POLYLINE
  5
1C7A1
330
1E
100
AcDbEntity
  8
KERA0
100
AcDb3dPolyline
 66
     1
 10
0.0
 20
0.0
 30
0.0
 70
    12
 75
     6
  0
VERTEX
  5
1C7A2
330
1C7A1
100
AcDbEntity
  8
KERA0
100
AcDbVertex
100
AcDb3dPolylineVertex
 10
2348.995537212517
 20
1188.507050176362
 30
0.0
 70
    48
  0
VERTEX
  5
1C7A3
330
1C7A1
100
AcDbEntity
  8
KERA0
100
AcDbVertex
100
AcDb3dPolylineVertex
 10
2350.174320389583
 20
1188.507050176362
 30
0.0
 70
    48
  0
VERTEX
  5
1C7A4
330
1C7A1
100
AcDbEntity
  8
KERA0
100
AcDbVertex
100
AcDb3dPolylineVertex
 10
2351.353103566652
 20
1188.507050176362
 30
0.0
 70
    48
  0
VERTEX
  5
1C7A5
330
1C7A1
100
AcDbEntity
  8
KERA0
100
AcDbVertex
100
AcDb3dPolylineVertex
 10
2352.531886743718
 20
1188.507050176362
 30
0.0
 70
    48
  0
VERTEX
  5
1C7A6
330
1C7A1
100
AcDbEntity
  8
KERA0
100
AcDbVertex
100
AcDb3dPolylineVertex
 10
2348.995537212517
 20
1188.507050176362
 30
0.0
 70
    40
  0
VERTEX
  5
1C7A7
330
1C7A1
100
AcDbEntity
  8
KERA0
100
AcDbVertex
100
AcDb3dPolylineVertex
 10
2349.437580903916
 20
1188.507050176362
 30
0.0
 70
    40
  0
VERTEX
  5
1C7A8
330
1C7A1
100
AcDbEntity
  8
KERA0
100
AcDbVertex
100
AcDb3dPolylineVertex
 10
2349.879624595318
 20
1188.507050176362
 30
0.0
 70
    40
  0
VERTEX
  5
1C7A9
330
1C7A1
100
AcDbEntity
  8
KERA0
100
AcDbVertex
100
AcDb3dPolylineVertex
 10
2350.321668286718
 20
1188.507050176362
 30
0.0
 70
    40
  0
VERTEX
  5
1C7AA
330
1C7A1
100
AcDbEntity
  8
KERA0
100
AcDbVertex
100
AcDb3dPolylineVertex
 10
2350.763711978117
 20
1188.507050176362
 30
0.0
 70
    40
  0
VERTEX
  5
1C7AB
330
1C7A1
100
AcDbEntity
  8
KERA0
100
AcDbVertex
100
AcDb3dPolylineVertex
 10
2351.205755669518
 20
1188.507050176362
 30
0.0
 70
    40
  0
VERTEX
  5
1C7AC
330
1C7A1
100
AcDbEntity
  8
KERA0
100
AcDbVertex
100
AcDb3dPolylineVertex
 10
2351.647799360918
 20
1188.507050176362
 30
0.0
 70
    40
  0
VERTEX
  5
1C7AD
330
1C7A1
100
AcDbEntity
  8
KERA0
100
AcDbVertex
100
AcDb3dPolylineVertex
 10
2352.089843052318
 20
1188.507050176362
 30
0.0
 70
    40
  0
VERTEX
  5
1C7AE
330
1C7A1
100
AcDbEntity
  8
KERA0
100
AcDbVertex
100
AcDb3dPolylineVertex
 10
2352.531886743718
 20
1188.507050176362
 30
0.0
 70
    40
  0
SEQEND
  5
1C7AF
330
1C7A1
100
AcDbEntity
  8
KERA0
  0
LINE
  5
1C7B0
330
1E
100
AcDbEntity
  8
KERA1
100
AcDbLine
 10
2353.491569236114
 20
1182.94379941132
 30
0.0002382579175668
 11
2353.345090227121
 21
1176.507057790672
 31
0.0003017900500879
  0
LINE
  5
1CF3D
330
1E
100
AcDbEntity
  8
KERA2
100
AcDbLine
 10
2330.745537212516
 20
1346.930948530309
 30
0.0
 11
2330.745537212516
 21
1130.481492156828
 31
0.0
  0
DIMENSION
  5
1CFB8
330
1E
100
AcDbEntity
  8
KERA4
100
AcDbDimension
  2
*D1
 10
2353.345090227121
 20
1113.600441802385
 30
0.0
 11
2481.46582692562
 21
1113.600441802385
 31
0.0
 70
    32
  1
46
 71
     5
 42
45.19910602920845
  3
STANDARD
100
AcDbAlignedDimension
 13
2308.145984197912
 23
1176.507057790672
 33
0.0003017900500879
 14
2353.345090227121
 24
1176.507057790672
 34
0.0003017900500879
100
AcDbRotatedDimension
  0
DIMENSION
  5
1D002
330
1E
100
AcDbEntity
  8
KERA4
100
AcDbDimension
  2
*D2
 10
2520.745537212517
 20
826.5463880411026
 30
0.0
 11
2330.984079066799
 21
826.5463880411026
 31
0.0
 70
    32
 71
     5
 42
379.5229162914361
  3
STANDARD
100
AcDbAlignedDimension
 13
2141.222620921081
 23
483.2454147237728
 33
0.0
 14
2520.745537212517
 24
483.245415211815
 34
0.0
100
AcDbRotatedDimension
  0
DIMENSION
  5
1D024
330
1E
100
AcDbEntity
  8
KERA4
100
AcDbDimension
  2
*D3
 10
2650.427046445492
 20
1199.930948530309
 30
0.0
 11
2650.427046445491
 21
1253.430948530309
 31
0.0
 70
    32
  1
110
 71
     5
 42
107.0
  3
STANDARD
100
AcDbAlignedDimension
 13
2544.445534749728
 23
1306.930948530309
 33
0.0
 14
2330.745535774966
 24
1199.930948530309
 34
0.0
 50
90.0
100
AcDbRotatedDimension
  0
LINE
  5
1D034
330
1E
100
AcDbEntity
  8
KERA4
100
AcDbLine
 10
2564.445534749728
 20
1306.930948530309
 30
0.0
 11
2784.261218241931
 21
1306.930948530309
 31
0.0
  0
LINE
  5
1D035
330
1E
100
AcDbEntity
  8
KERA4
100
AcDbLine
 10
2350.745537223802
 20
1176.507057790672
 30
0.0
 11
2619.28525634275
 21
1176.507057790671
 31
0.0
  0
LINE
  5
1D036
330
1E
100
AcDbEntity
  8
KERA4
100
AcDbLine
 10
2769.261218241931
 20
1346.930948530309
 30
0.0
 11
2769.261218241931
 21
1386.930948530309
 31
0.0
  0
LINE
  5
1D037
330
1E
100
AcDbEntity
  8
KERA4
100
AcDbLine
 10
2769.261218241931
 20
1136.507057790671
 30
0.0
 11
2769.261218241931
 21
1096.507057790672
 31
0.0
  0
SOLID
  5
1D038
330
1E
100
AcDbEntity
  8
KERA4
100
AcDbTrace
 10
2762.594551575265
 20
1346.930948530309
 30
0.0
 11
2775.927884908598
 21
1346.930948530309
 31
0.0
 12
2769.261218241931
 22
1306.930948530309
 32
0.0
 13
2769.261218241931
 23
1306.930948530309
 33
0.0
  0
SOLID
  5
1D039
330
1E
100
AcDbEntity
  8
KERA4
100
AcDbTrace
 10
2762.594551575265
 20
1136.507057790671
 30
0.0
 11
2775.927884908598
 21
1136.507057790671
 31
0.0
 12
2769.261218241931
 22
1176.507057790671
 32
0.0
 13
2769.261218241931
 23
1176.507057790671
 33
0.0
  0
MTEXT
  5
1D03A
330
1E
100
AcDbEntity
  8
KERA4
100
AcDbMText
 10
2769.261218241931
 20
1224.930948530309
 30
0.0
 40
45.0
 41
0.0
 71
     5
 72
     1
  1
\A1;130
 73
     1
 44
1.0
  0
LINE
  5
1D03B
330
1E
100
AcDbEntity
  8
KERA4
100
AcDbLine
 10
2674.106852488114
 20
1176.507057790671
 30
0.0
 11
2784.261218241931
 21
1176.507057790671
 31
0.0
  0
ENDSEC
  0
SECTION
  2
OBJECTS
  0
DICTIONARY
  5
C
330
0
100
AcDbDictionary
281
     1
  3
ACAD_GROUP
350
D
  3
ACAD_LAYOUT
350
19
  3
ACAD_MLINESTYLE
350
16
  3
ACAD_PLOTSETTINGS
350
18
  3
ACAD_PLOTSTYLENAME
350
E
  3
AcDbVariableDictionary
350
22AC
  3
ASE_INDEX_DICTIONARY
350
1CFB0
  0
DICTIONARY
  5
D
102
{ACAD_REACTORS
330
C
102
}
330
C
100
AcDbDictionary
281
     1
  0
DICTIONARY
  5
19
102
{ACAD_REACTORS
330
C
102
}
330
C
100
AcDbDictionary
281
     1
  3
Layout1
350
1D
  3
Model
350
21
  0
DICTIONARY
  5
16
102
{ACAD_REACTORS
330
C
102
}
330
C
100
AcDbDictionary
281
     1
  3
Standard
350
17
  0
DICTIONARY
  5
18
102
{ACAD_REACTORS
330
C
102
}
330
C
100
AcDbDictionary
281
     1
  0
ACDBDICTIONARYWDFLT
  5
E
102
{ACAD_REACTORS
330
C
102
}
330
C
100
AcDbDictionary
281
     1
  3
Normal
350
F
100
AcDbDictionaryWithDefault
340
F
  0
DICTIONARY
  5
22AC
102
{ACAD_REACTORS
330
C
102
}
330
C
100
AcDbDictionary
281
     1
  3
DIMASSOC
350
22AD
  0
DICTIONARY
  5
1CFB0
102
{ACAD_REACTORS
330
C
102
}
330
C
100
AcDbDictionary
281
     1
  3
ASEBlockHierarchyIndexRecord
350
1CFB1
1001
DCO15
1040
1622785808.251
  0
LAYOUT
  5
1D
102
{ACAD_REACTORS
330
19
102
}
330
19
100
AcDbPlotSettings
  1

  2
TPM1(4050N)
  4

  6

 40
0.0
 41
0.0
 42
0.0
 43
0.0
 44
0.0
 45
0.0
 46
0.0
 47
0.0
 48
0.0
 49
0.0
140
0.0
141
0.0
142
1.0
143
1.0
 70
   688
 72
     0
 73
     0
 74
     5
  7

 75
    16
147
1.0
148
0.0
149
0.0
100
AcDbLayout
  1
Layout1
 70
     1
 71
     1
 10
0.0
 20
0.0
 11
12.0
 21
9.0
 12
0.0
 22
0.0
 32
0.0
 14
1.000000000000000E+20
 24
1.000000000000000E+20
 34
1.000000000000000E+20
 15
-1.000000000000000E+20
 25
-1.000000000000000E+20
 35
-1.000000000000000E+20
146
0.0
 13
0.0
 23
0.0
 33
0.0
 16
1.0
 26
0.0
 36
0.0
 17
0.0
 27
1.0
 37
0.0
 76
     0
330
1A
  0
LAYOUT
  5
21
102
{ACAD_REACTORS
330
19
102
}
330
19
100
AcDbPlotSettings
  1

  2
\\ger-1001-01c001\GER-1001-01PB63
  4
User256
  6

 40
3.174999952316284
 41
3.174999952316284
 42
3.175003051757812
 43
3.17498779296875
 44
210.0
 45
296.8999938964843
 46
16.46
 47
0.0
 48
-515.9047334842234
 49
-1574.402560922981
140
1695.888510785305
141
728.4131463316025
142
1.0
143
8.957960295184467
 70
 11956
 72
     1
 73
     0
 74
     2
  7

 75
     0
147
0.1116325555202081
148
-1711.234538020701
149
531.6157259759815
100
AcDbLayout
  1
Model
 70
     1
 71
     0
 10
0.0
 20
0.0
 11
12.0
 21
9.0
 12
0.0
 22
0.0
 32
0.0
 14
0.0
 24
0.0
 34
0.0
 15
0.0
 25
0.0
 35
0.0
146
0.0
 13
0.0
 23
0.0
 33
0.0
 16
1.0
 26
0.0
 36
0.0
 17
0.0
 27
1.0
 37
0.0
 76
     0
330
1E
  0
MLINESTYLE
  5
17
102
{ACAD_REACTORS
330
16
102
}
330
16
100
AcDbMlineStyle
  2
STANDARD
 70
     0
  3

 62
   256
 51
90.0
 52
90.0
 71
     2
 49
0.5
 62
   256
  6
BYLAYER
 49
-0.5
 62
   256
  6
BYLAYER
  0
ACDBPLACEHOLDER
  5
F
102
{ACAD_REACTORS
330
E
102
}
330
E
  0
DICTIONARYVAR
  5
22AD
102
{ACAD_REACTORS
330
22AC
102
}
330
22AC
100
DictionaryVariables
280
     0
  1
1
  0
XRECORD
  5
1CFB1
102
{ACAD_REACTORS
330
1CFB0
102
}
330
1CFB0
100
AcDbXrecord
280
     1
  0
ENDSEC
  0
EOF
