  0
SECTION
  2
HEADER
  9
$ACADVER
  1
AC1015
  9
$ACADMAINTVER
 70
    13
  9
$DWGCODEPAGE
  3
ANSI_1252
  9
$INSBASE
 10
0.0
 20
0.0
 30
0.0
  9
$EXTMIN
 10
1896.94279577353
 20
-318.6263695186899
 30
-0.001780782051371
  9
$EXTMAX
 10
3003.421415822127
 20
1387.11530180619
 30
0.0033387656128312
  9
$LIMMIN
 10
1711.234538020701
 20
-531.6157259759815
  9
$LIMMAX
 10
3240.585647917727
 20
2071.119692892064
  9
$ORTHOMODE
 70
     1
  9
$REGENMODE
 70
     1
  9
$FILLMODE
 70
     1
  9
$QTEXTMODE
 70
     0
  9
$MIRRTEXT
 70
     1
  9
$LTSCALE
 40
2.0
  9
$ATTMODE
 70
     1
  9
$TEXTSIZE
 40
0.2
  9
$TRACEWID
 40
0.05
  9
$TEXTSTYLE
  7
Standard
  9
$CLAYER
  8
KERA4
  9
$CELTYPE
  6
ByLayer
  9
$CECOLOR
 62
   256
  9
$CELTSCALE
 40
1.0
  9
$DISPSILH
 70
     0
  9
$DIMSCALE
 40
1.0
  9
$DIMASZ
 40
40.0
  9
$DIMEXO
 40
20.0
  9
$DIMDLI
 40
30.0
  9
$DIMRND
 40
0.0
  9
$DIMDLE
 40
0.0
  9
$DIMEXE
 40
15.0
  9
$DIMTP
 40
0.0
  9
$DIMTM
 40
0.0
  9
$DIMTXT
 40
45.0
  9
$DIMCEN
 40
4.0
  9
$DIMTSZ
 40
0.0
  9
$DIMTOL
 70
     0
  9
$DIMLIM
 70
     0
  9
$DIMTIH
 70
     1
  9
$DIMTOH
 70
     1
  9
$DIMSE1
 70
     0
  9
$DIMSE2
 70
     0
  9
$DIMTAD
 70
     0
  9
$DIMZIN
 70
     9
  9
$DIMBLK
  1

  9
$DIMASO
 70
     1
  9
$DIMSHO
 70
     1
  9
$DIMPOST
  1

  9
$DIMAPOST
  1

  9
$DIMALT
 70
     0
  9
$DIMALTD
 70
     2
  9
$DIMALTF
 40
25.4
  9
$DIMLFAC
 40
1.0
  9
$DIMTOFL
 70
     0
  9
$DIMTVP
 40
0.0
  9
$DIMTIX
 70
     0
  9
$DIMSOXD
 70
     0
  9
$DIMSAH
 70
     0
  9
$DIMBLK1
  1

  9
$DIMBLK2
  1

  9
$DIMSTYLE
  2
STANDARD
  9
$DIMCLRD
 70
     0
  9
$DIMCLRE
 70
     0
  9
$DIMCLRT
 70
     0
  9
$DIMTFAC
 40
1.0
  9
$DIMGAP
 40
15.0
  9
$DIMJUST
 70
     0
  9
$DIMSD1
 70
     0
  9
$DIMSD2
 70
     0
  9
$DIMTOLJ
 70
     1
  9
$DIMTZIN
 70
     0
  9
$DIMALTZ
 70
     0
  9
$DIMALTTZ
 70
     0
  9
$DIMUPT
 70
     0
  9
$DIMDEC
 70
     0
  9
$DIMTDEC
 70
     0
  9
$DIMALTU
 70
     2
  9
$DIMALTTD
 70
     2
  9
$DIMTXSTY
  7
Standard
  9
$DIMAUNIT
 70
     0
  9
$DIMADEC
 70
     0
  9
$DIMALTRND
 40
0.0
  9
$DIMAZIN
 70
     0
  9
$DIMDSEP
 70
    46
  9
$DIMATFIT
 70
     3
  9
$DIMFRAC
 70
     0
  9
$DIMLDRBLK
  1

  9
$DIMLUNIT
 70
     2
  9
$DIMLWD
 70
    -2
  9
$DIMLWE
 70
    -2
  9
$DIMTMOVE
 70
     0
  9
$LUNITS
 70
     2
  9
$LUPREC
 70
     4
  9
$SKETCHINC
 40
0.1
  9
$FILLETRAD
 40
10.0
  9
$AUNITS
 70
     0
  9
$AUPREC
 70
     0
  9
$MENU
  1
.
  9
$ELEVATION
 40
0.0
  9
$PELEVATION
 40
0.0
  9
$THICKNESS
 40
0.0
  9
$LIMCHECK
 70
     0
  9
$CHAMFERA
 40
0.0
  9
$CHAMFERB
 40
0.0
  9
$CHAMFERC
 40
0.0
  9
$CHAMFERD
 40
0.0
  9
$SKPOLY
 70
     0
  9
$TDCREATE
 40
2453206.537812858
  9
$TDUCREATE
 40
2453206.454479525
  9
$TDUPDATE
 40
2454595.412891215
  9
$TDUUPDATE
 40
2454595.329557882
  9
$TDINDWG
 40
1.1730429514
  9
$TDUSRTIMER
 40
1.1730429514
  9
$USRTIMER
 70
     1
  9
$ANGBASE
 50
0.0
  9
$ANGDIR
 70
     0
  9
$PDMODE
 70
     0
  9
$PDSIZE
 40
0.0
  9
$PLINEWID
 40
0.0
  9
$SPLFRAME
 70
     0
  9
$SPLINETYPE
 70
     6
  9
$SPLINESEGS
 70
     8
  9
$HANDSEED
  5
2285A
  9
$SURFTAB1
 70
     6
  9
$SURFTAB2
 70
     6
  9
$SURFTYPE
 70
     6
  9
$SURFU
 70
     6
  9
$SURFV
 70
     6
  9
$UCSBASE
  2

  9
$UCSNAME
  2

  9
$UCSORG
 10
0.0
 20
0.0
 30
0.0
  9
$UCSXDIR
 10
1.0
 20
0.0
 30
0.0
  9
$UCSYDIR
 10
0.0
 20
1.0
 30
0.0
  9
$UCSORTHOREF
  2

  9
$UCSORTHOVIEW
 70
     1
  9
$UCSORGTOP
 10
0.0
 20
0.0
 30
0.0
  9
$UCSORGBOTTOM
 10
0.0
 20
0.0
 30
0.0
  9
$UCSORGLEFT
 10
0.0
 20
0.0
 30
0.0
  9
$UCSORGRIGHT
 10
0.0
 20
0.0
 30
0.0
  9
$UCSORGFRONT
 10
0.0
 20
0.0
 30
0.0
  9
$UCSORGBACK
 10
0.0
 20
0.0
 30
0.0
  9
$PUCSBASE
  2

  9
$PUCSNAME
  2

  9
$PUCSORG
 10
0.0
 20
0.0
 30
0.0
  9
$PUCSXDIR
 10
1.0
 20
0.0
 30
0.0
  9
$PUCSYDIR
 10
0.0
 20
1.0
 30
0.0
  9
$PUCSORTHOREF
  2

  9
$PUCSORTHOVIEW
 70
     0
  9
$PUCSORGTOP
 10
0.0
 20
0.0
 30
0.0
  9
$PUCSORGBOTTOM
 10
0.0
 20
0.0
 30
0.0
  9
$PUCSORGLEFT
 10
0.0
 20
0.0
 30
0.0
  9
$PUCSORGRIGHT
 10
0.0
 20
0.0
 30
0.0
  9
$PUCSORGFRONT
 10
0.0
 20
0.0
 30
0.0
  9
$PUCSORGBACK
 10
0.0
 20
0.0
 30
0.0
  9
$USERI1
 70
     0
  9
$USERI2
 70
     0
  9
$USERI3
 70
     0
  9
$USERI4
 70
     0
  9
$USERI5
 70
     0
  9
$USERR1
 40
0.0
  9
$USERR2
 40
0.0
  9
$USERR3
 40
0.0
  9
$USERR4
 40
0.0
  9
$USERR5
 40
0.0
  9
$WORLDVIEW
 70
     1
  9
$SHADEDGE
 70
     3
  9
$SHADEDIF
 70
    70
  9
$TILEMODE
 70
     1
  9
$MAXACTVP
 70
    64
  9
$PINSBASE
 10
0.0
 20
0.0
 30
0.0
  9
$PLIMCHECK
 70
     0
  9
$PEXTMIN
 10
1.000000000000000E+20
 20
1.000000000000000E+20
 30
1.000000000000000E+20
  9
$PEXTMAX
 10
-1.000000000000000E+20
 20
-1.000000000000000E+20
 30
-1.000000000000000E+20
  9
$PLIMMIN
 10
0.0
 20
0.0
  9
$PLIMMAX
 10
12.0
 20
9.0
  9
$UNITMODE
 70
     0
  9
$VISRETAIN
 70
     1
  9
$PLINEGEN
 70
     0
  9
$PSLTSCALE
 70
     1
  9
$TREEDEPTH
 70
  3020
  9
$CMLSTYLE
  2
Standard
  9
$CMLJUST
 70
     0
  9
$CMLSCALE
 40
1.0
  9
$PROXYGRAPHICS
 70
     1
  9
$MEASUREMENT
 70
     0
  9
$CELWEIGHT
370
    -1
  9
$ENDCAPS
280
     0
  9
$JOINSTYLE
280
     0
  9
$LWDISPLAY
290
     0
  9
$INSUNITS
 70
     0
  9
$HYPERLINKBASE
  1

  9
$STYLESHEET
  1

  9
$XEDIT
290
     1
  9
$CEPSNTYPE
380
     0
  9
$PSTYLEMODE
290
     1
  9
$FINGERPRINTGUID
  2
{77FBDECF-49F4-4993-9EF0-C4F1C0454A89}
  9
$VERSIONGUID
  2
{534FFC90-B58A-4EA9-A9F6-D48636F6FD0E}
  9
$EXTNAMES
290
     1
  9
$PSVPSCALE
 40
0.0
  9
$OLESTARTUP
290
     0
  0
ENDSEC
  0
SECTION
  2
CLASSES
  0
CLASS
  1
ACDBDICTIONARYWDFLT
  2
AcDbDictionaryWithDefault
  3
AutoCAD 2000
 90
        0
280
     0
281
     0
  0
CLASS
  1
ACDBPLACEHOLDER
  2
AcDbPlaceHolder
  3
AutoCAD 2000
 90
        0
280
     0
281
     0
  0
CLASS
  1
LAYOUT
  2
AcDbLayout
  3
AutoCAD 2000
 90
        0
280
     0
281
     0
  0
CLASS
  1
DICTIONARYVAR
  2
AcDbDictionaryVar
  3
AutoCAD 2000
 90
        0
280
     0
281
     0
  0
ENDSEC
  0
SECTION
  2
TABLES
  0
TABLE
  2
VPORT
  5
8
330
0
100
AcDbSymbolTable
 70
     4
  0
VPORT
  5
22859
330
8
100
AcDbSymbolTableRecord
100
AcDbViewportTableRecord
  2
*Active
 70
     0
 10
0.0
 20
0.0
 11
1.0
 21
1.0
 12
2450.571563811154
 22
533.0530284201031
 13
0.0
 23
0.0
 14
1.0
 24
1.0
 15
50.0
 25
50.0
 16
0.0
 26
0.0
 36
1.0
 17
0.0
 27
0.0
 37
0.0
 40
1720.027853718322
 41
1.401162790697674
 42
50.0
 43
0.0
 44
0.0
 50
0.0
 51
0.0
 71
     0
 72
   100
 73
     1
 74
     0
 75
     0
 76
     1
 77
     0
 78
     0
281
     0
 65
     1
110
0.0
120
0.0
130
0.0
111
1.0
121
0.0
131
0.0
112
0.0
122
1.0
132
0.0
 79
     1
146
0.0
  0
ENDTAB
  0
TABLE
  2
LTYPE
  5
5
330
0
100
AcDbSymbolTable
 70
     3
  0
LTYPE
  5
13
330
5
100
AcDbSymbolTableRecord
100
AcDbLinetypeTableRecord
  2
ByBlock
 70
     0
  3

 72
    65
 73
     0
 40
0.0
  0
LTYPE
  5
14
330
5
100
AcDbSymbolTableRecord
100
AcDbLinetypeTableRecord
  2
ByLayer
 70
     0
  3

 72
    65
 73
     0
 40
0.0
  0
LTYPE
  5
15
330
5
100
AcDbSymbolTableRecord
100
AcDbLinetypeTableRecord
  2
Continuous
 70
     0
  3
Solid line
 72
    65
 73
     0
 40
0.0
  0
LTYPE
  5
295F
330
5
100
AcDbSymbolTableRecord
100
AcDbLinetypeTableRecord
  2
ACAD_ISO10W100
 70
     0
  3
ISO Strichpunktlinie __ . __ . __ . __ . __ . _
 72
    65
 73
     4
 40
18.0
 49
12.0
 74
     0
 49
-3.0
 74
     0
 49
0.0
 74
     0
 49
-3.0
 74
     0
  0
LTYPE
  5
2960
330
5
100
AcDbSymbolTableRecord
100
AcDbLinetypeTableRecord
  2
ACAD_ISO02W100
 70
     0
  3
ISO Strichlinie __ __ __ __ __ __ __ __ __ __ _
 72
    65
 73
     2
 40
15.0
 49
12.0
 74
     0
 49
-3.0
 74
     0
  0
ENDTAB
  0
TABLE
  2
LAYER
  5
2
330
0
100
AcDbSymbolTable
 70
     6
  0
LAYER
  5
10
330
2
100
AcDbSymbolTableRecord
100
AcDbLayerTableRecord
  2
0
 70
     0
 62
     7
  6
Continuous
370
    -3
390
F
  0
LAYER
  5
2961
330
2
100
AcDbSymbolTableRecord
100
AcDbLayerTableRecord
  2
Defpoints
 70
     0
 62
     7
  6
Continuous
290
     0
370
    -3
390
F
  0
LAYER
  5
2962
330
2
100
AcDbSymbolTableRecord
100
AcDbLayerTableRecord
  2
KERA0
 70
     0
 62
     5
  6
Continuous
370
    40
390
F
  0
LAYER
  5
2963
330
2
100
AcDbSymbolTableRecord
100
AcDbLayerTableRecord
  2
KERA2
 70
     0
 62
     7
  6
ACAD_ISO10W100
370
    18
390
F
  0
LAYER
  5
2964
330
2
100
AcDbSymbolTableRecord
100
AcDbLayerTableRecord
  2
KERA4
 70
     0
 62
     1
  6
Continuous
370
    18
390
F
  0
LAYER
  5
2967
330
2
100
AcDbSymbolTableRecord
100
AcDbLayerTableRecord
  2
KERA1
 70
     0
 62
     1
  6
ACAD_ISO02W100
370
    25
390
F
  0
ENDTAB
  0
TABLE
  2
STYLE
  5
3
330
0
100
AcDbSymbolTable
 70
     1
  0
STYLE
  5
11
330
3
100
AcDbSymbolTableRecord
100
AcDbTextStyleTableRecord
  2
Standard
 70
     0
 40
45.0
 41
1.0
 50
0.0
 71
     0
 42
0.2
  3
ARIAL.TTF
  4

1001
ACAD
1000
Arial
1071
       34
  0
ENDTAB
  0
TABLE
  2
VIEW
  5
6
330
0
100
AcDbSymbolTable
 70
     0
  0
ENDTAB
  0
TABLE
  2
UCS
  5
7
330
0
100
AcDbSymbolTable
 70
     0
  0
ENDTAB
  0
TABLE
  2
APPID
  5
9
330
0
100
AcDbSymbolTable
 70
     2
  0
APPID
  5
12
330
9
100
AcDbSymbolTableRecord
100
AcDbRegAppTableRecord
  2
ACAD
 70
     0
  0
APPID
  5
22A9
330
9
100
AcDbSymbolTableRecord
100
AcDbRegAppTableRecord
  2
DCO15
 70
     0
  0
ENDTAB
  0
TABLE
  2
DIMSTYLE
  5
A
330
0
100
AcDbSymbolTable
 70
     1
100
AcDbDimStyleTable
 71
     1
340
10EF3
  0
DIMSTYLE
105
10EF3
102
{ACAD_REACTORS
330
2208D
330
220B7
330
2214A
330
22158
330
227A2
330
227E7
102
}
330
A
100
AcDbSymbolTableRecord
100
AcDbDimStyleTableRecord
  2
STANDARD
 70
     0
 41
40.0
 42
20.0
 43
30.0
 44
15.0
 78
     9
140
45.0
141
4.0
147
15.0
271
     0
272
     0
340
11
  0
ENDTAB
  0
TABLE
  2
BLOCK_RECORD
  5
1
330
0
100
AcDbSymbolTable
 70
     6
  0
BLOCK_RECORD
  5
1E
330
1
100
AcDbSymbolTableRecord
100
AcDbBlockTableRecord
  2
*Model_Space
340
21
  0
BLOCK_RECORD
  5
1A
330
1
100
AcDbSymbolTableRecord
100
AcDbBlockTableRecord
  2
*Paper_Space
340
1D
  0
BLOCK_RECORD
  5
2208E
330
1
100
AcDbSymbolTableRecord
100
AcDbBlockTableRecord
  2
*D0
340
0
  0
BLOCK_RECORD
  5
220B8
330
1
100
AcDbSymbolTableRecord
100
AcDbBlockTableRecord
  2
*D1
340
0
  0
BLOCK_RECORD
  5
2214B
330
1
100
AcDbSymbolTableRecord
100
AcDbBlockTableRecord
  2
*D2
340
0
  0
BLOCK_RECORD
  5
22159
330
1
100
AcDbSymbolTableRecord
100
AcDbBlockTableRecord
  2
*D3
340
0
  0
BLOCK_RECORD
  5
227A3
330
1
100
AcDbSymbolTableRecord
100
AcDbBlockTableRecord
  2
*D4
340
0
  0
BLOCK_RECORD
  5
227E8
330
1
100
AcDbSymbolTableRecord
100
AcDbBlockTableRecord
  2
*D5
340
0
  0
ENDTAB
  0
ENDSEC
  0
SECTION
  2
BLOCKS
  0
BLOCK
  5
1F
330
1E
100
AcDbEntity
  8
0
100
AcDbBlockBegin
  2
*Model_Space
 70
     0
 10
0.0
 20
0.0
 30
0.0
  3
*Model_Space
  1

  0
ENDBLK
  5
20
330
1E
100
AcDbEntity
  8
0
100
AcDbBlockEnd
  0
BLOCK
  5
1B
330
1A
100
AcDbEntity
 67
     1
  8
0
100
AcDbBlockBegin
  2
*Paper_Space
 70
     0
 10
0.0
 20
0.0
 30
0.0
  3
*Paper_Space
  1

  0
ENDBLK
  5
1C
330
1A
100
AcDbEntity
 67
     1
  8
0
100
AcDbBlockEnd
  0
BLOCK
  5
22099
330
2208E
100
AcDbEntity
  8
0
100
AcDbBlockBegin
  2
*D0
 70
     1
 10
0.0
 20
0.0
 30
0.0
  3
*D0
  1

  0
LINE
  5
22830
330
2208E
100
AcDbEntity
  8
KERA4
 62
     0
370
    -2
100
AcDbLine
 10
2067.057330384944
 20
667.7309546649541
 30
0.0
 11
2067.057330384944
 21
943.4191539455413
 31
0.0
  0
LINE
  5
22831
330
2208E
100
AcDbEntity
  8
KERA4
 62
     0
370
    -2
100
AcDbLine
 10
2594.445541874859
 20
667.2454028930663
 30
0.0
 11
2594.445541874859
 21
943.4191539455413
 31
0.0
  0
LINE
  5
22832
330
2208E
100
AcDbEntity
  8
KERA4
 62
     0
370
    -2
100
AcDbLine
 10
2107.057330384944
 20
928.4191539455415
 30
0.0
 11
2265.064176126075
 21
928.4191539455415
 31
0.0
  0
LINE
  5
22833
330
2208E
100
AcDbEntity
  8
KERA4
 62
     0
370
    -2
100
AcDbLine
 10
2554.445541874859
 20
928.4191539455415
 30
0.0
 11
2394.303603138353
 21
928.4191539455415
 31
0.0
  0
SOLID
  5
22834
330
2208E
100
AcDbEntity
  8
KERA4
 62
     0
100
AcDbTrace
 10
2107.057330384944
 20
935.0858206122081
 30
0.0
 11
2107.057330384944
 21
921.7524872788748
 31
0.0
 12
2067.057330384944
 22
928.4191539455415
 32
0.0
 13
2067.057330384944
 23
928.4191539455415
 33
0.0
  0
SOLID
  5
22835
330
2208E
100
AcDbEntity
  8
KERA4
 62
     0
100
AcDbTrace
 10
2554.445541874859
 20
935.0858206122081
 30
0.0
 11
2554.445541874859
 21
921.7524872788748
 31
0.0
 12
2594.445541874859
 22
928.4191539455415
 32
0.0
 13
2594.445541874859
 23
928.4191539455415
 33
0.0
  0
MTEXT
  5
22836
330
2208E
100
AcDbEntity
  8
KERA4
 62
     0
100
AcDbMText
 10
2329.683889632214
 20
928.4191539455415
 30
0.0
 40
45.0
 41
0.0
 71
     5
 72
     1
  1
\A1;534
 73
     1
 44
1.0
  0
POINT
  5
22837
330
2208E
100
AcDbEntity
  8
Defpoints
 62
     0
100
AcDbPoint
 10
2067.057330384944
 20
647.7309546649542
 30
0.0
  0
POINT
  5
22838
330
2208E
100
AcDbEntity
  8
Defpoints
 62
     0
100
AcDbPoint
 10
2594.445541874859
 20
647.2454028930663
 30
0.0
  0
POINT
  5
22839
330
2208E
100
AcDbEntity
  8
Defpoints
 62
     0
100
AcDbPoint
 10
2594.445541874859
 20
928.4191539455415
 30
0.0
  0
ENDBLK
  5
2209A
330
2208E
100
AcDbEntity
  8
0
100
AcDbBlockEnd
  0
BLOCK
  5
220C3
330
220B8
100
AcDbEntity
  8
0
100
AcDbBlockBegin
  2
*D1
 70
     1
 10
0.0
 20
0.0
 30
0.0
  3
*D1
  1

  0
LINE
  5
220B9
330
220B8
100
AcDbEntity
  8
KERA4
 62
     0
370
    -2
100
AcDbLine
 10
2580.745537201231
 20
633.2454038714103
 30
0.0
 11
2716.498087019132
 21
633.2454038714103
 31
0.0
  0
LINE
  5
220BA
330
220B8
100
AcDbEntity
  8
KERA4
 62
     0
370
    -2
100
AcDbLine
 10
2580.745537201231
 20
333.2454038714103
 30
0.0
 11
2716.498087019132
 21
333.2454038714102
 31
0.0
  0
LINE
  5
220BB
330
220B8
100
AcDbEntity
  8
KERA4
 62
     0
370
    -2
100
AcDbLine
 10
2701.498087019132
 20
593.2454038714102
 30
0.0
 11
2701.498087019132
 21
521.2365362042889
 31
0.0
  0
LINE
  5
220BC
330
220B8
100
AcDbEntity
  8
KERA4
 62
     0
370
    -2
100
AcDbLine
 10
2701.498087019132
 20
373.2454038714102
 30
0.0
 11
2701.498087019132
 21
445.2542715385316
 31
0.0
  0
SOLID
  5
220BD
330
220B8
100
AcDbEntity
  8
KERA4
 62
     0
100
AcDbTrace
 10
2694.831420352466
 20
593.2454038714102
 30
0.0
 11
2708.164753685799
 21
593.2454038714102
 31
0.0
 12
2701.498087019132
 22
633.2454038714103
 32
0.0
 13
2701.498087019132
 23
633.2454038714103
 33
0.0
  0
SOLID
  5
220BE
330
220B8
100
AcDbEntity
  8
KERA4
 62
     0
100
AcDbTrace
 10
2694.831420352466
 20
373.2454038714102
 30
0.0
 11
2708.164753685799
 21
373.2454038714102
 31
0.0
 12
2701.498087019132
 22
333.2454038714102
 32
0.0
 13
2701.498087019132
 23
333.2454038714102
 33
0.0
  0
MTEXT
  5
220BF
330
220B8
100
AcDbEntity
  8
KERA4
 62
     0
100
AcDbMText
 10
2701.498087019132
 20
483.2454038714106
 30
0.0
 40
45.0
 41
0.0
 71
     5
 72
     1
  1
\A1;300
 73
     1
 44
1.0
  0
POINT
  5
220C0
330
220B8
100
AcDbEntity
  8
Defpoints
 62
     0
100
AcDbPoint
 10
2560.745537201231
 20
633.2454038714103
 30
0.0
  0
POINT
  5
220C1
330
220B8
100
AcDbEntity
  8
Defpoints
 62
     0
100
AcDbPoint
 10
2560.745537201231
 20
333.2454038714103
 30
0.0
  0
POINT
  5
220C2
330
220B8
100
AcDbEntity
  8
Defpoints
 62
     0
100
AcDbPoint
 10
2701.498087019132
 20
333.2454038714102
 30
0.0
  0
ENDBLK
  5
220C4
330
220B8
100
AcDbEntity
  8
0
100
AcDbBlockEnd
  0
BLOCK
  5
22156
330
2214B
100
AcDbEntity
  8
0
100
AcDbBlockBegin
  2
*D2
 70
     1
 10
0.0
 20
0.0
 30
0.0
  3
*D2
  1

  0
LINE
  5
2283A
330
2214B
100
AcDbEntity
  8
KERA4
 62
     0
370
    -2
100
AcDbLine
 10
2604.445541874859
 20
657.2454028930661
 30
0.0
 11
2866.056819397601
 21
657.245402893066
 31
0.0
  0
LINE
  5
2283B
330
2214B
100
AcDbEntity
  8
KERA4
 62
     0
370
    -2
100
AcDbLine
 10
2604.445541874859
 20
309.2454195823663
 30
0.0
 11
2866.056819397601
 21
309.2454195823663
 31
0.0
  0
LINE
  5
2283C
330
2214B
100
AcDbEntity
  8
KERA4
 62
     0
370
    -2
100
AcDbLine
 10
2851.056819397601
 20
617.245402893066
 30
0.0
 11
2851.056819397601
 21
521.2365435705947
 31
0.0
  0
LINE
  5
2283D
330
2214B
100
AcDbEntity
  8
KERA4
 62
     0
370
    -2
100
AcDbLine
 10
2851.056819397601
 20
349.2454195823663
 30
0.0
 11
2851.056819397601
 21
445.2542789048376
 31
0.0
  0
SOLID
  5
2283E
330
2214B
100
AcDbEntity
  8
KERA4
 62
     0
100
AcDbTrace
 10
2844.390152730935
 20
617.245402893066
 30
0.0
 11
2857.723486064267
 21
617.245402893066
 31
0.0
 12
2851.056819397601
 22
657.245402893066
 32
0.0
 13
2851.056819397601
 23
657.245402893066
 33
0.0
  0
SOLID
  5
2283F
330
2214B
100
AcDbEntity
  8
KERA4
 62
     0
100
AcDbTrace
 10
2844.390152730935
 20
349.2454195823663
 30
0.0
 11
2857.723486064267
 21
349.2454195823663
 31
0.0
 12
2851.056819397601
 22
309.2454195823663
 32
0.0
 13
2851.056819397601
 23
309.2454195823663
 33
0.0
  0
MTEXT
  5
22840
330
2214B
100
AcDbEntity
  8
KERA4
 62
     0
100
AcDbMText
 10
2851.056819397601
 20
483.2454112377166
 30
0.0
 40
45.0
 41
0.0
 71
     5
 72
     1
  1
\A1;354
 73
     1
 44
1.0
  0
POINT
  5
22841
330
2214B
100
AcDbEntity
  8
Defpoints
 62
     0
100
AcDbPoint
 10
2584.445541874859
 20
657.2454028930661
 30
0.0
  0
POINT
  5
22842
330
2214B
100
AcDbEntity
  8
Defpoints
 62
     0
100
AcDbPoint
 10
2584.445541874859
 20
309.2454195823663
 30
0.0
  0
POINT
  5
22843
330
2214B
100
AcDbEntity
  8
Defpoints
 62
     0
100
AcDbPoint
 10
2851.056819397601
 20
309.2454195823663
 30
0.0
  0
ENDBLK
  5
22157
330
2214B
100
AcDbEntity
  8
0
100
AcDbBlockEnd
  0
BLOCK
  5
22164
330
22159
100
AcDbEntity
  8
0
100
AcDbBlockBegin
  2
*D3
 70
     1
 10
0.0
 20
0.0
 30
0.0
  3
*D3
  1

  0
LINE
  5
22783
330
22159
100
AcDbEntity
  8
KERA4
 62
     0
370
    -2
100
AcDbLine
 10
2090.745537201231
 20
643.2454038714102
 30
0.0
 11
2090.745537201231
 21
841.5463880411024
 31
0.0
  0
LINE
  5
22784
330
22159
100
AcDbEntity
  8
KERA4
 62
     0
370
    -2
100
AcDbLine
 10
2570.745537201231
 20
643.2454038714102
 30
0.0
 11
2570.745537201231
 21
841.5463880411024
 31
0.0
  0
LINE
  5
22785
330
22159
100
AcDbEntity
  8
KERA4
 62
     0
370
    -2
100
AcDbLine
 10
2130.745537201231
 20
826.5463880411024
 30
0.0
 11
2265.204950570944
 21
826.5463880411024
 31
0.0
  0
LINE
  5
22786
330
22159
100
AcDbEntity
  8
KERA4
 62
     0
370
    -2
100
AcDbLine
 10
2530.745537201231
 20
826.5463880411024
 30
0.0
 11
2396.286123831518
 21
826.5463880411024
 31
0.0
  0
SOLID
  5
22787
330
22159
100
AcDbEntity
  8
KERA4
 62
     0
100
AcDbTrace
 10
2130.745537201231
 20
833.213054707769
 30
0.0
 11
2130.745537201231
 21
819.8797213744358
 31
0.0
 12
2090.745537201231
 22
826.5463880411024
 32
0.0
 13
2090.745537201231
 23
826.5463880411024
 33
0.0
  0
SOLID
  5
22788
330
22159
100
AcDbEntity
  8
KERA4
 62
     0
100
AcDbTrace
 10
2530.745537201231
 20
833.213054707769
 30
0.0
 11
2530.745537201231
 21
819.8797213744358
 31
0.0
 12
2570.745537201231
 22
826.5463880411024
 32
0.0
 13
2570.745537201231
 23
826.5463880411024
 33
0.0
  0
MTEXT
  5
22789
330
22159
100
AcDbEntity
  8
KERA4
 62
     0
100
AcDbMText
 10
2330.745537201231
 20
826.5463880411024
 30
0.0
 40
45.0
 41
0.0
 71
     5
 72
     1
  1
\A1;480
 73
     1
 44
1.0
  0
POINT
  5
2278A
330
22159
100
AcDbEntity
  8
Defpoints
 62
     0
100
AcDbPoint
 10
2090.745537201231
 20
623.2454038714102
 30
0.0
  0
POINT
  5
2278B
330
22159
100
AcDbEntity
  8
Defpoints
 62
     0
100
AcDbPoint
 10
2570.745537201231
 20
623.2454038714102
 30
0.0
  0
POINT
  5
2278C
330
22159
100
AcDbEntity
  8
Defpoints
 62
     0
100
AcDbPoint
 10
2570.745537201231
 20
826.5463880411024
 30
0.0
  0
ENDBLK
  5
22165
330
22159
100
AcDbEntity
  8
0
100
AcDbBlockEnd
  0
BLOCK
  5
227AE
330
227A3
100
AcDbEntity
  8
0
100
AcDbBlockBegin
  2
*D4
 70
     1
 10
0.0
 20
0.0
 30
0.0
  3
*D4
  1

  0
LINE
  5
2284D
330
227A3
100
AcDbEntity
  8
KERA4
 62
     0
370
    -2
100
AcDbLine
 10
2308.1995868758
 20
1156.507062861247
 30
0.0
 11
2308.1995868758
 21
1098.600446872959
 31
0.0
  0
LINE
  5
2284E
330
227A3
100
AcDbEntity
  8
KERA4
 62
     0
370
    -2
100
AcDbLine
 10
2353.398692905008
 20
1156.507062861247
 30
0.0
 11
2353.398692905008
 21
1098.600446872959
 31
0.0
  0
LINE
  5
2284F
330
227A3
100
AcDbEntity
  8
KERA4
 62
     0
370
    -2
100
AcDbLine
 10
2268.1995868758
 20
1113.60044687296
 30
0.0
 11
2228.199586875799
 21
1113.60044687296
 31
0.0
  0
LINE
  5
22850
330
227A3
100
AcDbEntity
  8
KERA4
 62
     0
370
    -2
100
AcDbLine
 10
2393.398692905008
 20
1113.60044687296
 30
0.0
 11
2433.398692905008
 21
1113.60044687296
 31
0.0
  0
SOLID
  5
22851
330
227A3
100
AcDbEntity
  8
KERA4
 62
     0
100
AcDbTrace
 10
2268.1995868758
 20
1120.267113539626
 30
0.0
 11
2268.1995868758
 21
1106.933780206293
 31
0.0
 12
2308.1995868758
 22
1113.60044687296
 32
0.0
 13
2308.1995868758
 23
1113.60044687296
 33
0.0
  0
SOLID
  5
22852
330
227A3
100
AcDbEntity
  8
KERA4
 62
     0
100
AcDbTrace
 10
2393.398692905008
 20
1120.267113539626
 30
0.0
 11
2393.398692905008
 21
1106.933780206293
 31
0.0
 12
2353.398692905008
 22
1113.60044687296
 32
0.0
 13
2353.398692905008
 23
1113.60044687296
 33
0.0
  0
MTEXT
  5
22853
330
227A3
100
AcDbEntity
  8
KERA4
 62
     0
100
AcDbMText
 10
2481.519429603508
 20
1113.60044687296
 30
0.0
 40
45.0
 41
0.0
 71
     5
 72
     1
  1
\A1;46
 73
     1
 44
1.0
  0
POINT
  5
22854
330
227A3
100
AcDbEntity
  8
Defpoints
 62
     0
100
AcDbPoint
 10
2308.1995868758
 20
1176.507062861247
 30
0.0003017900500879
  0
POINT
  5
22855
330
227A3
100
AcDbEntity
  8
Defpoints
 62
     0
100
AcDbPoint
 10
2353.398692905008
 20
1176.507062861247
 30
0.0003017900500879
  0
POINT
  5
22856
330
227A3
100
AcDbEntity
  8
Defpoints
 62
     0
100
AcDbPoint
 10
2353.398692905008
 20
1113.60044687296
 30
0.0
  0
ENDBLK
  5
227AF
330
227A3
100
AcDbEntity
  8
0
100
AcDbBlockEnd
  0
BLOCK
  5
227F3
330
227E8
100
AcDbEntity
  8
0
100
AcDbBlockBegin
  2
*D5
 70
     1
 10
0.0
 20
0.0
 30
0.0
  3
*D5
  1

  0
LINE
  5
2281C
330
227E8
100
AcDbEntity
  8
KERA4
 62
     0
370
    -2
100
AcDbLine
 10
2614.499141722786
 20
1306.930948530309
 30
0.0
 11
2716.498087019132
 21
1306.930948530309
 31
0.0
  0
LINE
  5
2281D
330
227E8
100
AcDbEntity
  8
KERA4
 62
     0
370
    -2
100
AcDbLine
 10
2350.799139901689
 20
1199.930953600884
 30
0.0
 11
2716.498087019132
 21
1199.930953600883
 31
0.0
  0
LINE
  5
2281E
330
227E8
100
AcDbEntity
  8
KERA4
 62
     0
370
    -2
100
AcDbLine
 10
2701.498087019132
 20
1346.930948530309
 30
0.0
 11
2701.498087019132
 21
1386.930948530309
 31
0.0
  0
LINE
  5
2281F
330
227E8
100
AcDbEntity
  8
KERA4
 62
     0
370
    -2
100
AcDbLine
 10
2701.498087019132
 20
1159.930953600883
 30
0.0
 11
2701.498087019132
 21
1119.930953600883
 31
0.0
  0
SOLID
  5
22820
330
227E8
100
AcDbEntity
  8
KERA4
 62
     0
100
AcDbTrace
 10
2694.831420352466
 20
1346.930948530309
 30
0.0
 11
2708.164753685799
 21
1346.930948530309
 31
0.0
 12
2701.498087019132
 22
1306.930948530309
 32
0.0
 13
2701.498087019132
 23
1306.930948530309
 33
0.0
  0
SOLID
  5
22821
330
227E8
100
AcDbEntity
  8
KERA4
 62
     0
100
AcDbTrace
 10
2694.831420352466
 20
1159.930953600883
 30
0.0
 11
2708.164753685799
 21
1159.930953600883
 31
0.0
 12
2701.498087019132
 22
1199.930953600883
 32
0.0
 13
2701.498087019132
 23
1199.930953600883
 33
0.0
  0
MTEXT
  5
22822
330
227E8
100
AcDbEntity
  8
KERA4
 62
     0
100
AcDbMText
 10
2701.498087019132
 20
1253.430951065596
 30
0.0
 40
45.0
 41
0.0
 71
     5
 72
     1
  1
\A1;110
 73
     1
 44
1.0
  0
POINT
  5
22823
330
227E8
100
AcDbEntity
  8
Defpoints
 62
     0
100
AcDbPoint
 10
2594.499141722786
 20
1306.930948530309
 30
0.0
  0
POINT
  5
22824
330
227E8
100
AcDbEntity
  8
Defpoints
 62
     0
100
AcDbPoint
 10
2330.799139901689
 20
1199.930953600884
 30
0.0
  0
POINT
  5
22825
330
227E8
100
AcDbEntity
  8
Defpoints
 62
     0
100
AcDbPoint
 10
2701.498087019132
 20
1199.930953600883
 30
0.0
  0
ENDBLK
  5
227F4
330
227E8
100
AcDbEntity
  8
0
100
AcDbBlockEnd
  0
ENDSEC
  0
SECTION
  2
ENTITIES
  0
MTEXT
  5
3441
330
1E
100
AcDbEntity
  8
KERA4
100
AcDbMText
 10
1901.988948390646
 20
-33.71245194653784
 30
0.0
 40
45.0
 41
0.0
 71
     1
 72
     5
  1
Washtop Design - Zeichnung \PUnterbauwaschtisch,\PMod.-Nr. VSA_UBS48_WA   \P08.05.08/Th                                            \P{\Ftxt.shx;        }
 73
     1
 44
1.0
  0
LINE
  5
10E1D
330
1E
100
AcDbEntity
  8
KERA2
100
AcDbLine
 10
2045.563114710654
 20
483.2454147237727
 30
0.0
 11
2615.927959714378
 21
483.2454147237726
 31
0.0
  0
LINE
  5
10E1E
330
1E
100
AcDbEntity
  8
KERA2
100
AcDbLine
 10
2330.745537212516
 20
701.4980189696935
 30
0.0
 11
2330.745537212516
 21
267.7155297072986
 31
0.0
  0
POLYLINE
  5
1C55C
330
1E
100
AcDbEntity
  8
0
100
AcDb3dPolyline
 66
     1
 10
0.0
 20
0.0
 30
0.0
 70
    12
 75
     6
  0
VERTEX
  5
1C55D
330
1C55C
100
AcDbEntity
  8
0
100
AcDbVertex
100
AcDb3dPolylineVertex
 10
2598.745538635254
 20
1344.930943761951
 30
0.0
 70
    48
  0
VERTEX
  5
1C55E
330
1C55C
100
AcDbEntity
  8
0
100
AcDbVertex
100
AcDb3dPolylineVertex
 10
2598.745797919858
 20
1344.930943761951
 30
0.0
 70
    48
  0
VERTEX
  5
1C55F
330
1C55C
100
AcDbEntity
  8
0
100
AcDbVertex
100
AcDb3dPolylineVertex
 10
2598.746057204463
 20
1344.930943761146
 30
0.0
 70
    48
  0
VERTEX
  5
1C560
330
1C55C
100
AcDbEntity
  8
0
100
AcDbVertex
100
AcDb3dPolylineVertex
 10
2598.746316489068
 20
1344.930943759537
 30
0.0
 70
    48
  0
VERTEX
  5
1C561
330
1C55C
100
AcDbEntity
  8
0
100
AcDbVertex
100
AcDb3dPolylineVertex
 10
2598.745538635254
 20
1344.930943761951
 30
0.0
 70
    40
  0
VERTEX
  5
1C562
330
1C55C
100
AcDbEntity
  8
0
100
AcDbVertex
100
AcDb3dPolylineVertex
 10
2598.745635866979
 20
1344.930943761913
 30
0.0
 70
    40
  0
VERTEX
  5
1C563
330
1C55C
100
AcDbEntity
  8
0
100
AcDbVertex
100
AcDb3dPolylineVertex
 10
2598.745733098707
 20
1344.9309437618
 30
0.0
 70
    40
  0
VERTEX
  5
1C564
330
1C55C
100
AcDbEntity
  8
0
100
AcDbVertex
100
AcDb3dPolylineVertex
 10
2598.745830330434
 20
1344.930943761612
 30
0.0
 70
    40
  0
VERTEX
  5
1C565
330
1C55C
100
AcDbEntity
  8
0
100
AcDbVertex
100
AcDb3dPolylineVertex
 10
2598.745927562161
 20
1344.930943761348
 30
0.0
 70
    40
  0
VERTEX
  5
1C566
330
1C55C
100
AcDbEntity
  8
0
100
AcDbVertex
100
AcDb3dPolylineVertex
 10
2598.746024793888
 20
1344.930943761008
 30
0.0
 70
    40
  0
VERTEX
  5
1C567
330
1C55C
100
AcDbEntity
  8
0
100
AcDbVertex
100
AcDb3dPolylineVertex
 10
2598.746122025613
 20
1344.930943760593
 30
0.0
 70
    40
  0
VERTEX
  5
1C568
330
1C55C
100
AcDbEntity
  8
0
100
AcDbVertex
100
AcDb3dPolylineVertex
 10
2598.74621925734
 20
1344.930943760103
 30
0.0
 70
    40
  0
VERTEX
  5
1C569
330
1C55C
100
AcDbEntity
  8
0
100
AcDbVertex
100
AcDb3dPolylineVertex
 10
2598.746316489068
 20
1344.930943759537
 30
0.0
 70
    40
  0
SEQEND
  5
1C56A
330
1C55C
100
AcDbEntity
  8
0
  0
POLYLINE
  5
1C6DE
330
1E
100
AcDbEntity
  8
KERA4
100
AcDb3dPolyline
 66
     1
 10
0.0
 20
0.0
 30
0.0
 70
    13
 75
     6
  0
VERTEX
  5
1C6DF
330
1C6DE
100
AcDbEntity
  8
KERA4
100
AcDbVertex
100
AcDb3dPolylineVertex
 10
2359.732287335851
 20
454.2586738923383
 30
0.0
 70
    48
  0
VERTEX
  5
1C6E0
330
1C6DE
100
AcDbEntity
  8
KERA4
100
AcDbVertex
100
AcDb3dPolylineVertex
 10
2371.738991770603
 20
483.2454225781214
 30
0.0
 70
    48
  0
VERTEX
  5
1C6E1
330
1C6DE
100
AcDbEntity
  8
KERA4
100
AcDbVertex
100
AcDb3dPolylineVertex
 10
2359.732287335851
 20
512.2321712639044
 30
0.0
 70
    48
  0
VERTEX
  5
1C6E2
330
1C6DE
100
AcDbEntity
  8
KERA4
100
AcDbVertex
100
AcDb3dPolylineVertex
 10
2330.745538650068
 20
524.2388756986564
 30
0.0
 70
    48
  0
VERTEX
  5
1C6E3
330
1C6DE
100
AcDbEntity
  8
KERA4
100
AcDbVertex
100
AcDb3dPolylineVertex
 10
2301.758789964285
 20
512.2321712639044
 30
0.0
 70
    48
  0
VERTEX
  5
1C6E4
330
1C6DE
100
AcDbEntity
  8
KERA4
100
AcDbVertex
100
AcDb3dPolylineVertex
 10
2289.752085529533
 20
483.2454225781214
 30
0.0
 70
    48
  0
VERTEX
  5
1C6E5
330
1C6DE
100
AcDbEntity
  8
KERA4
100
AcDbVertex
100
AcDb3dPolylineVertex
 10
2301.758789964285
 20
454.2586738923383
 30
0.0
 70
    48
  0
VERTEX
  5
1C6E6
330
1C6DE
100
AcDbEntity
  8
KERA4
100
AcDbVertex
100
AcDb3dPolylineVertex
 10
2330.745538650068
 20
442.2519694575864
 30
0.0
 70
    48
  0
VERTEX
  5
1C6E7
330
1C6DE
100
AcDbEntity
  8
KERA4
100
AcDbVertex
100
AcDb3dPolylineVertex
 10
2367.736756959019
 20
483.2454225781214
 30
0.0
 70
    40
  0
VERTEX
  5
1C6E8
330
1C6DE
100
AcDbEntity
  8
KERA4
100
AcDbVertex
100
AcDb3dPolylineVertex
 10
2367.322373341387
 20
488.6617831229334
 30
0.0
 70
    40
  0
VERTEX
  5
1C6E9
330
1C6DE
100
AcDbEntity
  8
KERA4
100
AcDbVertex
100
AcDb3dPolylineVertex
 10
2366.110130829099
 20
493.9662146651143
 30
0.0
 70
    40
  0
VERTEX
  5
1C6EA
330
1C6DE
100
AcDbEntity
  8
KERA4
100
AcDbVertex
100
AcDb3dPolylineVertex
 10
2364.146391933068
 20
499.0467882020334
 30
0.0
 70
    40
  0
VERTEX
  5
1C6EB
330
1C6DE
100
AcDbEntity
  8
KERA4
100
AcDbVertex
100
AcDb3dPolylineVertex
 10
2361.477519164207
 20
503.7915747310574
 30
0.0
 70
    40
  0
VERTEX
  5
1C6EC
330
1C6DE
100
AcDbEntity
  8
KERA4
100
AcDbVertex
100
AcDb3dPolylineVertex
 10
2358.149875033429
 20
508.0886452495574
 30
0.0
 70
    40
  0
VERTEX
  5
1C6ED
330
1C6DE
100
AcDbEntity
  8
KERA4
100
AcDbVertex
100
AcDb3dPolylineVertex
 10
2354.213059903089
 20
511.8293086063424
 30
0.0
 70
    40
  0
VERTEX
  5
1C6EE
330
1C6DE
100
AcDbEntity
  8
KERA4
100
AcDbVertex
100
AcDb3dPolylineVertex
 10
2349.754314158567
 20
514.9425136732504
 30
0.0
 70
    40
  0
VERTEX
  5
1C6EF
330
1C6DE
100
AcDbEntity
  8
KERA4
100
AcDbVertex
100
AcDb3dPolylineVertex
 10
2344.885162071063
 20
517.3814932079353
 30
0.0
 70
    40
  0
VERTEX
  5
1C6F0
330
1C6DE
100
AcDbEntity
  8
KERA4
100
AcDbVertex
100
AcDb3dPolylineVertex
 10
2339.717532643209
 20
519.0998846994864
 30
0.0
 70
    40
  0
VERTEX
  5
1C6F1
330
1C6DE
100
AcDbEntity
  8
KERA4
100
AcDbVertex
100
AcDb3dPolylineVertex
 10
2334.363354877635
 20
520.0513256369904
 30
0.0
 70
    40
  0
VERTEX
  5
1C6F2
330
1C6DE
100
AcDbEntity
  8
KERA4
100
AcDbVertex
100
AcDb3dPolylineVertex
 10
2328.934557776976
 20
520.1900258862123
 30
0.0
 70
    40
  0
VERTEX
  5
1C6F3
330
1C6DE
100
AcDbEntity
  8
KERA4
100
AcDbVertex
100
AcDb3dPolylineVertex
 10
2323.543070343859
 20
519.5045379135944
 30
0.0
 70
    40
  0
VERTEX
  5
1C6F4
330
1C6DE
100
AcDbEntity
  8
KERA4
100
AcDbVertex
100
AcDb3dPolylineVertex
 10
2318.300821580918
 20
518.0366452166233
 30
0.0
 70
    40
  0
VERTEX
  5
1C6F5
330
1C6DE
100
AcDbEntity
  8
KERA4
100
AcDbVertex
100
AcDb3dPolylineVertex
 10
2313.319740490783
 20
515.8327103062154
 30
0.0
 70
    40
  0
VERTEX
  5
1C6F6
330
1C6DE
100
AcDbEntity
  8
KERA4
100
AcDbVertex
100
AcDb3dPolylineVertex
 10
2308.711756076085
 20
512.9390956932804
 30
0.0
 70
    40
  0
VERTEX
  5
1C6F7
330
1C6DE
100
AcDbEntity
  8
KERA4
100
AcDbVertex
100
AcDb3dPolylineVertex
 10
2304.588797339457
 20
509.4021638887324
 30
0.0
 70
    40
  0
VERTEX
  5
1C6F8
330
1C6DE
100
AcDbEntity
  8
KERA4
100
AcDbVertex
100
AcDb3dPolylineVertex
 10
2301.051865534909
 20
505.2792051521044
 30
0.0
 70
    40
  0
VERTEX
  5
1C6F9
330
1C6DE
100
AcDbEntity
  8
KERA4
100
AcDbVertex
100
AcDb3dPolylineVertex
 10
2298.158250921974
 20
500.6712207374063
 30
0.0
 70
    40
  0
VERTEX
  5
1C6FA
330
1C6DE
100
AcDbEntity
  8
KERA4
100
AcDbVertex
100
AcDb3dPolylineVertex
 10
2295.954316011566
 20
495.6901396472714
 30
0.0
 70
    40
  0
VERTEX
  5
1C6FB
330
1C6DE
100
AcDbEntity
  8
KERA4
100
AcDbVertex
100
AcDb3dPolylineVertex
 10
2294.486423314595
 20
490.4478908843304
 30
0.0
 70
    40
  0
VERTEX
  5
1C6FC
330
1C6DE
100
AcDbEntity
  8
KERA4
100
AcDbVertex
100
AcDb3dPolylineVertex
 10
2293.800935341976
 20
485.0564034512133
 30
0.0
 70
    40
  0
VERTEX
  5
1C6FD
330
1C6DE
100
AcDbEntity
  8
KERA4
100
AcDbVertex
100
AcDb3dPolylineVertex
 10
2293.939635591199
 20
479.6276063505533
 30
0.0
 70
    40
  0
VERTEX
  5
1C6FE
330
1C6DE
100
AcDbEntity
  8
KERA4
100
AcDbVertex
100
AcDb3dPolylineVertex
 10
2294.891076528703
 20
474.2734285849803
 30
0.0
 70
    40
  0
VERTEX
  5
1C6FF
330
1C6DE
100
AcDbEntity
  8
KERA4
100
AcDbVertex
100
AcDb3dPolylineVertex
 10
2296.609468020254
 20
469.1057991571264
 30
0.0
 70
    40
  0
VERTEX
  5
1C700
330
1C6DE
100
AcDbEntity
  8
KERA4
100
AcDbVertex
100
AcDb3dPolylineVertex
 10
2299.048447554939
 20
464.2366470696224
 30
0.0
 70
    40
  0
VERTEX
  5
1C701
330
1C6DE
100
AcDbEntity
  8
KERA4
100
AcDbVertex
100
AcDb3dPolylineVertex
 10
2302.161652621847
 20
459.7779013251003
 30
0.0
 70
    40
  0
VERTEX
  5
1C702
330
1C6DE
100
AcDbEntity
  8
KERA4
100
AcDbVertex
100
AcDb3dPolylineVertex
 10
2305.902315978632
 20
455.8410861947605
 30
0.0
 70
    40
  0
VERTEX
  5
1C703
330
1C6DE
100
AcDbEntity
  8
KERA4
100
AcDbVertex
100
AcDb3dPolylineVertex
 10
2310.199386497131
 20
452.5134420639824
 30
0.0
 70
    40
  0
VERTEX
  5
1C704
330
1C6DE
100
AcDbEntity
  8
KERA4
100
AcDbVertex
100
AcDb3dPolylineVertex
 10
2314.944173026156
 20
449.8445692951213
 30
0.0
 70
    40
  0
VERTEX
  5
1C705
330
1C6DE
100
AcDbEntity
  8
KERA4
100
AcDbVertex
100
AcDb3dPolylineVertex
 10
2320.024746563075
 20
447.8808303990904
 30
0.0
 70
    40
  0
VERTEX
  5
1C706
330
1C6DE
100
AcDbEntity
  8
KERA4
100
AcDbVertex
100
AcDb3dPolylineVertex
 10
2325.329178105256
 20
446.6685878868024
 30
0.0
 70
    40
  0
VERTEX
  5
1C707
330
1C6DE
100
AcDbEntity
  8
KERA4
100
AcDbVertex
100
AcDb3dPolylineVertex
 10
2330.745538650068
 20
446.2542042691705
 30
0.0
 70
    40
  0
VERTEX
  5
1C708
330
1C6DE
100
AcDbEntity
  8
KERA4
100
AcDbVertex
100
AcDb3dPolylineVertex
 10
2336.16189919488
 20
446.6685878868024
 30
0.0
 70
    40
  0
VERTEX
  5
1C709
330
1C6DE
100
AcDbEntity
  8
KERA4
100
AcDbVertex
100
AcDb3dPolylineVertex
 10
2341.466330737061
 20
447.8808303990904
 30
0.0
 70
    40
  0
VERTEX
  5
1C70A
330
1C6DE
100
AcDbEntity
  8
KERA4
100
AcDbVertex
100
AcDb3dPolylineVertex
 10
2346.54690427398
 20
449.8445692951213
 30
0.0
 70
    40
  0
VERTEX
  5
1C70B
330
1C6DE
100
AcDbEntity
  8
KERA4
100
AcDbVertex
100
AcDb3dPolylineVertex
 10
2351.291690803004
 20
452.5134420639824
 30
0.0
 70
    40
  0
VERTEX
  5
1C70C
330
1C6DE
100
AcDbEntity
  8
KERA4
100
AcDbVertex
100
AcDb3dPolylineVertex
 10
2355.588761321504
 20
455.8410861947605
 30
0.0
 70
    40
  0
VERTEX
  5
1C70D
330
1C6DE
100
AcDbEntity
  8
KERA4
100
AcDbVertex
100
AcDb3dPolylineVertex
 10
2359.329424678289
 20
459.7779013251003
 30
0.0
 70
    40
  0
VERTEX
  5
1C70E
330
1C6DE
100
AcDbEntity
  8
KERA4
100
AcDbVertex
100
AcDb3dPolylineVertex
 10
2362.442629745197
 20
464.2366470696224
 30
0.0
 70
    40
  0
VERTEX
  5
1C70F
330
1C6DE
100
AcDbEntity
  8
KERA4
100
AcDbVertex
100
AcDb3dPolylineVertex
 10
2364.881609279882
 20
469.1057991571264
 30
0.0
 70
    40
  0
VERTEX
  5
1C710
330
1C6DE
100
AcDbEntity
  8
KERA4
100
AcDbVertex
100
AcDb3dPolylineVertex
 10
2366.600000771433
 20
474.2734285849803
 30
0.0
 70
    40
  0
VERTEX
  5
1C711
330
1C6DE
100
AcDbEntity
  8
KERA4
100
AcDbVertex
100
AcDb3dPolylineVertex
 10
2367.551441708937
 20
479.6276063505533
 30
0.0
 70
    40
  0
SEQEND
  5
1C712
330
1C6DE
100
AcDbEntity
  8
KERA4
  0
POLYLINE
  5
1C713
330
1E
100
AcDbEntity
  8
KERA4
100
AcDb3dPolyline
 66
     1
 10
0.0
 20
0.0
 30
0.0
 70
    13
 75
     6
  0
VERTEX
  5
1C714
330
1C713
100
AcDbEntity
  8
KERA4
100
AcDbVertex
100
AcDb3dPolylineVertex
 10
2348.376800210121
 20
465.6141610180684
 30
0.0
 70
    48
  0
VERTEX
  5
1C715
330
1C713
100
AcDbEntity
  8
KERA4
100
AcDbVertex
100
AcDb3dPolylineVertex
 10
2355.679907870042
 20
483.2454225781214
 30
0.0
 70
    48
  0
VERTEX
  5
1C716
330
1C713
100
AcDbEntity
  8
KERA4
100
AcDbVertex
100
AcDb3dPolylineVertex
 10
2348.376800210121
 20
500.8766841381743
 30
0.0
 70
    48
  0
VERTEX
  5
1C717
330
1C713
100
AcDbEntity
  8
KERA4
100
AcDbVertex
100
AcDb3dPolylineVertex
 10
2330.745538650068
 20
508.1797917980954
 30
0.0
 70
    48
  0
VERTEX
  5
1C718
330
1C713
100
AcDbEntity
  8
KERA4
100
AcDbVertex
100
AcDb3dPolylineVertex
 10
2313.114277090015
 20
500.8766841381743
 30
0.0
 70
    48
  0
VERTEX
  5
1C719
330
1C713
100
AcDbEntity
  8
KERA4
100
AcDbVertex
100
AcDb3dPolylineVertex
 10
2305.811169430094
 20
483.2454225781214
 30
0.0
 70
    48
  0
VERTEX
  5
1C71A
330
1C713
100
AcDbEntity
  8
KERA4
100
AcDbVertex
100
AcDb3dPolylineVertex
 10
2313.114277090015
 20
465.6141610180684
 30
0.0
 70
    48
  0
VERTEX
  5
1C71B
330
1C713
100
AcDbEntity
  8
KERA4
100
AcDbVertex
100
AcDb3dPolylineVertex
 10
2330.745538650068
 20
458.3110533581474
 30
0.0
 70
    48
  0
VERTEX
  5
1C71C
330
1C713
100
AcDbEntity
  8
KERA4
100
AcDbVertex
100
AcDb3dPolylineVertex
 10
2353.245538650068
 20
483.2454225781214
 30
0.0
 70
    40
  0
VERTEX
  5
1C71D
330
1C713
100
AcDbEntity
  8
KERA4
100
AcDbVertex
100
AcDb3dPolylineVertex
 10
2352.993488790048
 20
486.5399372718643
 30
0.0
 70
    40
  0
VERTEX
  5
1C71E
330
1C713
100
AcDbEntity
  8
KERA4
100
AcDbVertex
100
AcDb3dPolylineVertex
 10
2352.256139284588
 20
489.7663708730033
 30
0.0
 70
    40
  0
VERTEX
  5
1C71F
330
1C713
100
AcDbEntity
  8
KERA4
100
AcDbVertex
100
AcDb3dPolylineVertex
 10
2351.061690245585
 20
492.8566422889353
 30
0.0
 70
    40
  0
VERTEX
  5
1C720
330
1C713
100
AcDbEntity
  8
KERA4
100
AcDbVertex
100
AcDb3dPolylineVertex
 10
2349.438341784936
 20
495.7426704270574
 30
0.0
 70
    40
  0
VERTEX
  5
1C721
330
1C713
100
AcDbEntity
  8
KERA4
100
AcDbVertex
100
AcDb3dPolylineVertex
 10
2347.414294014539
 20
498.3563741947664
 30
0.0
 70
    40
  0
VERTEX
  5
1C722
330
1C713
100
AcDbEntity
  8
KERA4
100
AcDbVertex
100
AcDb3dPolylineVertex
 10
2345.019716477437
 20
500.6316419306034
 30
0.0
 70
    40
  0
VERTEX
  5
1C723
330
1C713
100
AcDbEntity
  8
KERA4
100
AcDbVertex
100
AcDb3dPolylineVertex
 10
2342.307673353745
 20
502.5252566101844
 30
0.0
 70
    40
  0
VERTEX
  5
1C724
330
1C713
100
AcDbEntity
  8
KERA4
100
AcDbVertex
100
AcDb3dPolylineVertex
 10
2339.345999557175
 20
504.0087719427184
 30
0.0
 70
    40
  0
VERTEX
  5
1C725
330
1C713
100
AcDbEntity
  8
KERA4
100
AcDbVertex
100
AcDb3dPolylineVertex
 10
2336.202776180329
 20
505.0539878163074
 30
0.0
 70
    40
  0
VERTEX
  5
1C726
330
1C713
100
AcDbEntity
  8
KERA4
100
AcDbVertex
100
AcDb3dPolylineVertex
 10
2332.94608431581
 20
505.6327041190534
 30
0.0
 70
    40
  0
VERTEX
  5
1C727
330
1C713
100
AcDbEntity
  8
KERA4
100
AcDbVertex
100
AcDb3dPolylineVertex
 10
2329.644005056223
 20
505.7170688885894
 30
0.0
 70
    40
  0
VERTEX
  5
1C728
330
1C713
100
AcDbEntity
  8
KERA4
100
AcDbVertex
100
AcDb3dPolylineVertex
 10
2326.36461949417
 20
505.3001191343233
 30
0.0
 70
    40
  0
VERTEX
  5
1C729
330
1C713
100
AcDbEntity
  8
KERA4
100
AcDbVertex
100
AcDb3dPolylineVertex
 10
2323.176008722255
 20
504.4072697719153
 30
0.0
 70
    40
  0
VERTEX
  5
1C72A
330
1C713
100
AcDbEntity
  8
KERA4
100
AcDbVertex
100
AcDb3dPolylineVertex
 10
2320.146253833081
 20
503.0667209132643
 30
0.0
 70
    40
  0
VERTEX
  5
1C72B
330
1C713
100
AcDbEntity
  8
KERA4
100
AcDbVertex
100
AcDb3dPolylineVertex
 10
2317.343435919252
 20
501.3066726702663
 30
0.0
 70
    40
  0
VERTEX
  5
1C72C
330
1C713
100
AcDbEntity
  8
KERA4
100
AcDbVertex
100
AcDb3dPolylineVertex
 10
2314.835636073371
 20
499.1553251548184
 30
0.0
 70
    40
  0
VERTEX
  5
1C72D
330
1C713
100
AcDbEntity
  8
KERA4
100
AcDbVertex
100
AcDb3dPolylineVertex
 10
2312.684288557923
 20
496.6475253089375
 30
0.0
 70
    40
  0
VERTEX
  5
1C72E
330
1C713
100
AcDbEntity
  8
KERA4
100
AcDbVertex
100
AcDb3dPolylineVertex
 10
2310.924240314925
 20
493.8447073951083
 30
0.0
 70
    40
  0
VERTEX
  5
1C72F
330
1C713
100
AcDbEntity
  8
KERA4
100
AcDbVertex
100
AcDb3dPolylineVertex
 10
2309.583691456274
 20
490.8149525059343
 30
0.0
 70
    40
  0
VERTEX
  5
1C730
330
1C713
100
AcDbEntity
  8
KERA4
100
AcDbVertex
100
AcDb3dPolylineVertex
 10
2308.690842093866
 20
487.6263417340194
 30
0.0
 70
    40
  0
VERTEX
  5
1C731
330
1C713
100
AcDbEntity
  8
KERA4
100
AcDbVertex
100
AcDb3dPolylineVertex
 10
2308.2738923396
 20
484.3469561719664
 30
0.0
 70
    40
  0
VERTEX
  5
1C732
330
1C713
100
AcDbEntity
  8
KERA4
100
AcDbVertex
100
AcDb3dPolylineVertex
 10
2308.358257109136
 20
481.0448769123793
 30
0.0
 70
    40
  0
VERTEX
  5
1C733
330
1C713
100
AcDbEntity
  8
KERA4
100
AcDbVertex
100
AcDb3dPolylineVertex
 10
2308.936973411882
 20
477.7881850478604
 30
0.0
 70
    40
  0
VERTEX
  5
1C734
330
1C713
100
AcDbEntity
  8
KERA4
100
AcDbVertex
100
AcDb3dPolylineVertex
 10
2309.982189285471
 20
474.6449616710144
 30
0.0
 70
    40
  0
VERTEX
  5
1C735
330
1C713
100
AcDbEntity
  8
KERA4
100
AcDbVertex
100
AcDb3dPolylineVertex
 10
2311.465704618005
 20
471.6832878744444
 30
0.0
 70
    40
  0
VERTEX
  5
1C736
330
1C713
100
AcDbEntity
  8
KERA4
100
AcDbVertex
100
AcDb3dPolylineVertex
 10
2313.359319297585
 20
468.9712447507524
 30
0.0
 70
    40
  0
VERTEX
  5
1C737
330
1C713
100
AcDbEntity
  8
KERA4
100
AcDbVertex
100
AcDb3dPolylineVertex
 10
2315.634587033423
 20
466.5766672136514
 30
0.0
 70
    40
  0
VERTEX
  5
1C738
330
1C713
100
AcDbEntity
  8
KERA4
100
AcDbVertex
100
AcDb3dPolylineVertex
 10
2318.248290801132
 20
464.5526194432534
 30
0.0
 70
    40
  0
VERTEX
  5
1C739
330
1C713
100
AcDbEntity
  8
KERA4
100
AcDbVertex
100
AcDb3dPolylineVertex
 10
2321.134318939254
 20
462.9292709826044
 30
0.0
 70
    40
  0
VERTEX
  5
1C73A
330
1C713
100
AcDbEntity
  8
KERA4
100
AcDbVertex
100
AcDb3dPolylineVertex
 10
2324.224590355186
 20
461.7348219436014
 30
0.0
 70
    40
  0
VERTEX
  5
1C73B
330
1C713
100
AcDbEntity
  8
KERA4
100
AcDbVertex
100
AcDb3dPolylineVertex
 10
2327.451023956325
 20
460.9974724381413
 30
0.0
 70
    40
  0
VERTEX
  5
1C73C
330
1C713
100
AcDbEntity
  8
KERA4
100
AcDbVertex
100
AcDb3dPolylineVertex
 10
2330.745538650068
 20
460.7454225781213
 30
0.0
 70
    40
  0
VERTEX
  5
1C73D
330
1C713
100
AcDbEntity
  8
KERA4
100
AcDbVertex
100
AcDb3dPolylineVertex
 10
2334.040053343811
 20
460.9974724381413
 30
0.0
 70
    40
  0
VERTEX
  5
1C73E
330
1C713
100
AcDbEntity
  8
KERA4
100
AcDbVertex
100
AcDb3dPolylineVertex
 10
2337.26648694495
 20
461.7348219436014
 30
0.0
 70
    40
  0
VERTEX
  5
1C73F
330
1C713
100
AcDbEntity
  8
KERA4
100
AcDbVertex
100
AcDb3dPolylineVertex
 10
2340.356758360882
 20
462.9292709826044
 30
0.0
 70
    40
  0
VERTEX
  5
1C740
330
1C713
100
AcDbEntity
  8
KERA4
100
AcDbVertex
100
AcDb3dPolylineVertex
 10
2343.242786499004
 20
464.5526194432534
 30
0.0
 70
    40
  0
VERTEX
  5
1C741
330
1C713
100
AcDbEntity
  8
KERA4
100
AcDbVertex
100
AcDb3dPolylineVertex
 10
2345.856490266713
 20
466.5766672136503
 30
0.0
 70
    40
  0
VERTEX
  5
1C742
330
1C713
100
AcDbEntity
  8
KERA4
100
AcDbVertex
100
AcDb3dPolylineVertex
 10
2348.13175800255
 20
468.9712447507524
 30
0.0
 70
    40
  0
VERTEX
  5
1C743
330
1C713
100
AcDbEntity
  8
KERA4
100
AcDbVertex
100
AcDb3dPolylineVertex
 10
2350.02537268213
 20
471.6832878744444
 30
0.0
 70
    40
  0
VERTEX
  5
1C744
330
1C713
100
AcDbEntity
  8
KERA4
100
AcDbVertex
100
AcDb3dPolylineVertex
 10
2351.508888014665
 20
474.6449616710144
 30
0.0
 70
    40
  0
VERTEX
  5
1C745
330
1C713
100
AcDbEntity
  8
KERA4
100
AcDbVertex
100
AcDb3dPolylineVertex
 10
2352.554103888254
 20
477.7881850478604
 30
0.0
 70
    40
  0
VERTEX
  5
1C746
330
1C713
100
AcDbEntity
  8
KERA4
100
AcDbVertex
100
AcDb3dPolylineVertex
 10
2353.132820191
 20
481.0448769123793
 30
0.0
 70
    40
  0
SEQEND
  5
1C747
330
1C713
100
AcDbEntity
  8
KERA4
  0
LINE
  5
1F39C
330
1E
100
AcDbEntity
  8
KERA0
100
AcDbLine
 10
2100.745537201231
 20
633.2454038714103
 30
0.0
 11
2560.745537201231
 21
633.2454038714103
 31
0.0
  0
LINE
  5
1F39D
330
1E
100
AcDbEntity
  8
KERA0
100
AcDbLine
 10
2100.745537201231
 20
333.2454038714103
 30
0.0
 11
2560.745537201231
 21
333.2454038714103
 31
0.0
  0
LINE
  5
1F3DA
330
1E
100
AcDbEntity
  8
KERA0
100
AcDbLine
 10
2077.045535402705
 20
657.2454028930662
 30
0.0
 11
2584.445541874859
 21
657.2454028930662
 31
0.0
  0
LINE
  5
1F3DB
330
1E
100
AcDbEntity
  8
KERA0
100
AcDbLine
 10
2077.045535402705
 20
309.2454195823663
 30
0.0
 11
2584.445541874859
 21
309.2454195823663
 31
0.0
  0
LINE
  5
1F409
330
1E
100
AcDbEntity
  8
KERA0
100
AcDbLine
 10
2067.045535402705
 20
319.2454195823663
 30
0.0
 11
2067.045535402705
 21
647.2454028930663
 31
0.0
  0
LINE
  5
1F40A
330
1E
100
AcDbEntity
  8
KERA0
100
AcDbLine
 10
2090.745537201231
 20
343.2454038714102
 30
0.0
 11
2090.745537201231
 21
623.2454038714102
 31
0.0
  0
ARC
  5
20326
330
1E
100
AcDbEntity
  8
KERA0
100
AcDbCircle
 10
2077.045535402705
 20
319.2454195823663
 30
0.0
 40
10.0
100
AcDbArc
 50
180.0
 51
270.0
  0
ARC
  5
203CE
330
1E
100
AcDbEntity
  8
KERA0
100
AcDbCircle
 10
2100.745537201231
 20
343.2454038714102
 30
0.0
 40
10.0
100
AcDbArc
 50
180.0
 51
270.0
  0
ARC
  5
208CB
330
1E
100
AcDbEntity
  8
KERA0
100
AcDbCircle
 10
2100.745537201231
 20
623.2454038714102
 30
0.0
 40
10.0
100
AcDbArc
 50
90.0
 51
180.0
  0
ARC
  5
208DB
330
1E
100
AcDbEntity
  8
KERA0
100
AcDbCircle
 10
2077.045535402705
 20
647.2454028930663
 30
0.0
 40
10.0
100
AcDbArc
 50
90.0
 51
180.0
  0
LINE
  5
20E35
330
1E
100
AcDbEntity
  8
KERA0
100
AcDbLine
 10
2570.745537201231
 20
343.2454038714102
 30
0.0
 11
2570.745537201231
 21
623.2454038714102
 31
0.0
  0
LINE
  5
20E54
330
1E
100
AcDbEntity
  8
KERA0
100
AcDbLine
 10
2594.445541874859
 20
319.2454195823663
 30
0.0
 11
2594.445541874859
 21
647.2454028930663
 31
0.0
  0
ARC
  5
210DE
330
1E
100
AcDbEntity
  8
KERA0
100
AcDbCircle
 10
2584.445541874859
 20
319.2454195823663
 30
0.0
 40
10.0
100
AcDbArc
 50
270.0
 51
0.000000000000007
  0
ARC
  5
210DF
330
1E
100
AcDbEntity
  8
KERA0
100
AcDbCircle
 10
2560.745537201231
 20
343.2454038714102
 30
0.0
 40
10.0
100
AcDbArc
 50
270.0
 51
0.0
  0
ARC
  5
21435
330
1E
100
AcDbEntity
  8
KERA0
100
AcDbCircle
 10
2560.745537201231
 20
623.2454038714102
 30
0.0
 40
10.0
100
AcDbArc
 50
0.0
 51
90.0
  0
ARC
  5
21667
330
1E
100
AcDbEntity
  8
KERA0
100
AcDbCircle
 10
2584.445541874859
 20
647.2454028930663
 30
0.0
 40
10.0
100
AcDbArc
 50
0.0
 51
90.0
  0
LINE
  5
21831
330
1E
100
AcDbEntity
  8
KERA1
100
AcDbLine
 10
2551.505578308013
 20
1204.879810277911
 30
0.0
 11
2373.794899807183
 21
1200.226292388682
 31
0.0
  0
POLYLINE
  5
21832
330
1E
100
AcDbEntity
  8
KERA0
100
AcDb3dPolyline
 66
     1
 10
0.0
 20
0.0
 30
0.0
 70
    12
 75
     6
  0
VERTEX
  5
21833
330
21832
100
AcDbEntity
  8
KERA0
100
AcDbVertex
100
AcDb3dPolylineVertex
 10
2386.818926850318
 20
1188.563208851682
 30
0.0
 70
    48
  0
VERTEX
  5
21834
330
21832
100
AcDbEntity
  8
KERA0
100
AcDbVertex
100
AcDb3dPolylineVertex
 10
2441.819185384384
 20
1190.003441285109
 30
0.0
 70
    48
  0
VERTEX
  5
21835
330
21832
100
AcDbEntity
  8
KERA0
100
AcDbVertex
100
AcDb3dPolylineVertex
 10
2496.81944391845
 20
1191.443673718535
 30
0.0
 70
    48
  0
VERTEX
  5
21836
330
21832
100
AcDbEntity
  8
KERA0
100
AcDbVertex
100
AcDb3dPolylineVertex
 10
2551.819702452516
 20
1192.883906151961
 30
0.0
 70
    48
  0
VERTEX
  5
21837
330
21832
100
AcDbEntity
  8
KERA0
100
AcDbVertex
100
AcDb3dPolylineVertex
 10
2386.818926850318
 20
1188.563208851682
 30
0.0
 70
    40
  0
VERTEX
  5
21838
330
21832
100
AcDbEntity
  8
KERA0
100
AcDbVertex
100
AcDb3dPolylineVertex
 10
2407.444023800593
 20
1189.103296014217
 30
0.0
 70
    40
  0
VERTEX
  5
21839
330
21832
100
AcDbEntity
  8
KERA0
100
AcDbVertex
100
AcDb3dPolylineVertex
 10
2428.069120750867
 20
1189.643383176752
 30
0.0
 70
    40
  0
VERTEX
  5
2183A
330
21832
100
AcDbEntity
  8
KERA0
100
AcDbVertex
100
AcDb3dPolylineVertex
 10
2448.694217701142
 20
1190.183470339287
 30
0.0
 70
    40
  0
VERTEX
  5
2183B
330
21832
100
AcDbEntity
  8
KERA0
100
AcDbVertex
100
AcDb3dPolylineVertex
 10
2469.319314651417
 20
1190.723557501822
 30
0.0
 70
    40
  0
VERTEX
  5
2183C
330
21832
100
AcDbEntity
  8
KERA0
100
AcDbVertex
100
AcDb3dPolylineVertex
 10
2489.944411601692
 20
1191.263644664357
 30
0.0
 70
    40
  0
VERTEX
  5
2183D
330
21832
100
AcDbEntity
  8
KERA0
100
AcDbVertex
100
AcDb3dPolylineVertex
 10
2510.569508551966
 20
1191.803731826892
 30
0.0
 70
    40
  0
VERTEX
  5
2183E
330
21832
100
AcDbEntity
  8
KERA0
100
AcDbVertex
100
AcDb3dPolylineVertex
 10
2531.194605502241
 20
1192.343818989426
 30
0.0
 70
    40
  0
VERTEX
  5
2183F
330
21832
100
AcDbEntity
  8
KERA0
100
AcDbVertex
100
AcDb3dPolylineVertex
 10
2551.819702452516
 20
1192.883906151961
 30
0.0
 70
    40
  0
SEQEND
  5
21840
330
21832
100
AcDbEntity
  8
KERA0
  0
POLYLINE
  5
21841
330
1E
100
AcDbEntity
  8
KERA0
100
AcDb3dPolyline
 66
     1
 10
0.0
 20
0.0
 30
0.0
 70
    12
 75
     6
  0
VERTEX
  5
21842
330
21841
100
AcDbEntity
  8
KERA0
100
AcDbVertex
100
AcDb3dPolylineVertex
 10
2594.499141722786
 20
1306.930948530309
 30
0.0
 70
    48
  0
VERTEX
  5
21843
330
21841
100
AcDbEntity
  8
KERA0
100
AcDbVertex
100
AcDb3dPolylineVertex
 10
2506.599141119515
 20
1306.930948530309
 30
0.0
 70
    48
  0
VERTEX
  5
21844
330
21841
100
AcDbEntity
  8
KERA0
100
AcDbVertex
100
AcDb3dPolylineVertex
 10
2418.699140516245
 20
1306.930948530309
 30
0.0
 70
    48
  0
VERTEX
  5
21845
330
21841
100
AcDbEntity
  8
KERA0
100
AcDbVertex
100
AcDb3dPolylineVertex
 10
2330.799139912974
 20
1306.930948530309
 30
0.0
 70
    48
  0
VERTEX
  5
21846
330
21841
100
AcDbEntity
  8
KERA0
100
AcDbVertex
100
AcDb3dPolylineVertex
 10
2594.499141722786
 20
1306.930948530309
 30
0.0
 70
    40
  0
VERTEX
  5
21847
330
21841
100
AcDbEntity
  8
KERA0
100
AcDbVertex
100
AcDb3dPolylineVertex
 10
2561.536641496559
 20
1306.930948530309
 30
0.0
 70
    40
  0
VERTEX
  5
21848
330
21841
100
AcDbEntity
  8
KERA0
100
AcDbVertex
100
AcDb3dPolylineVertex
 10
2528.574141270333
 20
1306.930948530309
 30
0.0
 70
    40
  0
VERTEX
  5
21849
330
21841
100
AcDbEntity
  8
KERA0
100
AcDbVertex
100
AcDb3dPolylineVertex
 10
2495.611641044106
 20
1306.930948530309
 30
0.0
 70
    40
  0
VERTEX
  5
2184A
330
21841
100
AcDbEntity
  8
KERA0
100
AcDbVertex
100
AcDb3dPolylineVertex
 10
2462.64914081788
 20
1306.930948530309
 30
0.0
 70
    40
  0
VERTEX
  5
2184B
330
21841
100
AcDbEntity
  8
KERA0
100
AcDbVertex
100
AcDb3dPolylineVertex
 10
2429.686640591654
 20
1306.930948530309
 30
0.0
 70
    40
  0
VERTEX
  5
2184C
330
21841
100
AcDbEntity
  8
KERA0
100
AcDbVertex
100
AcDb3dPolylineVertex
 10
2396.724140365427
 20
1306.930948530309
 30
0.0
 70
    40
  0
VERTEX
  5
2184D
330
21841
100
AcDbEntity
  8
KERA0
100
AcDbVertex
100
AcDb3dPolylineVertex
 10
2363.761640139201
 20
1306.930948530309
 30
0.0
 70
    40
  0
VERTEX
  5
2184E
330
21841
100
AcDbEntity
  8
KERA0
100
AcDbVertex
100
AcDb3dPolylineVertex
 10
2330.799139912974
 20
1306.930948530309
 30
0.0
 70
    40
  0
SEQEND
  5
2184F
330
21841
100
AcDbEntity
  8
KERA0
  0
ARC
  5
2185F
330
1E
100
AcDbEntity
  8
KERA0
100
AcDbCircle
 10
2110.354479923044
 20
1214.876368393721
 30
0.0
 40
22.0
100
AcDbArc
 50
185.7105936108807
 51
268.5000000000103
  0
POLYLINE
  5
21860
330
1E
100
AcDbEntity
  8
KERA0
100
AcDb3dPolyline
 66
     1
 10
0.0
 20
0.0
 30
0.0
 70
    12
 75
     6
  0
VERTEX
  5
21861
330
21860
100
AcDbEntity
  8
KERA0
100
AcDbVertex
100
AcDb3dPolylineVertex
 10
2067.099138103162
 20
1306.930948530309
 30
0.0
 70
    48
  0
VERTEX
  5
21862
330
21860
100
AcDbEntity
  8
KERA0
100
AcDbVertex
100
AcDb3dPolylineVertex
 10
2154.999138706434
 20
1306.930948530309
 30
0.0
 70
    48
  0
VERTEX
  5
21863
330
21860
100
AcDbEntity
  8
KERA0
100
AcDbVertex
100
AcDb3dPolylineVertex
 10
2242.899139309704
 20
1306.930948530309
 30
0.0
 70
    48
  0
VERTEX
  5
21864
330
21860
100
AcDbEntity
  8
KERA0
100
AcDbVertex
100
AcDb3dPolylineVertex
 10
2330.799139912974
 20
1306.930948530309
 30
0.0
 70
    48
  0
VERTEX
  5
21865
330
21860
100
AcDbEntity
  8
KERA0
100
AcDbVertex
100
AcDb3dPolylineVertex
 10
2067.099138103162
 20
1306.930948530309
 30
0.0
 70
    40
  0
VERTEX
  5
21866
330
21860
100
AcDbEntity
  8
KERA0
100
AcDbVertex
100
AcDb3dPolylineVertex
 10
2100.061638329389
 20
1306.930948530309
 30
0.0
 70
    40
  0
VERTEX
  5
21867
330
21860
100
AcDbEntity
  8
KERA0
100
AcDbVertex
100
AcDb3dPolylineVertex
 10
2133.024138555616
 20
1306.930948530309
 30
0.0
 70
    40
  0
VERTEX
  5
21868
330
21860
100
AcDbEntity
  8
KERA0
100
AcDbVertex
100
AcDb3dPolylineVertex
 10
2165.986638781843
 20
1306.930948530309
 30
0.0
 70
    40
  0
VERTEX
  5
21869
330
21860
100
AcDbEntity
  8
KERA0
100
AcDbVertex
100
AcDb3dPolylineVertex
 10
2198.949139008069
 20
1306.930948530309
 30
0.0
 70
    40
  0
VERTEX
  5
2186A
330
21860
100
AcDbEntity
  8
KERA0
100
AcDbVertex
100
AcDb3dPolylineVertex
 10
2231.911639234295
 20
1306.930948530309
 30
0.0
 70
    40
  0
VERTEX
  5
2186B
330
21860
100
AcDbEntity
  8
KERA0
100
AcDbVertex
100
AcDb3dPolylineVertex
 10
2264.874139460522
 20
1306.930948530309
 30
0.0
 70
    40
  0
VERTEX
  5
2186C
330
21860
100
AcDbEntity
  8
KERA0
100
AcDbVertex
100
AcDb3dPolylineVertex
 10
2297.836639686748
 20
1306.930948530309
 30
0.0
 70
    40
  0
VERTEX
  5
2186D
330
21860
100
AcDbEntity
  8
KERA0
100
AcDbVertex
100
AcDb3dPolylineVertex
 10
2330.799139912974
 20
1306.930948530309
 30
0.0
 70
    40
  0
SEQEND
  5
2186E
330
21860
100
AcDbEntity
  8
KERA0
  0
LINE
  5
2186F
330
1E
100
AcDbEntity
  8
KERA1
100
AcDbLine
 10
2091.099138103163
 20
1306.930948530309
 30
0.0
 11
2100.404099107135
 21
1213.881346255246
 31
0.0
  0
POLYLINE
  5
21C65
330
1E
100
AcDbEntity
  8
KERA0
100
AcDb3dPolyline
 66
     1
 10
0.0
 20
0.0
 30
0.0
 70
     8
  0
VERTEX
  5
21C66
330
21C65
100
AcDbEntity
  8
KERA0
100
AcDbVertex
100
AcDb3dPolylineVertex
 10
2080.389535089849
 20
1293.428472237094
 30
0.0
 70
    32
  0
VERTEX
  5
21C67
330
21C65
100
AcDbEntity
  8
KERA0
100
AcDbVertex
100
AcDb3dPolylineVertex
 10
2081.41520898077
 20
1283.171734183771
 30
0.0
 70
    32
  0
VERTEX
  5
21C68
330
21C65
100
AcDbEntity
  8
KERA0
100
AcDbVertex
100
AcDb3dPolylineVertex
 10
2082.440882871692
 20
1272.914996130449
 30
0.0
 70
    32
  0
VERTEX
  5
21C69
330
21C65
100
AcDbEntity
  8
KERA0
100
AcDbVertex
100
AcDb3dPolylineVertex
 10
2083.466556762612
 20
1262.658258077126
 30
0.0
 70
    32
  0
VERTEX
  5
21C6A
330
21C65
100
AcDbEntity
  8
KERA0
100
AcDbVertex
100
AcDb3dPolylineVertex
 10
2084.492230653534
 20
1252.401520023804
 30
0.0
 70
    32
  0
VERTEX
  5
21C6B
330
21C65
100
AcDbEntity
  8
KERA0
100
AcDbVertex
100
AcDb3dPolylineVertex
 10
2085.517904544455
 20
1242.144781970481
 30
0.0
 70
    32
  0
VERTEX
  5
21C6C
330
21C65
100
AcDbEntity
  8
KERA0
100
AcDbVertex
100
AcDb3dPolylineVertex
 10
2086.543578435376
 20
1231.888043917159
 30
0.0
 70
    32
  0
VERTEX
  5
21C6D
330
21C65
100
AcDbEntity
  8
KERA0
100
AcDbVertex
100
AcDb3dPolylineVertex
 10
2087.569252326296
 20
1221.631305863836
 30
0.0
 70
    32
  0
VERTEX
  5
21C6E
330
21C65
100
AcDbEntity
  8
KERA0
100
AcDbVertex
100
AcDb3dPolylineVertex
 10
2088.463654421229
 20
1212.687285660868
 30
0.0
 70
    32
  0
SEQEND
  5
21C6F
330
21C65
100
AcDbEntity
  8
KERA0
  0
POLYLINE
  5
21D42
330
1E
100
AcDbEntity
  8
KERA0
100
AcDb3dPolyline
 66
     1
 10
0.0
 20
0.0
 30
0.0
 70
    12
 75
     6
  0
VERTEX
  5
21D43
330
21D42
100
AcDbEntity
  8
KERA0
100
AcDbVertex
100
AcDb3dPolylineVertex
 10
2067.099138103162
 20
1297.930953600884
 30
0.0
 70
    48
  0
VERTEX
  5
21D44
330
21D42
100
AcDbEntity
  8
KERA0
100
AcDbVertex
100
AcDb3dPolylineVertex
 10
2069.870875116412
 20
1297.930953600884
 30
0.0
 70
    48
  0
VERTEX
  5
21D45
330
21D42
100
AcDbEntity
  8
KERA0
100
AcDbVertex
100
AcDb3dPolylineVertex
 10
2072.642612129661
 20
1297.930953600884
 30
0.0
 70
    48
  0
VERTEX
  5
21D46
330
21D42
100
AcDbEntity
  8
KERA0
100
AcDbVertex
100
AcDb3dPolylineVertex
 10
2075.41434914291
 20
1297.930953600884
 30
0.0
 70
    48
  0
VERTEX
  5
21D47
330
21D42
100
AcDbEntity
  8
KERA0
100
AcDbVertex
100
AcDb3dPolylineVertex
 10
2067.099138103162
 20
1297.930953600884
 30
0.0
 70
    40
  0
VERTEX
  5
21D48
330
21D42
100
AcDbEntity
  8
KERA0
100
AcDbVertex
100
AcDb3dPolylineVertex
 10
2068.138539483132
 20
1297.930953600884
 30
0.0
 70
    40
  0
VERTEX
  5
21D49
330
21D42
100
AcDbEntity
  8
KERA0
100
AcDbVertex
100
AcDb3dPolylineVertex
 10
2069.1779408631
 20
1297.930953600884
 30
0.0
 70
    40
  0
VERTEX
  5
21D4A
330
21D42
100
AcDbEntity
  8
KERA0
100
AcDbVertex
100
AcDb3dPolylineVertex
 10
2070.217342243068
 20
1297.930953600884
 30
0.0
 70
    40
  0
VERTEX
  5
21D4B
330
21D42
100
AcDbEntity
  8
KERA0
100
AcDbVertex
100
AcDb3dPolylineVertex
 10
2071.256743623036
 20
1297.930953600884
 30
0.0
 70
    40
  0
VERTEX
  5
21D4C
330
21D42
100
AcDbEntity
  8
KERA0
100
AcDbVertex
100
AcDb3dPolylineVertex
 10
2072.296145003005
 20
1297.930953600884
 30
0.0
 70
    40
  0
VERTEX
  5
21D4D
330
21D42
100
AcDbEntity
  8
KERA0
100
AcDbVertex
100
AcDb3dPolylineVertex
 10
2073.335546382973
 20
1297.930953600884
 30
0.0
 70
    40
  0
VERTEX
  5
21D4E
330
21D42
100
AcDbEntity
  8
KERA0
100
AcDbVertex
100
AcDb3dPolylineVertex
 10
2074.374947762942
 20
1297.930953600884
 30
0.0
 70
    40
  0
VERTEX
  5
21D4F
330
21D42
100
AcDbEntity
  8
KERA0
100
AcDbVertex
100
AcDb3dPolylineVertex
 10
2075.41434914291
 20
1297.930953600884
 30
0.0
 70
    40
  0
SEQEND
  5
21D50
330
21D42
100
AcDbEntity
  8
KERA0
  0
POLYLINE
  5
21D51
330
1E
100
AcDbEntity
  8
KERA0
100
AcDb3dPolyline
 66
     1
 10
0.0
 20
0.0
 30
0.0
 70
    12
 75
     6
  0
VERTEX
  5
21D52
330
21D51
100
AcDbEntity
  8
KERA0
100
AcDbVertex
100
AcDb3dPolylineVertex
 10
2067.099138103162
 20
1297.930953600884
 30
0.0
 70
    48
  0
VERTEX
  5
21D53
330
21D51
100
AcDbEntity
  8
KERA0
100
AcDbVertex
100
AcDb3dPolylineVertex
 10
2067.099138103162
 20
1300.930951910692
 30
0.0
 70
    48
  0
VERTEX
  5
21D54
330
21D51
100
AcDbEntity
  8
KERA0
100
AcDbVertex
100
AcDb3dPolylineVertex
 10
2067.099138103162
 20
1303.9309502205
 30
0.0
 70
    48
  0
VERTEX
  5
21D55
330
21D51
100
AcDbEntity
  8
KERA0
100
AcDbVertex
100
AcDb3dPolylineVertex
 10
2067.099138103162
 20
1306.930948530309
 30
0.0
 70
    48
  0
VERTEX
  5
21D56
330
21D51
100
AcDbEntity
  8
KERA0
100
AcDbVertex
100
AcDb3dPolylineVertex
 10
2067.099138103162
 20
1297.930953600884
 30
0.0
 70
    40
  0
VERTEX
  5
21D57
330
21D51
100
AcDbEntity
  8
KERA0
100
AcDbVertex
100
AcDb3dPolylineVertex
 10
2067.099138103162
 20
1299.055952967062
 30
0.0
 70
    40
  0
VERTEX
  5
21D58
330
21D51
100
AcDbEntity
  8
KERA0
100
AcDbVertex
100
AcDb3dPolylineVertex
 10
2067.099138103162
 20
1300.18095233324
 30
0.0
 70
    40
  0
VERTEX
  5
21D59
330
21D51
100
AcDbEntity
  8
KERA0
100
AcDbVertex
100
AcDb3dPolylineVertex
 10
2067.099138103162
 20
1301.305951699418
 30
0.0
 70
    40
  0
VERTEX
  5
21D5A
330
21D51
100
AcDbEntity
  8
KERA0
100
AcDbVertex
100
AcDb3dPolylineVertex
 10
2067.099138103162
 20
1302.430951065596
 30
0.0
 70
    40
  0
VERTEX
  5
21D5B
330
21D51
100
AcDbEntity
  8
KERA0
100
AcDbVertex
100
AcDb3dPolylineVertex
 10
2067.099138103162
 20
1303.555950431774
 30
0.0
 70
    40
  0
VERTEX
  5
21D5C
330
21D51
100
AcDbEntity
  8
KERA0
100
AcDbVertex
100
AcDb3dPolylineVertex
 10
2067.099138103162
 20
1304.680949797953
 30
0.0
 70
    40
  0
VERTEX
  5
21D5D
330
21D51
100
AcDbEntity
  8
KERA0
100
AcDbVertex
100
AcDb3dPolylineVertex
 10
2067.099138103162
 20
1305.805949164131
 30
0.0
 70
    40
  0
VERTEX
  5
21D5E
330
21D51
100
AcDbEntity
  8
KERA0
100
AcDbVertex
100
AcDb3dPolylineVertex
 10
2067.099138103162
 20
1306.930948530309
 30
0.0
 70
    40
  0
SEQEND
  5
21D5F
330
21D51
100
AcDbEntity
  8
KERA0
  0
ARC
  5
21D60
330
1E
100
AcDbEntity
  8
KERA0
100
AcDbCircle
 10
2075.41434914291
 20
1292.930953600884
 30
0.0
 40
5.0
100
AcDbArc
 50
5.710593610880727
 51
90.0
  0
POLYLINE
  5
21D61
330
1E
100
AcDbEntity
  8
KERA0
100
AcDb3dPolyline
 66
     1
 10
0.0
 20
0.0
 30
0.0
 70
     8
  0
VERTEX
  5
21D62
330
21D61
100
AcDbEntity
  8
KERA0
100
AcDbVertex
100
AcDb3dPolylineVertex
 10
2330.799139901689
 20
1176.507062861247
 30
0.0
 70
    32
  0
VERTEX
  5
21D63
330
21D61
100
AcDbEntity
  8
KERA0
100
AcDbVertex
100
AcDb3dPolylineVertex
 10
2328.394329334355
 20
1176.507062861247
 30
0.0
 70
    32
  0
VERTEX
  5
21D64
330
21D61
100
AcDbEntity
  8
KERA0
100
AcDbVertex
100
AcDb3dPolylineVertex
 10
2320.332075753323
 20
1176.507062861247
 30
0.0
 70
    32
  0
VERTEX
  5
21D65
330
21D61
100
AcDbEntity
  8
KERA0
100
AcDbVertex
100
AcDb3dPolylineVertex
 10
2312.269822172291
 20
1176.507062861247
 30
0.0
 70
    32
  0
VERTEX
  5
21D66
330
21D61
100
AcDbEntity
  8
KERA0
100
AcDbVertex
100
AcDb3dPolylineVertex
 10
2304.207568591259
 20
1176.507062861247
 30
0.0
 70
    32
  0
VERTEX
  5
21D67
330
21D61
100
AcDbEntity
  8
KERA0
100
AcDbVertex
100
AcDb3dPolylineVertex
 10
2296.145315010228
 20
1176.507062861247
 30
0.0
 70
    32
  0
VERTEX
  5
21D68
330
21D61
100
AcDbEntity
  8
KERA0
100
AcDbVertex
100
AcDb3dPolylineVertex
 10
2288.083061429196
 20
1176.507062861247
 30
0.0
 70
    32
  0
SEQEND
  5
21D69
330
21D61
100
AcDbEntity
  8
KERA0
  0
POLYLINE
  5
21D6A
330
1E
100
AcDbEntity
  8
KERA1
100
AcDb3dPolyline
 66
     1
 10
0.0
 20
0.0
 30
0.0
 70
     8
  0
VERTEX
  5
21D6B
330
21D6A
100
AcDbEntity
  8
KERA1
100
AcDbVertex
100
AcDb3dPolylineVertex
 10
2330.799139901689
 20
1188.507055246937
 30
0.0
 70
    32
  0
VERTEX
  5
21D6C
330
21D6A
100
AcDbEntity
  8
KERA1
100
AcDbVertex
100
AcDb3dPolylineVertex
 10
2329.848910644392
 20
1188.507055246937
 30
0.0
 70
    32
  0
VERTEX
  5
21D6D
330
21D6A
100
AcDbEntity
  8
KERA1
100
AcDbVertex
100
AcDb3dPolylineVertex
 10
2324.639880575932
 20
1188.507055246937
 30
0.0
 70
    32
  0
VERTEX
  5
21D6E
330
21D6A
100
AcDbEntity
  8
KERA1
100
AcDbVertex
100
AcDb3dPolylineVertex
 10
2319.430850507457
 20
1188.507055246937
 30
0.0
 70
    32
  0
VERTEX
  5
21D6F
330
21D6A
100
AcDbEntity
  8
KERA1
100
AcDbVertex
100
AcDb3dPolylineVertex
 10
2314.221820438974
 20
1188.507055246937
 30
0.0
 70
    32
  0
VERTEX
  5
21D70
330
21D6A
100
AcDbEntity
  8
KERA1
100
AcDbVertex
100
AcDb3dPolylineVertex
 10
2309.012790370487
 20
1188.507055246937
 30
0.0
 70
    32
  0
SEQEND
  5
21D71
330
21D6A
100
AcDbEntity
  8
KERA1
  0
POLYLINE
  5
21D72
330
1E
100
AcDbEntity
  8
KERA1
100
AcDb3dPolyline
 66
     1
 10
0.0
 20
0.0
 30
0.0
 70
     8
  0
VERTEX
  5
21D73
330
21D72
100
AcDbEntity
  8
KERA1
100
AcDbVertex
100
AcDb3dPolylineVertex
 10
2304.796906526825
 20
1199.930953600883
 30
0.0
 70
    32
  0
VERTEX
  5
21D74
330
21D72
100
AcDbEntity
  8
KERA1
100
AcDbVertex
100
AcDb3dPolylineVertex
 10
2311.504931872869
 20
1199.930953600883
 30
0.0
 70
    32
  0
VERTEX
  5
21D75
330
21D72
100
AcDbEntity
  8
KERA1
100
AcDbVertex
100
AcDb3dPolylineVertex
 10
2318.212957218914
 20
1199.930953600884
 30
0.0
 70
    32
  0
VERTEX
  5
21D76
330
21D72
100
AcDbEntity
  8
KERA1
100
AcDbVertex
100
AcDb3dPolylineVertex
 10
2324.920982564958
 20
1199.930953600883
 30
0.0
 70
    32
  0
VERTEX
  5
21D77
330
21D72
100
AcDbEntity
  8
KERA1
100
AcDbVertex
100
AcDb3dPolylineVertex
 10
2330.799139901689
 20
1199.930953600884
 30
0.0
 70
    32
  0
SEQEND
  5
21D78
330
21D72
100
AcDbEntity
  8
KERA1
  0
POLYLINE
  5
21D79
330
1E
100
AcDbEntity
  8
KERA0
100
AcDb3dPolyline
 66
     1
 10
0.0
 20
0.0
 30
0.0
 70
    12
 75
     6
  0
VERTEX
  5
21D7A
330
21D79
100
AcDbEntity
  8
KERA0
100
AcDbVertex
100
AcDb3dPolylineVertex
 10
2274.779352975631
 20
1188.563208851682
 30
0.0
 70
    48
  0
VERTEX
  5
21D7B
330
21D79
100
AcDbEntity
  8
KERA0
100
AcDbVertex
100
AcDb3dPolylineVertex
 10
2219.779094441565
 20
1190.003441285109
 30
0.0
 70
    48
  0
VERTEX
  5
21D7C
330
21D79
100
AcDbEntity
  8
KERA0
100
AcDbVertex
100
AcDb3dPolylineVertex
 10
2164.778835907499
 20
1191.443673718535
 30
0.0
 70
    48
  0
VERTEX
  5
21D7D
330
21D79
100
AcDbEntity
  8
KERA0
100
AcDbVertex
100
AcDb3dPolylineVertex
 10
2109.778577373432
 20
1192.883906151961
 30
0.0
 70
    48
  0
VERTEX
  5
21D7E
330
21D79
100
AcDbEntity
  8
KERA0
100
AcDbVertex
100
AcDb3dPolylineVertex
 10
2274.779352975631
 20
1188.563208851682
 30
0.0
 70
    40
  0
VERTEX
  5
21D7F
330
21D79
100
AcDbEntity
  8
KERA0
100
AcDbVertex
100
AcDb3dPolylineVertex
 10
2254.154256025356
 20
1189.103296014217
 30
0.0
 70
    40
  0
VERTEX
  5
21D80
330
21D79
100
AcDbEntity
  8
KERA0
100
AcDbVertex
100
AcDb3dPolylineVertex
 10
2233.529159075082
 20
1189.643383176752
 30
0.0
 70
    40
  0
VERTEX
  5
21D81
330
21D79
100
AcDbEntity
  8
KERA0
100
AcDbVertex
100
AcDb3dPolylineVertex
 10
2212.904062124807
 20
1190.183470339287
 30
0.0
 70
    40
  0
VERTEX
  5
21D82
330
21D79
100
AcDbEntity
  8
KERA0
100
AcDbVertex
100
AcDb3dPolylineVertex
 10
2192.278965174531
 20
1190.723557501822
 30
0.0
 70
    40
  0
VERTEX
  5
21D83
330
21D79
100
AcDbEntity
  8
KERA0
100
AcDbVertex
100
AcDb3dPolylineVertex
 10
2171.653868224257
 20
1191.263644664357
 30
0.0
 70
    40
  0
VERTEX
  5
21D84
330
21D79
100
AcDbEntity
  8
KERA0
100
AcDbVertex
100
AcDb3dPolylineVertex
 10
2151.028771273983
 20
1191.803731826892
 30
0.0
 70
    40
  0
VERTEX
  5
21D85
330
21D79
100
AcDbEntity
  8
KERA0
100
AcDbVertex
100
AcDb3dPolylineVertex
 10
2130.403674323708
 20
1192.343818989426
 30
0.0
 70
    40
  0
VERTEX
  5
21D86
330
21D79
100
AcDbEntity
  8
KERA0
100
AcDbVertex
100
AcDb3dPolylineVertex
 10
2109.778577373432
 20
1192.883906151961
 30
0.0
 70
    40
  0
SEQEND
  5
21D87
330
21D79
100
AcDbEntity
  8
KERA0
  0
LINE
  5
21D88
330
1E
100
AcDbEntity
  8
KERA1
100
AcDbLine
 10
2110.092701517936
 20
1204.879810277911
 30
0.0
 11
2287.803380018766
 21
1200.226292388682
 31
0.0
  0
ARC
  5
21D89
330
1E
100
AcDbEntity
  8
KERA1
100
AcDbCircle
 10
2110.354471001014
 20
1214.876383527666
 30
0.0
 40
10.0
100
AcDbArc
 50
185.7105936108792
 51
268.5000000000001
  0
POLYLINE
  5
21D8A
330
1E
100
AcDbEntity
  8
KERA0
100
AcDb3dPolyline
 66
     1
 10
0.0
 20
0.0
 30
0.0
 70
    12
 75
     6
  0
VERTEX
  5
21D8B
330
21D8A
100
AcDbEntity
  8
KERA0
100
AcDbVertex
100
AcDb3dPolylineVertex
 10
2288.100433680946
 20
1176.50703558465
 30
0.003338453145207
 70
    48
  0
VERTEX
  5
21D8C
330
21D8A
100
AcDbEntity
  8
KERA0
100
AcDbVertex
100
AcDb3dPolylineVertex
 10
2285.252724569692
 20
1176.50703558465
 30
0.000870189018205
 70
    48
  0
VERTEX
  5
21D8D
330
21D8A
100
AcDbEntity
  8
KERA0
100
AcDbVertex
100
AcDb3dPolylineVertex
 10
2282.70640770265
 20
1178.706019063323
 30
-0.001336842084058
 70
    48
  0
VERTEX
  5
21D8E
330
21D8A
100
AcDbEntity
  8
KERA0
100
AcDbVertex
100
AcDb3dPolylineVertex
 10
2282.194581518813
 20
1181.467121168307
 30
-0.001780469631422
 70
    48
  0
VERTEX
  5
21D8F
330
21D8A
100
AcDbEntity
  8
KERA0
100
AcDbVertex
100
AcDb3dPolylineVertex
 10
2288.100433680946
 20
1176.50703558465
 30
0.003338453145207
 70
    40
  0
VERTEX
  5
21D90
330
21D8A
100
AcDbEntity
  8
KERA0
100
AcDbVertex
100
AcDb3dPolylineVertex
 10
2287.570443282684
 20
1176.532405297083
 30
0.002879081686755
 70
    40
  0
VERTEX
  5
21D91
330
21D8A
100
AcDbEntity
  8
KERA0
100
AcDbVertex
100
AcDb3dPolylineVertex
 10
2287.050055483562
 20
1176.606915933548
 30
0.002428033322432
 70
    40
  0
VERTEX
  5
21D92
330
21D8A
100
AcDbEntity
  8
KERA0
100
AcDbVertex
100
AcDb3dPolylineVertex
 10
2286.541809001997
 20
1176.728169742798
 30
0.001987508497353
 70
    40
  0
VERTEX
  5
21D93
330
21D8A
100
AcDbEntity
  8
KERA0
100
AcDbVertex
100
AcDb3dPolylineVertex
 10
2285.571894865202
 20
1177.101315874656
 30
0.00114683124537
 70
    40
  0
VERTEX
  5
21D94
330
21D8A
100
AcDbEntity
  8
KERA0
100
AcDbVertex
100
AcDb3dPolylineVertex
 10
2284.681010619633
 20
1177.632661682668
 30
0.0003746534917081
 70
    40
  0
VERTEX
  5
21D95
330
21D8A
100
AcDbEntity
  8
KERA0
100
AcDbVertex
100
AcDb3dPolylineVertex
 10
2283.88946601262
 20
1178.303025156845
 30
-0.0003114212027338
 70
    40
  0
VERTEX
  5
21D96
330
21D8A
100
AcDbEntity
  8
KERA0
100
AcDbVertex
100
AcDb3dPolylineVertex
 10
2283.217570791495
 20
1179.093224287199
 30
-0.000893789277055
 70
    40
  0
VERTEX
  5
21D97
330
21D8A
100
AcDbEntity
  8
KERA0
100
AcDbVertex
100
AcDb3dPolylineVertex
 10
2282.685634703592
 20
1179.984077063741
 30
-0.001354847170355
 70
    40
  0
VERTEX
  5
21D98
330
21D8A
100
AcDbEntity
  8
KERA0
100
AcDbVertex
100
AcDb3dPolylineVertex
 10
2282.478498130639
 20
1180.461254191211
 30
-0.001534383686341
 70
    40
  0
VERTEX
  5
21D99
330
21D8A
100
AcDbEntity
  8
KERA0
100
AcDbVertex
100
AcDb3dPolylineVertex
 10
2282.31396749624
 20
1180.956401476483
 30
-0.001676991321735
 70
    40
  0
VERTEX
  5
21D9A
330
21D8A
100
AcDbEntity
  8
KERA0
100
AcDbVertex
100
AcDb3dPolylineVertex
 10
2282.194581518813
 20
1181.467121168307
 30
-0.001780469631422
 70
    40
  0
SEQEND
  5
21D9B
330
21D8A
100
AcDbEntity
  8
KERA0
  0
POLYLINE
  5
21D9C
330
1E
100
AcDbEntity
  8
KERA0
100
AcDb3dPolyline
 66
     1
 10
0.0
 20
0.0
 30
0.0
 70
    12
 75
     6
  0
VERTEX
  5
21D9D
330
21D9C
100
AcDbEntity
  8
KERA0
100
AcDbVertex
100
AcDb3dPolylineVertex
 10
2281.994986217525
 20
1182.536740238627
 30
0.0
 70
    48
  0
VERTEX
  5
21D9E
330
21D9C
100
AcDbEntity
  8
KERA0
100
AcDbVertex
100
AcDb3dPolylineVertex
 10
2282.061519044357
 20
1182.180204636405
 30
0.0005934898771405
 70
    48
  0
VERTEX
  5
21D9F
330
21D9C
100
AcDbEntity
  8
KERA0
100
AcDbVertex
100
AcDb3dPolylineVertex
 10
2282.128051871188
 20
1181.823669034184
 30
0.001186979754281
 70
    48
  0
VERTEX
  5
21DA0
330
21D9C
100
AcDbEntity
  8
KERA0
100
AcDbVertex
100
AcDb3dPolylineVertex
 10
2282.19458469802
 20
1181.467133431963
 30
0.001780469631422
 70
    48
  0
VERTEX
  5
21DA1
330
21D9C
100
AcDbEntity
  8
KERA0
100
AcDbVertex
100
AcDb3dPolylineVertex
 10
2281.994986217525
 20
1182.536740238627
 30
0.0
 70
    40
  0
VERTEX
  5
21DA2
330
21D9C
100
AcDbEntity
  8
KERA0
100
AcDbVertex
100
AcDb3dPolylineVertex
 10
2282.019936027587
 20
1182.403039387794
 30
0.0002225587039277
 70
    40
  0
VERTEX
  5
21DA3
330
21D9C
100
AcDbEntity
  8
KERA0
100
AcDbVertex
100
AcDb3dPolylineVertex
 10
2282.044885837648
 20
1182.269338536961
 30
0.0004451174078554
 70
    40
  0
VERTEX
  5
21DA4
330
21D9C
100
AcDbEntity
  8
KERA0
100
AcDbVertex
100
AcDb3dPolylineVertex
 10
2282.06983564771
 20
1182.135637686128
 30
0.0006676761117831
 70
    40
  0
VERTEX
  5
21DA5
330
21D9C
100
AcDbEntity
  8
KERA0
100
AcDbVertex
100
AcDb3dPolylineVertex
 10
2282.094785457773
 20
1182.001936835295
 30
0.0008902348157108
 70
    40
  0
VERTEX
  5
21DA6
330
21D9C
100
AcDbEntity
  8
KERA0
100
AcDbVertex
100
AcDb3dPolylineVertex
 10
2282.119735267835
 20
1181.868235984462
 30
0.001112793519638
 70
    40
  0
VERTEX
  5
21DA7
330
21D9C
100
AcDbEntity
  8
KERA0
100
AcDbVertex
100
AcDb3dPolylineVertex
 10
2282.144685077896
 20
1181.734535133629
 30
0.001335352223566
 70
    40
  0
VERTEX
  5
21DA8
330
21D9C
100
AcDbEntity
  8
KERA0
100
AcDbVertex
100
AcDb3dPolylineVertex
 10
2282.169634887958
 20
1181.600834282796
 30
0.001557910927494
 70
    40
  0
VERTEX
  5
21DA9
330
21D9C
100
AcDbEntity
  8
KERA0
100
AcDbVertex
100
AcDb3dPolylineVertex
 10
2282.19458469802
 20
1181.467133431963
 30
0.001780469631422
 70
    40
  0
SEQEND
  5
21DAA
330
21D9C
100
AcDbEntity
  8
KERA0
  0
POLYLINE
  5
21DAB
330
1E
100
AcDbEntity
  8
KERA0
100
AcDb3dPolyline
 66
     1
 10
0.0
 20
0.0
 30
0.0
 70
    12
 75
     6
  0
VERTEX
  5
21DAC
330
21DAB
100
AcDbEntity
  8
KERA0
100
AcDbVertex
100
AcDb3dPolylineVertex
 10
2274.747672393189
 20
1188.538746241487
 30
0.0
 70
    48
  0
VERTEX
  5
21DAD
330
21DAB
100
AcDbEntity
  8
KERA0
100
AcDbVertex
100
AcDb3dPolylineVertex
 10
2278.308516937395
 20
1188.314302689629
 30
0.0
 70
    48
  0
VERTEX
  5
21DAE
330
21DAB
100
AcDbEntity
  8
KERA0
100
AcDbVertex
100
AcDb3dPolylineVertex
 10
2281.097587529653
 20
1186.045695036783
 30
0.0
 70
    48
  0
VERTEX
  5
21DAF
330
21DAB
100
AcDbEntity
  8
KERA0
100
AcDbVertex
100
AcDb3dPolylineVertex
 10
2281.994977559958
 20
1182.536737996929
 30
0.0
 70
    48
  0
VERTEX
  5
21DB0
330
21DAB
100
AcDbEntity
  8
KERA0
100
AcDbVertex
100
AcDb3dPolylineVertex
 10
2274.747672393189
 20
1188.538746241487
 30
0.0
 70
    40
  0
VERTEX
  5
21DB1
330
21DAB
100
AcDbEntity
  8
KERA0
100
AcDbVertex
100
AcDb3dPolylineVertex
 10
2276.044624875671
 20
1188.36032966792
 30
0.0
 70
    40
  0
VERTEX
  5
21DB2
330
21DAB
100
AcDbEntity
  8
KERA0
100
AcDbVertex
100
AcDb3dPolylineVertex
 10
2277.256099644572
 20
1187.999692413564
 30
0.0
 70
    40
  0
VERTEX
  5
21DB3
330
21DAB
100
AcDbEntity
  8
KERA0
100
AcDbVertex
100
AcDb3dPolylineVertex
 10
2278.368972794305
 20
1187.4662541821
 30
0.0
 70
    40
  0
VERTEX
  5
21DB4
330
21DAB
100
AcDbEntity
  8
KERA0
100
AcDbVertex
100
AcDb3dPolylineVertex
 10
2279.370120419287
 20
1186.769434677207
 30
0.0
 70
    40
  0
VERTEX
  5
21DB5
330
21DAB
100
AcDbEntity
  8
KERA0
100
AcDbVertex
100
AcDb3dPolylineVertex
 10
2280.246418613928
 20
1185.918653602563
 30
0.0
 70
    40
  0
VERTEX
  5
21DB6
330
21DAB
100
AcDbEntity
  8
KERA0
100
AcDbVertex
100
AcDb3dPolylineVertex
 10
2280.984743472645
 20
1184.92333066185
 30
0.0
 70
    40
  0
VERTEX
  5
21DB7
330
21DAB
100
AcDbEntity
  8
KERA0
100
AcDbVertex
100
AcDb3dPolylineVertex
 10
2281.571971089851
 20
1183.792885558745
 30
0.0
 70
    40
  0
VERTEX
  5
21DB8
330
21DAB
100
AcDbEntity
  8
KERA0
100
AcDbVertex
100
AcDb3dPolylineVertex
 10
2281.994977559958
 20
1182.536737996929
 30
0.0
 70
    40
  0
SEQEND
  5
21DB9
330
21DAB
100
AcDbEntity
  8
KERA0
  0
ARC
  5
21DBA
330
1E
100
AcDbEntity
  8
KERA1
100
AcDbCircle
 10
2289.725783006131
 20
1188.74319961937
 30
-0.0000000000000213
 40
11.44484334902012
100
AcDbArc
 50
58.80261205585534
 51
87.62292486664376
  0
LINE
  5
21DBB
330
1E
100
AcDbEntity
  8
KERA1
100
AcDbLine
 10
2307.957558853132
 20
1187.142524762738
 30
0.0001968155746914
 11
2308.199461613446
 21
1176.512567773182
 31
0.0003017357153947
  0
LINE
  5
21DBC
330
1E
100
AcDbEntity
  8
KERA1
100
AcDbLine
 10
2296.444047766867
 20
1198.012396835265
 30
-0.0000000000000213
 11
2307.114276780699
 21
1189.160419155037
 31
0.0000431784362904
  0
LINE
  5
21DCE
330
1E
100
AcDbEntity
  8
0
100
AcDbLine
 10
2330.799139912974
 20
1147.955112107488
 30
0.0
 11
2330.799139912974
 21
1146.788438435868
 31
0.0
  0
LINE
  5
21DCF
330
1E
100
AcDbEntity
  8
0
100
AcDbLine
 10
2330.799139912974
 20
1135.121701719664
 30
0.0
 11
2330.799139912974
 21
1133.955028048044
 31
0.0
  0
LINE
  5
21DD0
330
1E
100
AcDbEntity
  8
0
100
AcDbLine
 10
2330.799139912974
 20
1144.455091092627
 30
0.0
 11
2330.799139912974
 21
1137.455049062905
 31
0.0
  0
LINE
  5
21DD3
330
1E
100
AcDbEntity
  8
KERA1
100
AcDbLine
 10
2365.154232059082
 20
1198.012396835265
 30
-0.0000000000000213
 11
2354.48400304525
 21
1189.160419155037
 31
0.0000431784362904
  0
POLYLINE
  5
21DD4
330
1E
100
AcDbEntity
  8
KERA0
100
AcDb3dPolyline
 66
     1
 10
0.0
 20
0.0
 30
0.0
 70
     8
  0
VERTEX
  5
21DD5
330
21DD4
100
AcDbEntity
  8
KERA0
100
AcDbVertex
100
AcDb3dPolylineVertex
 10
2330.799139924259
 20
1176.507062861247
 30
0.0
 70
    32
  0
VERTEX
  5
21DD6
330
21DD4
100
AcDbEntity
  8
KERA0
100
AcDbVertex
100
AcDb3dPolylineVertex
 10
2333.203950491594
 20
1176.507062861247
 30
0.0
 70
    32
  0
VERTEX
  5
21DD7
330
21DD4
100
AcDbEntity
  8
KERA0
100
AcDbVertex
100
AcDb3dPolylineVertex
 10
2341.266204072626
 20
1176.507062861247
 30
0.0
 70
    32
  0
VERTEX
  5
21DD8
330
21DD4
100
AcDbEntity
  8
KERA0
100
AcDbVertex
100
AcDb3dPolylineVertex
 10
2349.328457653658
 20
1176.507062861247
 30
0.0
 70
    32
  0
VERTEX
  5
21DD9
330
21DD4
100
AcDbEntity
  8
KERA0
100
AcDbVertex
100
AcDb3dPolylineVertex
 10
2357.39071123469
 20
1176.507062861247
 30
0.0
 70
    32
  0
VERTEX
  5
21DDA
330
21DD4
100
AcDbEntity
  8
KERA0
100
AcDbVertex
100
AcDb3dPolylineVertex
 10
2365.452964815721
 20
1176.507062861247
 30
0.0
 70
    32
  0
VERTEX
  5
21DDB
330
21DD4
100
AcDbEntity
  8
KERA0
100
AcDbVertex
100
AcDb3dPolylineVertex
 10
2373.515218396752
 20
1176.507062861247
 30
0.0
 70
    32
  0
SEQEND
  5
21DDC
330
21DD4
100
AcDbEntity
  8
KERA0
  0
POLYLINE
  5
21DDF
330
1E
100
AcDbEntity
  8
KERA1
100
AcDb3dPolyline
 66
     1
 10
0.0
 20
0.0
 30
0.0
 70
     8
  0
VERTEX
  5
21DE0
330
21DDF
100
AcDbEntity
  8
KERA1
100
AcDbVertex
100
AcDb3dPolylineVertex
 10
2356.801373299123
 20
1199.930953600883
 30
0.0
 70
    32
  0
VERTEX
  5
21DE1
330
21DDF
100
AcDbEntity
  8
KERA1
100
AcDbVertex
100
AcDb3dPolylineVertex
 10
2350.09334795308
 20
1199.930953600883
 30
0.0
 70
    32
  0
VERTEX
  5
21DE2
330
21DDF
100
AcDbEntity
  8
KERA1
100
AcDbVertex
100
AcDb3dPolylineVertex
 10
2343.385322607035
 20
1199.930953600884
 30
0.0
 70
    32
  0
VERTEX
  5
21DE3
330
21DDF
100
AcDbEntity
  8
KERA1
100
AcDbVertex
100
AcDb3dPolylineVertex
 10
2336.677297260991
 20
1199.930953600883
 30
0.0
 70
    32
  0
VERTEX
  5
21DE4
330
21DDF
100
AcDbEntity
  8
KERA1
100
AcDbVertex
100
AcDb3dPolylineVertex
 10
2330.79913992426
 20
1199.930953600884
 30
0.0
 70
    32
  0
SEQEND
  5
21DE5
330
21DDF
100
AcDbEntity
  8
KERA1
  0
POLYLINE
  5
21DE6
330
1E
100
AcDbEntity
  8
KERA1
100
AcDb3dPolyline
 66
     1
 10
0.0
 20
0.0
 30
0.0
 70
     8
  0
VERTEX
  5
21DE7
330
21DE6
100
AcDbEntity
  8
KERA1
100
AcDbVertex
100
AcDb3dPolylineVertex
 10
2330.79913992426
 20
1188.507055246937
 30
0.0
 70
    32
  0
VERTEX
  5
21DE8
330
21DE6
100
AcDbEntity
  8
KERA1
100
AcDbVertex
100
AcDb3dPolylineVertex
 10
2331.749369181557
 20
1188.507055246937
 30
0.0
 70
    32
  0
VERTEX
  5
21DE9
330
21DE6
100
AcDbEntity
  8
KERA1
100
AcDbVertex
100
AcDb3dPolylineVertex
 10
2336.958399250017
 20
1188.507055246937
 30
0.0
 70
    32
  0
VERTEX
  5
21DEA
330
21DE6
100
AcDbEntity
  8
KERA1
100
AcDbVertex
100
AcDb3dPolylineVertex
 10
2342.167429318492
 20
1188.507055246937
 30
0.0
 70
    32
  0
VERTEX
  5
21DEB
330
21DE6
100
AcDbEntity
  8
KERA1
100
AcDbVertex
100
AcDb3dPolylineVertex
 10
2347.376459386975
 20
1188.507055246937
 30
0.0
 70
    32
  0
VERTEX
  5
21DEC
330
21DE6
100
AcDbEntity
  8
KERA1
100
AcDbVertex
100
AcDb3dPolylineVertex
 10
2352.585489455462
 20
1188.507055246937
 30
0.0
 70
    32
  0
SEQEND
  5
21DED
330
21DE6
100
AcDbEntity
  8
KERA1
  0
LINE
  5
21DFB
330
1E
100
AcDbEntity
  8
KERA1
100
AcDbLine
 10
2353.640720972817
 20
1187.142524762738
 30
0.0001968155746914
 11
2353.398818212502
 21
1176.512567773182
 31
0.0003017357153947
  0
ARC
  5
21E0A
330
1E
100
AcDbEntity
  8
KERA1
100
AcDbCircle
 10
2371.872496819817
 20
1188.74319961937
 30
-0.0000000000000213
 40
11.44484334902012
100
AcDbArc
 50
92.37707513335625
 51
121.1973879441446
  0
POLYLINE
  5
21E0B
330
1E
100
AcDbEntity
  8
KERA0
100
AcDb3dPolyline
 66
     1
 10
0.0
 20
0.0
 30
0.0
 70
    12
 75
     6
  0
VERTEX
  5
21E0C
330
21E0B
100
AcDbEntity
  8
KERA0
100
AcDbVertex
100
AcDb3dPolylineVertex
 10
2386.85060743276
 20
1188.538746241487
 30
0.0
 70
    48
  0
VERTEX
  5
21E0D
330
21E0B
100
AcDbEntity
  8
KERA0
100
AcDbVertex
100
AcDb3dPolylineVertex
 10
2383.289762888554
 20
1188.314302689629
 30
0.0
 70
    48
  0
VERTEX
  5
21E0E
330
21E0B
100
AcDbEntity
  8
KERA0
100
AcDbVertex
100
AcDb3dPolylineVertex
 10
2380.500692296296
 20
1186.045695036783
 30
0.0
 70
    48
  0
VERTEX
  5
21E0F
330
21E0B
100
AcDbEntity
  8
KERA0
100
AcDbVertex
100
AcDb3dPolylineVertex
 10
2379.60330226599
 20
1182.536737996929
 30
0.0
 70
    48
  0
VERTEX
  5
21E10
330
21E0B
100
AcDbEntity
  8
KERA0
100
AcDbVertex
100
AcDb3dPolylineVertex
 10
2386.85060743276
 20
1188.538746241487
 30
0.0
 70
    40
  0
VERTEX
  5
21E11
330
21E0B
100
AcDbEntity
  8
KERA0
100
AcDbVertex
100
AcDb3dPolylineVertex
 10
2385.553654950278
 20
1188.36032966792
 30
0.0
 70
    40
  0
VERTEX
  5
21E12
330
21E0B
100
AcDbEntity
  8
KERA0
100
AcDbVertex
100
AcDb3dPolylineVertex
 10
2384.342180181377
 20
1187.999692413564
 30
0.0
 70
    40
  0
VERTEX
  5
21E13
330
21E0B
100
AcDbEntity
  8
KERA0
100
AcDbVertex
100
AcDb3dPolylineVertex
 10
2383.229307031643
 20
1187.4662541821
 30
0.0
 70
    40
  0
VERTEX
  5
21E14
330
21E0B
100
AcDbEntity
  8
KERA0
100
AcDbVertex
100
AcDb3dPolylineVertex
 10
2382.228159406662
 20
1186.769434677207
 30
0.0
 70
    40
  0
VERTEX
  5
21E15
330
21E0B
100
AcDbEntity
  8
KERA0
100
AcDbVertex
100
AcDb3dPolylineVertex
 10
2381.351861212021
 20
1185.918653602563
 30
0.0
 70
    40
  0
VERTEX
  5
21E16
330
21E0B
100
AcDbEntity
  8
KERA0
100
AcDbVertex
100
AcDb3dPolylineVertex
 10
2380.613536353304
 20
1184.92333066185
 30
0.0
 70
    40
  0
VERTEX
  5
21E17
330
21E0B
100
AcDbEntity
  8
KERA0
100
AcDbVertex
100
AcDb3dPolylineVertex
 10
2380.026308736098
 20
1183.792885558745
 30
0.0
 70
    40
  0
VERTEX
  5
21E18
330
21E0B
100
AcDbEntity
  8
KERA0
100
AcDbVertex
100
AcDb3dPolylineVertex
 10
2379.60330226599
 20
1182.536737996929
 30
0.0
 70
    40
  0
SEQEND
  5
21E19
330
21E0B
100
AcDbEntity
  8
KERA0
  0
POLYLINE
  5
21E1A
330
1E
100
AcDbEntity
  8
KERA0
100
AcDb3dPolyline
 66
     1
 10
0.0
 20
0.0
 30
0.0
 70
    12
 75
     6
  0
VERTEX
  5
21E1B
330
21E1A
100
AcDbEntity
  8
KERA0
100
AcDbVertex
100
AcDb3dPolylineVertex
 10
2379.603293608423
 20
1182.536740238627
 30
0.0
 70
    48
  0
VERTEX
  5
21E1C
330
21E1A
100
AcDbEntity
  8
KERA0
100
AcDbVertex
100
AcDb3dPolylineVertex
 10
2379.536760781591
 20
1182.180204636405
 30
0.0005934898771405
 70
    48
  0
VERTEX
  5
21E1D
330
21E1A
100
AcDbEntity
  8
KERA0
100
AcDbVertex
100
AcDb3dPolylineVertex
 10
2379.470227954761
 20
1181.823669034184
 30
0.001186979754281
 70
    48
  0
VERTEX
  5
21E1E
330
21E1A
100
AcDbEntity
  8
KERA0
100
AcDbVertex
100
AcDb3dPolylineVertex
 10
2379.403695127929
 20
1181.467133431963
 30
0.001780469631422
 70
    48
  0
VERTEX
  5
21E1F
330
21E1A
100
AcDbEntity
  8
KERA0
100
AcDbVertex
100
AcDb3dPolylineVertex
 10
2379.603293608423
 20
1182.536740238627
 30
0.0
 70
    40
  0
VERTEX
  5
21E20
330
21E1A
100
AcDbEntity
  8
KERA0
100
AcDbVertex
100
AcDb3dPolylineVertex
 10
2379.578343798362
 20
1182.403039387794
 30
0.0002225587039277
 70
    40
  0
VERTEX
  5
21E21
330
21E1A
100
AcDbEntity
  8
KERA0
100
AcDbVertex
100
AcDb3dPolylineVertex
 10
2379.5533939883
 20
1182.269338536961
 30
0.0004451174078554
 70
    40
  0
VERTEX
  5
21E22
330
21E1A
100
AcDbEntity
  8
KERA0
100
AcDbVertex
100
AcDb3dPolylineVertex
 10
2379.528444178238
 20
1182.135637686128
 30
0.0006676761117831
 70
    40
  0
VERTEX
  5
21E23
330
21E1A
100
AcDbEntity
  8
KERA0
100
AcDbVertex
100
AcDb3dPolylineVertex
 10
2379.503494368176
 20
1182.001936835295
 30
0.0008902348157108
 70
    40
  0
VERTEX
  5
21E24
330
21E1A
100
AcDbEntity
  8
KERA0
100
AcDbVertex
100
AcDb3dPolylineVertex
 10
2379.478544558114
 20
1181.868235984462
 30
0.001112793519638
 70
    40
  0
VERTEX
  5
21E25
330
21E1A
100
AcDbEntity
  8
KERA0
100
AcDbVertex
100
AcDb3dPolylineVertex
 10
2379.453594748053
 20
1181.734535133629
 30
0.001335352223566
 70
    40
  0
VERTEX
  5
21E26
330
21E1A
100
AcDbEntity
  8
KERA0
100
AcDbVertex
100
AcDb3dPolylineVertex
 10
2379.428644937991
 20
1181.600834282796
 30
0.001557910927494
 70
    40
  0
VERTEX
  5
21E27
330
21E1A
100
AcDbEntity
  8
KERA0
100
AcDbVertex
100
AcDb3dPolylineVertex
 10
2379.403695127929
 20
1181.467133431963
 30
0.001780469631422
 70
    40
  0
SEQEND
  5
21E28
330
21E1A
100
AcDbEntity
  8
KERA0
  0
POLYLINE
  5
21E29
330
1E
100
AcDbEntity
  8
KERA0
100
AcDb3dPolyline
 66
     1
 10
0.0
 20
0.0
 30
0.0
 70
    12
 75
     6
  0
VERTEX
  5
21E2A
330
21E29
100
AcDbEntity
  8
KERA0
100
AcDbVertex
100
AcDb3dPolylineVertex
 10
2373.497846145003
 20
1176.50703558465
 30
0.003338453145207
 70
    48
  0
VERTEX
  5
21E2B
330
21E29
100
AcDbEntity
  8
KERA0
100
AcDbVertex
100
AcDb3dPolylineVertex
 10
2376.345555256257
 20
1176.50703558465
 30
0.000870189018205
 70
    48
  0
VERTEX
  5
21E2C
330
21E29
100
AcDbEntity
  8
KERA0
100
AcDbVertex
100
AcDb3dPolylineVertex
 10
2378.891872123298
 20
1178.706019063323
 30
-0.001336842084058
 70
    48
  0
VERTEX
  5
21E2D
330
21E29
100
AcDbEntity
  8
KERA0
100
AcDbVertex
100
AcDb3dPolylineVertex
 10
2379.403698307136
 20
1181.467121168307
 30
-0.001780469631422
 70
    48
  0
VERTEX
  5
21E2E
330
21E29
100
AcDbEntity
  8
KERA0
100
AcDbVertex
100
AcDb3dPolylineVertex
 10
2373.497846145003
 20
1176.50703558465
 30
0.003338453145207
 70
    40
  0
VERTEX
  5
21E2F
330
21E29
100
AcDbEntity
  8
KERA0
100
AcDbVertex
100
AcDb3dPolylineVertex
 10
2374.027836543265
 20
1176.532405297083
 30
0.002879081686755
 70
    40
  0
VERTEX
  5
21E30
330
21E29
100
AcDbEntity
  8
KERA0
100
AcDbVertex
100
AcDb3dPolylineVertex
 10
2374.548224342387
 20
1176.606915933548
 30
0.002428033322432
 70
    40
  0
VERTEX
  5
21E31
330
21E29
100
AcDbEntity
  8
KERA0
100
AcDbVertex
100
AcDb3dPolylineVertex
 10
2375.056470823952
 20
1176.728169742798
 30
0.001987508497353
 70
    40
  0
VERTEX
  5
21E32
330
21E29
100
AcDbEntity
  8
KERA0
100
AcDbVertex
100
AcDb3dPolylineVertex
 10
2376.026384960747
 20
1177.101315874656
 30
0.00114683124537
 70
    40
  0
VERTEX
  5
21E33
330
21E29
100
AcDbEntity
  8
KERA0
100
AcDbVertex
100
AcDb3dPolylineVertex
 10
2376.917269206316
 20
1177.632661682668
 30
0.0003746534917081
 70
    40
  0
VERTEX
  5
21E34
330
21E29
100
AcDbEntity
  8
KERA0
100
AcDbVertex
100
AcDb3dPolylineVertex
 10
2377.708813813329
 20
1178.303025156845
 30
-0.0003114212027338
 70
    40
  0
VERTEX
  5
21E35
330
21E29
100
AcDbEntity
  8
KERA0
100
AcDbVertex
100
AcDb3dPolylineVertex
 10
2378.380709034453
 20
1179.093224287199
 30
-0.000893789277055
 70
    40
  0
VERTEX
  5
21E36
330
21E29
100
AcDbEntity
  8
KERA0
100
AcDbVertex
100
AcDb3dPolylineVertex
 10
2378.912645122357
 20
1179.984077063741
 30
-0.001354847170355
 70
    40
  0
VERTEX
  5
21E37
330
21E29
100
AcDbEntity
  8
KERA0
100
AcDbVertex
100
AcDb3dPolylineVertex
 10
2379.11978169531
 20
1180.461254191211
 30
-0.001534383686341
 70
    40
  0
VERTEX
  5
21E38
330
21E29
100
AcDbEntity
  8
KERA0
100
AcDbVertex
100
AcDb3dPolylineVertex
 10
2379.284312329708
 20
1180.956401476483
 30
-0.001676991321735
 70
    40
  0
VERTEX
  5
21E39
330
21E29
100
AcDbEntity
  8
KERA0
100
AcDbVertex
100
AcDb3dPolylineVertex
 10
2379.403698307136
 20
1181.467121168307
 30
-0.001780469631422
 70
    40
  0
SEQEND
  5
21E3A
330
21E29
100
AcDbEntity
  8
KERA0
  0
POLYLINE
  5
21F29
330
1E
100
AcDbEntity
  8
KERA0
100
AcDb3dPolyline
 66
     1
 10
0.0
 20
0.0
 30
0.0
 70
     8
  0
VERTEX
  5
21F2A
330
21F29
100
AcDbEntity
  8
KERA0
100
AcDbVertex
100
AcDb3dPolylineVertex
 10
2581.2087447361
 20
1293.428472237094
 30
0.0
 70
    32
  0
VERTEX
  5
21F2B
330
21F29
100
AcDbEntity
  8
KERA0
100
AcDbVertex
100
AcDb3dPolylineVertex
 10
2580.183070845178
 20
1283.171734183771
 30
0.0
 70
    32
  0
VERTEX
  5
21F2C
330
21F29
100
AcDbEntity
  8
KERA0
100
AcDbVertex
100
AcDb3dPolylineVertex
 10
2579.157396954256
 20
1272.914996130449
 30
0.0
 70
    32
  0
VERTEX
  5
21F2D
330
21F29
100
AcDbEntity
  8
KERA0
100
AcDbVertex
100
AcDb3dPolylineVertex
 10
2578.131723063336
 20
1262.658258077126
 30
0.0
 70
    32
  0
VERTEX
  5
21F2E
330
21F29
100
AcDbEntity
  8
KERA0
100
AcDbVertex
100
AcDb3dPolylineVertex
 10
2577.106049172415
 20
1252.401520023804
 30
0.0
 70
    32
  0
VERTEX
  5
21F2F
330
21F29
100
AcDbEntity
  8
KERA0
100
AcDbVertex
100
AcDb3dPolylineVertex
 10
2576.080375281494
 20
1242.144781970481
 30
0.0
 70
    32
  0
VERTEX
  5
21F30
330
21F29
100
AcDbEntity
  8
KERA0
100
AcDbVertex
100
AcDb3dPolylineVertex
 10
2575.054701390573
 20
1231.888043917159
 30
0.0
 70
    32
  0
VERTEX
  5
21F31
330
21F29
100
AcDbEntity
  8
KERA0
100
AcDbVertex
100
AcDb3dPolylineVertex
 10
2574.029027499652
 20
1221.631305863836
 30
0.0
 70
    32
  0
VERTEX
  5
21F32
330
21F29
100
AcDbEntity
  8
KERA0
100
AcDbVertex
100
AcDb3dPolylineVertex
 10
2573.13462540472
 20
1212.687285660868
 30
0.0
 70
    32
  0
SEQEND
  5
21F33
330
21F29
100
AcDbEntity
  8
KERA0
  0
LINE
  5
21F34
330
1E
100
AcDbEntity
  8
KERA1
100
AcDbLine
 10
2570.499141722786
 20
1306.930948530309
 30
0.0
 11
2561.194180718814
 21
1213.881346255246
 31
0.0
  0
ARC
  5
21F35
330
1E
100
AcDbEntity
  8
KERA1
100
AcDbCircle
 10
2551.243808824934
 20
1214.876383527666
 30
0.0
 40
10.0
100
AcDbArc
 50
271.4999999999998
 51
354.2894063891206
  0
ARC
  5
21F36
330
1E
100
AcDbEntity
  8
KERA0
100
AcDbCircle
 10
2551.243799902905
 20
1214.876368393721
 30
0.0
 40
22.0
100
AcDbArc
 50
271.4999999999897
 51
354.2894063891192
  0
ARC
  5
21F46
330
1E
100
AcDbEntity
  8
KERA0
100
AcDbCircle
 10
2586.183930683039
 20
1292.930953600884
 30
0.0
 40
5.0
100
AcDbArc
 50
90.0
 51
174.2894063891192
  0
POLYLINE
  5
21F47
330
1E
100
AcDbEntity
  8
KERA0
100
AcDb3dPolyline
 66
     1
 10
0.0
 20
0.0
 30
0.0
 70
    12
 75
     6
  0
VERTEX
  5
21F48
330
21F47
100
AcDbEntity
  8
KERA0
100
AcDbVertex
100
AcDb3dPolylineVertex
 10
2594.499141722786
 20
1297.930953600884
 30
0.0
 70
    48
  0
VERTEX
  5
21F49
330
21F47
100
AcDbEntity
  8
KERA0
100
AcDbVertex
100
AcDb3dPolylineVertex
 10
2594.499141722786
 20
1300.930951910692
 30
0.0
 70
    48
  0
VERTEX
  5
21F4A
330
21F47
100
AcDbEntity
  8
KERA0
100
AcDbVertex
100
AcDb3dPolylineVertex
 10
2594.499141722786
 20
1303.9309502205
 30
0.0
 70
    48
  0
VERTEX
  5
21F4B
330
21F47
100
AcDbEntity
  8
KERA0
100
AcDbVertex
100
AcDb3dPolylineVertex
 10
2594.499141722786
 20
1306.930948530309
 30
0.0
 70
    48
  0
VERTEX
  5
21F4C
330
21F47
100
AcDbEntity
  8
KERA0
100
AcDbVertex
100
AcDb3dPolylineVertex
 10
2594.499141722786
 20
1297.930953600884
 30
0.0
 70
    40
  0
VERTEX
  5
21F4D
330
21F47
100
AcDbEntity
  8
KERA0
100
AcDbVertex
100
AcDb3dPolylineVertex
 10
2594.499141722786
 20
1299.055952967062
 30
0.0
 70
    40
  0
VERTEX
  5
21F4E
330
21F47
100
AcDbEntity
  8
KERA0
100
AcDbVertex
100
AcDb3dPolylineVertex
 10
2594.499141722786
 20
1300.18095233324
 30
0.0
 70
    40
  0
VERTEX
  5
21F4F
330
21F47
100
AcDbEntity
  8
KERA0
100
AcDbVertex
100
AcDb3dPolylineVertex
 10
2594.499141722786
 20
1301.305951699418
 30
0.0
 70
    40
  0
VERTEX
  5
21F50
330
21F47
100
AcDbEntity
  8
KERA0
100
AcDbVertex
100
AcDb3dPolylineVertex
 10
2594.499141722786
 20
1302.430951065596
 30
0.0
 70
    40
  0
VERTEX
  5
21F51
330
21F47
100
AcDbEntity
  8
KERA0
100
AcDbVertex
100
AcDb3dPolylineVertex
 10
2594.499141722786
 20
1303.555950431774
 30
0.0
 70
    40
  0
VERTEX
  5
21F52
330
21F47
100
AcDbEntity
  8
KERA0
100
AcDbVertex
100
AcDb3dPolylineVertex
 10
2594.499141722786
 20
1304.680949797953
 30
0.0
 70
    40
  0
VERTEX
  5
21F53
330
21F47
100
AcDbEntity
  8
KERA0
100
AcDbVertex
100
AcDb3dPolylineVertex
 10
2594.499141722786
 20
1305.805949164131
 30
0.0
 70
    40
  0
VERTEX
  5
21F54
330
21F47
100
AcDbEntity
  8
KERA0
100
AcDbVertex
100
AcDb3dPolylineVertex
 10
2594.499141722786
 20
1306.930948530309
 30
0.0
 70
    40
  0
SEQEND
  5
21F55
330
21F47
100
AcDbEntity
  8
KERA0
  0
POLYLINE
  5
21F56
330
1E
100
AcDbEntity
  8
KERA0
100
AcDb3dPolyline
 66
     1
 10
0.0
 20
0.0
 30
0.0
 70
    12
 75
     6
  0
VERTEX
  5
21F57
330
21F56
100
AcDbEntity
  8
KERA0
100
AcDbVertex
100
AcDb3dPolylineVertex
 10
2594.499141722786
 20
1297.930953600884
 30
0.0
 70
    48
  0
VERTEX
  5
21F58
330
21F56
100
AcDbEntity
  8
KERA0
100
AcDbVertex
100
AcDb3dPolylineVertex
 10
2591.727404709537
 20
1297.930953600884
 30
0.0
 70
    48
  0
VERTEX
  5
21F59
330
21F56
100
AcDbEntity
  8
KERA0
100
AcDbVertex
100
AcDb3dPolylineVertex
 10
2588.955667696287
 20
1297.930953600884
 30
0.0
 70
    48
  0
VERTEX
  5
21F5A
330
21F56
100
AcDbEntity
  8
KERA0
100
AcDbVertex
100
AcDb3dPolylineVertex
 10
2586.183930683039
 20
1297.930953600884
 30
0.0
 70
    48
  0
VERTEX
  5
21F5B
330
21F56
100
AcDbEntity
  8
KERA0
100
AcDbVertex
100
AcDb3dPolylineVertex
 10
2594.499141722786
 20
1297.930953600884
 30
0.0
 70
    40
  0
VERTEX
  5
21F5C
330
21F56
100
AcDbEntity
  8
KERA0
100
AcDbVertex
100
AcDb3dPolylineVertex
 10
2593.459740342817
 20
1297.930953600884
 30
0.0
 70
    40
  0
VERTEX
  5
21F5D
330
21F56
100
AcDbEntity
  8
KERA0
100
AcDbVertex
100
AcDb3dPolylineVertex
 10
2592.420338962849
 20
1297.930953600884
 30
0.0
 70
    40
  0
VERTEX
  5
21F5E
330
21F56
100
AcDbEntity
  8
KERA0
100
AcDbVertex
100
AcDb3dPolylineVertex
 10
2591.380937582881
 20
1297.930953600884
 30
0.0
 70
    40
  0
VERTEX
  5
21F5F
330
21F56
100
AcDbEntity
  8
KERA0
100
AcDbVertex
100
AcDb3dPolylineVertex
 10
2590.341536202912
 20
1297.930953600884
 30
0.0
 70
    40
  0
VERTEX
  5
21F60
330
21F56
100
AcDbEntity
  8
KERA0
100
AcDbVertex
100
AcDb3dPolylineVertex
 10
2589.302134822943
 20
1297.930953600884
 30
0.0
 70
    40
  0
VERTEX
  5
21F61
330
21F56
100
AcDbEntity
  8
KERA0
100
AcDbVertex
100
AcDb3dPolylineVertex
 10
2588.262733442976
 20
1297.930953600884
 30
0.0
 70
    40
  0
VERTEX
  5
21F62
330
21F56
100
AcDbEntity
  8
KERA0
100
AcDbVertex
100
AcDb3dPolylineVertex
 10
2587.223332063007
 20
1297.930953600884
 30
0.0
 70
    40
  0
VERTEX
  5
21F63
330
21F56
100
AcDbEntity
  8
KERA0
100
AcDbVertex
100
AcDb3dPolylineVertex
 10
2586.183930683039
 20
1297.930953600884
 30
0.0
 70
    40
  0
SEQEND
  5
21F64
330
21F56
100
AcDbEntity
  8
KERA0
  0
POLYLINE
  5
21F65
330
1E
100
AcDbEntity
  8
0
100
AcDb3dPolyline
 66
     1
 10
0.0
 20
0.0
 30
0.0
 70
    12
 75
     6
  0
VERTEX
  5
21F66
330
21F65
100
AcDbEntity
  8
0
100
AcDbVertex
100
AcDb3dPolylineVertex
 10
2598.799141324426
 20
1344.930948832526
 30
0.0
 70
    48
  0
VERTEX
  5
21F67
330
21F65
100
AcDbEntity
  8
0
100
AcDbVertex
100
AcDb3dPolylineVertex
 10
2598.79940060903
 20
1344.930948832526
 30
0.0
 70
    48
  0
VERTEX
  5
21F68
330
21F65
100
AcDbEntity
  8
0
100
AcDbVertex
100
AcDb3dPolylineVertex
 10
2598.799659893635
 20
1344.930948831721
 30
0.0
 70
    48
  0
VERTEX
  5
21F69
330
21F65
100
AcDbEntity
  8
0
100
AcDbVertex
100
AcDb3dPolylineVertex
 10
2598.79991917824
 20
1344.930948830112
 30
0.0
 70
    48
  0
VERTEX
  5
21F6A
330
21F65
100
AcDbEntity
  8
0
100
AcDbVertex
100
AcDb3dPolylineVertex
 10
2598.799141324426
 20
1344.930948832526
 30
0.0
 70
    40
  0
VERTEX
  5
21F6B
330
21F65
100
AcDbEntity
  8
0
100
AcDbVertex
100
AcDb3dPolylineVertex
 10
2598.799238556152
 20
1344.930948832488
 30
0.0
 70
    40
  0
VERTEX
  5
21F6C
330
21F65
100
AcDbEntity
  8
0
100
AcDbVertex
100
AcDb3dPolylineVertex
 10
2598.799335787879
 20
1344.930948832375
 30
0.0
 70
    40
  0
VERTEX
  5
21F6D
330
21F65
100
AcDbEntity
  8
0
100
AcDbVertex
100
AcDb3dPolylineVertex
 10
2598.799433019606
 20
1344.930948832187
 30
0.0
 70
    40
  0
VERTEX
  5
21F6E
330
21F65
100
AcDbEntity
  8
0
100
AcDbVertex
100
AcDb3dPolylineVertex
 10
2598.799530251333
 20
1344.930948831923
 30
0.0
 70
    40
  0
VERTEX
  5
21F6F
330
21F65
100
AcDbEntity
  8
0
100
AcDbVertex
100
AcDb3dPolylineVertex
 10
2598.79962748306
 20
1344.930948831583
 30
0.0
 70
    40
  0
VERTEX
  5
21F70
330
21F65
100
AcDbEntity
  8
0
100
AcDbVertex
100
AcDb3dPolylineVertex
 10
2598.799724714786
 20
1344.930948831168
 30
0.0
 70
    40
  0
VERTEX
  5
21F71
330
21F65
100
AcDbEntity
  8
0
100
AcDbVertex
100
AcDb3dPolylineVertex
 10
2598.799821946513
 20
1344.930948830678
 30
0.0
 70
    40
  0
VERTEX
  5
21F72
330
21F65
100
AcDbEntity
  8
0
100
AcDbVertex
100
AcDb3dPolylineVertex
 10
2598.79991917824
 20
1344.930948830112
 30
0.0
 70
    40
  0
SEQEND
  5
21F73
330
21F65
100
AcDbEntity
  8
0
  0
LINE
  5
2208B
330
1E
100
AcDbEntity
  8
KERA2
100
AcDbLine
 10
2330.799139912974
 20
1306.930948530309
 30
0.0
 11
2330.799139912974
 21
1160.238410513779
 31
0.0
  0
DIMENSION
  5
2208D
330
1E
100
AcDbEntity
  8
KERA4
100
AcDbDimension
  2
*D0
 10
2594.445541874859
 20
928.4191539455415
 30
0.0
 11
2329.683889632214
 21
928.4191539455415
 31
0.0
 70
   160
  1
534
 71
     5
 42
527.3882114899147
  3
STANDARD
100
AcDbAlignedDimension
 13
2067.057330384944
 23
647.7309546649542
 33
0.0
 14
2594.445541874859
 24
647.2454028930663
 34
0.0
100
AcDbRotatedDimension
  0
DIMENSION
  5
220B7
330
1E
100
AcDbEntity
  8
KERA4
100
AcDbDimension
  2
*D1
 10
2701.498087019132
 20
333.2454038714102
 30
0.0
 11
2701.498087019132
 21
483.2454038714106
 31
0.0
 70
    32
 71
     5
 42
300.0
  3
STANDARD
100
AcDbAlignedDimension
 13
2560.745537201231
 23
633.2454038714103
 33
0.0
 14
2560.745537201231
 24
333.2454038714103
 34
0.0
 50
90.0
100
AcDbRotatedDimension
  0
LINE
  5
220EB
330
1E
100
AcDbEntity
  8
KERA4
100
AcDbLine
 10
2580.745537201231
 20
633.2454038714103
 30
0.0
 11
2716.498087019132
 21
633.2454038714103
 31
0.0
  0
LINE
  5
220ED
330
1E
100
AcDbEntity
  8
KERA4
100
AcDbLine
 10
2701.498087019132
 20
593.2454038714102
 30
0.0
 11
2701.498087019132
 21
553.2454038714103
 31
0.0
  0
SOLID
  5
220F0
330
1E
100
AcDbEntity
  8
KERA4
100
AcDbTrace
 10
2694.831420352466
 20
593.2454038714102
 30
0.0
 11
2708.164753685799
 21
593.2454038714102
 31
0.0
 12
2701.498087019132
 22
633.2454038714103
 32
0.0
 13
2701.498087019132
 23
633.2454038714103
 33
0.0
  0
DIMENSION
  5
2214A
330
1E
100
AcDbEntity
  8
KERA4
100
AcDbDimension
  2
*D2
 10
2851.056819397601
 20
309.2454195823663
 30
0.0
 11
2851.056819397601
 21
483.2454112377166
 31
0.0
 70
    32
  1
354
 71
     5
 42
347.9999833106997
  3
STANDARD
100
AcDbAlignedDimension
 13
2584.445541874859
 23
657.2454028930661
 33
0.0
 14
2584.445541874859
 24
309.2454195823663
 34
0.0
 50
90.0
100
AcDbRotatedDimension
  0
DIMENSION
  5
22158
330
1E
100
AcDbEntity
  8
KERA4
100
AcDbDimension
  2
*D3
 10
2570.745537201231
 20
826.5463880411024
 30
0.0
 11
2330.745537201231
 21
826.5463880411024
 31
0.0
 70
    32
 71
     5
 42
480.0
  3
STANDARD
100
AcDbAlignedDimension
 13
2090.745537201231
 23
623.2454038714102
 33
0.0
 14
2570.745537201231
 24
623.2454038714102
 34
0.0
100
AcDbRotatedDimension
  0
DIMENSION
  5
227A2
330
1E
100
AcDbEntity
  8
KERA4
100
AcDbDimension
  2
*D4
 10
2353.398692905008
 20
1113.60044687296
 30
0.0
 11
2481.519429603508
 21
1113.60044687296
 31
0.0
 70
    32
  1
46
 71
     5
 42
45.19910602920845
  3
STANDARD
100
AcDbAlignedDimension
 13
2308.1995868758
 23
1176.507062861247
 33
0.0003017900500879
 14
2353.398692905008
 24
1176.507062861247
 34
0.0003017900500879
100
AcDbRotatedDimension
  0
DIMENSION
  5
227E7
330
1E
100
AcDbEntity
  8
KERA4
100
AcDbDimension
  2
*D5
 10
2701.498087019132
 20
1199.930953600883
 30
0.0
 11
2701.498087019132
 21
1253.430951065596
 31
0.0
 70
    32
  1
110
 71
     5
 42
106.9999949294253
  3
STANDARD
100
AcDbAlignedDimension
 13
2594.499141722786
 23
1306.930948530309
 33
0.0
 14
2330.799139901689
 24
1199.930953600884
 34
0.0
 50
90.0
100
AcDbRotatedDimension
  0
LINE
  5
227F5
330
1E
100
AcDbEntity
  8
KERA4
100
AcDbLine
 10
2564.445534749728
 20
1306.930948530309
 30
0.0
 11
2865.839903380613
 21
1306.930948530309
 31
0.0
  0
LINE
  5
227F6
330
1E
100
AcDbEntity
  8
KERA4
100
AcDbLine
 10
2350.745537223802
 20
1176.507057790672
 30
0.0
 11
2669.335330669261
 21
1176.507057790671
 31
0.0
  0
LINE
  5
227F7
330
1E
100
AcDbEntity
  8
KERA4
100
AcDbLine
 10
2850.839903380613
 20
1346.930948530309
 30
0.0
 11
2850.839903380613
 21
1386.930948530309
 31
0.0
  0
LINE
  5
227F8
330
1E
100
AcDbEntity
  8
KERA4
100
AcDbLine
 10
2850.839903380613
 20
1136.507057790671
 30
0.0
 11
2850.839903380613
 21
1096.507057790672
 31
0.0
  0
SOLID
  5
227F9
330
1E
100
AcDbEntity
  8
KERA4
100
AcDbTrace
 10
2844.173236713946
 20
1346.930948530309
 30
0.0
 11
2857.506570047279
 21
1346.930948530309
 31
0.0
 12
2850.839903380613
 22
1306.930948530309
 32
0.0
 13
2850.839903380613
 23
1306.930948530309
 33
0.0
  0
SOLID
  5
227FA
330
1E
100
AcDbEntity
  8
KERA4
100
AcDbTrace
 10
2844.173236713946
 20
1136.507057790671
 30
0.0
 11
2857.506570047279
 21
1136.507057790671
 31
0.0
 12
2850.839903380613
 22
1176.507057790671
 32
0.0
 13
2850.839903380613
 23
1176.507057790671
 33
0.0
  0
MTEXT
  5
227FB
330
1E
100
AcDbEntity
  8
KERA4
100
AcDbMText
 10
2850.839903380613
 20
1248.560790932699
 30
0.0
 40
45.0
 41
0.0
 71
     5
 72
     1
  1
\A1;130
 73
     1
 44
1.0
  0
LINE
  5
227FC
330
1E
100
AcDbEntity
  8
KERA4
100
AcDbLine
 10
2722.817492861008
 20
1176.507057790671
 30
0.0
 11
2865.839903380613
 21
1176.507057790671
 31
0.0
  0
ENDSEC
  0
SECTION
  2
OBJECTS
  0
DICTIONARY
  5
C
330
0
100
AcDbDictionary
281
     1
  3
ACAD_GROUP
350
D
  3
ACAD_LAYOUT
350
19
  3
ACAD_MLINESTYLE
350
16
  3
ACAD_PLOTSETTINGS
350
18
  3
ACAD_PLOTSTYLENAME
350
E
  3
AcDbVariableDictionary
350
22AC
  3
ASE_INDEX_DICTIONARY
350
22142
  0
DICTIONARY
  5
D
102
{ACAD_REACTORS
330
C
102
}
330
C
100
AcDbDictionary
281
     1
  0
DICTIONARY
  5
19
102
{ACAD_REACTORS
330
C
102
}
330
C
100
AcDbDictionary
281
     1
  3
Layout1
350
1D
  3
Model
350
21
  0
DICTIONARY
  5
16
102
{ACAD_REACTORS
330
C
102
}
330
C
100
AcDbDictionary
281
     1
  3
Standard
350
17
  0
DICTIONARY
  5
18
102
{ACAD_REACTORS
330
C
102
}
330
C
100
AcDbDictionary
281
     1
  0
ACDBDICTIONARYWDFLT
  5
E
102
{ACAD_REACTORS
330
C
102
}
330
C
100
AcDbDictionary
281
     1
  3
Normal
350
F
100
AcDbDictionaryWithDefault
340
F
  0
DICTIONARY
  5
22AC
102
{ACAD_REACTORS
330
C
102
}
330
C
100
AcDbDictionary
281
     1
  3
DIMASSOC
350
22AD
  0
DICTIONARY
  5
22142
102
{ACAD_REACTORS
330
C
102
}
330
C
100
AcDbDictionary
281
     1
  3
ASEBlockHierarchyIndexRecord
350
22143
1001
DCO15
1040
1622785812.812
  0
LAYOUT
  5
1D
102
{ACAD_REACTORS
330
19
102
}
330
19
100
AcDbPlotSettings
  1

  2
TPM1(4050N)
  4

  6

 40
0.0
 41
0.0
 42
0.0
 43
0.0
 44
0.0
 45
0.0
 46
0.0
 47
0.0
 48
0.0
 49
0.0
140
0.0
141
0.0
142
1.0
143
1.0
 70
   688
 72
     0
 73
     0
 74
     5
  7

 75
    16
147
1.0
148
0.0
149
0.0
100
AcDbLayout
  1
Layout1
 70
     1
 71
     1
 10
0.0
 20
0.0
 11
12.0
 21
9.0
 12
0.0
 22
0.0
 32
0.0
 14
1.000000000000000E+20
 24
1.000000000000000E+20
 34
1.000000000000000E+20
 15
-1.000000000000000E+20
 25
-1.000000000000000E+20
 35
-1.000000000000000E+20
146
0.0
 13
0.0
 23
0.0
 33
0.0
 16
1.0
 26
0.0
 36
0.0
 17
0.0
 27
1.0
 37
0.0
 76
     0
330
1A
  0
LAYOUT
  5
21
102
{ACAD_REACTORS
330
19
102
}
330
19
100
AcDbPlotSettings
  1

  2
\\ger-1001-01c001\GER-1001-01PB63
  4
User256
  6

 40
3.174999952316284
 41
3.174999952316284
 42
3.175003051757812
 43
3.17498779296875
 44
210.0
 45
296.8999938964843
 46
16.46
 47
0.0
 48
-515.9047334842234
 49
-1574.402560922981
140
1695.888510785305
141
728.4131463316025
142
1.0
143
8.957960295184467
 70
 11956
 72
     1
 73
     0
 74
     2
  7

 75
     0
147
0.1116325555202081
148
-1711.234538020701
149
531.6157259759815
100
AcDbLayout
  1
Model
 70
     1
 71
     0
 10
0.0
 20
0.0
 11
12.0
 21
9.0
 12
0.0
 22
0.0
 32
0.0
 14
0.0
 24
0.0
 34
0.0
 15
0.0
 25
0.0
 35
0.0
146
0.0
 13
0.0
 23
0.0
 33
0.0
 16
1.0
 26
0.0
 36
0.0
 17
0.0
 27
1.0
 37
0.0
 76
     0
330
1E
  0
MLINESTYLE
  5
17
102
{ACAD_REACTORS
330
16
102
}
330
16
100
AcDbMlineStyle
  2
STANDARD
 70
     0
  3

 62
   256
 51
90.0
 52
90.0
 71
     2
 49
0.5
 62
   256
  6
BYLAYER
 49
-0.5
 62
   256
  6
BYLAYER
  0
ACDBPLACEHOLDER
  5
F
102
{ACAD_REACTORS
330
E
102
}
330
E
  0
DICTIONARYVAR
  5
22AD
102
{ACAD_REACTORS
330
22AC
102
}
330
22AC
100
DictionaryVariables
280
     0
  1
1
  0
XRECORD
  5
22143
102
{ACAD_REACTORS
330
22142
102
}
330
22142
100
AcDbXrecord
280
     1
  0
ENDSEC
  0
EOF
