  0
SECTION
  2
HEADER
  9
$ACADVER
  1
AC1009
  9
$INSBASE
 10
0.0
 20
0.0
 30
0.0
  9
$EXTMIN
 10
1416.691274
 20
-807.99349199999995
 30
0.0
  9
$EXTMAX
 10
5355.6881350000012
 20
1935.1791390000001
 30
0.0
  9
$LIMMIN
 10
1334.235932
 20
-868.8235380000001
  9
$LIMMAX
 10
5534.2359319999996
 20
2101.1764619999999
  9
$ORTHOMODE
 70
     1
  9
$REGENMODE
 70
     1
  9
$FILLMODE
 70
     1
  9
$QTEXTMODE
 70
     0
  9
$MIRRTEXT
 70
     0
  9
$DRAGMODE
 70
     2
  9
$LTSCALE
 40
100.0
  9
$OSMODE
 70
    37
  9
$ATTMODE
 70
     1
  9
$TEXTSIZE
 40
0.0
  9
$TRACEWID
 40
0.05
  9
$TEXTSTYLE
  7
STANDARD
  9
$CLAYER
  8
LAYER01
  9
$CELTYPE
  6
VERDECKT
  9
$CECOLOR
 62
     7
  9
$DIMSCALE
 40
1.0
  9
$DIMASZ
 40
0.18
  9
$DIMEXO
 40
0.0625
  9
$DIMDLI
 40
0.38
  9
$DIMRND
 40
0.0
  9
$DIMDLE
 40
0.0
  9
$DIMEXE
 40
0.18
  9
$DIMTP
 40
0.0
  9
$DIMTM
 40
0.0
  9
$DIMTXT
 40
0.18
  9
$DIMCEN
 40
0.09
  9
$DIMTSZ
 40
0.0
  9
$DIMTOL
 70
     0
  9
$DIMLIM
 70
     0
  9
$DIMTIH
 70
     1
  9
$DIMTOH
 70
     1
  9
$DIMSE1
 70
     0
  9
$DIMSE2
 70
     0
  9
$DIMTAD
 70
     0
  9
$DIMZIN
 70
     0
  9
$DIMBLK
  1

  9
$DIMASO
 70
     1
  9
$DIMSHO
 70
     1
  9
$DIMPOST
  1

  9
$DIMAPOST
  1

  9
$DIMALT
 70
     0
  9
$DIMALTD
 70
     2
  9
$DIMALTF
 40
25.399999999999999
  9
$DIMLFAC
 40
1.0
  9
$DIMTOFL
 70
     0
  9
$DIMTVP
 40
0.0
  9
$DIMTIX
 70
     0
  9
$DIMSOXD
 70
     0
  9
$DIMSAH
 70
     0
  9
$DIMBLK1
  1

  9
$DIMBLK2
  1

  9
$DIMSTYLE
  2
STANDARD
  9
$DIMCLRD
 70
     0
  9
$DIMCLRE
 70
     0
  9
$DIMCLRT
 70
     0
  9
$DIMTFAC
 40
1.0
  9
$DIMGAP
 40
0.09
  9
$LUNITS
 70
     2
  9
$LUPREC
 70
     4
  9
$SKETCHINC
 40
0.1
  9
$FILLETRAD
 40
42.0
  9
$AUNITS
 70
     0
  9
$AUPREC
 70
     0
  9
$MENU
  1
acad
  9
$ELEVATION
 40
0.0
  9
$PELEVATION
 40
0.0
  9
$THICKNESS
 40
0.0
  9
$LIMCHECK
 70
     0
  9
$BLIPMODE
 70
     0
  9
$CHAMFERA
 40
0.0
  9
$CHAMFERB
 40
0.0
  9
$SKPOLY
 70
     0
  9
$TDCREATE
 40
11463216.53700218
  9
$TDUPDATE
 40
2459782.4237168981
  9
$TDINDWG
 40
0.0014051042
  9
$TDUSRTIMER
 40
0.0014046065
  9
$USRTIMER
 70
     1
  9
$ANGBASE
 50
0.0
  9
$ANGDIR
 70
     0
  9
$PDMODE
 70
     0
  9
$PDSIZE
 40
0.0
  9
$PLINEWID
 40
0.0
  9
$COORDS
 70
     0
  9
$SPLFRAME
 70
     0
  9
$SPLINETYPE
 70
     6
  9
$SPLINESEGS
 70
    10
  9
$ATTDIA
 70
     0
  9
$ATTREQ
 70
     1
  9
$HANDLING
 70
     1
  9
$HANDSEED
  5
2575
  9
$SURFTAB1
 70
     6
  9
$SURFTAB2
 70
     6
  9
$SURFTYPE
 70
     6
  9
$SURFU
 70
     6
  9
$SURFV
 70
     6
  9
$UCSNAME
  2

  9
$UCSORG
 10
0.0
 20
0.0
 30
0.0
  9
$UCSXDIR
 10
1.0
 20
0.0
 30
0.0
  9
$UCSYDIR
 10
0.0
 20
1.0
 30
0.0
  9
$PUCSNAME
  2

  9
$PUCSORG
 10
0.0
 20
0.0
 30
0.0
  9
$PUCSXDIR
 10
1.0
 20
0.0
 30
0.0
  9
$PUCSYDIR
 10
0.0
 20
1.0
 30
0.0
  9
$USERI1
 70
     0
  9
$USERI2
 70
     0
  9
$USERI3
 70
     0
  9
$USERI4
 70
     0
  9
$USERI5
 70
     0
  9
$USERR1
 40
0.0
  9
$USERR2
 40
0.0
  9
$USERR3
 40
0.0
  9
$USERR4
 40
0.0
  9
$USERR5
 40
0.0
  9
$WORLDVIEW
 70
     1
  9
$SHADEDGE
 70
     3
  9
$SHADEDIF
 70
    70
  9
$TILEMODE
 70
     1
  9
$MAXACTVP
 70
    64
  9
$PLIMCHECK
 70
     0
  9
$PEXTMIN
 10
1.0000000000000000E+020
 20
1.0000000000000000E+020
 30
1.0000000000000000E+020
  9
$PEXTMAX
 10
-1.0000000000000000E+020
 20
-1.0000000000000000E+020
 30
-1.0000000000000000E+020
  9
$PLIMMIN
 10
0.0
 20
0.0
  9
$PLIMMAX
 10
12.0
 20
9.0
  9
$UNITMODE
 70
     0
  9
$VISRETAIN
 70
     1
  9
$PLINEGEN
 70
     0
  9
$PSLTSCALE
 70
     1
  0
ENDSEC
  0
SECTION
  2
TABLES
  0
TABLE
  2
VPORT
 70
     1
  0
VPORT
  2
*ACTIVE
 70
     0
 10
0.0
 20
0.0
 11
1.0
 21
1.0
 12
3434.235932
 22
616.1764619999999
 13
0.0
 23
0.0
 14
1.0
 24
1.0
 15
0.0
 25
0.0
 16
0.0
 26
0.0
 36
1.0
 17
0.0
 27
0.0
 37
0.0
 40
2997.5
 41
1.9103554868624411
 42
50.0
 43
0.0
 44
0.0
 50
0.0
 51
0.0
 71
     0
 72
   100
 73
     1
 74
     1
 75
     0
 76
     0
 77
     0
 78
     0
  0
ENDTAB
  0
TABLE
  2
LTYPE
 70
    11
  0
LTYPE
  2
CONTINUOUS
 70
     0
  3
Solid line
 72
    65
 73
     0
 40
0.0
  0
LTYPE
  2
VERDECKT
 70
     0
  3
_ _ _ _ _ _ _ _ _ _ _ _ _ _ _ _ _ _ _ _ _ _ 
 72
    65
 73
     2
 40
0.25
 49
0.125
 49
-0.125
  0
LTYPE
  2
GESTRICHELT
 70
     0
  3
__ __ __ __ __ __ __ __ __ __ __ __ __ __ __
 72
    65
 73
     2
 40
0.75
 49
0.5
 49
-0.25
  0
LTYPE
  2
MITTELLINIE
 70
     0
  3
____ _ ____ _ ____ _ ____ _ ____ _ ____ _ __
 72
    65
 73
     4
 40
2.0
 49
1.25
 49
-0.25
 49
0.25
 49
-0.25
  0
LTYPE
  2
PHANTOM
 70
     0
  3
_____ _ _ _____ _ _ _____ _ _ _____ _ _ ____
 72
    65
 73
     6
 40
2.5
 49
1.25
 49
-0.25
 49
0.25
 49
-0.25
 49
0.25
 49
-0.25
  0
LTYPE
  2
PUNKTIERT
 70
     0
  3
............................................
 72
    65
 73
     2
 40
0.25
 49
0.0
 49
-0.25
  0
LTYPE
  2
STRICHPUNKTIERT
 70
     0
  3
__ . __ . __ . __ . __ . __ . __ . __ . __ .
 72
    65
 73
     4
 40
1.0
 49
0.5
 49
-0.25
 49
0.0
 49
-0.25
  0
LTYPE
  2
RAND
 70
     0
  3
__ __ . __ __ . __ __ . __ __ . __ __ . __ _
 72
    65
 73
     6
 40
1.75
 49
0.5
 49
-0.25
 49
0.5
 49
-0.25
 49
0.0
 49
-0.25
  0
LTYPE
  2
TRENNLINIE
 70
     0
  3
__ . . __ . . __ . . __ . . __ . . __ . . __
 72
    65
 73
     6
 40
1.25
 49
0.5
 49
-0.25
 49
0.0
 49
-0.25
 49
0.0
 49
-0.25
  0
LTYPE
  2
ENG_PUNKTIERT
 70
     0
  3
Schließen                                   
 72
    65
 73
     2
 40
0.1
 49
0.05
 49
-0.05
  0
LTYPE
  2
CLOSE
 70
     0
  3
                                            
 72
    65
 73
     0
 40
0.0
  0
ENDTAB
  0
TABLE
  2
LAYER
 70
   256
  0
LAYER
  2
0
 70
     0
 62
     7
  6
CONTINUOUS
  0
LAYER
  2
LAYER01
 70
     0
 62
     7
  6
CONTINUOUS
  0
LAYER
  2
LAYER02
 70
     0
 62
     7
  6
CONTINUOUS
  0
LAYER
  2
LAYER03
 70
     0
 62
     7
  6
CONTINUOUS
  0
LAYER
  2
LAYER04
 70
     0
 62
     7
  6
CONTINUOUS
  0
LAYER
  2
LAYER05
 70
     0
 62
     7
  6
CONTINUOUS
  0
LAYER
  2
LAYER06
 70
     0
 62
     7
  6
CONTINUOUS
  0
LAYER
  2
LAYER07
 70
     0
 62
     7
  6
CONTINUOUS
  0
LAYER
  2
LAYER08
 70
     0
 62
     7
  6
CONTINUOUS
  0
LAYER
  2
LAYER09
 70
     0
 62
     7
  6
CONTINUOUS
  0
LAYER
  2
LAYER10
 70
     0
 62
     7
  6
CONTINUOUS
  0
LAYER
  2
2
 70
     0
 62
     7
  6
CONTINUOUS
  0
LAYER
  2
5
 70
     0
 62
     7
  6
CONTINUOUS
  0
LAYER
  2
RAUMAUFM
 70
     0
 62
     7
  6
CONTINUOUS
  0
LAYER
  2
EINRICHT
 70
     0
 62
     7
  6
CONTINUOUS
  0
LAYER
  2
HILFE
 70
     0
 62
     7
  6
CONTINUOUS
  0
LAYER
  2
SCHNITTE
 70
     0
 62
     7
  6
CONTINUOUS
  0
LAYER
  2
SCHRAFF1
 70
     0
 62
     7
  6
CONTINUOUS
  0
LAYER
  2
SCHRAFF2
 70
     0
 62
     7
  6
CONTINUOUS
  0
LAYER
  2
BEMASS-1
 70
     0
 62
     7
  6
CONTINUOUS
  0
LAYER
  2
BEMASS-2
 70
     0
 62
     7
  6
CONTINUOUS
  0
LAYER
  2
TEXT
 70
     0
 62
     7
  6
CONTINUOUS
  0
LAYER
  2
SYMBOLE
 70
     0
 62
     7
  6
CONTINUOUS
  0
LAYER
  2
RAHMEN
 70
     0
 62
     7
  6
CONTINUOUS
  0
LAYER
  2
SCHRIFTF
 70
     0
 62
     7
  6
CONTINUOUS
  0
LAYER
  2
ACHSEN
 70
     0
 62
     7
  6
CONTINUOUS
  0
LAYER
  2
ZEICHN
 70
     0
 62
     7
  6
CONTINUOUS
  0
LAYER
  2
7
 70
     0
 62
     7
  6
CONTINUOUS
  0
LAYER
  2
1
 70
     0
 62
     7
  6
CONTINUOUS
  0
LAYER
  2
6
 70
     0
 62
     7
  6
CONTINUOUS
  0
LAYER
  2
4
 70
     0
 62
     7
  6
CONTINUOUS
  0
LAYER
  2
GRUNDEBENE
 70
     0
 62
     7
  6
CONTINUOUS
  0
LAYER
  2
GRUNDRISS
 70
     0
 62
     7
  6
CONTINUOUS
  0
LAYER
  2
BEMASSUNGGRUNDRISS
 70
     0
 62
     7
  6
CONTINUOUS
  0
LAYER
  2
WANDELEMENTE
 70
     0
 62
     7
  6
CONTINUOUS
  0
LAYER
  2
KUECHE
 70
     0
 62
     7
  6
CONTINUOUS
  0
LAYER
  2
THEKEBROETCHEN
 70
     0
 62
     7
  6
CONTINUOUS
  0
LAYER
  2
CENTERLINIE
 70
     0
 62
     7
  6
CONTINUOUS
  0
LAYER
  2
UMRISSE
 70
     0
 62
     7
  6
CONTINUOUS
  0
LAYER
  2
MAUER
 70
     0
 62
     7
  6
CONTINUOUS
  0
LAYER
  2
SCHRAFFUR
 70
     0
 62
     7
  6
CONTINUOUS
  0
LAYER
  2
MASSLINIE
 70
     0
 62
     7
  6
CONTINUOUS
  0
LAYER
  2
PV
 70
     0
 62
     7
  6
CONTINUOUS
  0
LAYER
  2
BESCHRIFTUNG
 70
     0
 62
     7
  6
CONTINUOUS
  0
LAYER
  2
AS
 70
     0
 62
     7
  6
CONTINUOUS
  0
LAYER
  2
PL
 70
     0
 62
     7
  6
CONTINUOUS
  0
LAYER
  2
UK
 70
     0
 62
     7
  6
CONTINUOUS
  0
LAYER
  2
TEXT3
 70
     0
 62
     7
  6
CONTINUOUS
  0
LAYER
  2
TEXT7
 70
     0
 62
     7
  6
CONTINUOUS
  0
LAYER
  2
BEPL1
 70
     0
 62
     7
  6
CONTINUOUS
  0
LAYER
  2
BEPL2
 70
     0
 62
     7
  6
CONTINUOUS
  0
LAYER
  2
BEPL2V
 70
     0
 62
     7
  6
CONTINUOUS
  0
LAYER
  2
BEPL4
 70
     0
 62
     7
  6
CONTINUOUS
  0
LAYER
  2
BEPL
 70
     0
 62
     7
  6
CONTINUOUS
  0
LAYER
  2
UK1
 70
     0
 62
     7
  6
CONTINUOUS
  0
LAYER
  2
UK2
 70
     0
 62
     7
  6
CONTINUOUS
  0
LAYER
  2
UK2V
 70
     0
 62
     7
  6
CONTINUOUS
  0
LAYER
  2
UK3
 70
     0
 62
     7
  6
CONTINUOUS
  0
LAYER
  2
TEXT2
 70
     0
 62
     7
  6
CONTINUOUS
  0
LAYER
  2
HILF2S
 70
     0
 62
     7
  6
CONTINUOUS
  0
LAYER
  2
UK1V
 70
     0
 62
     7
  6
CONTINUOUS
  0
LAYER
  2
GAIN_ZRA
 70
     0
 62
     7
  6
CONTINUOUS
  0
LAYER
  2
GAIN_ZSF
 70
     0
 62
     7
  6
CONTINUOUS
  0
LAYER
  2
RAHM4
 70
     0
 62
     7
  6
CONTINUOUS
  0
LAYER
  2
KORPUSBAND
 70
     0
 62
     7
  6
CONTINUOUS
  0
LAYER
  2
E---LGPL--------
 70
     0
 62
     7
  6
CONTINUOUS
  0
LAYER
  2
E---NPFL--------
 70
     0
 62
     7
  6
CONTINUOUS
  0
LAYER
  2
E---PLNKTXT-----
 70
     0
 62
     7
  6
CONTINUOUS
  0
LAYER
  2
E---PLNK--------
 70
     0
 62
     7
  6
CONTINUOUS
  0
LAYER
  2
E---PLNR--------
 70
     0
 62
     7
  6
CONTINUOUS
  0
LAYER
  2
D547_ARCHICAD
 70
     0
 62
     7
  6
CONTINUOUS
  0
LAYER
  2
D547_E---TEXT--------
 70
     0
 62
     7
  6
CONTINUOUS
  0
LAYER
  2
E---LEGD--------
 70
     0
 62
     7
  6
CONTINUOUS
  0
LAYER
  2
D43_ARCHICAD
 70
     0
 62
     7
  6
CONTINUOUS
  0
LAYER
  2
D43_FENSTER_VON_B---FASS--
 70
     0
 62
     7
  6
CONTINUOUS
  0
LAYER
  2
D43_E---SCHN--------
 70
     0
 62
     7
  6
CONTINUOUS
  0
LAYER
  2
D43_B---MW-N--------
 70
     0
 62
     7
  6
CONTINUOUS
  0
LAYER
  2
D43_B---DECK--------
 70
     0
 62
     7
  6
CONTINUOUS
  0
LAYER
  2
D43_B---MW-S--------
 70
     0
 62
     7
  6
CONTINUOUS
  0
LAYER
  2
D43_B---MW----------
 70
     0
 62
     7
  6
CONTINUOUS
  0
LAYER
  2
D43_B---FASS--------
 70
     0
 62
     7
  6
CONTINUOUS
  0
LAYER
  2
D43_E---RASG--------
 70
     0
 62
     7
  6
CONTINUOUS
  0
LAYER
  2
D40_ARCHICAD
 70
     0
 62
     7
  6
CONTINUOUS
  0
LAYER
  2
D40_E---MW--------
 70
     0
 62
     7
  6
CONTINUOUS
  0
LAYER
  2
D40_E---FASSKON-----
 70
     0
 62
     7
  6
CONTINUOUS
  0
LAYER
  2
D40_TÜREN_VON_B---MW-N----
 70
     0
 62
     7
  6
CONTINUOUS
  0
LAYER
  2
D40_E---MW-L------
 70
     0
 62
     7
  6
CONTINUOUS
  0
LAYER
  2
D40_TÜREN_VON_B---MW------
 70
     0
 62
     7
  6
CONTINUOUS
  0
LAYER
  2
D40_E---VERM--------
 70
     0
 62
     7
  6
CONTINUOUS
  0
LAYER
  2
D40_FENSTER_VON_E---MW-L--
 70
     0
 62
     7
  6
CONTINUOUS
  0
LAYER
  2
D40_FENSTER_VON_B---MW-N--
 70
     0
 62
     7
  6
CONTINUOUS
  0
LAYER
  2
D40_E---SCHN--------
 70
     0
 62
     7
  6
CONTINUOUS
  0
LAYER
  2
D40_E---AUFZ--------
 70
     0
 62
     7
  6
CONTINUOUS
  0
LAYER
  2
D40_E---DECK--------
 70
     0
 62
     7
  6
CONTINUOUS
  0
LAYER
  2
D40_E---RAUMINF-----
 70
     0
 62
     7
  6
CONTINUOUS
  0
LAYER
  2
D40_E---TEXT--------
 70
     0
 62
     7
  6
CONTINUOUS
  0
LAYER
  2
D40_B---TEXT--------
 70
     0
 62
     7
  6
CONTINUOUS
  0
LAYER
  2
D40_B---MW-N--------
 70
     0
 62
     7
  6
CONTINUOUS
  0
LAYER
  2
D40_B---DECK--------
 70
     0
 62
     7
  6
CONTINUOUS
  0
LAYER
  2
D40_B---AUFZ--------
 70
     0
 62
     7
  6
CONTINUOUS
  0
LAYER
  2
D40_B---MW-S--------
 70
     0
 62
     7
  6
CONTINUOUS
  0
LAYER
  2
D40_B---MW----------
 70
     0
 62
     7
  6
CONTINUOUS
  0
LAYER
  2
D40_E---MOEB--------
 70
     0
 62
     7
  6
CONTINUOUS
  0
LAYER
  2
D40_B---UMGB--------
 70
     0
 62
     7
  6
CONTINUOUS
  0
LAYER
  2
D40_B---FASS--------
 70
     0
 62
     7
  6
CONTINUOUS
  0
LAYER
  2
D40_E---DACH--------
 70
     0
 62
     7
  6
CONTINUOUS
  0
LAYER
  2
D40_E---BODE--------
 70
     0
 62
     7
  6
CONTINUOUS
  0
LAYER
  2
D40_E---TREP--------
 70
     0
 62
     7
  6
CONTINUOUS
  0
LAYER
  2
D40_E---RASG--------
 70
     0
 62
     7
  6
CONTINUOUS
  0
LAYER
  2
D40_B---MW-K--------
 70
     0
 62
     7
  6
CONTINUOUS
  0
LAYER
  2
D40_E---FASSGLA-----
 70
     0
 62
     7
  6
CONTINUOUS
  0
LAYER
  2
D40_B---VERM--------
 70
     0
 62
     7
  6
CONTINUOUS
  0
LAYER
  2
D40_E---UMGBGSG-----
 70
     0
 62
     7
  6
CONTINUOUS
  0
LAYER
  2
D40_E---RASF--------
 70
     0
 62
     7
  6
CONTINUOUS
  0
LAYER
  2
D40_E---PFLA--------
 70
     0
 62
     7
  6
CONTINUOUS
  0
LAYER
  2
D40_E---KONS-ST-----
 70
     0
 62
     7
  6
CONTINUOUS
  0
LAYER
  2
D40_E---WERB--------
 70
     0
 62
     7
  6
CONTINUOUS
  0
LAYER
  2
D40_E---TUERINF-----
 70
     0
 62
     7
  6
CONTINUOUS
  0
LAYER
  2
D40_E---WOLK--------
 70
     0
 62
     7
  6
CONTINUOUS
  0
LAYER
  2
D40_B---MW-L--------
 70
     0
 62
     7
  6
CONTINUOUS
  0
LAYER
  2
D40_B---SANI--------
 70
     0
 62
     7
  6
CONTINUOUS
  0
LAYER
  2
D40_E---SANI--------
 70
     0
 62
     7
  6
CONTINUOUS
  0
LAYER
  2
D40_E---MW-K------
 70
     0
 62
     7
  6
CONTINUOUS
  0
LAYER
  2
D40_E---OBJE--------
 70
     0
 62
     7
  6
CONTINUOUS
  0
LAYER
  2
D40_E---ASPR--------
 70
     0
 62
     7
  6
CONTINUOUS
  0
LAYER
  2
D40_E---VERMTGA-----
 70
     0
 62
     7
  6
CONTINUOUS
  0
LAYER
  2
D40_E---PARK--------
 70
     0
 62
     7
  6
CONTINUOUS
  0
LAYER
  2
D40_E---ISOL--------
 70
     0
 62
     7
  6
CONTINUOUS
  0
LAYER
  2
D40_E---TUER--------
 70
     0
 62
     7
  6
CONTINUOUS
  0
LAYER
  2
D40_E---MW--BRA---
 70
     0
 62
     7
  6
CONTINUOUS
  0
LAYER
  2
D41_ARCHICAD
 70
     0
 62
     7
  6
CONTINUOUS
  0
LAYER
  2
D41_E---MW--------
 70
     0
 62
     7
  6
CONTINUOUS
  0
LAYER
  2
D41_E---FASSKON-----
 70
     0
 62
     7
  6
CONTINUOUS
  0
LAYER
  2
D41_TÜREN_VON_B---MW-N----
 70
     0
 62
     7
  6
CONTINUOUS
  0
LAYER
  2
D41_E---MW-L------
 70
     0
 62
     7
  6
CONTINUOUS
  0
LAYER
  2
D41_TÜREN_VON_B---MW------
 70
     0
 62
     7
  6
CONTINUOUS
  0
LAYER
  2
D41_E---VERM--------
 70
     0
 62
     7
  6
CONTINUOUS
  0
LAYER
  2
D41_FENSTER_VON_E---MW-L--
 70
     0
 62
     7
  6
CONTINUOUS
  0
LAYER
  2
D41_FENSTER_VON_B---MW-N--
 70
     0
 62
     7
  6
CONTINUOUS
  0
LAYER
  2
D41_E---SCHN--------
 70
     0
 62
     7
  6
CONTINUOUS
  0
LAYER
  2
D41_E---AUFZ--------
 70
     0
 62
     7
  6
CONTINUOUS
  0
LAYER
  2
D41_E---DECK--------
 70
     0
 62
     7
  6
CONTINUOUS
  0
LAYER
  2
D41_E---RAUMINF-----
 70
     0
 62
     7
  6
CONTINUOUS
  0
LAYER
  2
D41_E---TEXT--------
 70
     0
 62
     7
  6
CONTINUOUS
  0
LAYER
  2
D41_B---TEXT--------
 70
     0
 62
     7
  6
CONTINUOUS
  0
LAYER
  2
D41_B---MW-N--------
 70
     0
 62
     7
  6
CONTINUOUS
  0
LAYER
  2
D41_B---DECK--------
 70
     0
 62
     7
  6
CONTINUOUS
  0
LAYER
  2
D41_B---AUFZ--------
 70
     0
 62
     7
  6
CONTINUOUS
  0
LAYER
  2
D41_B---MW-S--------
 70
     0
 62
     7
  6
CONTINUOUS
  0
LAYER
  2
D41_B---MW----------
 70
     0
 62
     7
  6
CONTINUOUS
  0
LAYER
  2
D41_E---MOEB--------
 70
     0
 62
     7
  6
CONTINUOUS
  0
LAYER
  2
D41_B---UMGB--------
 70
     0
 62
     7
  6
CONTINUOUS
  0
LAYER
  2
D41_B---FASS--------
 70
     0
 62
     7
  6
CONTINUOUS
  0
LAYER
  2
D41_E---DACH--------
 70
     0
 62
     7
  6
CONTINUOUS
  0
LAYER
  2
D41_E---BODE--------
 70
     0
 62
     7
  6
CONTINUOUS
  0
LAYER
  2
D41_E---TREP--------
 70
     0
 62
     7
  6
CONTINUOUS
  0
LAYER
  2
D41_E---RASG--------
 70
     0
 62
     7
  6
CONTINUOUS
  0
LAYER
  2
D41_B---MW-K--------
 70
     0
 62
     7
  6
CONTINUOUS
  0
LAYER
  2
D41_E---FASSGLA-----
 70
     0
 62
     7
  6
CONTINUOUS
  0
LAYER
  2
D41_B---VERM--------
 70
     0
 62
     7
  6
CONTINUOUS
  0
LAYER
  2
D41_E---UMGBGSG-----
 70
     0
 62
     7
  6
CONTINUOUS
  0
LAYER
  2
D41_E---RASF--------
 70
     0
 62
     7
  6
CONTINUOUS
  0
LAYER
  2
D41_E---PFLA--------
 70
     0
 62
     7
  6
CONTINUOUS
  0
LAYER
  2
D41_E---KONS-ST-----
 70
     0
 62
     7
  6
CONTINUOUS
  0
LAYER
  2
D41_E---WERB--------
 70
     0
 62
     7
  6
CONTINUOUS
  0
LAYER
  2
D41_E---TUERINF-----
 70
     0
 62
     7
  6
CONTINUOUS
  0
LAYER
  2
D41_E---WOLK--------
 70
     0
 62
     7
  6
CONTINUOUS
  0
LAYER
  2
D41_B---MW-L--------
 70
     0
 62
     7
  6
CONTINUOUS
  0
LAYER
  2
D41_B---SANI--------
 70
     0
 62
     7
  6
CONTINUOUS
  0
LAYER
  2
D41_E---SANI--------
 70
     0
 62
     7
  6
CONTINUOUS
  0
LAYER
  2
D41_E---MW-K------
 70
     0
 62
     7
  6
CONTINUOUS
  0
LAYER
  2
D41_E---OBJE--------
 70
     0
 62
     7
  6
CONTINUOUS
  0
LAYER
  2
D41_E---ASPR--------
 70
     0
 62
     7
  6
CONTINUOUS
  0
LAYER
  2
D41_E---VERMTGA-----
 70
     0
 62
     7
  6
CONTINUOUS
  0
LAYER
  2
D41_E---PARK--------
 70
     0
 62
     7
  6
CONTINUOUS
  0
LAYER
  2
D41_E---ISOL--------
 70
     0
 62
     7
  6
CONTINUOUS
  0
LAYER
  2
D41_E---TUER--------
 70
     0
 62
     7
  6
CONTINUOUS
  0
LAYER
  2
D41_E---MW--BRA---
 70
     0
 62
     7
  6
CONTINUOUS
  0
LAYER
  2
D42_ARCHICAD
 70
     0
 62
     7
  6
CONTINUOUS
  0
LAYER
  2
D42_FENSTER_VON_B---FASS--
 70
     0
 62
     7
  6
CONTINUOUS
  0
LAYER
  2
D42_E---SCHN--------
 70
     0
 62
     7
  6
CONTINUOUS
  0
LAYER
  2
D42_B---MW-N--------
 70
     0
 62
     7
  6
CONTINUOUS
  0
LAYER
  2
D42_B---DECK--------
 70
     0
 62
     7
  6
CONTINUOUS
  0
LAYER
  2
D42_B---MW-S--------
 70
     0
 62
     7
  6
CONTINUOUS
  0
LAYER
  2
D42_B---MW----------
 70
     0
 62
     7
  6
CONTINUOUS
  0
LAYER
  2
D42_B---FASS--------
 70
     0
 62
     7
  6
CONTINUOUS
  0
LAYER
  2
D42_E---RASG--------
 70
     0
 62
     7
  6
CONTINUOUS
  0
LAYER
  2
CONSTRUCTION_CLASS
 70
     0
 62
     7
  6
CONTINUOUS
  0
LAYER
  2
PATTERN_CLASS
 70
     0
 62
     7
  6
CONTINUOUS
  0
LAYER
  2
KONSTRUKTION
 70
     0
 62
     7
  6
CONTINUOUS
  0
LAYER
  2
BEMAßUNG
 70
     0
 62
     7
  6
CONTINUOUS
  0
LAYER
  2
HILFSGEOMETRIE
 70
     0
 62
     7
  6
CONTINUOUS
  0
LAYER
  2
UNSICHTBAR
 70
     0
 62
     7
  6
CONTINUOUS
  0
LAYER
  2
LOGO
 70
     0
 62
     7
  6
CONTINUOUS
  0
LAYER
  2
VERWALTUNG
 70
     0
 62
     7
  6
CONTINUOUS
  0
LAYER
  2
UNSICHTBARE_GEWINDE
 70
     0
 62
     7
  6
CONTINUOUS
  0
LAYER
  2
SICHTBARE_GEWINDE
 70
     0
 62
     7
  6
CONTINUOUS
  0
LAYER
  2
DEFPOINTS
 70
     0
 62
     7
  6
CONTINUOUS
  0
LAYER
  2
THICK
 70
     0
 62
     7
  6
CONTINUOUS
  0
LAYER
  2
HIDDEN
 70
     0
 62
     7
  6
CONTINUOUS
  0
LAYER
  2
SCHRAFFURGRUNDRISS
 70
     0
 62
     7
  6
CONTINUOUS
  0
LAYER
  2
BEMASSUNG_GRUNDRISS
 70
     0
 62
     7
  6
CONTINUOUS
  0
LAYER
  2
STATIK
 70
     0
 62
     7
  6
CONTINUOUS
  0
LAYER
  2
TÜREN
 70
     0
 62
     7
  6
CONTINUOUS
  0
LAYER
  2
SANITÄR
 70
     0
 62
     7
  6
CONTINUOUS
  0
LAYER
  2
BEMASSUNG_GIPSKARTON
 70
     0
 62
     7
  6
CONTINUOUS
  0
LAYER
  2
EINRICHTUNGEN
 70
     0
 62
     7
  6
CONTINUOUS
  0
LAYER
  2
BECKEN
 70
     0
 62
     7
  6
CONTINUOUS
  0
LAYER
  2
BELEUCHTUNG
 70
     0
 62
     7
  6
CONTINUOUS
  0
LAYER
  2
BESCHRIFTUNGEN
 70
     0
 62
     7
  6
CONTINUOUS
  0
LAYER
  2
ELEKTRO_1__DOSEN_SCHALTER
 70
     0
 62
     7
  6
CONTINUOUS
  0
LAYER
  2
DEFAULT_1
 70
     0
 62
     7
  6
CONTINUOUS
  0
LAYER
  2
AM_0
 70
     0
 62
     7
  6
CONTINUOUS
  0
LAYER
  2
FRAME0_7
 70
     0
 62
     7
  6
CONTINUOUS
  0
LAYER
  2
AM_BOR
 70
     0
 62
     7
  6
CONTINUOUS
  0
LAYER
  2
RAHM2
 70
     0
 62
     7
  6
CONTINUOUS
  0
LAYER
  2
RAHM3
 70
     0
 62
     7
  6
CONTINUOUS
  0
LAYER
  2
FRAME0_5
 70
     0
 62
     7
  6
CONTINUOUS
  0
LAYER
  2
8
 70
     0
 62
     7
  6
CONTINUOUS
  0
LAYER
  2
AM_5
 70
     0
 62
     7
  6
CONTINUOUS
  0
LAYER
  2
AM_7
 70
     0
 62
     7
  6
CONTINUOUS
  0
LAYER
  2
HILFSLINIEN
 70
     0
 62
     7
  6
CONTINUOUS
  0
LAYER
  2
DRAWING_TEMPLATE
 70
     0
 62
     7
  6
CONTINUOUS
  0
LAYER
  2
TECHNOBOX_EXTERNALREFSYMBO
 70
     0
 62
     7
  6
CONTINUOUS
  0
LAYER
  2
TECHNOBOX_POLYCLIPSYMBOL_L
 70
     0
 62
     7
  6
CONTINUOUS
  0
LAYER
  2
100
 70
     0
 62
     7
  6
CONTINUOUS
  0
LAYER
  2
101
 70
     0
 62
     7
  6
CONTINUOUS
  0
LAYER
  2
KONTUR
 70
     0
 62
     7
  6
CONTINUOUS
  0
LAYER
  2
MITTELLINIE
 70
     0
 62
     7
  6
CONTINUOUS
  0
LAYER
  2
GESTRICHELT
 70
     0
 62
     7
  6
CONTINUOUS
  0
LAYER
  2
HILFSLINIE
 70
     0
 62
     7
  6
CONTINUOUS
  0
LAYER
  2
TEXT-25
 70
     0
 62
     7
  6
CONTINUOUS
  0
LAYER
  2
TEXT35
 70
     0
 62
     7
  6
CONTINUOUS
  0
LAYER
  2
TEXT-50
 70
     0
 62
     7
  6
CONTINUOUS
  0
LAYER
  2
TEXT-70
 70
     0
 62
     7
  6
CONTINUOUS
  0
LAYER
  2
ANSICHTSFENSTER
 70
     0
 62
     7
  6
CONTINUOUS
  0
LAYER
  2
KERA0
 70
     0
 62
     7
  6
CONTINUOUS
  0
LAYER
  2
KERA1
 70
     0
 62
     7
  6
CONTINUOUS
  0
LAYER
  2
KERA2
 70
     0
 62
     7
  6
CONTINUOUS
  0
LAYER
  2
KERA3
 70
     0
 62
     7
  6
CONTINUOUS
  0
LAYER
  2
KERA4
 70
     0
 62
     7
  6
CONTINUOUS
  0
LAYER
  2
KERA5
 70
     0
 62
     7
  6
CONTINUOUS
  0
LAYER
  2
KERA6
 70
     0
 62
     7
  6
CONTINUOUS
  0
LAYER
  2
KERA7
 70
     0
 62
     7
  6
CONTINUOUS
  0
LAYER
  2
20
 70
     0
 62
     7
  6
CONTINUOUS
  0
LAYER
  2
50
 70
     0
 62
     7
  6
CONTINUOUS
  0
LAYER
  2
FORMAT
 70
     0
 62
     7
  6
CONTINUOUS
  0
LAYER
  2
EBENE_1
 70
     0
 62
     7
  6
CONTINUOUS
  0
LAYER
  2
EBENE_2
 70
     0
 62
     7
  6
CONTINUOUS
  0
LAYER
  2
EBENE_5
 70
     0
 62
     7
  6
CONTINUOUS
  0
LAYER
  2
3
 70
     0
 62
     7
  6
CONTINUOUS
  0
LAYER
  2
GEB-KONTUR-A
 70
     0
 62
     7
  6
CONTINUOUS
  0
LAYER
  2
GEB-SYMETRIE
 70
     0
 62
     7
  6
CONTINUOUS
  0
LAYER
  2
GEB-ART-NR
 70
     0
 62
     7
  6
CONTINUOUS
  0
LAYER
  2
PROJECTION
 70
     0
 62
     7
  6
CONTINUOUS
  0
LAYER
  2
BECKEN_FUTURA_EBENE_1
 70
     0
 62
     7
  6
CONTINUOUS
  0
ENDTAB
  0
TABLE
  2
STYLE
 70
     4
  0
STYLE
  2
STANDARD
 70
     0
 40
0.0
 41
1.0
 50
0.0
 71
     0
 42
0.0
  3
txt
  4

  0
STYLE
  2
ANNOTATIVE
 70
     0
 40
0.0
 41
1.0
 50
0.0
 71
     0
 42
0.2
  3
txt
  4

  0
STYLE
  2
SIMPLEX
 70
     0
 40
0.0
 41
1.0
 50
0.0
 71
     0
 42
0.0
  3
simplex
  4

  0
STYLE
  2

 70
     1
 40
0.0
 41
1.0
 50
0.0
 71
     0
 42
0.2
  3
ltypeshp.shx
  4

  0
ENDTAB
  0
TABLE
  2
VIEW
 70
     0
  0
ENDTAB
  0
TABLE
  2
UCS
 70
     0
  0
ENDTAB
  0
TABLE
  2
APPID
 70
     3
  0
APPID
  2
ACAD
 70
     0
  0
APPID
  2
ACADANNOTATIVE
 70
     0
  0
APPID
  2
ACAD_MLEADERVER
 70
     0
  0
ENDTAB
  0
TABLE
  2
DIMSTYLE
 70
     2
  0
DIMSTYLE
  2
STANDARD
 70
     0
  3

  4

  5

  6

  7

 40
1.0
 41
0.18
 42
0.0625
 43
0.38
 44
0.18
 45
0.0
 46
0.0
 47
0.0
 48
0.0
140
0.18
141
0.09
142
0.0
143
25.399999999999999
144
1.0
145
0.0
146
1.0
147
0.09
 71
     0
 72
     0
 73
     1
 74
     1
 75
     0
 76
     0
 77
     0
 78
     0
170
     0
171
     2
172
     0
173
     0
174
     0
175
     0
176
     0
177
     0
178
     0
  0
DIMSTYLE
  2
ANNOTATIVE
 70
     0
  3

  4

  5

  6

  7

 40
1.0
 41
0.18
 42
0.0625
 43
0.38
 44
0.18
 45
0.0
 46
0.0
 47
0.0
 48
0.0
140
0.18
141
0.09
142
0.0
143
25.399999999999999
144
1.0
145
0.0
146
1.0
147
0.09
 71
     0
 72
     0
 73
     1
 74
     1
 75
     0
 76
     0
 77
     0
 78
     0
170
     0
171
     2
172
     0
173
     0
174
     0
175
     0
176
     0
177
     0
178
     0
  0
ENDTAB
  0
ENDSEC
  0
SECTION
  2
BLOCKS
  0
BLOCK
  8
0
  2
$MODEL_SPACE
 70
     0
 10
0.0
 20
0.0
 30
0.0
  3
$MODEL_SPACE
  1

  0
ENDBLK
  5
76
  8
0
  0
BLOCK
 67
     1
  8
0
  2
$PAPER_SPACE
 70
     0
 10
0.0
 20
0.0
 30
0.0
  3
$PAPER_SPACE
  1

  0
ENDBLK
  5
72
 67
     1
  8
0
  0
BLOCK
  8
0
  2
*D0
 70
     1
 10
0.0
 20
0.0
 30
0.0
  3
*D0
  1

  0
LINE
  5
187
  8
LAYER01
 62
     7
 10
2186.9431450000002
 20
522.70448499999986
 30
0.0
 11
2186.9431450000002
 21
452.30448499999989
 31
0.0
  0
LINE
  5
188
  8
LAYER01
 62
     7
 10
2186.9431450000002
 20
572.70449699999995
 30
0.0
 11
2186.9431450000002
 21
643.10449699999992
 31
0.0
  0
LINE
  5
189
  8
LAYER01
 62
     7
 10
2243.3858149999992
 20
522.70448499999986
 30
0.0
 11
2164.9431450000002
 21
522.70448499999986
 31
0.0
  0
LINE
  5
18A
  8
LAYER01
 62
     7
 10
2243.3858149999992
 20
572.70449699999995
 30
0.0
 11
2164.9431450000002
 21
572.70449699999995
 31
0.0
  0
SOLID
  5
18B
  8
LAYER01
 62
     7
 10
2192.809577
 20
487.50448499999999
 30
0.0
 11
2186.9431450000002
 21
522.70448499999986
 31
0.0
 12
2181.0767129999999
 22
487.50448499999999
 32
0.0
 13
2181.0767129999999
 23
487.50448499999999
 33
0.0
  0
SOLID
  5
18C
  8
LAYER01
 62
     7
 10
2192.809577
 20
607.90449699999988
 30
0.0
 11
2186.9431450000002
 21
572.70449699999995
 31
0.0
 12
2181.0767129999999
 22
607.90449699999988
 32
0.0
 13
2181.0767129999999
 23
607.90449699999988
 33
0.0
  0
TEXT
  5
18D
  8
LAYER01
  6
VERDECKT
 62
     7
 10
2164.9431450000002
 20
665.10449699999992
 30
0.0
 40
44.0
  1
50
 50
90.0
  0
POINT
  5
18E
  8
LAYER01
 62
     7
 10
2260.985815
 20
522.70448499999986
 30
0.0
  0
POINT
  5
18F
  8
LAYER01
 62
     7
 10
2260.985815
 20
572.70449699999995
 30
0.0
  0
POINT
  5
190
  8
LAYER01
 62
     7
 10
2186.9431450000002
 20
572.70449699999995
 30
0.0
  0
ENDBLK
  5
191
  8
0
  0
BLOCK
  8
0
  2
*D1
 70
     1
 10
0.0
 20
0.0
 30
0.0
  3
*D1
  1

  0
LINE
  5
194
  8
LAYER01
 62
     7
 10
2186.9431450000002
 20
392.70449000000002
 30
0.0
 11
2186.9431450000002
 21
522.70448499999986
 31
0.0
  0
LINE
  5
195
  8
LAYER01
 62
     7
 10
2243.3858149999992
 20
392.70449000000002
 30
0.0
 11
2164.9431450000002
 21
392.70449000000002
 31
0.0
  0
LINE
  5
196
  8
LAYER01
 62
     7
 10
2243.3858149999992
 20
522.70448499999986
 30
0.0
 11
2164.9431450000002
 21
522.70448499999986
 31
0.0
  0
SOLID
  5
197
  8
LAYER01
 62
     7
 10
2192.809577
 20
427.90449000000001
 30
0.0
 11
2186.9431450000002
 21
392.70449000000002
 31
0.0
 12
2181.0767129999999
 22
427.90449000000001
 32
0.0
 13
2181.0767129999999
 23
427.90449000000001
 33
0.0
  0
SOLID
  5
198
  8
LAYER01
 62
     7
 10
2192.809577
 20
487.50448499999999
 30
0.0
 11
2186.9431450000002
 21
522.70448499999986
 31
0.0
 12
2181.0767129999999
 22
487.50448499999999
 32
0.0
 13
2181.0767129999999
 23
487.50448499999999
 33
0.0
  0
TEXT
  5
199
  8
LAYER01
  6
VERDECKT
 62
     7
 10
2164.9431450000002
 20
421.58899100000002
 30
0.0
 40
44.0
  1
130
 50
90.0
  0
POINT
  5
19A
  8
LAYER01
 62
     7
 10
2260.985815
 20
392.70449000000002
 30
0.0
  0
POINT
  5
19B
  8
LAYER01
 62
     7
 10
2260.985815
 20
522.70448499999986
 30
0.0
  0
POINT
  5
19C
  8
LAYER01
 62
     7
 10
2186.9431450000002
 20
522.70448499999986
 30
0.0
  0
ENDBLK
  5
19D
  8
0
  0
BLOCK
  8
0
  2
*D2
 70
     1
 10
0.0
 20
0.0
 30
0.0
  3
*D2
  1

  0
LINE
  5
1A0
  8
LAYER01
 62
     7
 10
2489.469153
 20
891.82325500000002
 30
0.0
 11
2433.2529519999998
 21
822.41469400000005
 31
0.0
  0
LINE
  5
1A1
  8
LAYER01
 62
     7
 10
2433.2529519999998
 20
822.41469400000005
 30
0.0
 11
2399.3363199999999
 21
822.41469400000005
 31
0.0
  0
SOLID
  5
1A2
  8
LAYER01
 62
     7
 10
2462.7558899999999
 20
868.16196600000001
 30
0.0
 11
2489.469153
 21
891.82325500000002
 31
0.0
 12
2471.8733790000001
 22
860.77742200000012
 32
0.0
 13
2471.8733790000001
 23
860.77742200000012
 33
0.0
  0
TEXT
  5
1A3
  8
LAYER01
  6
VERDECKT
 62
     7
 10
2274.6077960000011
 20
800.41469400000005
 30
0.0
 40
44.0
  1
R225
  0
POINT
  5
1A4
  8
LAYER01
 62
     7
 10
2631.0818440000012
 20
1066.6684600000001
 30
0.0
  0
POINT
  5
1A5
  8
LAYER01
 62
     7
 10
2433.2529519999998
 20
822.41469400000005
 30
0.0
  0
ENDBLK
  5
1A6
  8
0
  0
BLOCK
  8
0
  2
*D3
 70
     1
 10
0.0
 20
0.0
 30
0.0
  3
*D3
  1

  0
LINE
  5
1A9
  8
LAYER01
 62
     7
 10
2631.0818440000012
 20
1395.291626
 30
0.0
 11
2266.0818439999998
 21
1395.291626
 31
0.0
  0
LINE
  5
1AA
  8
LAYER01
 62
     7
 10
2631.0818440000012
 20
1294.2684589999999
 30
0.0
 11
2631.0818440000012
 21
1417.291626
 31
0.0
  0
LINE
  5
1AB
  8
LAYER01
 62
     7
 10
2266.0818439999998
 20
1294.2684589999999
 30
0.0
 11
2266.0818439999998
 21
1417.291626
 31
0.0
  0
SOLID
  5
1AC
  8
LAYER01
 62
     7
 10
2595.881844
 20
1401.158058
 30
0.0
 11
2631.0818440000012
 21
1395.291626
 31
0.0
 12
2595.881844
 22
1389.4251939999999
 32
0.0
 13
2595.881844
 23
1389.4251939999999
 33
0.0
  0
SOLID
  5
1AD
  8
LAYER01
 62
     7
 10
2301.2818440000001
 20
1401.158058
 30
0.0
 11
2266.0818439999998
 21
1395.291626
 31
0.0
 12
2301.2818440000001
 22
1389.4251939999999
 32
0.0
 13
2301.2818440000001
 23
1389.4251939999999
 33
0.0
  0
TEXT
  5
1AE
  8
LAYER01
  6
VERDECKT
 62
     7
 10
2415.0578409999998
 20
1417.291626
 30
0.0
 40
44.0
  1
365
  0
POINT
  5
1AF
  8
LAYER01
 62
     7
 10
2631.0818440000012
 20
1276.668459
 30
0.0
  0
POINT
  5
1B0
  8
LAYER01
 62
     7
 10
2266.0818439999998
 20
1276.668459
 30
0.0
  0
POINT
  5
1B1
  8
LAYER01
 62
     7
 10
2266.0818439999998
 20
1395.291626
 30
0.0
  0
ENDBLK
  5
1B2
  8
0
  0
BLOCK
  8
0
  2
*D4
 70
     1
 10
0.0
 20
0.0
 30
0.0
  3
*D4
  1

  0
LINE
  5
1B5
  8
LAYER01
 62
     7
 10
2996.0818440000012
 20
1477.1061580000001
 30
0.0
 11
2266.0818439999998
 21
1477.1061580000001
 31
0.0
  0
LINE
  5
1B6
  8
LAYER01
 62
     7
 10
2996.0818440000012
 20
1294.2684589999999
 30
0.0
 11
2996.0818440000012
 21
1499.1061580000001
 31
0.0
  0
LINE
  5
1B7
  8
LAYER01
 62
     7
 10
2266.0818439999998
 20
1294.2684589999999
 30
0.0
 11
2266.0818439999998
 21
1499.1061580000001
 31
0.0
  0
SOLID
  5
1B8
  8
LAYER01
 62
     7
 10
2960.881844
 20
1482.9725900000001
 30
0.0
 11
2996.0818440000012
 21
1477.1061580000001
 31
0.0
 12
2960.881844
 22
1471.239726
 32
0.0
 13
2960.881844
 23
1471.239726
 33
0.0
  0
SOLID
  5
1B9
  8
LAYER01
 62
     7
 10
2301.2818440000001
 20
1482.9725900000001
 30
0.0
 11
2266.0818439999998
 21
1477.1061580000001
 31
0.0
 12
2301.2818440000001
 22
1471.239726
 32
0.0
 13
2301.2818440000001
 23
1471.239726
 33
0.0
  0
TEXT
  5
1BA
  8
LAYER01
  6
VERDECKT
 62
     7
 10
2597.5578409999998
 20
1499.1061580000001
 30
0.0
 40
44.0
  1
730
  0
POINT
  5
1BB
  8
LAYER01
 62
     7
 10
2996.0818440000012
 20
1276.668459
 30
0.0
  0
POINT
  5
1BC
  8
LAYER01
 62
     7
 10
2266.0818439999998
 20
1276.668459
 30
0.0
  0
POINT
  5
1BD
  8
LAYER01
 62
     7
 10
2266.0818439999998
 20
1477.1061580000001
 30
0.0
  0
ENDBLK
  5
1BE
  8
0
  0
BLOCK
  8
0
  2
*D5
 70
     1
 10
0.0
 20
0.0
 30
0.0
  3
*D5
  1

  0
LINE
  5
1C1
  8
LAYER01
 62
     7
 10
2068.3753510000001
 20
1276.668459
 30
0.0
 11
2068.3753510000001
 21
841.66845899999987
 31
0.0
  0
LINE
  5
1C2
  8
LAYER01
 62
     7
 10
2253.481839
 20
1276.668459
 30
0.0
 11
2046.3753509999999
 21
1276.668459
 31
0.0
  0
LINE
  5
1C3
  8
LAYER01
 62
     7
 10
2253.481839
 20
841.66845899999987
 30
0.0
 11
2046.3753509999999
 21
841.66845899999987
 31
0.0
  0
SOLID
  5
1C4
  8
LAYER01
 62
     7
 10
2062.5089189999999
 20
1241.4684589999999
 30
0.0
 11
2068.3753510000001
 21
1276.668459
 31
0.0
 12
2074.2417829999999
 22
1241.4684589999999
 32
0.0
 13
2074.2417829999999
 23
1241.4684589999999
 33
0.0
  0
SOLID
  5
1C5
  8
LAYER01
 62
     7
 10
2062.5089189999999
 20
876.86845900000014
 30
0.0
 11
2068.3753510000001
 21
841.66845899999987
 31
0.0
 12
2074.2417829999999
 22
876.86845900000014
 32
0.0
 13
2074.2417829999999
 23
876.86845900000014
 33
0.0
  0
TEXT
  5
1C6
  8
LAYER01
  6
VERDECKT
 62
     7
 10
2046.3753509999999
 20
1023.052962
 30
0.0
 40
44.0
  1
435
 50
90.0
  0
POINT
  5
1C7
  8
LAYER01
 62
     7
 10
2271.0818389999999
 20
1276.668459
 30
0.0
  0
POINT
  5
1C8
  8
LAYER01
 62
     7
 10
2271.0818389999999
 20
841.66845899999987
 30
0.0
  0
POINT
  5
1C9
  8
LAYER01
 62
     7
 10
2068.3753510000001
 20
841.66845899999987
 30
0.0
  0
ENDBLK
  5
1CA
  8
0
  0
BLOCK
  8
0
  2
*D6
 70
     1
 10
0.0
 20
0.0
 30
0.0
  3
*D6
  1

  0
LINE
  5
1CD
  8
LAYER01
 62
     7
 10
2159.8679430000002
 20
1276.668459
 30
0.0
 11
2159.8679430000002
 21
976.66846199999986
 31
0.0
  0
LINE
  5
1CE
  8
LAYER01
 62
     7
 10
2253.481839
 20
1276.668459
 30
0.0
 11
2137.8679430000002
 21
1276.668459
 31
0.0
  0
LINE
  5
1CF
  8
LAYER01
 62
     7
 10
2253.481839
 20
976.66846199999986
 30
0.0
 11
2137.8679430000002
 21
976.66846199999986
 31
0.0
  0
SOLID
  5
1D0
  8
LAYER01
 62
     7
 10
2154.0015109999999
 20
1241.4684589999999
 30
0.0
 11
2159.8679430000002
 21
1276.668459
 31
0.0
 12
2165.734375
 22
1241.4684589999999
 32
0.0
 13
2165.734375
 23
1241.4684589999999
 33
0.0
  0
SOLID
  5
1D1
  8
LAYER01
 62
     7
 10
2154.0015109999999
 20
1011.868462
 30
0.0
 11
2159.8679430000002
 21
976.66846199999986
 31
0.0
 12
2165.734375
 22
1011.868462
 32
0.0
 13
2165.734375
 23
1011.868462
 33
0.0
  0
TEXT
  5
1D2
  8
LAYER01
  6
VERDECKT
 62
     7
 10
2137.8679430000002
 20
1090.5529630000001
 30
0.0
 40
44.0
  1
300
 50
90.0
  0
POINT
  5
1D3
  8
LAYER01
 62
     7
 10
2271.0818389999999
 20
1276.668459
 30
0.0
  0
POINT
  5
1D4
  8
LAYER01
 62
     7
 10
2271.0818389999999
 20
976.66846199999986
 30
0.0
  0
POINT
  5
1D5
  8
LAYER01
 62
     7
 10
2159.8679430000002
 20
976.66846199999986
 30
0.0
  0
ENDBLK
  5
1D6
  8
0
  0
BLOCK
  8
0
  2
*D7
 70
     1
 10
0.0
 20
0.0
 30
0.0
  3
*D7
  1

  0
LINE
  5
1D9
  8
LAYER01
 62
     7
 10
2631.0818440000012
 20
1395.6907220000001
 30
0.0
 11
2996.0818440000012
 21
1395.6907220000001
 31
0.0
  0
LINE
  5
1DA
  8
LAYER01
 62
     7
 10
2631.0818440000012
 20
1294.2684589999999
 30
0.0
 11
2631.0818440000012
 21
1417.6907220000001
 31
0.0
  0
LINE
  5
1DB
  8
LAYER01
 62
     7
 10
2996.0818440000012
 20
1294.2684589999999
 30
0.0
 11
2996.0818440000012
 21
1417.6907220000001
 31
0.0
  0
SOLID
  5
1DC
  8
LAYER01
 62
     7
 10
2666.2818440000001
 20
1389.82429
 30
0.0
 11
2631.0818440000012
 21
1395.6907220000001
 31
0.0
 12
2666.2818440000001
 22
1401.5571539999989
 32
0.0
 13
2666.2818440000001
 23
1401.5571539999989
 33
0.0
  0
SOLID
  5
1DD
  8
LAYER01
 62
     7
 10
2960.881844
 20
1389.82429
 30
0.0
 11
2996.0818440000012
 21
1395.6907220000001
 31
0.0
 12
2960.881844
 22
1401.5571539999989
 32
0.0
 13
2960.881844
 23
1401.5571539999989
 33
0.0
  0
TEXT
  5
1DE
  8
LAYER01
  6
VERDECKT
 62
     7
 10
2780.0578409999998
 20
1417.6907220000001
 30
0.0
 40
44.0
  1
365
  0
POINT
  5
1DF
  8
LAYER01
 62
     7
 10
2631.0818440000012
 20
1276.668459
 30
0.0
  0
POINT
  5
1E0
  8
LAYER01
 62
     7
 10
2996.0818440000012
 20
1276.668459
 30
0.0
  0
POINT
  5
1E1
  8
LAYER01
 62
     7
 10
2996.0818440000012
 20
1395.6907220000001
 30
0.0
  0
ENDBLK
  5
1E2
  8
0
  0
BLOCK
  8
0
  2
*D8
 70
     1
 10
0.0
 20
0.0
 30
0.0
  3
*D8
  1

  0
LINE
  5
1E5
  8
LAYER01
 62
     7
 10
2631.0818440000012
 20
1318.160905
 30
0.0
 11
2471.0818439999998
 21
1318.160905
 31
0.0
  0
LINE
  5
1E6
  8
LAYER01
 62
     7
 10
2631.0818440000012
 20
1294.2684589999999
 30
0.0
 11
2631.0818440000012
 21
1340.160905
 31
0.0
  0
LINE
  5
1E7
  8
LAYER01
 62
     7
 10
2471.0818439999998
 20
1294.2684589999999
 30
0.0
 11
2471.0818439999998
 21
1340.160905
 31
0.0
  0
SOLID
  5
1E8
  8
LAYER01
 62
     7
 10
2595.881844
 20
1324.027337
 30
0.0
 11
2631.0818440000012
 21
1318.160905
 31
0.0
 12
2595.881844
 22
1312.2944729999999
 32
0.0
 13
2595.881844
 23
1312.2944729999999
 33
0.0
  0
SOLID
  5
1E9
  8
LAYER01
 62
     7
 10
2506.2818440000001
 20
1324.027337
 30
0.0
 11
2471.0818439999998
 21
1318.160905
 31
0.0
 12
2506.2818440000001
 22
1312.2944729999999
 32
0.0
 13
2506.2818440000001
 23
1312.2944729999999
 33
0.0
  0
TEXT
  5
1EA
  8
LAYER01
  6
VERDECKT
 62
     7
 10
2514.966347
 20
1340.160905
 30
0.0
 40
44.0
  1
160
  0
POINT
  5
1EB
  8
LAYER01
 62
     7
 10
2631.0818440000012
 20
1276.668459
 30
0.0
  0
POINT
  5
1EC
  8
LAYER01
 62
     7
 10
2471.0818439999998
 20
1276.668459
 30
0.0
  0
POINT
  5
1ED
  8
LAYER01
 62
     7
 10
2471.0818439999998
 20
1318.160905
 30
0.0
  0
ENDBLK
  5
1EE
  8
0
  0
BLOCK
  8
0
  2
*D9
 70
     1
 10
0.0
 20
0.0
 30
0.0
  3
*D9
  1

  0
LINE
  5
1F1
  8
LAYER01
 62
     7
 10
2631.0818440000012
 20
1318.160905
 30
0.0
 11
2791.0818440000012
 21
1318.160905
 31
0.0
  0
LINE
  5
1F2
  8
LAYER01
 62
     7
 10
2631.0818440000012
 20
1294.2684589999999
 30
0.0
 11
2631.0818440000012
 21
1340.160905
 31
0.0
  0
LINE
  5
1F3
  8
LAYER01
 62
     7
 10
2791.0818440000012
 20
1294.2684589999999
 30
0.0
 11
2791.0818440000012
 21
1340.160905
 31
0.0
  0
SOLID
  5
1F4
  8
LAYER01
 62
     7
 10
2666.2818440000001
 20
1312.2944729999999
 30
0.0
 11
2631.0818440000012
 21
1318.160905
 31
0.0
 12
2666.2818440000001
 22
1324.027337
 32
0.0
 13
2666.2818440000001
 23
1324.027337
 33
0.0
  0
SOLID
  5
1F5
  8
LAYER01
 62
     7
 10
2755.881844
 20
1312.2944729999999
 30
0.0
 11
2791.0818440000012
 21
1318.160905
 31
0.0
 12
2755.881844
 22
1324.027337
 32
0.0
 13
2755.881844
 23
1324.027337
 33
0.0
  0
TEXT
  5
1F6
  8
LAYER01
  6
VERDECKT
 62
     7
 10
2674.966347
 20
1340.160905
 30
0.0
 40
44.0
  1
160
  0
POINT
  5
1F7
  8
LAYER01
 62
     7
 10
2631.0818440000012
 20
1276.668459
 30
0.0
  0
POINT
  5
1F8
  8
LAYER01
 62
     7
 10
2791.0818440000012
 20
1276.668459
 30
0.0
  0
POINT
  5
1F9
  8
LAYER01
 62
     7
 10
2791.0818440000012
 20
1318.160905
 30
0.0
  0
ENDBLK
  5
1FA
  8
0
  0
BLOCK
  8
0
  2
*D10
 70
     1
 10
0.0
 20
0.0
 30
0.0
  3
*D10
  1

  0
LINE
  5
1FD
  8
LAYER01
 62
     7
 10
2846.8942590000001
 20
675.70086300000003
 30
0.0
 11
2415.2694259999998
 21
675.70086300000003
 31
0.0
  0
LINE
  5
1FE
  8
LAYER01
 62
     7
 10
2846.8942590000001
 20
822.34432100000015
 30
0.0
 11
2846.8942590000001
 21
653.70086300000003
 31
0.0
  0
LINE
  5
1FF
  8
LAYER01
 62
     7
 10
2415.2694259999998
 20
822.34432100000015
 30
0.0
 11
2415.2694259999998
 21
653.70086300000003
 31
0.0
  0
SOLID
  5
200
  8
LAYER01
 62
     7
 10
2811.6942589999999
 20
681.56729499999994
 30
0.0
 11
2846.8942590000001
 21
675.70086300000003
 31
0.0
 12
2811.6942589999999
 22
669.834431
 32
0.0
 13
2811.6942589999999
 23
669.834431
 33
0.0
  0
SOLID
  5
201
  8
LAYER01
 62
     7
 10
2450.4694260000001
 20
681.56729499999994
 30
0.0
 11
2415.2694259999998
 21
675.70086300000003
 31
0.0
 12
2450.4694260000001
 22
669.834431
 32
0.0
 13
2450.4694260000001
 23
669.834431
 33
0.0
  0
TEXT
  5
202
  8
LAYER01
  6
VERDECKT
 62
     7
 10
2597.8161270000001
 20
697.70086300000003
 30
0.0
 40
44.0
  1
432
  0
POINT
  5
203
  8
LAYER01
 62
     7
 10
2846.8942590000001
 20
839.94432100000006
 30
0.0
  0
POINT
  5
204
  8
LAYER01
 62
     7
 10
2415.2694259999998
 20
839.94432100000006
 30
0.0
  0
POINT
  5
205
  8
LAYER01
 62
     7
 10
2415.2694259999998
 20
675.70086300000003
 30
0.0
  0
ENDBLK
  5
206
  8
0
  0
BLOCK
  8
0
  2
*D11
 70
     1
 10
0.0
 20
0.0
 30
0.0
  3
*D11
  1

  0
LINE
  5
209
  8
LAYER01
 62
     7
 10
2800.6845239999998
 20
748.63902499999995
 30
0.0
 11
2461.4791639999999
 21
748.63902499999995
 31
0.0
  0
LINE
  5
20A
  8
LAYER01
 62
     7
 10
2800.6845239999998
 20
822.34432100000015
 30
0.0
 11
2800.6845239999998
 21
726.63902499999995
 31
0.0
  0
LINE
  5
20B
  8
LAYER01
 62
     7
 10
2461.4791639999999
 20
822.34432100000015
 30
0.0
 11
2461.4791639999999
 21
726.63902499999995
 31
0.0
  0
SOLID
  5
20C
  8
LAYER01
 62
     7
 10
2765.484524
 20
754.50545699999986
 30
0.0
 11
2800.6845239999998
 21
748.63902499999995
 31
0.0
 12
2765.484524
 22
742.77259299999992
 32
0.0
 13
2765.484524
 23
742.77259299999992
 33
0.0
  0
SOLID
  5
20D
  8
LAYER01
 62
     7
 10
2496.6791640000001
 20
754.50545699999986
 30
0.0
 11
2461.4791639999999
 21
748.63902499999995
 31
0.0
 12
2496.6791640000001
 22
742.77259299999992
 32
0.0
 13
2496.6791640000001
 23
742.77259299999992
 33
0.0
  0
TEXT
  5
20E
  8
LAYER01
  6
VERDECKT
 62
     7
 10
2597.8161279999999
 20
770.63902499999995
 30
0.0
 40
44.0
  1
339
  0
POINT
  5
20F
  8
LAYER01
 62
     7
 10
2800.6845239999998
 20
839.94432100000006
 30
0.0
  0
POINT
  5
210
  8
LAYER01
 62
     7
 10
2461.4791639999999
 20
839.94432100000006
 30
0.0
  0
POINT
  5
211
  8
LAYER01
 62
     7
 10
2461.4791639999999
 20
748.63902499999995
 30
0.0
  0
ENDBLK
  5
212
  8
0
  0
BLOCK
  8
0
  2
BREST-G13
 70
     0
 10
0.0
 20
0.0
 30
0.0
  3
BREST-G13
  1

  0
LINE
  5
215
  8
0
  6
CONTINUOUS
 62
   255
 10
2631.0818440000012
 20
1181.6684600000001
 30
0.0
 11
2631.0818440000012
 21
1184.1684600000001
 31
0.0
  0
LINE
  5
216
  8
0
  6
CONTINUOUS
 62
   255
 10
2631.0818440000012
 20
1181.6684600000001
 30
0.0
 11
2628.5818440000012
 21
1181.6684600000001
 31
0.0
  0
LINE
  5
217
  8
0
  6
CONTINUOUS
 62
   255
 10
2631.0818440000012
 20
1181.6684600000001
 30
0.0
 11
2631.0818440000012
 21
1179.1684600000001
 31
0.0
  0
LINE
  5
218
  8
0
  6
CONTINUOUS
 62
   255
 10
2631.0818440000012
 20
1181.6684600000001
 30
0.0
 11
2633.5818439999998
 21
1181.6684600000001
 31
0.0
  0
LINE
  5
219
  8
0
  6
CONTINUOUS
 62
   255
 10
2631.0818440000012
 20
1186.6684600000001
 30
0.0
 11
2631.0818440000012
 21
1207.1684600000001
 31
0.0
  0
LINE
  5
21A
  8
0
  6
CONTINUOUS
 62
   255
 10
2626.0818440000012
 20
1181.6684600000001
 30
0.0
 11
2605.5818439999998
 21
1181.6684600000001
 31
0.0
  0
LINE
  5
21B
  8
0
  6
CONTINUOUS
 62
   255
 10
2631.0818440000012
 20
1176.6684600000001
 30
0.0
 11
2631.0818440000012
 21
1156.1684600000001
 31
0.0
  0
LINE
  5
21C
  8
0
  6
CONTINUOUS
 62
   255
 10
2636.0818439999998
 20
1181.6684600000001
 30
0.0
 11
2656.5818440000012
 21
1181.6684600000001
 31
0.0
  0
ENDBLK
  5
21D
  8
0
  0
BLOCK
  8
0
  2
*D13
 70
     1
 10
0.0
 20
0.0
 30
0.0
  3
*D13
  1

  0
LINE
  5
220
  8
LAYER01
 62
     7
 10
2988.7094539999998
 20
978.75259499999993
 30
0.0
 11
3058.7498310000001
 21
860.152919
 31
0.0
  0
LINE
  5
221
  8
LAYER01
 62
     7
 10
3058.7498310000001
 20
860.152919
 30
0.0
 11
3092.6664639999999
 21
860.152919
 31
0.0
  0
SOLID
  5
222
  8
LAYER01
 62
     7
 10
3001.5575749999998
 20
945.46024199999999
 30
0.0
 11
2988.7094539999998
 21
978.75259499999993
 31
0.0
 12
3011.6602480000001
 22
951.42648900000006
 32
0.0
 13
3011.6602480000001
 23
951.42648900000006
 33
0.0
  0
TEXT
  5
223
  8
LAYER01
  6
VERDECKT
 62
     7
 10
3114.6664639999999
 20
838.152919
 30
0.0
 40
44.0
  1
R15
  0
POINT
  5
224
  8
LAYER01
 62
     7
 10
2981.0818439999998
 20
991.66845999999987
 30
0.0
  0
POINT
  5
225
  8
LAYER01
 62
     7
 10
3058.7498310000001
 20
860.152919
 30
0.0
  0
ENDBLK
  5
226
  8
0
  0
BLOCK
  8
0
  2
BREST-G15
 70
     0
 10
0.0
 20
0.0
 30
0.0
  3
BREST-G15
  1

  0
LINE
  5
229
  8
0
  6
CONTINUOUS
 62
     7
 10
4058.0331470000001
 20
563.69080299999996
 30
0.0
 11
4049.0206870000002
 21
572.70326299999999
 31
0.0
  0
LINE
  5
22A
  8
0
  6
CONTINUOUS
 62
     7
 10
4058.0331470000001
 20
541.24016299999994
 30
0.0
 11
4046.0331470000001
 21
553.24016299999994
 31
0.0
  0
LINE
  5
22B
  8
0
  6
CONTINUOUS
 62
     7
 10
4058.0331470000001
 20
518.78952300000003
 30
0.0
 11
4045.8614499999999
 21
530.96122000000003
 31
0.0
  0
LINE
  5
22C
  8
0
  6
CONTINUOUS
 62
     7
 10
4043.667539
 20
510.70448999999991
 30
0.0
 11
4031.6675389999991
 21
522.70448999999996
 31
0.0
  0
LINE
  5
22D
  8
0
  6
CONTINUOUS
 62
     7
 10
4029.152642999999
 20
502.76874600000002
 30
0.0
 11
4017.5941160000002
 21
514.32727299999988
 31
0.0
  0
LINE
  5
22E
  8
0
  6
CONTINUOUS
 62
     7
 10
4027.8941920000002
 20
481.57655699999998
 30
0.0
 11
4016.4761189999999
 21
492.99462999999997
 31
0.0
  0
LINE
  5
22F
  8
0
  6
CONTINUOUS
 62
     7
 10
4026.7761949999999
 20
460.24391299999991
 30
0.0
 11
4015.3581229999991
 21
471.66198600000001
 31
0.0
  0
LINE
  5
230
  8
0
  6
CONTINUOUS
 62
     7
 10
4025.6581990000009
 20
438.91127
 30
0.0
 11
4014.2401259999988
 21
450.329342
 31
0.0
  0
LINE
  5
231
  8
0
  6
CONTINUOUS
 62
     7
 10
4024.5402019999992
 20
417.57862599999987
 30
0.0
 11
4013.1221300000002
 21
428.99669799999998
 31
0.0
  0
LINE
  5
232
  8
0
  6
CONTINUOUS
 62
     7
 10
4022.8987969999989
 20
396.76939099999998
 30
0.0
 11
4012.0041329999999
 21
407.66405400000002
 31
0.0
  0
LINE
  5
233
  8
0
  6
CONTINUOUS
 62
     7
 10
4013.3160409999991
 20
383.90150599999998
 30
0.0
 11
4003.488081
 21
393.729467
 31
0.0
  0
LINE
  5
234
  8
0
  6
CONTINUOUS
 62
     7
 10
4003.0331470000001
 20
371.73376000000002
 30
0.0
 11
3989.3115280000002
 21
385.45537899999999
 31
0.0
  0
ENDBLK
  5
235
  8
0
  0
BLOCK
  8
0
  2
*D15
 70
     1
 10
0.0
 20
0.0
 30
0.0
  3
*D15
  1

  0
LINE
  5
238
  8
LAYER01
 62
     7
 10
3560.7337729999999
 20
522.70448499999986
 30
0.0
 11
3560.7337729999999
 21
452.30448499999989
 31
0.0
  0
LINE
  5
239
  8
LAYER01
 62
     7
 10
3560.7337729999999
 20
572.70449699999995
 30
0.0
 11
3560.7337729999999
 21
643.10449699999992
 31
0.0
  0
LINE
  5
23A
  8
LAYER01
 62
     7
 10
3592.9011059999998
 20
522.70448499999986
 30
0.0
 11
3538.7337729999999
 21
522.70448499999986
 31
0.0
  0
LINE
  5
23B
  8
LAYER01
 62
     7
 10
3592.9011059999998
 20
572.70449699999995
 30
0.0
 11
3538.7337729999999
 21
572.70449699999995
 31
0.0
  0
SOLID
  5
23C
  8
LAYER01
 62
     7
 10
3566.6002050000002
 20
487.50448499999999
 30
0.0
 11
3560.7337729999999
 21
522.70448499999986
 31
0.0
 12
3554.8673410000001
 22
487.50448499999999
 32
0.0
 13
3554.8673410000001
 23
487.50448499999999
 33
0.0
  0
SOLID
  5
23D
  8
LAYER01
 62
     7
 10
3566.6002050000002
 20
607.90449699999988
 30
0.0
 11
3560.7337729999999
 21
572.70449699999995
 31
0.0
 12
3554.8673410000001
 22
607.90449699999988
 32
0.0
 13
3554.8673410000001
 23
607.90449699999988
 33
0.0
  0
TEXT
  5
23E
  8
LAYER01
  6
VERDECKT
 62
     7
 10
3538.7337729999999
 20
665.10449699999992
 30
0.0
 40
44.0
  1
50
 50
90.0
  0
POINT
  5
23F
  8
LAYER01
 62
     7
 10
3610.5011060000002
 20
522.70448499999986
 30
0.0
  0
POINT
  5
240
  8
LAYER01
 62
     7
 10
3610.5011060000002
 20
572.70449699999995
 30
0.0
  0
POINT
  5
241
  8
LAYER01
 62
     7
 10
3560.7337729999999
 20
572.70449699999995
 30
0.0
  0
ENDBLK
  5
242
  8
0
  0
BLOCK
  8
0
  2
BREST-G18
 70
     0
 10
0.0
 20
0.0
 30
0.0
  3
BREST-G18
  1

  0
TEXT
  5
245
  8
LAYER01
  6
VERDECKT
 62
     1
 10
4351.4515259999989
 20
-519.92132300000003
 30
0.0
 40
9.0
  1
A. Sprenger GmbH
  7
SIMPLEX
  0
TEXT
  5
246
  8
LAYER01
  6
VERDECKT
 62
     1
 10
4351.4515259999989
 20
-535.34989499999995
 30
0.0
 40
9.0
  1
Berner Str. 10
  7
SIMPLEX
  0
TEXT
  5
247
  8
LAYER01
  6
VERDECKT
 62
     1
 10
4351.4515259999989
 20
-550.77846599999987
 30
0.0
 40
9.0
  1
60437 Frankfurt
  7
SIMPLEX
  0
TEXT
  5
248
  8
LAYER01
  6
VERDECKT
 62
     1
 10
4351.4515259999989
 20
-566.20703700000001
 30
0.0
 40
9.0
  1
Tel.: 069 - 507 27 41
  7
SIMPLEX
  0
TEXT
  5
249
  8
LAYER01
  6
VERDECKT
 62
     1
 10
4351.4515259999989
 20
-581.63560899999993
 30
0.0
 40
9.0
  1
Fax: 069 - 507 72 91
  7
SIMPLEX
  0
TEXT
  5
24A
  8
LAYER01
  6
VERDECKT
 62
     1
 10
4351.4515259999989
 20
-597.06417999999996
 30
0.0
 40
9.0
  1
info@varicor.org
  7
SIMPLEX
  0
ENDBLK
  5
24B
  8
0
  0
BLOCK
  8
0
  2
BREST-G17
 70
     0
 10
0.0
 20
0.0
 30
0.0
  3
BREST-G17
  1

  0
TEXT
  5
24E
  8
LAYER01
  6
CONTINUOUS
 62
     1
 10
5297.1881350000003
 20
-731.49349199999995
 30
0.0
 40
9.0
  1
Blatt
  7
SIMPLEX
  0
LINE
  5
24F
  8
LAYER01
  6
CONTINUOUS
 62
     1
 10
4338.6881350000003
 20
-668.49349199999995
 30
0.0
 11
4878.6881350000003
 21
-668.49349199999995
 31
0.0
  0
LINE
  5
250
  8
LAYER01
  6
CONTINUOUS
 62
     1
 10
4338.6881350000003
 20
-690.99349199999995
 30
0.0
 11
4878.6881350000003
 21
-690.99349199999995
 31
0.0
  0
LINE
  5
251
  8
LAYER01
  6
CONTINUOUS
 62
     1
 10
4338.6881350000003
 20
-713.49349199999995
 30
0.0
 11
5355.6881350000012
 21
-713.49349199999995
 31
0.0
  0
LINE
  5
252
  8
LAYER01
  6
CONTINUOUS
 62
     1
 10
4338.6881350000003
 20
-780.99349199999995
 30
0.0
 11
5355.6881350000012
 21
-780.99349199999995
 31
0.0
  0
LINE
  5
253
  8
LAYER01
  6
CONTINUOUS
 62
     1
 10
4338.6881350000003
 20
-600.99349199999995
 30
0.0
 11
5355.6881350000012
 21
-600.99349199999995
 31
0.0
  0
POLYLINE
  5
254
  8
LAYER01
  6
CONTINUOUS
 62
     1
 66
     1
 10
0.0
 20
0.0
 30
0.0
 70
     1
  0
VERTEX
  5
1D97
  8
LAYER01
  6
CONTINUOUS
 62
     1
 10
4338.6881350000003
 20
-807.99349199999995
 30
0.0
  0
VERTEX
  5
1D98
  8
LAYER01
  6
CONTINUOUS
 62
     1
 10
4338.6881350000003
 20
-506.49349199999989
 30
0.0
  0
VERTEX
  5
1D99
  8
LAYER01
  6
CONTINUOUS
 62
     1
 10
5355.6881350000012
 20
-506.49349199999989
 30
0.0
  0
VERTEX
  5
1D9A
  8
LAYER01
  6
CONTINUOUS
 62
     1
 10
5355.6881350000012
 20
-807.99349199999995
 30
0.0
  0
SEQEND
  5
1D9B
  8
LAYER01
  6
CONTINUOUS
 62
     1
  0
LINE
  5
25A
  8
LAYER01
  6
CONTINUOUS
 62
     1
 10
4338.6881350000003
 20
-623.49349199999995
 30
0.0
 11
4878.6881350000003
 21
-623.49349199999995
 31
0.0
  0
LINE
  5
25B
  8
LAYER01
  6
CONTINUOUS
 62
     1
 10
4338.6881350000003
 20
-645.99349199999995
 30
0.0
 11
4878.6881350000003
 21
-645.99349199999995
 31
0.0
  0
LINE
  5
25C
  8
LAYER01
  6
CONTINUOUS
 62
     1
 10
4631.1881350000012
 20
-506.49349199999989
 30
0.0
 11
4631.1881350000012
 21
-807.99349199999995
 31
0.0
  0
INSERT
  5
25D
  8
LAYER01
  2
BREST-G18
 10
0.0
 20
0.0
 30
0.0
  0
LINE
  5
25E
  8
LAYER01
  6
CONTINUOUS
 62
     1
 10
4338.6881350000003
 20
-758.49349199999995
 30
0.0
 11
4631.1881350000012
 21
-758.49349199999995
 31
0.0
  0
LINE
  5
25F
  8
LAYER01
  6
CONTINUOUS
 62
     1
 10
4338.6881350000003
 20
-735.99349199999995
 30
0.0
 11
4631.1881350000012
 21
-735.99349199999995
 31
0.0
  0
LINE
  5
260
  8
LAYER01
  6
CONTINUOUS
 62
     1
 10
4379.1881350000003
 20
-600.99349199999995
 30
0.0
 11
4379.1881350000003
 21
-807.99349199999995
 31
0.0
  0
TEXT
  5
261
  8
LAYER01
  6
CONTINUOUS
 62
     1
 10
4346.2474739999998
 20
-798.99349199999995
 30
0.0
 40
8.5500000000000007
  1
Zust
  7
SIMPLEX
  0
LINE
  5
262
  8
LAYER01
  6
CONTINUOUS
 62
     1
 10
4521.194289
 20
-807.99349199999995
 30
0.0
 11
4521.194289
 21
-600.99349199999995
 31
0.0
  0
LINE
  5
263
  8
LAYER01
  6
CONTINUOUS
 62
     1
 10
4590.6881350000003
 20
-600.99349199999995
 30
0.0
 11
4590.6881350000003
 21
-807.99349199999995
 31
0.0
  0
TEXT
  5
264
  8
LAYER01
  6
CONTINUOUS
 62
     1
 10
4418.9038229999987
 20
-798.99349199999995
 30
0.0
 40
8.5500000000000007
  1
Änderung
  7
SIMPLEX
  0
TEXT
  5
265
  8
LAYER01
  6
CONTINUOUS
 62
     1
 10
4533.8568649999988
 20
-798.99349199999995
 30
0.0
 40
8.5500000000000007
  1
Datum
  7
SIMPLEX
  0
TEXT
  5
266
  8
LAYER01
  6
CONTINUOUS
 62
     1
 10
4594.0756479999991
 20
-798.99349199999995
 30
0.0
 40
8.5500000000000007
  1
Name
  7
SIMPLEX
  0
LINE
  5
267
  8
LAYER01
  6
CONTINUOUS
 62
     1
 10
5355.6881350000012
 20
-542.49349199999995
 30
0.0
 11
4878.6881350000003
 21
-542.49349199999995
 31
0.0
  0
LINE
  5
268
  8
LAYER01
  6
CONTINUOUS
 62
     1
 10
4689.6881349999994
 20
-690.99349199999995
 30
0.0
 11
4689.6881349999994
 21
-600.99349199999995
 31
0.0
  0
TEXT
  5
269
  8
LAYER01
  6
CONTINUOUS
 62
     1
 10
4640.1881350000003
 20
-641.49349199999995
 30
0.0
 40
9.0
  1
Bearb.
  7
SIMPLEX
  0
TEXT
  5
26A
  8
LAYER01
  6
CONTINUOUS
 62
     1
 10
4640.1881350000003
 20
-686.49349199999995
 30
0.0
 40
9.0
  1
Norm
  7
SIMPLEX
  0
TEXT
  5
26B
  8
LAYER01
  6
CONTINUOUS
 62
     1
 10
4640.1881350000003
 20
-663.99349199999995
 30
0.0
 40
9.0
  1
Gepr.
  7
SIMPLEX
  0
TEXT
  5
26C
  8
LAYER01
  6
CONTINUOUS
 62
     1
 10
4712.1881350000003
 20
-618.99349199999995
 30
0.0
 40
9.0
  1
Datum
  7
SIMPLEX
  0
TEXT
  5
26D
  8
LAYER01
  6
CONTINUOUS
 62
     1
 10
4802.1881350000003
 20
-618.99349199999995
 30
0.0
 40
9.0
  1
Name
  7
SIMPLEX
  0
TEXT
  5
26E
  8
LAYER01
  6
CONTINUOUS
 62
     1
 10
5333.1881350000003
 20
-776.49349199999995
 30
0.0
 40
9.0
  1
Bl.
  7
SIMPLEX
  0
LINE
  5
26F
  8
LAYER01
  6
CONTINUOUS
 62
     1
 10
4878.6881350000003
 20
-807.99349199999995
 30
0.0
 11
4878.6881350000003
 21
-506.49349199999989
 31
0.0
  0
LINE
  5
270
  8
LAYER01
  6
CONTINUOUS
 62
     1
 10
4775.1881350000003
 20
-713.49349199999995
 30
0.0
 11
4775.1881350000003
 21
-506.49349199999989
 31
0.0
  0
LINE
  5
271
  8
LAYER01
  6
CONTINUOUS
 62
     1
 10
5162.1881350000003
 20
-506.49349199999989
 30
0.0
 11
5162.1881350000003
 21
-542.49349199999995
 31
0.0
  0
TEXT
  5
272
  8
LAYER01
  6
CONTINUOUS
 62
     1
 10
4888.4927349999989
 20
-529.47049400000003
 30
0.0
 40
9.0
  1
Maßstab
  7
SIMPLEX
  0
LINE
  5
273
  8
LAYER01
  6
CONTINUOUS
 62
     1
 10
5288.1881350000012
 20
-713.49349199999995
 30
0.0
 11
5288.1881350000012
 21
-780.99349199999995
 31
0.0
  0
LINE
  5
274
  8
LAYER01
  6
CONTINUOUS
 62
     1
 10
5288.1881350000012
 20
-758.49349199999995
 30
0.0
 11
5355.6881350000012
 21
-758.49349199999995
 31
0.0
  0
ENDBLK
  5
275
  8
0
  0
BLOCK
  8
0
  2
BREST-G19
 70
     0
 10
0.0
 20
0.0
 30
0.0
  3
BREST-G19
  1

  0
POLYLINE
  5
278
  8
LAYER01
  6
CONTINUOUS
 62
     7
 66
     1
 10
0.0
 20
0.0
 30
0.0
 70
     1
  0
VERTEX
  5
1D9C
  8
LAYER01
  6
CONTINUOUS
 62
     7
 10
4392.5247950000003
 20
-102.027289
 30
0.0
  0
VERTEX
  5
1D9D
  8
LAYER01
  6
CONTINUOUS
 62
     7
 10
4426.5903550000003
 20
-102.027289
 30
0.0
  0
VERTEX
  5
1D9E
  8
LAYER01
  6
CONTINUOUS
 62
     7
 10
4469.3703599999999
 20
-199.47063499999999
 30
0.0
  0
VERTEX
  5
1D9F
  8
LAYER01
  6
CONTINUOUS
 62
     7
 10
4512.1503659999998
 20
-102.027289
 30
0.0
  0
VERTEX
  5
1DA0
  8
LAYER01
  6
CONTINUOUS
 62
     7
 10
4547.8003710000003
 20
-102.027289
 30
0.0
  0
VERTEX
  5
1DA1
  8
LAYER01
  6
CONTINUOUS
 62
     7
 10
4469.3703599999999
 20
-276.31619999999998
 30
0.0
  0
VERTEX
  5
1DA2
  8
LAYER01
  6
CONTINUOUS
 62
     7
 10
4392.5247950000003
 20
-102.027289
 30
0.0
  0
VERTEX
  5
1DA3
  8
LAYER01
  6
CONTINUOUS
 62
     7
 10
4392.5247950000003
 20
-102.027289
 30
0.0
  0
SEQEND
  5
1DA4
  8
LAYER01
  6
CONTINUOUS
 62
     7
  0
POLYLINE
  5
282
  8
LAYER01
  6
CONTINUOUS
 62
     7
 66
     1
 10
0.0
 20
0.0
 30
0.0
 70
     1
  0
VERTEX
  5
1DA5
  8
LAYER01
  6
CONTINUOUS
 62
     7
 10
4508.9814770000003
 20
-220.86063799999999
 30
0.0
  0
VERTEX
  5
1DA6
  8
LAYER01
  6
CONTINUOUS
 62
     7
 10
4520.8648110000004
 20
-193.132856
 30
0.0
  0
VERTEX
  5
1DA7
  8
LAYER01
  6
CONTINUOUS
 62
     7
 10
4572.3592630000003
 20
-193.132856
 30
0.0
  0
VERTEX
  5
1DA8
  8
LAYER01
  6
CONTINUOUS
 62
     7
 10
4546.2159259999999
 20
-136.092849
 30
0.0
  0
VERTEX
  5
1DA9
  8
LAYER01
  6
CONTINUOUS
 62
     7
 10
4561.2681499999999
 20
-99.650621999999998
 30
0.0
  0
VERTEX
  5
1DAA
  8
LAYER01
  6
CONTINUOUS
 62
     7
 10
4631.7759369999994
 20
-248.58841899999999
 30
0.0
  0
VERTEX
  5
1DAB
  8
LAYER01
  6
CONTINUOUS
 62
     7
 10
4631.7759369999994
 20
-102.027289
 30
0.0
  0
VERTEX
  5
1DAC
  8
LAYER01
  6
CONTINUOUS
 62
     7
 10
4726.0503939999999
 20
-102.027289
 30
0.0
  0
VERTEX
  5
1DAD
  8
LAYER01
  6
CONTINUOUS
 62
     7
 10
4726.0503939999999
 20
-102.027289
 30
0.0
  0
VERTEX
  5
1DAE
  8
LAYER01
  6
CONTINUOUS
 62
     7
 10
4734.7648390000004
 20
-103.611734
 30
0.0
  0
VERTEX
  5
1DAF
  8
LAYER01
  6
CONTINUOUS
 62
     7
 10
4742.687062
 20
-106.78062300000001
 30
0.0
  0
VERTEX
  5
1DB0
  8
LAYER01
  6
CONTINUOUS
 62
     7
 10
4749.8170630000004
 20
-112.326179
 30
0.0
  0
VERTEX
  5
1DB1
  8
LAYER01
  6
CONTINUOUS
 62
     7
 10
4756.154841999999
 20
-117.871736
 30
0.0
  0
VERTEX
  5
1DB2
  8
LAYER01
  6
CONTINUOUS
 62
     7
 10
4761.700398
 20
-125.00173599999999
 30
0.0
  0
VERTEX
  5
1DB3
  8
LAYER01
  6
CONTINUOUS
 62
     7
 10
4765.6615099999999
 20
-132.92395999999999
 30
0.0
  0
VERTEX
  5
1DB4
  8
LAYER01
  6
CONTINUOUS
 62
     7
 10
4768.8303990000004
 20
-142.43062800000001
 30
0.0
  0
VERTEX
  5
1DB5
  8
LAYER01
  6
CONTINUOUS
 62
     7
 10
4769.6226210000004
 20
-151.145073
 30
0.0
  0
VERTEX
  5
1DB6
  8
LAYER01
  6
CONTINUOUS
 62
     7
 10
4769.6226210000004
 20
-151.145073
 30
0.0
  0
VERTEX
  5
1DB7
  8
LAYER01
  6
CONTINUOUS
 62
     7
 10
4769.6226210000004
 20
-160.65174099999999
 30
0.0
  0
VERTEX
  5
1DB8
  8
LAYER01
  6
CONTINUOUS
 62
     7
 10
4768.0381770000004
 20
-168.57396399999999
 30
0.0
  0
VERTEX
  5
1DB9
  8
LAYER01
  6
CONTINUOUS
 62
     7
 10
4764.8692869999986
 20
-176.49618799999999
 30
0.0
  0
VERTEX
  5
1DBA
  8
LAYER01
  6
CONTINUOUS
 62
     7
 10
4760.9081759999999
 20
-183.62618800000001
 30
0.0
  0
VERTEX
  5
1DBB
  8
LAYER01
  6
CONTINUOUS
 62
     7
 10
4755.362619999999
 20
-189.963967
 30
0.0
  0
VERTEX
  5
1DBC
  8
LAYER01
  6
CONTINUOUS
 62
     7
 10
4749.0248409999986
 20
-195.509523
 30
0.0
  0
VERTEX
  5
1DBD
  8
LAYER01
  6
CONTINUOUS
 62
     7
 10
4741.894839999999
 20
-199.47063499999999
 30
0.0
  0
VERTEX
  5
1DBE
  8
LAYER01
  6
CONTINUOUS
 62
     7
 10
4733.180394
 20
-202.63952399999999
 30
0.0
  0
VERTEX
  5
1DBF
  8
LAYER01
  6
CONTINUOUS
 62
     7
 10
4783.8826229999986
 20
-269.97842200000002
 30
0.0
  0
VERTEX
  5
1DC0
  8
LAYER01
  6
CONTINUOUS
 62
     7
 10
4783.8826229999986
 20
-102.027289
 30
0.0
  0
VERTEX
  5
1DC1
  8
LAYER01
  6
CONTINUOUS
 62
     7
 10
4817.1559610000004
 20
-102.027289
 30
0.0
  0
VERTEX
  5
1DC2
  8
LAYER01
  6
CONTINUOUS
 62
     7
 10
4817.1559610000004
 20
-271.5628660000001
 30
0.0
  0
VERTEX
  5
1DC3
  8
LAYER01
  6
CONTINUOUS
 62
     7
 10
4745.8559519999999
 20
-271.5628660000001
 30
0.0
  0
VERTEX
  5
1DC4
  8
LAYER01
  6
CONTINUOUS
 62
     7
 10
4676.9326090000004
 20
-183.62618800000001
 30
0.0
  0
VERTEX
  5
1DC5
  8
LAYER01
  6
CONTINUOUS
 62
     7
 10
4711.7903919999999
 20
-183.62618800000001
 30
0.0
  0
VERTEX
  5
1DC6
  8
LAYER01
  6
CONTINUOUS
 62
     7
 10
4711.7903919999999
 20
-183.62618800000001
 30
0.0
  0
VERTEX
  5
1DC7
  8
LAYER01
  6
CONTINUOUS
 62
     7
 10
4716.5437259999999
 20
-182.833966
 30
0.0
  0
VERTEX
  5
1DC8
  8
LAYER01
  6
CONTINUOUS
 62
     7
 10
4721.2970599999999
 20
-181.2495209999999
 30
0.0
  0
VERTEX
  5
1DC9
  8
LAYER01
  6
CONTINUOUS
 62
     7
 10
4725.2581710000013
 20
-178.87285499999999
 30
0.0
  0
VERTEX
  5
1DCA
  8
LAYER01
  6
CONTINUOUS
 62
     7
 10
4729.2192829999995
 20
-175.70396500000001
 30
0.0
  0
VERTEX
  5
1DCB
  8
LAYER01
  6
CONTINUOUS
 62
     7
 10
4731.595949999999
 20
-171.74285399999999
 30
0.0
  0
VERTEX
  5
1DCC
  8
LAYER01
  6
CONTINUOUS
 62
     7
 10
4733.9726170000004
 20
-166.98952
 30
0.0
  0
VERTEX
  5
1DCD
  8
LAYER01
  6
CONTINUOUS
 62
     7
 10
4735.5570609999986
 20
-162.236186
 30
0.0
  0
VERTEX
  5
1DCE
  8
LAYER01
  6
CONTINUOUS
 62
     7
 10
4735.5570609999986
 20
-156.690629
 30
0.0
  0
VERTEX
  5
1DCF
  8
LAYER01
  6
CONTINUOUS
 62
     7
 10
4735.5570609999986
 20
-156.690629
 30
0.0
  0
VERTEX
  5
1DD0
  8
LAYER01
  6
CONTINUOUS
 62
     7
 10
4735.5570609999986
 20
-151.93729500000001
 30
0.0
  0
VERTEX
  5
1DD1
  8
LAYER01
  6
CONTINUOUS
 62
     7
 10
4733.9726170000004
 20
-147.18396200000001
 30
0.0
  0
VERTEX
  5
1DD2
  8
LAYER01
  6
CONTINUOUS
 62
     7
 10
4732.3881719999999
 20
-142.43062800000001
 30
0.0
  0
VERTEX
  5
1DD3
  8
LAYER01
  6
CONTINUOUS
 62
     7
 10
4729.2192829999995
 20
-138.469516
 30
0.0
  0
VERTEX
  5
1DD4
  8
LAYER01
  6
CONTINUOUS
 62
     7
 10
4726.0503939999999
 20
-135.30062699999999
 30
0.0
  0
VERTEX
  5
1DD5
  8
LAYER01
  6
CONTINUOUS
 62
     7
 10
4721.2970599999999
 20
-132.92395999999999
 30
0.0
  0
VERTEX
  5
1DD6
  8
LAYER01
  6
CONTINUOUS
 62
     7
 10
4716.5437259999999
 20
-131.33951500000001
 30
0.0
  0
VERTEX
  5
1DD7
  8
LAYER01
  6
CONTINUOUS
 62
     7
 10
4711.7903919999999
 20
-130.547293
 30
0.0
  0
VERTEX
  5
1DD8
  8
LAYER01
  6
CONTINUOUS
 62
     7
 10
4667.4259419999998
 20
-130.547293
 30
0.0
  0
VERTEX
  5
1DD9
  8
LAYER01
  6
CONTINUOUS
 62
     7
 10
4667.4259419999998
 20
-271.5628660000001
 30
0.0
  0
VERTEX
  5
1DDA
  8
LAYER01
  6
CONTINUOUS
 62
     7
 10
4610.385933999999
 20
-271.5628660000001
 30
0.0
  0
VERTEX
  5
1DDB
  8
LAYER01
  6
CONTINUOUS
 62
     7
 10
4586.6192639999999
 20
-220.86063799999999
 30
0.0
  0
VERTEX
  5
1DDC
  8
LAYER01
  6
CONTINUOUS
 62
     7
 10
4508.9814770000003
 20
-220.86063799999999
 30
0.0
  0
VERTEX
  5
1DDD
  8
LAYER01
  6
CONTINUOUS
 62
     7
 10
4508.9814770000003
 20
-220.86063799999999
 30
0.0
  0
SEQEND
  5
1DDE
  8
LAYER01
  6
CONTINUOUS
 62
     7
  0
POLYLINE
  5
2BD
  8
LAYER01
  6
CONTINUOUS
 62
     7
 66
     1
 10
0.0
 20
0.0
 30
0.0
 70
     1
  0
VERTEX
  5
1DDF
  8
LAYER01
  6
CONTINUOUS
 62
     7
 10
4970.847092
 20
-113.118402
 30
0.0
  0
VERTEX
  5
1DE0
  8
LAYER01
  6
CONTINUOUS
 62
     7
 10
4949.4570890000005
 20
-140.05396099999999
 30
0.0
  0
VERTEX
  5
1DE1
  8
LAYER01
  6
CONTINUOUS
 62
     7
 10
4949.4570890000005
 20
-140.05396099999999
 30
0.0
  0
VERTEX
  5
1DE2
  8
LAYER01
  6
CONTINUOUS
 62
     7
 10
4942.327088
 20
-135.30062699999999
 30
0.0
  0
VERTEX
  5
1DE3
  8
LAYER01
  6
CONTINUOUS
 62
     7
 10
4935.1970869999986
 20
-131.33951500000001
 30
0.0
  0
VERTEX
  5
1DE4
  8
LAYER01
  6
CONTINUOUS
 62
     7
 10
4927.2748640000009
 20
-128.96284800000001
 30
0.0
  0
VERTEX
  5
1DE5
  8
LAYER01
  6
CONTINUOUS
 62
     7
 10
4918.560418
 20
-128.96284800000001
 30
0.0
  0
VERTEX
  5
1DE6
  8
LAYER01
  6
CONTINUOUS
 62
     7
 10
4918.560418
 20
-128.96284800000001
 30
0.0
  0
VERTEX
  5
1DE7
  8
LAYER01
  6
CONTINUOUS
 62
     7
 10
4913.014862
 20
-128.96284800000001
 30
0.0
  0
VERTEX
  5
1DE8
  8
LAYER01
  6
CONTINUOUS
 62
     7
 10
4907.469306
 20
-129.75506999999999
 30
0.0
  0
VERTEX
  5
1DE9
  8
LAYER01
  6
CONTINUOUS
 62
     7
 10
4901.9237499999999
 20
-131.33951500000001
 30
0.0
  0
VERTEX
  5
1DEA
  8
LAYER01
  6
CONTINUOUS
 62
     7
 10
4896.3781929999996
 20
-133.716182
 30
0.0
  0
VERTEX
  5
1DEB
  8
LAYER01
  6
CONTINUOUS
 62
     7
 10
4891.6248590000014
 20
-136.092849
 30
0.0
  0
VERTEX
  5
1DEC
  8
LAYER01
  6
CONTINUOUS
 62
     7
 10
4887.6637479999999
 20
-139.26173800000001
 30
0.0
  0
VERTEX
  5
1DED
  8
LAYER01
  6
CONTINUOUS
 62
     7
 10
4882.9104139999999
 20
-142.43062800000001
 30
0.0
  0
VERTEX
  5
1DEE
  8
LAYER01
  6
CONTINUOUS
 62
     7
 10
4879.7415250000004
 20
-146.391739
 30
0.0
  0
VERTEX
  5
1DEF
  8
LAYER01
  6
CONTINUOUS
 62
     7
 10
4875.7804130000013
 20
-151.145073
 30
0.0
  0
VERTEX
  5
1DF0
  8
LAYER01
  6
CONTINUOUS
 62
     7
 10
4873.4037460000009
 20
-155.89840699999999
 30
0.0
  0
VERTEX
  5
1DF1
  8
LAYER01
  6
CONTINUOUS
 62
     7
 10
4870.2348570000004
 20
-160.65174099999999
 30
0.0
  0
VERTEX
  5
1DF2
  8
LAYER01
  6
CONTINUOUS
 62
     7
 10
4867.858189999999
 20
-165.40507500000001
 30
0.0
  0
VERTEX
  5
1DF3
  8
LAYER01
  6
CONTINUOUS
 62
     7
 10
4866.2737450000004
 20
-170.95063099999999
 30
0.0
  0
VERTEX
  5
1DF4
  8
LAYER01
  6
CONTINUOUS
 62
     7
 10
4865.4815229999986
 20
-176.49618799999999
 30
0.0
  0
VERTEX
  5
1DF5
  8
LAYER01
  6
CONTINUOUS
 62
     7
 10
4864.6893
 20
-182.04174399999999
 30
0.0
  0
VERTEX
  5
1DF6
  8
LAYER01
  6
CONTINUOUS
 62
     7
 10
4863.897078
 20
-188.37952200000001
 30
0.0
  0
VERTEX
  5
1DF7
  8
LAYER01
  6
CONTINUOUS
 62
     7
 10
4863.897078
 20
-188.37952200000001
 30
0.0
  0
VERTEX
  5
1DF8
  8
LAYER01
  6
CONTINUOUS
 62
     7
 10
4864.6893
 20
-193.92507900000001
 30
0.0
  0
VERTEX
  5
1DF9
  8
LAYER01
  6
CONTINUOUS
 62
     7
 10
4865.4815229999986
 20
-199.47063499999999
 30
0.0
  0
VERTEX
  5
1DFA
  8
LAYER01
  6
CONTINUOUS
 62
     7
 10
4866.2737450000004
 20
-205.01619099999999
 30
0.0
  0
VERTEX
  5
1DFB
  8
LAYER01
  6
CONTINUOUS
 62
     7
 10
4868.650412
 20
-209.76952499999999
 30
0.0
  0
VERTEX
  5
1DFC
  8
LAYER01
  6
CONTINUOUS
 62
     7
 10
4870.2348570000004
 20
-214.52285900000001
 30
0.0
  0
VERTEX
  5
1DFD
  8
LAYER01
  6
CONTINUOUS
 62
     7
 10
4873.4037460000009
 20
-219.27619300000001
 30
0.0
  0
VERTEX
  5
1DFE
  8
LAYER01
  6
CONTINUOUS
 62
     7
 10
4876.5726350000014
 20
-224.029527
 30
0.0
  0
VERTEX
  5
1DFF
  8
LAYER01
  6
CONTINUOUS
 62
     7
 10
4879.7415250000004
 20
-227.99063899999999
 30
0.0
  0
VERTEX
  5
1E00
  8
LAYER01
  6
CONTINUOUS
 62
     7
 10
4883.702636
 20
-231.95175
 30
0.0
  0
VERTEX
  5
1E01
  8
LAYER01
  6
CONTINUOUS
 62
     7
 10
4887.6637479999999
 20
-235.12064000000001
 30
0.0
  0
VERTEX
  5
1E02
  8
LAYER01
  6
CONTINUOUS
 62
     7
 10
4892.4170819999999
 20
-237.49730700000001
 30
0.0
  0
VERTEX
  5
1E03
  8
LAYER01
  6
CONTINUOUS
 62
     7
 10
4897.1704159999999
 20
-239.873974
 30
0.0
  0
VERTEX
  5
1E04
  8
LAYER01
  6
CONTINUOUS
 62
     7
 10
4902.715972
 20
-242.25064
 30
0.0
  0
VERTEX
  5
1E05
  8
LAYER01
  6
CONTINUOUS
 62
     7
 10
4907.469306
 20
-243.83508499999999
 30
0.0
  0
VERTEX
  5
1E06
  8
LAYER01
  6
CONTINUOUS
 62
     7
 10
4913.014862
 20
-244.627307
 30
0.0
  0
VERTEX
  5
1E07
  8
LAYER01
  6
CONTINUOUS
 62
     7
 10
4919.3526409999986
 20
-244.627307
 30
0.0
  0
VERTEX
  5
1E08
  8
LAYER01
  6
CONTINUOUS
 62
     7
 10
4919.3526409999986
 20
-244.627307
 30
0.0
  0
VERTEX
  5
1E09
  8
LAYER01
  6
CONTINUOUS
 62
     7
 10
4928.067086
 20
-243.83508499999999
 30
0.0
  0
VERTEX
  5
1E0A
  8
LAYER01
  6
CONTINUOUS
 62
     7
 10
4935.1970869999986
 20
-242.25064
 30
0.0
  0
VERTEX
  5
1E0B
  8
LAYER01
  6
CONTINUOUS
 62
     7
 10
4942.327088
 20
-238.28952899999999
 30
0.0
  0
VERTEX
  5
1E0C
  8
LAYER01
  6
CONTINUOUS
 62
     7
 10
4949.4570890000005
 20
-233.53619499999999
 30
0.0
  0
VERTEX
  5
1E0D
  8
LAYER01
  6
CONTINUOUS
 62
     7
 10
4970.0548699999999
 20
-261.2639759999999
 30
0.0
  0
VERTEX
  5
1E0E
  8
LAYER01
  6
CONTINUOUS
 62
     7
 10
4970.0548699999999
 20
-261.2639759999999
 30
0.0
  0
VERTEX
  5
1E0F
  8
LAYER01
  6
CONTINUOUS
 62
     7
 10
4958.1715350000004
 20
-268.39397700000001
 30
0.0
  0
VERTEX
  5
1E10
  8
LAYER01
  6
CONTINUOUS
 62
     7
 10
4951.833756
 20
-270.770644
 30
0.0
  0
VERTEX
  5
1E11
  8
LAYER01
  6
CONTINUOUS
 62
     7
 10
4946.2882
 20
-273.147311
 30
0.0
  0
VERTEX
  5
1E12
  8
LAYER01
  6
CONTINUOUS
 62
     7
 10
4939.9504209999996
 20
-274.73175600000002
 30
0.0
  0
VERTEX
  5
1E13
  8
LAYER01
  6
CONTINUOUS
 62
     7
 10
4933.6126430000004
 20
-275.523978
 30
0.0
  0
VERTEX
  5
1E14
  8
LAYER01
  6
CONTINUOUS
 62
     7
 10
4919.3526409999986
 20
-276.31619999999998
 30
0.0
  0
VERTEX
  5
1E15
  8
LAYER01
  6
CONTINUOUS
 62
     7
 10
4919.3526409999986
 20
-276.31619999999998
 30
0.0
  0
VERTEX
  5
1E16
  8
LAYER01
  6
CONTINUOUS
 62
     7
 10
4909.8459729999986
 20
-275.523978
 30
0.0
  0
VERTEX
  5
1E17
  8
LAYER01
  6
CONTINUOUS
 62
     7
 10
4901.1315269999996
 20
-273.93953299999998
 30
0.0
  0
VERTEX
  5
1E18
  8
LAYER01
  6
CONTINUOUS
 62
     7
 10
4892.4170819999999
 20
-272.35508900000002
 30
0.0
  0
VERTEX
  5
1E19
  8
LAYER01
  6
CONTINUOUS
 62
     7
 10
4884.4948590000004
 20
-269.18619999999999
 30
0.0
  0
VERTEX
  5
1E1A
  8
LAYER01
  6
CONTINUOUS
 62
     7
 10
4876.5726350000014
 20
-265.22508800000003
 30
0.0
  0
VERTEX
  5
1E1B
  8
LAYER01
  6
CONTINUOUS
 62
     7
 10
4869.442634
 20
-261.2639759999999
 30
0.0
  0
VERTEX
  5
1E1C
  8
LAYER01
  6
CONTINUOUS
 62
     7
 10
4862.3126329999996
 20
-255.71842000000001
 30
0.0
  0
VERTEX
  5
1E1D
  8
LAYER01
  6
CONTINUOUS
 62
     7
 10
4855.9748549999986
 20
-250.172864
 30
0.0
  0
VERTEX
  5
1E1E
  8
LAYER01
  6
CONTINUOUS
 62
     7
 10
4849.637076
 20
-243.83508499999999
 30
0.0
  0
VERTEX
  5
1E1F
  8
LAYER01
  6
CONTINUOUS
 62
     7
 10
4844.883742
 20
-236.705084
 30
0.0
  0
VERTEX
  5
1E20
  8
LAYER01
  6
CONTINUOUS
 62
     7
 10
4840.130408
 20
-229.57508300000001
 30
0.0
  0
VERTEX
  5
1E21
  8
LAYER01
  6
CONTINUOUS
 62
     7
 10
4836.1692969999986
 20
-221.65286
 30
0.0
  0
VERTEX
  5
1E22
  8
LAYER01
  6
CONTINUOUS
 62
     7
 10
4833.7926299999999
 20
-213.730637
 30
0.0
  0
VERTEX
  5
1E23
  8
LAYER01
  6
CONTINUOUS
 62
     7
 10
4831.4159630000013
 20
-205.01619099999999
 30
0.0
  0
VERTEX
  5
1E24
  8
LAYER01
  6
CONTINUOUS
 62
     7
 10
4829.831518
 20
-196.30174600000001
 30
0.0
  0
VERTEX
  5
1E25
  8
LAYER01
  6
CONTINUOUS
 62
     7
 10
4829.0392959999999
 20
-186.79507799999999
 30
0.0
  0
VERTEX
  5
1E26
  8
LAYER01
  6
CONTINUOUS
 62
     7
 10
4829.0392959999999
 20
-186.79507799999999
 30
0.0
  0
VERTEX
  5
1E27
  8
LAYER01
  6
CONTINUOUS
 62
     7
 10
4829.831518
 20
-178.08063200000001
 30
0.0
  0
VERTEX
  5
1E28
  8
LAYER01
  6
CONTINUOUS
 62
     7
 10
4831.4159630000013
 20
-168.57396399999999
 30
0.0
  0
VERTEX
  5
1E29
  8
LAYER01
  6
CONTINUOUS
 62
     7
 10
4833.0004070000005
 20
-160.65174099999999
 30
0.0
  0
VERTEX
  5
1E2A
  8
LAYER01
  6
CONTINUOUS
 62
     7
 10
4836.1692969999986
 20
-151.93729500000001
 30
0.0
  0
VERTEX
  5
1E2B
  8
LAYER01
  6
CONTINUOUS
 62
     7
 10
4840.130408
 20
-144.015072
 30
0.0
  0
VERTEX
  5
1E2C
  8
LAYER01
  6
CONTINUOUS
 62
     7
 10
4844.0915199999999
 20
-136.88507100000001
 30
0.0
  0
VERTEX
  5
1E2D
  8
LAYER01
  6
CONTINUOUS
 62
     7
 10
4849.637076
 20
-129.75506999999999
 30
0.0
  0
VERTEX
  5
1E2E
  8
LAYER01
  6
CONTINUOUS
 62
     7
 10
4855.1826330000004
 20
-123.417292
 30
0.0
  0
VERTEX
  5
1E2F
  8
LAYER01
  6
CONTINUOUS
 62
     7
 10
4861.5204109999986
 20
-117.871736
 30
0.0
  0
VERTEX
  5
1E30
  8
LAYER01
  6
CONTINUOUS
 62
     7
 10
4868.650412
 20
-112.326179
 30
0.0
  0
VERTEX
  5
1E31
  8
LAYER01
  6
CONTINUOUS
 62
     7
 10
4875.7804130000013
 20
-108.36506799999999
 30
0.0
  0
VERTEX
  5
1E32
  8
LAYER01
  6
CONTINUOUS
 62
     7
 10
4883.702636
 20
-104.40395599999999
 30
0.0
  0
VERTEX
  5
1E33
  8
LAYER01
  6
CONTINUOUS
 62
     7
 10
4891.6248590000014
 20
-101.235067
 30
0.0
  0
VERTEX
  5
1E34
  8
LAYER01
  6
CONTINUOUS
 62
     7
 10
4900.3393050000004
 20
-98.858400000000003
 30
0.0
  0
VERTEX
  5
1E35
  8
LAYER01
  6
CONTINUOUS
 62
     7
 10
4909.8459729999986
 20
-98.066176999999996
 30
0.0
  0
VERTEX
  5
1E36
  8
LAYER01
  6
CONTINUOUS
 62
     7
 10
4918.560418
 20
-97.273955000000001
 30
0.0
  0
VERTEX
  5
1E37
  8
LAYER01
  6
CONTINUOUS
 62
     7
 10
4918.560418
 20
-97.273955000000001
 30
0.0
  0
VERTEX
  5
1E38
  8
LAYER01
  6
CONTINUOUS
 62
     7
 10
4932.82042
 20
-98.066176999999996
 30
0.0
  0
VERTEX
  5
1E39
  8
LAYER01
  6
CONTINUOUS
 62
     7
 10
4939.9504209999996
 20
-98.858400000000003
 30
0.0
  0
VERTEX
  5
1E3A
  8
LAYER01
  6
CONTINUOUS
 62
     7
 10
4946.2882
 20
-100.44284399999999
 30
0.0
  0
VERTEX
  5
1E3B
  8
LAYER01
  6
CONTINUOUS
 62
     7
 10
4951.833756
 20
-102.81951100000001
 30
0.0
  0
VERTEX
  5
1E3C
  8
LAYER01
  6
CONTINUOUS
 62
     7
 10
4958.1715350000004
 20
-105.196178
 30
0.0
  0
VERTEX
  5
1E3D
  8
LAYER01
  6
CONTINUOUS
 62
     7
 10
4964.5093129999996
 20
-109.15729
 30
0.0
  0
VERTEX
  5
1E3E
  8
LAYER01
  6
CONTINUOUS
 62
     7
 10
4970.847092
 20
-113.118402
 30
0.0
  0
VERTEX
  5
1E3F
  8
LAYER01
  6
CONTINUOUS
 62
     7
 10
4970.847092
 20
-113.118402
 30
0.0
  0
SEQEND
  5
1E40
  8
LAYER01
  6
CONTINUOUS
 62
     7
  0
POLYLINE
  5
320
  8
LAYER01
  6
CONTINUOUS
 62
     7
 66
     1
 10
0.0
 20
0.0
 30
0.0
 70
     1
  0
VERTEX
  5
1E41
  8
LAYER01
  6
CONTINUOUS
 62
     7
 10
5047.6926569999987
 20
-98.066176999999996
 30
0.0
  0
VERTEX
  5
1E42
  8
LAYER01
  6
CONTINUOUS
 62
     7
 10
5047.6926569999987
 20
-98.066176999999996
 30
0.0
  0
VERTEX
  5
1E43
  8
LAYER01
  6
CONTINUOUS
 62
     7
 10
5038.9782119999991
 20
-98.858400000000003
 30
0.0
  0
VERTEX
  5
1E44
  8
LAYER01
  6
CONTINUOUS
 62
     7
 10
5029.471544
 20
-99.650621999999998
 30
0.0
  0
VERTEX
  5
1E45
  8
LAYER01
  6
CONTINUOUS
 62
     7
 10
5021.5493210000013
 20
-102.027289
 30
0.0
  0
VERTEX
  5
1E46
  8
LAYER01
  6
CONTINUOUS
 62
     7
 10
5012.8348749999986
 20
-105.196178
 30
0.0
  0
VERTEX
  5
1E47
  8
LAYER01
  6
CONTINUOUS
 62
     7
 10
5004.912652
 20
-108.36506799999999
 30
0.0
  0
VERTEX
  5
1E48
  8
LAYER01
  6
CONTINUOUS
 62
     7
 10
4997.7826510000004
 20
-113.118402
 30
0.0
  0
VERTEX
  5
1E49
  8
LAYER01
  6
CONTINUOUS
 62
     7
 10
4990.65265
 20
-117.871736
 30
0.0
  0
VERTEX
  5
1E4A
  8
LAYER01
  6
CONTINUOUS
 62
     7
 10
4984.3148710000014
 20
-124.2095139999999
 30
0.0
  0
VERTEX
  5
1E4B
  8
LAYER01
  6
CONTINUOUS
 62
     7
 10
4978.7693149999996
 20
-130.547293
 30
0.0
  0
VERTEX
  5
1E4C
  8
LAYER01
  6
CONTINUOUS
 62
     7
 10
4973.2237590000004
 20
-136.88507100000001
 30
0.0
  0
VERTEX
  5
1E4D
  8
LAYER01
  6
CONTINUOUS
 62
     7
 10
4968.4704250000004
 20
-144.015072
 30
0.0
  0
VERTEX
  5
1E4E
  8
LAYER01
  6
CONTINUOUS
 62
     7
 10
4964.5093129999996
 20
-151.93729500000001
 30
0.0
  0
VERTEX
  5
1E4F
  8
LAYER01
  6
CONTINUOUS
 62
     7
 10
4962.132646
 20
-160.65174099999999
 30
0.0
  0
VERTEX
  5
1E50
  8
LAYER01
  6
CONTINUOUS
 62
     7
 10
4959.7559789999996
 20
-168.57396399999999
 30
0.0
  0
VERTEX
  5
1E51
  8
LAYER01
  6
CONTINUOUS
 62
     7
 10
4958.1715350000004
 20
-178.08063200000001
 30
0.0
  0
VERTEX
  5
1E52
  8
LAYER01
  6
CONTINUOUS
 62
     7
 10
4957.379312
 20
-186.79507799999999
 30
0.0
  0
VERTEX
  5
1E53
  8
LAYER01
  6
CONTINUOUS
 62
     7
 10
4957.379312
 20
-186.79507799999999
 30
0.0
  0
VERTEX
  5
1E54
  8
LAYER01
  6
CONTINUOUS
 62
     7
 10
4958.1715350000004
 20
-196.30174600000001
 30
0.0
  0
VERTEX
  5
1E55
  8
LAYER01
  6
CONTINUOUS
 62
     7
 10
4958.9637570000014
 20
-205.01619099999999
 30
0.0
  0
VERTEX
  5
1E56
  8
LAYER01
  6
CONTINUOUS
 62
     7
 10
4961.340424
 20
-213.730637
 30
0.0
  0
VERTEX
  5
1E57
  8
LAYER01
  6
CONTINUOUS
 62
     7
 10
4964.5093129999996
 20
-221.65286
 30
0.0
  0
VERTEX
  5
1E58
  8
LAYER01
  6
CONTINUOUS
 62
     7
 10
4967.6782030000013
 20
-229.57508300000001
 30
0.0
  0
VERTEX
  5
1E59
  8
LAYER01
  6
CONTINUOUS
 62
     7
 10
4972.4315370000004
 20
-236.705084
 30
0.0
  0
VERTEX
  5
1E5A
  8
LAYER01
  6
CONTINUOUS
 62
     7
 10
4977.1848710000013
 20
-243.83508499999999
 30
0.0
  0
VERTEX
  5
1E5B
  8
LAYER01
  6
CONTINUOUS
 62
     7
 10
4982.7304270000004
 20
-250.172864
 30
0.0
  0
VERTEX
  5
1E5C
  8
LAYER01
  6
CONTINUOUS
 62
     7
 10
4989.0682049999987
 20
-256.51064200000002
 30
0.0
  0
VERTEX
  5
1E5D
  8
LAYER01
  6
CONTINUOUS
 62
     7
 10
4996.198206
 20
-261.2639759999999
 30
0.0
  0
VERTEX
  5
1E5E
  8
LAYER01
  6
CONTINUOUS
 62
     7
 10
5003.3282069999996
 20
-266.01731000000001
 30
0.0
  0
VERTEX
  5
1E5F
  8
LAYER01
  6
CONTINUOUS
 62
     7
 10
5011.2504300000001
 20
-269.97842200000002
 30
0.0
  0
VERTEX
  5
1E60
  8
LAYER01
  6
CONTINUOUS
 62
     7
 10
5019.172654
 20
-273.147311
 30
0.0
  0
VERTEX
  5
1E61
  8
LAYER01
  6
CONTINUOUS
 62
     7
 10
5027.8870989999996
 20
-274.73175600000002
 30
0.0
  0
VERTEX
  5
1E62
  8
LAYER01
  6
CONTINUOUS
 62
     7
 10
5036.6015450000004
 20
-276.31619999999998
 30
0.0
  0
VERTEX
  5
1E63
  8
LAYER01
  6
CONTINUOUS
 62
     7
 10
5045.3159900000001
 20
-277.10842300000002
 30
0.0
  0
VERTEX
  5
1E64
  8
LAYER01
  6
CONTINUOUS
 62
     7
 10
5045.3159900000001
 20
-277.10842300000002
 30
0.0
  0
VERTEX
  5
1E65
  8
LAYER01
  6
CONTINUOUS
 62
     7
 10
5054.822658
 20
-276.31619999999998
 30
0.0
  0
VERTEX
  5
1E66
  8
LAYER01
  6
CONTINUOUS
 62
     7
 10
5063.537104
 20
-274.73175600000002
 30
0.0
  0
VERTEX
  5
1E67
  8
LAYER01
  6
CONTINUOUS
 62
     7
 10
5072.2515489999996
 20
-272.35508900000002
 30
0.0
  0
VERTEX
  5
1E68
  8
LAYER01
  6
CONTINUOUS
 62
     7
 10
5080.1737730000004
 20
-269.18619999999999
 30
0.0
  0
VERTEX
  5
1E69
  8
LAYER01
  6
CONTINUOUS
 62
     7
 10
5088.0959959999991
 20
-265.22508800000003
 30
0.0
  0
VERTEX
  5
1E6A
  8
LAYER01
  6
CONTINUOUS
 62
     7
 10
5095.2259969999996
 20
-260.47175399999998
 30
0.0
  0
VERTEX
  5
1E6B
  8
LAYER01
  6
CONTINUOUS
 62
     7
 10
5102.355998
 20
-255.71842000000001
 30
0.0
  0
VERTEX
  5
1E6C
  8
LAYER01
  6
CONTINUOUS
 62
     7
 10
5108.6937760000001
 20
-249.380641
 30
0.0
  0
VERTEX
  5
1E6D
  8
LAYER01
  6
CONTINUOUS
 62
     7
 10
5114.2393330000004
 20
-243.04286300000001
 30
0.0
  0
VERTEX
  5
1E6E
  8
LAYER01
  6
CONTINUOUS
 62
     7
 10
5118.9926670000004
 20
-235.91286199999999
 30
0.0
  0
VERTEX
  5
1E6F
  8
LAYER01
  6
CONTINUOUS
 62
     7
 10
5122.9537780000001
 20
-228.782861
 30
0.0
  0
VERTEX
  5
1E70
  8
LAYER01
  6
CONTINUOUS
 62
     7
 10
5126.9148900000009
 20
-220.86063799999999
 30
0.0
  0
VERTEX
  5
1E71
  8
LAYER01
  6
CONTINUOUS
 62
     7
 10
5130.0837789999987
 20
-212.14619200000001
 30
0.0
  0
VERTEX
  5
1E72
  8
LAYER01
  6
CONTINUOUS
 62
     7
 10
5131.668224
 20
-203.431747
 30
0.0
  0
VERTEX
  5
1E73
  8
LAYER01
  6
CONTINUOUS
 62
     7
 10
5132.460446
 20
-194.71730099999999
 30
0.0
  0
VERTEX
  5
1E74
  8
LAYER01
  6
CONTINUOUS
 62
     7
 10
5133.2526680000001
 20
-185.210633
 30
0.0
  0
VERTEX
  5
1E75
  8
LAYER01
  6
CONTINUOUS
 62
     7
 10
5133.2526680000001
 20
-185.210633
 30
0.0
  0
VERTEX
  5
1E76
  8
LAYER01
  6
CONTINUOUS
 62
     7
 10
5132.460446
 20
-176.49618799999999
 30
0.0
  0
VERTEX
  5
1E77
  8
LAYER01
  6
CONTINUOUS
 62
     7
 10
5130.876002
 20
-167.78174200000001
 30
0.0
  0
VERTEX
  5
1E78
  8
LAYER01
  6
CONTINUOUS
 62
     7
 10
5128.4993350000004
 20
-159.85951900000001
 30
0.0
  0
VERTEX
  5
1E79
  8
LAYER01
  6
CONTINUOUS
 62
     7
 10
5126.122668
 20
-151.93729500000001
 30
0.0
  0
VERTEX
  5
1E7A
  8
LAYER01
  6
CONTINUOUS
 62
     7
 10
5122.161556
 20
-144.80729500000001
 30
0.0
  0
VERTEX
  5
1E7B
  8
LAYER01
  6
CONTINUOUS
 62
     7
 10
5118.2004440000001
 20
-137.67729399999999
 30
0.0
  0
VERTEX
  5
1E7C
  8
LAYER01
  6
CONTINUOUS
 62
     7
 10
5113.4471100000001
 20
-130.547293
 30
0.0
  0
VERTEX
  5
1E7D
  8
LAYER01
  6
CONTINUOUS
 62
     7
 10
5107.901554
 20
-125.00173599999999
 30
0.0
  0
VERTEX
  5
1E7E
  8
LAYER01
  6
CONTINUOUS
 62
     7
 10
5101.5637749999987
 20
-119.45618
 30
0.0
  0
VERTEX
  5
1E7F
  8
LAYER01
  6
CONTINUOUS
 62
     7
 10
5095.2259969999996
 20
-113.910624
 30
0.0
  0
VERTEX
  5
1E80
  8
LAYER01
  6
CONTINUOUS
 62
     7
 10
5088.0959959999991
 20
-109.949512
 30
0.0
  0
VERTEX
  5
1E81
  8
LAYER01
  6
CONTINUOUS
 62
     7
 10
5080.9659949999996
 20
-105.988401
 30
0.0
  0
VERTEX
  5
1E82
  8
LAYER01
  6
CONTINUOUS
 62
     7
 10
5073.043772
 20
-102.81951100000001
 30
0.0
  0
VERTEX
  5
1E83
  8
LAYER01
  6
CONTINUOUS
 62
     7
 10
5065.1215490000004
 20
-100.44284399999999
 30
0.0
  0
VERTEX
  5
1E84
  8
LAYER01
  6
CONTINUOUS
 62
     7
 10
5056.4071030000014
 20
-98.858400000000003
 30
0.0
  0
VERTEX
  5
1E85
  8
LAYER01
  6
CONTINUOUS
 62
     7
 10
5047.6926569999987
 20
-98.066176999999996
 30
0.0
  0
VERTEX
  5
1E86
  8
LAYER01
  6
CONTINUOUS
 62
     7
 10
5047.6926569999987
 20
-98.066176999999996
 30
0.0
  0
SEQEND
  5
1E87
  8
LAYER01
  6
CONTINUOUS
 62
     7
  0
POLYLINE
  5
368
  8
LAYER01
  6
CONTINUOUS
 62
     7
 66
     1
 10
0.0
 20
0.0
 30
0.0
 70
     1
  0
VERTEX
  5
1E88
  8
LAYER01
  6
CONTINUOUS
 62
     7
 10
5045.3159900000001
 20
-244.627307
 30
0.0
  0
VERTEX
  5
1E89
  8
LAYER01
  6
CONTINUOUS
 62
     7
 10
5045.3159900000001
 20
-244.627307
 30
0.0
  0
VERTEX
  5
1E8A
  8
LAYER01
  6
CONTINUOUS
 62
     7
 10
5039.7704340000009
 20
-243.83508499999999
 30
0.0
  0
VERTEX
  5
1E8B
  8
LAYER01
  6
CONTINUOUS
 62
     7
 10
5034.2248779999991
 20
-243.04286300000001
 30
0.0
  0
VERTEX
  5
1E8C
  8
LAYER01
  6
CONTINUOUS
 62
     7
 10
5028.679322
 20
-242.25064
 30
0.0
  0
VERTEX
  5
1E8D
  8
LAYER01
  6
CONTINUOUS
 62
     7
 10
5023.1337649999996
 20
-239.873974
 30
0.0
  0
VERTEX
  5
1E8E
  8
LAYER01
  6
CONTINUOUS
 62
     7
 10
5018.3804309999996
 20
-237.49730700000001
 30
0.0
  0
VERTEX
  5
1E8F
  8
LAYER01
  6
CONTINUOUS
 62
     7
 10
5013.6270969999996
 20
-234.328417
 30
0.0
  0
VERTEX
  5
1E90
  8
LAYER01
  6
CONTINUOUS
 62
     7
 10
5009.665986
 20
-231.15952799999999
 30
0.0
  0
VERTEX
  5
1E91
  8
LAYER01
  6
CONTINUOUS
 62
     7
 10
5005.704874
 20
-227.19841600000001
 30
0.0
  0
VERTEX
  5
1E92
  8
LAYER01
  6
CONTINUOUS
 62
     7
 10
5001.7437630000004
 20
-223.23730499999999
 30
0.0
  0
VERTEX
  5
1E93
  8
LAYER01
  6
CONTINUOUS
 62
     7
 10
4998.5748729999987
 20
-219.27619300000001
 30
0.0
  0
VERTEX
  5
1E94
  8
LAYER01
  6
CONTINUOUS
 62
     7
 10
4996.198206
 20
-214.52285900000001
 30
0.0
  0
VERTEX
  5
1E95
  8
LAYER01
  6
CONTINUOUS
 62
     7
 10
4993.8215389999996
 20
-208.97730300000001
 30
0.0
  0
VERTEX
  5
1E96
  8
LAYER01
  6
CONTINUOUS
 62
     7
 10
4991.444872
 20
-204.22396900000001
 30
0.0
  0
VERTEX
  5
1E97
  8
LAYER01
  6
CONTINUOUS
 62
     7
 10
4990.65265
 20
-198.67841300000001
 30
0.0
  0
VERTEX
  5
1E98
  8
LAYER01
  6
CONTINUOUS
 62
     7
 10
4989.0682049999987
 20
-193.132856
 30
0.0
  0
VERTEX
  5
1E99
  8
LAYER01
  6
CONTINUOUS
 62
     7
 10
4989.0682049999987
 20
-186.79507799999999
 30
0.0
  0
VERTEX
  5
1E9A
  8
LAYER01
  6
CONTINUOUS
 62
     7
 10
4989.0682049999987
 20
-186.79507799999999
 30
0.0
  0
VERTEX
  5
1E9B
  8
LAYER01
  6
CONTINUOUS
 62
     7
 10
4989.860428
 20
-181.2495209999999
 30
0.0
  0
VERTEX
  5
1E9C
  8
LAYER01
  6
CONTINUOUS
 62
     7
 10
4990.65265
 20
-175.70396500000001
 30
0.0
  0
VERTEX
  5
1E9D
  8
LAYER01
  6
CONTINUOUS
 62
     7
 10
4992.2370950000013
 20
-170.15840900000001
 30
0.0
  0
VERTEX
  5
1E9E
  8
LAYER01
  6
CONTINUOUS
 62
     7
 10
4993.8215389999996
 20
-164.612853
 30
0.0
  0
VERTEX
  5
1E9F
  8
LAYER01
  6
CONTINUOUS
 62
     7
 10
4996.198206
 20
-159.85951900000001
 30
0.0
  0
VERTEX
  5
1EA0
  8
LAYER01
  6
CONTINUOUS
 62
     7
 10
4999.3670959999999
 20
-155.10618500000001
 30
0.0
  0
VERTEX
  5
1EA1
  8
LAYER01
  6
CONTINUOUS
 62
     7
 10
5002.5359850000013
 20
-151.145073
 30
0.0
  0
VERTEX
  5
1EA2
  8
LAYER01
  6
CONTINUOUS
 62
     7
 10
5006.4970970000004
 20
-147.18396200000001
 30
0.0
  0
VERTEX
  5
1EA3
  8
LAYER01
  6
CONTINUOUS
 62
     7
 10
5010.458208
 20
-143.22284999999999
 30
0.0
  0
VERTEX
  5
1EA4
  8
LAYER01
  6
CONTINUOUS
 62
     7
 10
5014.41932
 20
-140.05396099999999
 30
0.0
  0
VERTEX
  5
1EA5
  8
LAYER01
  6
CONTINUOUS
 62
     7
 10
5019.172654
 20
-136.88507100000001
 30
0.0
  0
VERTEX
  5
1EA6
  8
LAYER01
  6
CONTINUOUS
 62
     7
 10
5024.71821
 20
-134.50840400000001
 30
0.0
  0
VERTEX
  5
1EA7
  8
LAYER01
  6
CONTINUOUS
 62
     7
 10
5029.471544
 20
-132.92395999999999
 30
0.0
  0
VERTEX
  5
1EA8
  8
LAYER01
  6
CONTINUOUS
 62
     7
 10
5035.0171000000009
 20
-131.33951500000001
 30
0.0
  0
VERTEX
  5
1EA9
  8
LAYER01
  6
CONTINUOUS
 62
     7
 10
5040.5626560000001
 20
-130.547293
 30
0.0
  0
VERTEX
  5
1EAA
  8
LAYER01
  6
CONTINUOUS
 62
     7
 10
5046.9004350000014
 20
-130.547293
 30
0.0
  0
VERTEX
  5
1EAB
  8
LAYER01
  6
CONTINUOUS
 62
     7
 10
5046.9004350000014
 20
-130.547293
 30
0.0
  0
VERTEX
  5
1EAC
  8
LAYER01
  6
CONTINUOUS
 62
     7
 10
5052.4459909999987
 20
-131.33951500000001
 30
0.0
  0
VERTEX
  5
1EAD
  8
LAYER01
  6
CONTINUOUS
 62
     7
 10
5057.991548
 20
-132.13173699999999
 30
0.0
  0
VERTEX
  5
1EAE
  8
LAYER01
  6
CONTINUOUS
 62
     7
 10
5062.744882
 20
-133.716182
 30
0.0
  0
VERTEX
  5
1EAF
  8
LAYER01
  6
CONTINUOUS
 62
     7
 10
5068.290438
 20
-135.30062699999999
 30
0.0
  0
VERTEX
  5
1EB0
  8
LAYER01
  6
CONTINUOUS
 62
     7
 10
5072.2515489999996
 20
-137.67729399999999
 30
0.0
  0
VERTEX
  5
1EB1
  8
LAYER01
  6
CONTINUOUS
 62
     7
 10
5077.0048829999996
 20
-140.846183
 30
0.0
  0
VERTEX
  5
1EB2
  8
LAYER01
  6
CONTINUOUS
 62
     7
 10
5080.9659949999996
 20
-144.015072
 30
0.0
  0
VERTEX
  5
1EB3
  8
LAYER01
  6
CONTINUOUS
 62
     7
 10
5084.9271070000013
 20
-147.18396200000001
 30
0.0
  0
VERTEX
  5
1EB4
  8
LAYER01
  6
CONTINUOUS
 62
     7
 10
5088.0959959999991
 20
-151.145073
 30
0.0
  0
VERTEX
  5
1EB5
  8
LAYER01
  6
CONTINUOUS
 62
     7
 10
5091.2648850000014
 20
-155.89840699999999
 30
0.0
  0
VERTEX
  5
1EB6
  8
LAYER01
  6
CONTINUOUS
 62
     7
 10
5094.4337750000004
 20
-159.85951900000001
 30
0.0
  0
VERTEX
  5
1EB7
  8
LAYER01
  6
CONTINUOUS
 62
     7
 10
5096.810442
 20
-164.612853
 30
0.0
  0
VERTEX
  5
1EB8
  8
LAYER01
  6
CONTINUOUS
 62
     7
 10
5098.394886
 20
-170.15840900000001
 30
0.0
  0
VERTEX
  5
1EB9
  8
LAYER01
  6
CONTINUOUS
 62
     7
 10
5099.9793310000014
 20
-174.911743
 30
0.0
  0
VERTEX
  5
1EBA
  8
LAYER01
  6
CONTINUOUS
 62
     7
 10
5100.7715530000014
 20
-180.45729900000001
 30
0.0
  0
VERTEX
  5
1EBB
  8
LAYER01
  6
CONTINUOUS
 62
     7
 10
5100.7715530000014
 20
-186.00285500000001
 30
0.0
  0
VERTEX
  5
1EBC
  8
LAYER01
  6
CONTINUOUS
 62
     7
 10
5100.7715530000014
 20
-186.00285500000001
 30
0.0
  0
VERTEX
  5
1EBD
  8
LAYER01
  6
CONTINUOUS
 62
     7
 10
5100.7715530000014
 20
-192.34063399999999
 30
0.0
  0
VERTEX
  5
1EBE
  8
LAYER01
  6
CONTINUOUS
 62
     7
 10
5099.9793310000014
 20
-197.88619
 30
0.0
  0
VERTEX
  5
1EBF
  8
LAYER01
  6
CONTINUOUS
 62
     7
 10
5099.1871090000004
 20
-203.431747
 30
0.0
  0
VERTEX
  5
1EC0
  8
LAYER01
  6
CONTINUOUS
 62
     7
 10
5096.810442
 20
-208.185081
 30
0.0
  0
VERTEX
  5
1EC1
  8
LAYER01
  6
CONTINUOUS
 62
     7
 10
5095.2259969999996
 20
-213.730637
 30
0.0
  0
VERTEX
  5
1EC2
  8
LAYER01
  6
CONTINUOUS
 62
     7
 10
5092.057108
 20
-218.483971
 30
0.0
  0
VERTEX
  5
1EC3
  8
LAYER01
  6
CONTINUOUS
 62
     7
 10
5088.888218000001
 20
-223.23730499999999
 30
0.0
  0
VERTEX
  5
1EC4
  8
LAYER01
  6
CONTINUOUS
 62
     7
 10
5084.9271070000013
 20
-227.19841600000001
 30
0.0
  0
VERTEX
  5
1EC5
  8
LAYER01
  6
CONTINUOUS
 62
     7
 10
5080.9659949999996
 20
-231.15952799999999
 30
0.0
  0
VERTEX
  5
1EC6
  8
LAYER01
  6
CONTINUOUS
 62
     7
 10
5077.0048829999996
 20
-234.328417
 30
0.0
  0
VERTEX
  5
1EC7
  8
LAYER01
  6
CONTINUOUS
 62
     7
 10
5072.2515489999996
 20
-237.49730700000001
 30
0.0
  0
VERTEX
  5
1EC8
  8
LAYER01
  6
CONTINUOUS
 62
     7
 10
5067.498216
 20
-239.873974
 30
0.0
  0
VERTEX
  5
1EC9
  8
LAYER01
  6
CONTINUOUS
 62
     7
 10
5061.9526590000014
 20
-241.45841799999999
 30
0.0
  0
VERTEX
  5
1ECA
  8
LAYER01
  6
CONTINUOUS
 62
     7
 10
5056.4071030000014
 20
-243.04286300000001
 30
0.0
  0
VERTEX
  5
1ECB
  8
LAYER01
  6
CONTINUOUS
 62
     7
 10
5050.8615470000004
 20
-243.83508499999999
 30
0.0
  0
VERTEX
  5
1ECC
  8
LAYER01
  6
CONTINUOUS
 62
     7
 10
5045.3159900000001
 20
-244.627307
 30
0.0
  0
VERTEX
  5
1ECD
  8
LAYER01
  6
CONTINUOUS
 62
     7
 10
5045.3159900000001
 20
-244.627307
 30
0.0
  0
SEQEND
  5
1ECE
  8
LAYER01
  6
CONTINUOUS
 62
     7
  0
POLYLINE
  5
3B0
  8
LAYER01
  6
CONTINUOUS
 62
     7
 66
     1
 10
0.0
 20
0.0
 30
0.0
 70
     1
  0
VERTEX
  5
1ECF
  8
LAYER01
  6
CONTINUOUS
 62
     7
 10
5108.6937760000001
 20
-102.027289
 30
0.0
  0
VERTEX
  5
1ED0
  8
LAYER01
  6
CONTINUOUS
 62
     7
 10
5192.6693429999996
 20
-102.027289
 30
0.0
  0
VERTEX
  5
1ED1
  8
LAYER01
  6
CONTINUOUS
 62
     7
 10
5192.6693429999996
 20
-102.027289
 30
0.0
  0
VERTEX
  5
1ED2
  8
LAYER01
  6
CONTINUOUS
 62
     7
 10
5202.1760109999987
 20
-103.611734
 30
0.0
  0
VERTEX
  5
1ED3
  8
LAYER01
  6
CONTINUOUS
 62
     7
 10
5210.8904560000001
 20
-107.572845
 30
0.0
  0
VERTEX
  5
1ED4
  8
LAYER01
  6
CONTINUOUS
 62
     7
 10
5218.0204569999996
 20
-112.326179
 30
0.0
  0
VERTEX
  5
1ED5
  8
LAYER01
  6
CONTINUOUS
 62
     7
 10
5224.358236
 20
-118.66395799999999
 30
0.0
  0
VERTEX
  5
1ED6
  8
LAYER01
  6
CONTINUOUS
 62
     7
 10
5229.9037920000001
 20
-125.00173599999999
 30
0.0
  0
VERTEX
  5
1ED7
  8
LAYER01
  6
CONTINUOUS
 62
     7
 10
5233.864904
 20
-132.92395999999999
 30
0.0
  0
VERTEX
  5
1ED8
  8
LAYER01
  6
CONTINUOUS
 62
     7
 10
5236.2415709999996
 20
-142.43062800000001
 30
0.0
  0
VERTEX
  5
1ED9
  8
LAYER01
  6
CONTINUOUS
 62
     7
 10
5237.0337929999996
 20
-151.145073
 30
0.0
  0
VERTEX
  5
1EDA
  8
LAYER01
  6
CONTINUOUS
 62
     7
 10
5237.0337929999996
 20
-151.145073
 30
0.0
  0
VERTEX
  5
1EDB
  8
LAYER01
  6
CONTINUOUS
 62
     7
 10
5236.2415709999996
 20
-160.65174099999999
 30
0.0
  0
VERTEX
  5
1EDC
  8
LAYER01
  6
CONTINUOUS
 62
     7
 10
5234.6571260000001
 20
-168.57396399999999
 30
0.0
  0
VERTEX
  5
1EDD
  8
LAYER01
  6
CONTINUOUS
 62
     7
 10
5231.4882369999996
 20
-176.49618799999999
 30
0.0
  0
VERTEX
  5
1EDE
  8
LAYER01
  6
CONTINUOUS
 62
     7
 10
5227.5271249999987
 20
-183.62618800000001
 30
0.0
  0
VERTEX
  5
1EDF
  8
LAYER01
  6
CONTINUOUS
 62
     7
 10
5221.9815689999996
 20
-189.963967
 30
0.0
  0
VERTEX
  5
1EE0
  8
LAYER01
  6
CONTINUOUS
 62
     7
 10
5216.4360129999995
 20
-194.71730099999999
 30
0.0
  0
VERTEX
  5
1EE1
  8
LAYER01
  6
CONTINUOUS
 62
     7
 10
5208.5137889999996
 20
-199.47063499999999
 30
0.0
  0
VERTEX
  5
1EE2
  8
LAYER01
  6
CONTINUOUS
 62
     7
 10
5200.5915659999991
 20
-202.63952399999999
 30
0.0
  0
VERTEX
  5
1EE3
  8
LAYER01
  6
CONTINUOUS
 62
     7
 10
5252.0860169999996
 20
-271.5628660000001
 30
0.0
  0
VERTEX
  5
1EE4
  8
LAYER01
  6
CONTINUOUS
 62
     7
 10
5212.4749009999996
 20
-271.5628660000001
 30
0.0
  0
VERTEX
  5
1EE5
  8
LAYER01
  6
CONTINUOUS
 62
     7
 10
5143.5515590000014
 20
-183.62618800000001
 30
0.0
  0
VERTEX
  5
1EE6
  8
LAYER01
  6
CONTINUOUS
 62
     7
 10
5182.3704530000005
 20
-183.62618800000001
 30
0.0
  0
VERTEX
  5
1EE7
  8
LAYER01
  6
CONTINUOUS
 62
     7
 10
5182.3704530000005
 20
-183.62618800000001
 30
0.0
  0
VERTEX
  5
1EE8
  8
LAYER01
  6
CONTINUOUS
 62
     7
 10
5187.1237869999986
 20
-182.04174399999999
 30
0.0
  0
VERTEX
  5
1EE9
  8
LAYER01
  6
CONTINUOUS
 62
     7
 10
5191.0848980000001
 20
-180.45729900000001
 30
0.0
  0
VERTEX
  5
1EEA
  8
LAYER01
  6
CONTINUOUS
 62
     7
 10
5194.2537869999996
 20
-177.28841
 30
0.0
  0
VERTEX
  5
1EEB
  8
LAYER01
  6
CONTINUOUS
 62
     7
 10
5197.4226770000014
 20
-174.11952099999999
 30
0.0
  0
VERTEX
  5
1EEC
  8
LAYER01
  6
CONTINUOUS
 62
     7
 10
5199.799344
 20
-170.15840900000001
 30
0.0
  0
VERTEX
  5
1EED
  8
LAYER01
  6
CONTINUOUS
 62
     7
 10
5202.1760109999987
 20
-166.19729699999999
 30
0.0
  0
VERTEX
  5
1EEE
  8
LAYER01
  6
CONTINUOUS
 62
     7
 10
5202.9682329999987
 20
-161.443963
 30
0.0
  0
VERTEX
  5
1EEF
  8
LAYER01
  6
CONTINUOUS
 62
     7
 10
5202.9682329999987
 20
-156.690629
 30
0.0
  0
VERTEX
  5
1EF0
  8
LAYER01
  6
CONTINUOUS
 62
     7
 10
5202.9682329999987
 20
-156.690629
 30
0.0
  0
VERTEX
  5
1EF1
  8
LAYER01
  6
CONTINUOUS
 62
     7
 10
5202.9682329999987
 20
-151.93729500000001
 30
0.0
  0
VERTEX
  5
1EF2
  8
LAYER01
  6
CONTINUOUS
 62
     7
 10
5201.383788000001
 20
-147.97618399999999
 30
0.0
  0
VERTEX
  5
1EF3
  8
LAYER01
  6
CONTINUOUS
 62
     7
 10
5199.799344
 20
-144.015072
 30
0.0
  0
VERTEX
  5
1EF4
  8
LAYER01
  6
CONTINUOUS
 62
     7
 10
5197.4226770000014
 20
-140.05396099999999
 30
0.0
  0
VERTEX
  5
1EF5
  8
LAYER01
  6
CONTINUOUS
 62
     7
 10
5194.2537869999996
 20
-136.88507100000001
 30
0.0
  0
VERTEX
  5
1EF6
  8
LAYER01
  6
CONTINUOUS
 62
     7
 10
5191.0848980000001
 20
-134.50840400000001
 30
0.0
  0
VERTEX
  5
1EF7
  8
LAYER01
  6
CONTINUOUS
 62
     7
 10
5186.3315640000001
 20
-132.13173699999999
 30
0.0
  0
VERTEX
  5
1EF8
  8
LAYER01
  6
CONTINUOUS
 62
     7
 10
5182.3704530000005
 20
-130.547293
 30
0.0
  0
VERTEX
  5
1EF9
  8
LAYER01
  6
CONTINUOUS
 62
     7
 10
5137.21378
 20
-130.547293
 30
0.0
  0
VERTEX
  5
1EFA
  8
LAYER01
  6
CONTINUOUS
 62
     7
 10
5108.6937760000001
 20
-102.027289
 30
0.0
  0
VERTEX
  5
1EFB
  8
LAYER01
  6
CONTINUOUS
 62
     7
 10
5108.6937760000001
 20
-102.027289
 30
0.0
  0
SEQEND
  5
1EFC
  8
LAYER01
  6
CONTINUOUS
 62
     7
  0
POLYLINE
  5
3DF
  8
LAYER01
  6
CONTINUOUS
 62
     7
 66
     1
 10
0.0
 20
0.0
 30
0.0
 70
     1
  0
VERTEX
  5
1EFD
  8
LAYER01
  6
CONTINUOUS
 62
     7
 10
5273.4760200000001
 20
-144.015072
 30
0.0
  0
VERTEX
  5
1EFE
  8
LAYER01
  6
CONTINUOUS
 62
     7
 10
5273.4760200000001
 20
-144.015072
 30
0.0
  0
VERTEX
  5
1EFF
  8
LAYER01
  6
CONTINUOUS
 62
     7
 10
5277.437132
 20
-143.22284999999999
 30
0.0
  0
VERTEX
  5
1F00
  8
LAYER01
  6
CONTINUOUS
 62
     7
 10
5281.3982429999987
 20
-142.43062800000001
 30
0.0
  0
VERTEX
  5
1F01
  8
LAYER01
  6
CONTINUOUS
 62
     7
 10
5285.3593549999996
 20
-140.05396099999999
 30
0.0
  0
VERTEX
  5
1F02
  8
LAYER01
  6
CONTINUOUS
 62
     7
 10
5288.5282440000001
 20
-137.67729399999999
 30
0.0
  0
VERTEX
  5
1F03
  8
LAYER01
  6
CONTINUOUS
 62
     7
 10
5290.9049109999996
 20
-134.50840400000001
 30
0.0
  0
VERTEX
  5
1F04
  8
LAYER01
  6
CONTINUOUS
 62
     7
 10
5292.489356
 20
-131.33951500000001
 30
0.0
  0
VERTEX
  5
1F05
  8
LAYER01
  6
CONTINUOUS
 62
     7
 10
5294.0738000000001
 20
-127.37840300000001
 30
0.0
  0
VERTEX
  5
1F06
  8
LAYER01
  6
CONTINUOUS
 62
     7
 10
5294.0738000000001
 20
-122.625069
 30
0.0
  0
VERTEX
  5
1F07
  8
LAYER01
  6
CONTINUOUS
 62
     7
 10
5294.0738000000001
 20
-122.625069
 30
0.0
  0
VERTEX
  5
1F08
  8
LAYER01
  6
CONTINUOUS
 62
     7
 10
5294.0738000000001
 20
-118.66395799999999
 30
0.0
  0
VERTEX
  5
1F09
  8
LAYER01
  6
CONTINUOUS
 62
     7
 10
5292.489356
 20
-114.70284599999999
 30
0.0
  0
VERTEX
  5
1F0A
  8
LAYER01
  6
CONTINUOUS
 62
     7
 10
5290.9049109999996
 20
-111.533957
 30
0.0
  0
VERTEX
  5
1F0B
  8
LAYER01
  6
CONTINUOUS
 62
     7
 10
5288.5282440000001
 20
-108.36506799999999
 30
0.0
  0
VERTEX
  5
1F0C
  8
LAYER01
  6
CONTINUOUS
 62
     7
 10
5285.3593549999996
 20
-105.988401
 30
0.0
  0
VERTEX
  5
1F0D
  8
LAYER01
  6
CONTINUOUS
 62
     7
 10
5281.3982429999987
 20
-103.611734
 30
0.0
  0
VERTEX
  5
1F0E
  8
LAYER01
  6
CONTINUOUS
 62
     7
 10
5277.437132
 20
-102.81951100000001
 30
0.0
  0
VERTEX
  5
1F0F
  8
LAYER01
  6
CONTINUOUS
 62
     7
 10
5273.4760200000001
 20
-102.027289
 30
0.0
  0
VERTEX
  5
1F10
  8
LAYER01
  6
CONTINUOUS
 62
     7
 10
5273.4760200000001
 20
-102.027289
 30
0.0
  0
VERTEX
  5
1F11
  8
LAYER01
  6
CONTINUOUS
 62
     7
 10
5269.5149080000001
 20
-102.81951100000001
 30
0.0
  0
VERTEX
  5
1F12
  8
LAYER01
  6
CONTINUOUS
 62
     7
 10
5265.5537969999987
 20
-103.611734
 30
0.0
  0
VERTEX
  5
1F13
  8
LAYER01
  6
CONTINUOUS
 62
     7
 10
5261.5926849999996
 20
-105.988401
 30
0.0
  0
VERTEX
  5
1F14
  8
LAYER01
  6
CONTINUOUS
 62
     7
 10
5258.423796
 20
-108.36506799999999
 30
0.0
  0
VERTEX
  5
1F15
  8
LAYER01
  6
CONTINUOUS
 62
     7
 10
5256.0471289999987
 20
-111.533957
 30
0.0
  0
VERTEX
  5
1F16
  8
LAYER01
  6
CONTINUOUS
 62
     7
 10
5254.4626839999992
 20
-114.70284599999999
 30
0.0
  0
VERTEX
  5
1F17
  8
LAYER01
  6
CONTINUOUS
 62
     7
 10
5252.8782400000009
 20
-118.66395799999999
 30
0.0
  0
VERTEX
  5
1F18
  8
LAYER01
  6
CONTINUOUS
 62
     7
 10
5252.8782400000009
 20
-122.625069
 30
0.0
  0
VERTEX
  5
1F19
  8
LAYER01
  6
CONTINUOUS
 62
     7
 10
5252.8782400000009
 20
-122.625069
 30
0.0
  0
VERTEX
  5
1F1A
  8
LAYER01
  6
CONTINUOUS
 62
     7
 10
5252.8782400000009
 20
-127.37840300000001
 30
0.0
  0
VERTEX
  5
1F1B
  8
LAYER01
  6
CONTINUOUS
 62
     7
 10
5254.4626839999992
 20
-131.33951500000001
 30
0.0
  0
VERTEX
  5
1F1C
  8
LAYER01
  6
CONTINUOUS
 62
     7
 10
5256.0471289999987
 20
-134.50840400000001
 30
0.0
  0
VERTEX
  5
1F1D
  8
LAYER01
  6
CONTINUOUS
 62
     7
 10
5258.423796
 20
-137.67729399999999
 30
0.0
  0
VERTEX
  5
1F1E
  8
LAYER01
  6
CONTINUOUS
 62
     7
 10
5261.5926849999996
 20
-140.05396099999999
 30
0.0
  0
VERTEX
  5
1F1F
  8
LAYER01
  6
CONTINUOUS
 62
     7
 10
5265.5537969999987
 20
-142.43062800000001
 30
0.0
  0
VERTEX
  5
1F20
  8
LAYER01
  6
CONTINUOUS
 62
     7
 10
5269.5149080000001
 20
-143.22284999999999
 30
0.0
  0
VERTEX
  5
1F21
  8
LAYER01
  6
CONTINUOUS
 62
     7
 10
5273.4760200000001
 20
-144.015072
 30
0.0
  0
VERTEX
  5
1F22
  8
LAYER01
  6
CONTINUOUS
 62
     7
 10
5273.4760200000001
 20
-144.015072
 30
0.0
  0
SEQEND
  5
1F23
  8
LAYER01
  6
CONTINUOUS
 62
     7
  0
POLYLINE
  5
407
  8
LAYER01
  6
CONTINUOUS
 62
     7
 66
     1
 10
0.0
 20
0.0
 30
0.0
 70
     1
  0
VERTEX
  5
1F24
  8
LAYER01
  6
CONTINUOUS
 62
     7
 10
5273.4760200000001
 20
-105.196178
 30
0.0
  0
VERTEX
  5
1F25
  8
LAYER01
  6
CONTINUOUS
 62
     7
 10
5273.4760200000001
 20
-105.196178
 30
0.0
  0
VERTEX
  5
1F26
  8
LAYER01
  6
CONTINUOUS
 62
     7
 10
5276.6449090000006
 20
-105.988401
 30
0.0
  0
VERTEX
  5
1F27
  8
LAYER01
  6
CONTINUOUS
 62
     7
 10
5279.8137990000014
 20
-106.78062300000001
 30
0.0
  0
VERTEX
  5
1F28
  8
LAYER01
  6
CONTINUOUS
 62
     7
 10
5282.9826880000001
 20
-108.36506799999999
 30
0.0
  0
VERTEX
  5
1F29
  8
LAYER01
  6
CONTINUOUS
 62
     7
 10
5285.3593549999996
 20
-110.74173500000001
 30
0.0
  0
VERTEX
  5
1F2A
  8
LAYER01
  6
CONTINUOUS
 62
     7
 10
5287.736022
 20
-113.118402
 30
0.0
  0
VERTEX
  5
1F2B
  8
LAYER01
  6
CONTINUOUS
 62
     7
 10
5289.3204659999992
 20
-116.287291
 30
0.0
  0
VERTEX
  5
1F2C
  8
LAYER01
  6
CONTINUOUS
 62
     7
 10
5290.9049109999996
 20
-119.45618
 30
0.0
  0
VERTEX
  5
1F2D
  8
LAYER01
  6
CONTINUOUS
 62
     7
 10
5290.9049109999996
 20
-122.625069
 30
0.0
  0
VERTEX
  5
1F2E
  8
LAYER01
  6
CONTINUOUS
 62
     7
 10
5290.9049109999996
 20
-122.625069
 30
0.0
  0
VERTEX
  5
1F2F
  8
LAYER01
  6
CONTINUOUS
 62
     7
 10
5290.9049109999996
 20
-126.586181
 30
0.0
  0
VERTEX
  5
1F30
  8
LAYER01
  6
CONTINUOUS
 62
     7
 10
5289.3204659999992
 20
-129.75506999999999
 30
0.0
  0
VERTEX
  5
1F31
  8
LAYER01
  6
CONTINUOUS
 62
     7
 10
5287.736022
 20
-132.92395999999999
 30
0.0
  0
VERTEX
  5
1F32
  8
LAYER01
  6
CONTINUOUS
 62
     7
 10
5285.3593549999996
 20
-135.30062699999999
 30
0.0
  0
VERTEX
  5
1F33
  8
LAYER01
  6
CONTINUOUS
 62
     7
 10
5282.9826880000001
 20
-137.67729399999999
 30
0.0
  0
VERTEX
  5
1F34
  8
LAYER01
  6
CONTINUOUS
 62
     7
 10
5279.8137990000014
 20
-139.26173800000001
 30
0.0
  0
VERTEX
  5
1F35
  8
LAYER01
  6
CONTINUOUS
 62
     7
 10
5276.6449090000006
 20
-140.05396099999999
 30
0.0
  0
VERTEX
  5
1F36
  8
LAYER01
  6
CONTINUOUS
 62
     7
 10
5273.4760200000001
 20
-140.05396099999999
 30
0.0
  0
VERTEX
  5
1F37
  8
LAYER01
  6
CONTINUOUS
 62
     7
 10
5273.4760200000001
 20
-140.05396099999999
 30
0.0
  0
VERTEX
  5
1F38
  8
LAYER01
  6
CONTINUOUS
 62
     7
 10
5270.3071309999996
 20
-140.05396099999999
 30
0.0
  0
VERTEX
  5
1F39
  8
LAYER01
  6
CONTINUOUS
 62
     7
 10
5266.3460189999996
 20
-139.26173800000001
 30
0.0
  0
VERTEX
  5
1F3A
  8
LAYER01
  6
CONTINUOUS
 62
     7
 10
5263.9693520000001
 20
-137.67729399999999
 30
0.0
  0
VERTEX
  5
1F3B
  8
LAYER01
  6
CONTINUOUS
 62
     7
 10
5260.8004629999996
 20
-135.30062699999999
 30
0.0
  0
VERTEX
  5
1F3C
  8
LAYER01
  6
CONTINUOUS
 62
     7
 10
5259.2160180000001
 20
-132.92395999999999
 30
0.0
  0
VERTEX
  5
1F3D
  8
LAYER01
  6
CONTINUOUS
 62
     7
 10
5257.6315729999997
 20
-129.75506999999999
 30
0.0
  0
VERTEX
  5
1F3E
  8
LAYER01
  6
CONTINUOUS
 62
     7
 10
5256.0471289999987
 20
-126.586181
 30
0.0
  0
VERTEX
  5
1F3F
  8
LAYER01
  6
CONTINUOUS
 62
     7
 10
5256.0471289999987
 20
-122.625069
 30
0.0
  0
VERTEX
  5
1F40
  8
LAYER01
  6
CONTINUOUS
 62
     7
 10
5256.0471289999987
 20
-122.625069
 30
0.0
  0
VERTEX
  5
1F41
  8
LAYER01
  6
CONTINUOUS
 62
     7
 10
5256.0471289999987
 20
-119.45618
 30
0.0
  0
VERTEX
  5
1F42
  8
LAYER01
  6
CONTINUOUS
 62
     7
 10
5257.6315729999997
 20
-116.287291
 30
0.0
  0
VERTEX
  5
1F43
  8
LAYER01
  6
CONTINUOUS
 62
     7
 10
5259.2160180000001
 20
-113.118402
 30
0.0
  0
VERTEX
  5
1F44
  8
LAYER01
  6
CONTINUOUS
 62
     7
 10
5260.8004629999996
 20
-110.74173500000001
 30
0.0
  0
VERTEX
  5
1F45
  8
LAYER01
  6
CONTINUOUS
 62
     7
 10
5263.9693520000001
 20
-108.36506799999999
 30
0.0
  0
VERTEX
  5
1F46
  8
LAYER01
  6
CONTINUOUS
 62
     7
 10
5266.3460189999996
 20
-106.78062300000001
 30
0.0
  0
VERTEX
  5
1F47
  8
LAYER01
  6
CONTINUOUS
 62
     7
 10
5270.3071309999996
 20
-105.988401
 30
0.0
  0
VERTEX
  5
1F48
  8
LAYER01
  6
CONTINUOUS
 62
     7
 10
5273.4760200000001
 20
-105.196178
 30
0.0
  0
VERTEX
  5
1F49
  8
LAYER01
  6
CONTINUOUS
 62
     7
 10
5273.4760200000001
 20
-105.196178
 30
0.0
  0
SEQEND
  5
1F4A
  8
LAYER01
  6
CONTINUOUS
 62
     7
  0
POLYLINE
  5
42F
  8
LAYER01
  6
CONTINUOUS
 62
     7
 66
     1
 10
0.0
 20
0.0
 30
0.0
 70
     1
  0
VERTEX
  5
1F4B
  8
LAYER01
  6
CONTINUOUS
 62
     7
 10
5276.6449090000006
 20
-124.2095139999999
 30
0.0
  0
VERTEX
  5
1F4C
  8
LAYER01
  6
CONTINUOUS
 62
     7
 10
5276.6449090000006
 20
-124.2095139999999
 30
0.0
  0
VERTEX
  5
1F4D
  8
LAYER01
  6
CONTINUOUS
 62
     7
 10
5279.0215760000001
 20
-123.417292
 30
0.0
  0
VERTEX
  5
1F4E
  8
LAYER01
  6
CONTINUOUS
 62
     7
 10
5281.3982429999987
 20
-122.625069
 30
0.0
  0
VERTEX
  5
1F4F
  8
LAYER01
  6
CONTINUOUS
 62
     7
 10
5282.9826880000001
 20
-120.248402
 30
0.0
  0
VERTEX
  5
1F50
  8
LAYER01
  6
CONTINUOUS
 62
     7
 10
5282.9826880000001
 20
-117.871736
 30
0.0
  0
VERTEX
  5
1F51
  8
LAYER01
  6
CONTINUOUS
 62
     7
 10
5282.9826880000001
 20
-117.871736
 30
0.0
  0
VERTEX
  5
1F52
  8
LAYER01
  6
CONTINUOUS
 62
     7
 10
5282.9826880000001
 20
-114.70284599999999
 30
0.0
  0
VERTEX
  5
1F53
  8
LAYER01
  6
CONTINUOUS
 62
     7
 10
5280.6060209999996
 20
-112.326179
 30
0.0
  0
VERTEX
  5
1F54
  8
LAYER01
  6
CONTINUOUS
 62
     7
 10
5278.2293540000001
 20
-111.533957
 30
0.0
  0
VERTEX
  5
1F55
  8
LAYER01
  6
CONTINUOUS
 62
     7
 10
5275.0604649999996
 20
-111.533957
 30
0.0
  0
VERTEX
  5
1F56
  8
LAYER01
  6
CONTINUOUS
 62
     7
 10
5265.5537969999987
 20
-111.533957
 30
0.0
  0
VERTEX
  5
1F57
  8
LAYER01
  6
CONTINUOUS
 62
     7
 10
5265.5537969999987
 20
-134.50840400000001
 30
0.0
  0
VERTEX
  5
1F58
  8
LAYER01
  6
CONTINUOUS
 62
     7
 10
5268.7226860000001
 20
-134.50840400000001
 30
0.0
  0
VERTEX
  5
1F59
  8
LAYER01
  6
CONTINUOUS
 62
     7
 10
5268.7226860000001
 20
-124.2095139999999
 30
0.0
  0
VERTEX
  5
1F5A
  8
LAYER01
  6
CONTINUOUS
 62
     7
 10
5273.4760200000001
 20
-124.2095139999999
 30
0.0
  0
VERTEX
  5
1F5B
  8
LAYER01
  6
CONTINUOUS
 62
     7
 10
5279.0215760000001
 20
-134.50840400000001
 30
0.0
  0
VERTEX
  5
1F5C
  8
LAYER01
  6
CONTINUOUS
 62
     7
 10
5282.9826880000001
 20
-134.50840400000001
 30
0.0
  0
VERTEX
  5
1F5D
  8
LAYER01
  6
CONTINUOUS
 62
     7
 10
5276.6449090000006
 20
-124.2095139999999
 30
0.0
  0
VERTEX
  5
1F5E
  8
LAYER01
  6
CONTINUOUS
 62
     7
 10
5276.6449090000006
 20
-124.2095139999999
 30
0.0
  0
SEQEND
  5
1F5F
  8
LAYER01
  6
CONTINUOUS
 62
     7
  0
POLYLINE
  5
445
  8
LAYER01
  6
CONTINUOUS
 62
     7
 66
     1
 10
0.0
 20
0.0
 30
0.0
 70
     1
  0
VERTEX
  5
1F60
  8
LAYER01
  6
CONTINUOUS
 62
     7
 10
5274.2682420000001
 20
-114.70284599999999
 30
0.0
  0
VERTEX
  5
1F61
  8
LAYER01
  6
CONTINUOUS
 62
     7
 10
5274.2682420000001
 20
-114.70284599999999
 30
0.0
  0
VERTEX
  5
1F62
  8
LAYER01
  6
CONTINUOUS
 62
     7
 10
5278.2293540000001
 20
-115.495069
 30
0.0
  0
VERTEX
  5
1F63
  8
LAYER01
  6
CONTINUOUS
 62
     7
 10
5279.8137990000014
 20
-116.287291
 30
0.0
  0
VERTEX
  5
1F64
  8
LAYER01
  6
CONTINUOUS
 62
     7
 10
5279.8137990000014
 20
-117.871736
 30
0.0
  0
VERTEX
  5
1F65
  8
LAYER01
  6
CONTINUOUS
 62
     7
 10
5279.8137990000014
 20
-117.871736
 30
0.0
  0
VERTEX
  5
1F66
  8
LAYER01
  6
CONTINUOUS
 62
     7
 10
5279.0215760000001
 20
-119.45618
 30
0.0
  0
VERTEX
  5
1F67
  8
LAYER01
  6
CONTINUOUS
 62
     7
 10
5277.437132
 20
-120.248402
 30
0.0
  0
VERTEX
  5
1F68
  8
LAYER01
  6
CONTINUOUS
 62
     7
 10
5272.683798
 20
-121.04062500000001
 30
0.0
  0
VERTEX
  5
1F69
  8
LAYER01
  6
CONTINUOUS
 62
     7
 10
5268.7226860000001
 20
-121.04062500000001
 30
0.0
  0
VERTEX
  5
1F6A
  8
LAYER01
  6
CONTINUOUS
 62
     7
 10
5268.7226860000001
 20
-114.70284599999999
 30
0.0
  0
VERTEX
  5
1F6B
  8
LAYER01
  6
CONTINUOUS
 62
     7
 10
5274.2682420000001
 20
-114.70284599999999
 30
0.0
  0
VERTEX
  5
1F6C
  8
LAYER01
  6
CONTINUOUS
 62
     7
 10
5274.2682420000001
 20
-114.70284599999999
 30
0.0
  0
SEQEND
  5
1F6D
  8
LAYER01
  6
CONTINUOUS
 62
     7
  0
ENDBLK
  5
454
  8
0
  0
BLOCK
  8
0
  2
BREST-G20
 70
     0
 10
0.0
 20
0.0
 30
0.0
  3
BREST-G20
  1

  0
LINE
  5
457
  8
0
  6
CONTINUOUS
 62
     7
 10
3937.7104960000011
 20
369.70449000000002
 30
0.0
 11
3913.3099950000001
 21
394.1049910000001
 31
0.0
  0
LINE
  5
458
  8
0
  6
CONTINUOUS
 62
     7
 10
3902.2987480000002
 20
382.66559799999999
 30
0.0
 11
3889.617694
 21
395.34665200000001
 31
0.0
  0
LINE
  5
459
  8
0
  6
CONTINUOUS
 62
     7
 10
3878.6064470000001
 20
383.90725900000001
 30
0.0
 11
3865.925393
 21
396.58831300000003
 31
0.0
  0
LINE
  5
45A
  8
0
  6
CONTINUOUS
 62
     7
 10
3854.9141450000002
 20
385.14892000000009
 30
0.0
 11
3842.2330910000001
 21
397.82997399999999
 31
0.0
  0
LINE
  5
45B
  8
0
  6
CONTINUOUS
 62
     7
 10
3831.2218440000001
 20
386.390581
 30
0.0
 11
3818.54079
 21
399.07163500000001
 31
0.0
  0
LINE
  5
45C
  8
0
  6
CONTINUOUS
 62
     7
 10
3807.529543000001
 20
387.63224200000002
 30
0.0
 11
3794.848489
 21
400.31329599999998
 31
0.0
  0
LINE
  5
45D
  8
0
  6
CONTINUOUS
 62
     7
 10
3678.0295010000009
 20
517.13228400000003
 30
0.0
 11
3672.8699799999999
 21
522.29180499999995
 31
0.0
  0
LINE
  5
45E
  8
0
  6
CONTINUOUS
 62
     7
 10
3783.8372420000001
 20
388.87390299999998
 30
0.0
 11
3771.1561880000008
 21
401.554957
 31
0.0
  0
LINE
  5
45F
  8
0
  6
CONTINUOUS
 62
     7
 10
3679.5831880000001
 20
493.12795699999998
 30
0.0
 11
3650.0066539999998
 21
522.70448999999996
 31
0.0
  0
LINE
  5
460
  8
0
  6
CONTINUOUS
 62
     7
 10
3760.144941
 20
390.11556300000001
 30
0.0
 11
3747.4638869999999
 21
402.79661700000003
 31
0.0
  0
LINE
  5
461
  8
0
  6
CONTINUOUS
 62
     7
 10
3680.8248490000001
 20
469.43565599999988
 30
0.0
 11
3668.1437950000009
 21
482.1167099999999
 31
0.0
  0
LINE
  5
462
  8
0
  6
CONTINUOUS
 62
     7
 10
3643.1151670000008
 20
507.14533699999993
 30
0.0
 11
3627.5987939999991
 21
522.66170999999986
 31
0.0
  0
LINE
  5
463
  8
0
  6
CONTINUOUS
 62
     7
 10
3736.4526390000001
 20
391.35722399999997
 30
0.0
 11
3723.771585
 21
404.03827799999988
 31
0.0
  0
LINE
  5
464
  8
0
  6
CONTINUOUS
 62
     7
 10
3712.760338000001
 20
392.598885
 30
0.0
 11
3700.0792839999999
 21
405.27993900000001
 31
0.0
  0
LINE
  5
465
  8
0
  6
CONTINUOUS
 62
     7
 10
3682.0665090000011
 20
445.74335400000001
 30
0.0
 11
3669.3854550000001
 21
458.42440800000003
 31
0.0
  0
LINE
  5
466
  8
0
  6
CONTINUOUS
 62
     7
 10
3683.3081699999998
 20
422.05105300000002
 30
0.0
 11
3670.6271160000001
 21
434.73210699999998
 31
0.0
  0
LINE
  5
467
  8
0
  6
CONTINUOUS
 62
     7
 10
3640.0165419999998
 20
487.79332199999999
 30
0.0
 11
3623.033147000001
 21
504.77671700000002
 31
0.0
  0
LINE
  5
468
  8
0
  6
CONTINUOUS
 62
     7
 10
3638.8985450000009
 20
466.46067799999997
 30
0.0
 11
3623.033147000001
 21
482.326076
 31
0.0
  0
LINE
  5
469
  8
0
  6
CONTINUOUS
 62
     7
 10
3688.6956450000012
 20
394.21293900000001
 30
0.0
 11
3672.2411699999998
 21
410.66741399999989
 31
0.0
  0
LINE
  5
46A
  8
0
  6
CONTINUOUS
 62
     7
 10
3637.7805490000001
 20
445.1280339999999
 30
0.0
 11
3623.033147000001
 21
459.87543599999998
 31
0.0
  0
LINE
  5
46B
  8
0
  6
CONTINUOUS
 62
     7
 10
3636.6625520000011
 20
423.79539099999988
 30
0.0
 11
3623.033147000001
 21
437.4247959999999
 31
0.0
  0
LINE
  5
46C
  8
0
  6
CONTINUOUS
 62
     7
 10
3635.5445560000012
 20
402.46274699999998
 30
0.0
 11
3623.033147000001
 21
414.97415499999988
 31
0.0
  0
ENDBLK
  5
46D
  8
0
  0
BLOCK
  8
0
  2
*D20
 70
     1
 10
0.0
 20
0.0
 30
0.0
  3
*D20
  1

  0
LINE
  5
470
  8
LAYER01
 62
     7
 10
3986.0331470000001
 20
292.77713799999998
 30
0.0
 11
4056.4331469999988
 21
292.77713799999998
 31
0.0
  0
LINE
  5
471
  8
LAYER01
 62
     7
 10
3940.033147000001
 20
292.77713799999998
 30
0.0
 11
3869.633147
 21
292.77713799999998
 31
0.0
  0
LINE
  5
472
  8
LAYER01
 62
     7
 10
3986.0331470000001
 20
352.10449
 30
0.0
 11
3986.0331470000001
 21
270.77713799999998
 31
0.0
  0
LINE
  5
473
  8
LAYER01
 62
     7
 10
3940.033147000001
 20
352.10449
 30
0.0
 11
3940.033147000001
 21
270.77713799999998
 31
0.0
  0
SOLID
  5
474
  8
LAYER01
 62
     7
 10
4021.2331469999999
 20
298.64357000000001
 30
0.0
 11
3986.0331470000001
 21
292.77713799999998
 31
0.0
 12
4021.2331469999999
 22
286.910706
 32
0.0
 13
4021.2331469999999
 23
286.910706
 33
0.0
  0
SOLID
  5
475
  8
LAYER01
 62
     7
 10
3904.8331469999998
 20
298.64357000000001
 30
0.0
 11
3940.033147000001
 21
292.77713799999998
 31
0.0
 12
3904.8331469999998
 22
286.910706
 32
0.0
 13
3904.8331469999998
 23
286.910706
 33
0.0
  0
TEXT
  5
476
  8
LAYER01
  6
VERDECKT
 62
     7
 10
4033.6063319999998
 20
314.77713799999998
 30
0.0
 40
44.0
  1
46
  0
POINT
  5
477
  8
LAYER01
 62
     7
 10
3986.0331470000001
 20
369.70449000000002
 30
0.0
  0
POINT
  5
478
  8
LAYER01
 62
     7
 10
3940.033147000001
 20
369.70449000000002
 30
0.0
  0
POINT
  5
479
  8
LAYER01
 62
     7
 10
3940.033147000001
 20
292.77713799999998
 30
0.0
  0
ENDBLK
  5
47A
  8
0
  0
BLOCK
  8
0
  2
*D21
 70
     1
 10
0.0
 20
0.0
 30
0.0
  3
*D21
  1

  0
LINE
  5
47D
  8
LAYER01
 62
     7
 10
3560.7337729999999
 20
392.70449000000002
 30
0.0
 11
3560.7337729999999
 21
522.70448499999986
 31
0.0
  0
LINE
  5
47E
  8
LAYER01
 62
     7
 10
3592.9011059999998
 20
392.70449000000002
 30
0.0
 11
3538.7337729999999
 21
392.70449000000002
 31
0.0
  0
LINE
  5
47F
  8
LAYER01
 62
     7
 10
3592.9011059999998
 20
522.70448499999986
 30
0.0
 11
3538.7337729999999
 21
522.70448499999986
 31
0.0
  0
SOLID
  5
480
  8
LAYER01
 62
     7
 10
3566.6002050000002
 20
427.90449000000001
 30
0.0
 11
3560.7337729999999
 21
392.70449000000002
 31
0.0
 12
3554.8673410000001
 22
427.90449000000001
 32
0.0
 13
3554.8673410000001
 23
427.90449000000001
 33
0.0
  0
SOLID
  5
481
  8
LAYER01
 62
     7
 10
3566.6002050000002
 20
487.50448499999999
 30
0.0
 11
3560.7337729999999
 21
522.70448499999986
 31
0.0
 12
3554.8673410000001
 22
487.50448499999999
 32
0.0
 13
3554.8673410000001
 23
487.50448499999999
 33
0.0
  0
TEXT
  5
482
  8
LAYER01
  6
VERDECKT
 62
     7
 10
3538.7337729999999
 20
421.58899100000002
 30
0.0
 40
44.0
  1
130
 50
90.0
  0
POINT
  5
483
  8
LAYER01
 62
     7
 10
3610.5011060000002
 20
392.70449000000002
 30
0.0
  0
POINT
  5
484
  8
LAYER01
 62
     7
 10
3610.5011060000002
 20
522.70448499999986
 30
0.0
  0
POINT
  5
485
  8
LAYER01
 62
     7
 10
3560.7337729999999
 20
522.70448499999986
 30
0.0
  0
ENDBLK
  5
486
  8
0
  0
BLOCK
  8
0
  2
*D22
 70
     1
 10
0.0
 20
0.0
 30
0.0
  3
*D22
  1

  0
LINE
  5
489
  8
LAYER01
 62
     7
 10
3963.0331460000002
 20
199.97656900000001
 30
0.0
 11
4058.0331460000002
 21
199.97656900000001
 31
0.0
  0
LINE
  5
48A
  8
LAYER01
 62
     7
 10
3963.0331460000002
 20
251.794318
 30
0.0
 11
3963.0331460000002
 21
177.97656900000001
 31
0.0
  0
LINE
  5
48B
  8
LAYER01
 62
     7
 10
4058.0331460000002
 20
251.794318
 30
0.0
 11
4058.0331460000002
 21
177.97656900000001
 31
0.0
  0
SOLID
  5
48C
  8
LAYER01
 62
     7
 10
3998.233146
 20
194.11013700000001
 30
0.0
 11
3963.0331460000002
 21
199.97656900000001
 31
0.0
 12
3998.233146
 22
205.84300099999999
 32
0.0
 13
3998.233146
 23
205.84300099999999
 33
0.0
  0
SOLID
  5
48D
  8
LAYER01
 62
     7
 10
4022.833145999999
 20
194.11013700000001
 30
0.0
 11
4058.0331460000002
 21
199.97656900000001
 31
0.0
 12
4022.833145999999
 22
205.84300099999999
 32
0.0
 13
4022.833145999999
 23
205.84300099999999
 33
0.0
  0
TEXT
  5
48E
  8
LAYER01
  6
VERDECKT
 62
     7
 10
3988.3292090000009
 20
221.97656900000001
 30
0.0
 40
44.0
  1
95
  0
POINT
  5
48F
  8
LAYER01
 62
     7
 10
3963.0331460000002
 20
269.394318
 30
0.0
  0
POINT
  5
490
  8
LAYER01
 62
     7
 10
4058.0331460000002
 20
269.394318
 30
0.0
  0
POINT
  5
491
  8
LAYER01
 62
     7
 10
4058.0331460000002
 20
199.97656900000001
 30
0.0
  0
ENDBLK
  5
492
  8
0
  0
BLOCK
  8
0
  2
*D23
 70
     1
 10
0.0
 20
0.0
 30
0.0
  3
*D23
  1

  0
LINE
  5
495
  8
LAYER01
 62
     7
 10
4234.2797309999996
 20
522.70448499999986
 30
0.0
 11
4234.2797309999996
 21
369.70449000000002
 31
0.0
  0
LINE
  5
496
  8
LAYER01
 62
     7
 10
4075.6331460000001
 20
522.70448499999986
 30
0.0
 11
4256.2797310000014
 21
522.70448499999986
 31
0.0
  0
LINE
  5
497
  8
LAYER01
 62
     7
 10
4075.6331460000001
 20
369.70449000000002
 30
0.0
 11
4256.2797310000014
 21
369.70449000000002
 31
0.0
  0
SOLID
  5
498
  8
LAYER01
 62
     7
 10
4228.4132989999989
 20
487.50448499999999
 30
0.0
 11
4234.2797309999996
 21
522.70448499999986
 31
0.0
 12
4240.1461630000013
 22
487.50448499999999
 32
0.0
 13
4240.1461630000013
 23
487.50448499999999
 33
0.0
  0
SOLID
  5
499
  8
LAYER01
 62
     7
 10
4228.4132989999989
 20
404.90449000000001
 30
0.0
 11
4234.2797309999996
 21
369.70449000000002
 31
0.0
 12
4240.1461630000013
 22
404.90449000000001
 32
0.0
 13
4240.1461630000013
 23
404.90449000000001
 33
0.0
  0
TEXT
  5
49A
  8
LAYER01
  6
VERDECKT
 62
     7
 10
4212.2797309999996
 20
412.89858299999997
 30
0.0
 40
44.0
  1
153
 50
90.0
  0
POINT
  5
49B
  8
LAYER01
 62
     7
 10
4058.0331460000002
 20
522.70448499999986
 30
0.0
  0
POINT
  5
49C
  8
LAYER01
 62
     7
 10
4058.0331460000002
 20
369.70449000000002
 30
0.0
  0
POINT
  5
49D
  8
LAYER01
 62
     7
 10
4234.2797309999996
 20
369.70449000000002
 30
0.0
  0
ENDBLK
  5
49E
  8
0
  0
BLOCK
  8
0
  2
*D24
 70
     1
 10
0.0
 20
0.0
 30
0.0
  3
*D24
  1

  0
LINE
  5
4A1
  8
LAYER01
 62
     7
 10
4165.1542680000011
 20
522.70448499999986
 30
0.0
 11
4165.1542680000011
 21
392.70449000000002
 31
0.0
  0
LINE
  5
4A2
  8
LAYER01
 62
     7
 10
4075.6331460000001
 20
522.70448499999986
 30
0.0
 11
4187.1542680000002
 21
522.70448499999986
 31
0.0
  0
LINE
  5
4A3
  8
LAYER01
 62
     7
 10
4075.6331460000001
 20
392.70449000000002
 30
0.0
 11
4187.1542680000002
 21
392.70449000000002
 31
0.0
  0
SOLID
  5
4A4
  8
LAYER01
 62
     7
 10
4159.2878359999986
 20
487.50448499999999
 30
0.0
 11
4165.1542680000011
 21
522.70448499999986
 31
0.0
 12
4171.0207
 22
487.50448499999999
 32
0.0
 13
4171.0207
 23
487.50448499999999
 33
0.0
  0
SOLID
  5
4A5
  8
LAYER01
 62
     7
 10
4159.2878359999986
 20
427.90449000000001
 30
0.0
 11
4165.1542680000011
 21
392.70449000000002
 31
0.0
 12
4171.0207
 22
427.90449000000001
 32
0.0
 13
4171.0207
 23
427.90449000000001
 33
0.0
  0
TEXT
  5
4A6
  8
LAYER01
  6
VERDECKT
 62
     7
 10
4143.1542679999993
 20
424.39858299999997
 30
0.0
 40
44.0
  1
130
 50
90.0
  0
POINT
  5
4A7
  8
LAYER01
 62
     7
 10
4058.0331460000002
 20
522.70448499999986
 30
0.0
  0
POINT
  5
4A8
  8
LAYER01
 62
     7
 10
4058.0331460000002
 20
392.70449000000002
 30
0.0
  0
POINT
  5
4A9
  8
LAYER01
 62
     7
 10
4165.1542680000011
 20
392.70449000000002
 30
0.0
  0
ENDBLK
  5
4AA
  8
0
  0
BLOCK
  8
0
  2
*D25
 70
     1
 10
0.0
 20
0.0
 30
0.0
  3
*D25
  1

  0
LINE
  5
4AD
  8
LAYER01
 62
     7
 10
3678.0331470000001
 20
607.34914400000002
 30
0.0
 11
4018.0331469999992
 21
607.34914400000002
 31
0.0
  0
LINE
  5
4AE
  8
LAYER01
 62
     7
 10
3678.0331470000001
 20
590.30449699999986
 30
0.0
 11
3678.0331470000001
 21
629.34914400000002
 31
0.0
  0
LINE
  5
4AF
  8
LAYER01
 62
     7
 10
4018.0331469999992
 20
590.30449699999986
 30
0.0
 11
4018.0331469999992
 21
629.34914400000002
 31
0.0
  0
SOLID
  5
4B0
  8
LAYER01
 62
     7
 10
3713.2331469999999
 20
601.48271199999988
 30
0.0
 11
3678.0331470000001
 21
607.34914400000002
 31
0.0
 12
3713.2331469999999
 22
613.21557599999994
 32
0.0
 13
3713.2331469999999
 23
613.21557599999994
 33
0.0
  0
SOLID
  5
4B1
  8
LAYER01
 62
     7
 10
3982.8331469999998
 20
601.48271199999988
 30
0.0
 11
4018.0331469999992
 21
607.34914400000002
 31
0.0
 12
3982.8331469999998
 22
613.21557599999994
 32
0.0
 13
3982.8331469999998
 23
613.21557599999994
 33
0.0
  0
TEXT
  5
4B2
  8
LAYER01
  6
VERDECKT
 62
     7
 10
3811.9176499999999
 20
629.34914400000002
 30
0.0
 40
44.0
  1
340
  0
POINT
  5
4B3
  8
LAYER01
 62
     7
 10
3678.0331470000001
 20
572.70449699999995
 30
0.0
  0
POINT
  5
4B4
  8
LAYER01
 62
     7
 10
4018.0331469999992
 20
572.70449699999995
 30
0.0
  0
POINT
  5
4B5
  8
LAYER01
 62
     7
 10
4018.0331469999992
 20
607.34914400000002
 30
0.0
  0
ENDBLK
  5
4B6
  8
0
  0
BLOCK
  8
0
  2
*D26
 70
     1
 10
0.0
 20
0.0
 30
0.0
  3
*D26
  1

  0
LINE
  5
4B9
  8
LAYER01
 62
     7
 10
3623.033147000001
 20
687.60915699999987
 30
0.0
 11
4058.0331470000001
 21
687.60915699999987
 31
0.0
  0
LINE
  5
4BA
  8
LAYER01
 62
     7
 10
3623.033147000001
 20
590.30449699999986
 30
0.0
 11
3623.033147000001
 21
709.60915699999987
 31
0.0
  0
LINE
  5
4BB
  8
LAYER01
 62
     7
 10
4058.0331470000001
 20
590.30449699999986
 30
0.0
 11
4058.0331470000001
 21
709.60915699999987
 31
0.0
  0
SOLID
  5
4BC
  8
LAYER01
 62
     7
 10
3658.2331469999999
 20
681.74272499999995
 30
0.0
 11
3623.033147000001
 21
687.60915699999987
 31
0.0
 12
3658.2331469999999
 22
693.4755889999999
 32
0.0
 13
3658.2331469999999
 23
693.4755889999999
 33
0.0
  0
SOLID
  5
4BD
  8
LAYER01
 62
     7
 10
4022.8331469999998
 20
681.74272499999995
 30
0.0
 11
4058.0331470000001
 21
687.60915699999987
 31
0.0
 12
4022.8331469999998
 22
693.4755889999999
 32
0.0
 13
4022.8331469999998
 23
693.4755889999999
 33
0.0
  0
TEXT
  5
4BE
  8
LAYER01
  6
VERDECKT
 62
     7
 10
3804.4176499999999
 20
709.60915699999987
 30
0.0
 40
44.0
  1
435
  0
POINT
  5
4BF
  8
LAYER01
 62
     7
 10
3623.033147000001
 20
572.70449699999995
 30
0.0
  0
POINT
  5
4C0
  8
LAYER01
 62
     7
 10
4058.0331470000001
 20
572.70449699999995
 30
0.0
  0
POINT
  5
4C1
  8
LAYER01
 62
     7
 10
4058.0331470000001
 20
687.60915699999987
 30
0.0
  0
ENDBLK
  5
4C2
  8
0
  0
BLOCK
  8
0
  2
*D27
 70
     1
 10
0.0
 20
0.0
 30
0.0
  3
*D27
  1

  0
LINE
  5
4C5
  8
LAYER01
 62
     7
 10
3623.033147000001
 20
607.34914400000002
 30
0.0
 11
3678.0331470000001
 21
607.34914400000002
 31
0.0
  0
LINE
  5
4C6
  8
LAYER01
 62
     7
 10
3623.033147000001
 20
584.70449699999995
 30
0.0
 11
3623.033147000001
 21
622.34914400000002
 31
0.0
  0
LINE
  5
4C7
  8
LAYER01
 62
     7
 10
3678.0331470000001
 20
584.70449699999995
 30
0.0
 11
3678.0331470000001
 21
622.34914400000002
 31
0.0
  0
SOLID
  5
4C8
  8
LAYER01
 62
     7
 10
3647.033147000001
 20
603.34930399999985
 30
0.0
 11
3623.033147000001
 21
607.34914400000002
 31
0.0
 12
3647.033147000001
 22
611.34898399999986
 32
0.0
 13
3647.033147000001
 23
611.34898399999986
 33
0.0
  0
SOLID
  5
4C9
  8
LAYER01
 62
     7
 10
3654.033147000001
 20
603.34930399999985
 30
0.0
 11
3678.0331470000001
 21
607.34914400000002
 31
0.0
 12
3654.033147000001
 22
611.34898399999986
 32
0.0
 13
3654.033147000001
 23
611.34898399999986
 33
0.0
  0
TEXT
  5
4CA
  8
LAYER01
  6
VERDECKT
 62
     7
 10
3635.5535279999999
 20
622.34914400000002
 30
0.0
 40
30.0
  1
55
  0
POINT
  5
4CB
  8
LAYER01
 62
     7
 10
3623.033147000001
 20
572.70449699999995
 30
0.0
  0
POINT
  5
4CC
  8
LAYER01
 62
     7
 10
3678.0331470000001
 20
572.70449699999995
 30
0.0
  0
POINT
  5
4CD
  8
LAYER01
 62
     7
 10
3678.0331470000001
 20
607.34914400000002
 30
0.0
  0
ENDBLK
  5
4CE
  8
0
  0
ENDSEC
  0
SECTION
  2
ENTITIES
  0
POLYLINE
  5
4CF
  8
LAYER01
  6
CONTINUOUS
 62
     7
 66
     1
 10
0.0
 20
0.0
 30
0.0
 70
     1
  0
VERTEX
  5
1F6E
  8
LAYER01
  6
CONTINUOUS
 62
     7
 10
1416.691274
 20
-807.99349199999995
 30
0.0
  0
VERTEX
  5
1F6F
  8
LAYER01
  6
CONTINUOUS
 62
     7
 10
1416.691274
 20
1935.1791390000001
 30
0.0
  0
VERTEX
  5
1F70
  8
LAYER01
  6
CONTINUOUS
 62
     7
 10
5355.6881350000012
 20
1935.1791390000001
 30
0.0
  0
VERTEX
  5
1F71
  8
LAYER01
  6
CONTINUOUS
 62
     7
 10
5355.6881350000012
 20
-807.99349199999995
 30
0.0
  0
SEQEND
  5
1F72
  8
LAYER01
  6
CONTINUOUS
 62
     7
  0
LINE
  5
4D5
  8
0
  6
CONTINUOUS
 62
     7
 10
2266.0818439999998
 20
532.70449099999985
 30
0.0
 11
2266.0818439999998
 21
567.70448699999986
 31
0.0
  0
DIMENSION
  5
4D6
  8
LAYER01
 62
     7
  2
*D0
 10
2186.9431450000002
 20
572.70449699999995
 30
0.0
 11
2142.9431450000002
 21
689.18149500000004
 31
0.0
 53
90.0
 13
2260.985815
 23
522.70448499999986
 33
0.0
 14
2260.985815
 24
572.70449699999995
 34
0.0
 50
90.0
  0
LINE
  5
4D7
  8
0
  6
CONTINUOUS
 62
     7
 10
2996.0818440000012
 20
567.70448699999986
 30
0.0
 11
2996.0818440000012
 21
532.70449099999985
 31
0.0
  0
TEXT
  5
4D8
  8
LAYER01
  6
STRICHPUNKTIERT
 62
     7
 10
2007.2480602325311
 20
-63.573098145336637
 30
0.0
 40
42.0
  1
Waschtischmodul Brest
  0
TEXT
  5
4D9
  8
LAYER01
  6
STRICHPUNKTIERT
 62
     7
 10
2007.2480602325311
 20
-105.5730981453366
 30
0.0
 40
42.0
  1
Seitenteile links und rechts
  0
TEXT
  5
4DA
  8
LAYER01
  6
STRICHPUNKTIERT
 62
     7
 10
2007.2480602325311
 20
-147.57309814533659
 30
0.0
 40
42.0
  1
ohne Überlauf
  0
TEXT
  5
4DB
  8
LAYER01
  6
STRICHPUNKTIERT
 62
     7
 10
2007.2480602325311
 20
-189.57309814533659
 30
0.0
 40
42.0
  1
mit oder ohne Hahnlochbohrung
  0
TEXT
  5
4DC
  8
LAYER01
  6
STRICHPUNKTIERT
 62
     7
 10
2007.2480602325311
 20
-231.57309814533659
 30
0.0
 40
42.0
  1
Hahnlochbohrung wahlweise links oder rechts
  0
TEXT
  5
4DD
  8
LAYER01
  6
STRICHPUNKTIERT
 62
     7
 10
2007.2480602325311
 20
-273.57309814533659
 30
0.0
 40
42.0
  1
Befestigung mit Winkelkonsolen
  0
LINE
  5
4DE
  8
0
  6
CONTINUOUS
 62
     7
 10
2271.0749390000001
 20
522.70448499999986
 30
0.0
 11
2495.753283
 21
522.70448499999986
 31
0.0
  0
LINE
  5
4DF
  8
0
  6
CONTINUOUS
 62
     7
 10
2269.0818439999998
 20
392.70449000000002
 30
0.0
 11
2993.0818440000012
 21
392.70449000000002
 31
0.0
  0
LINE
  5
4E0
  8
LAYER01
  6
VERDECKT
 62
     3
 10
2293.7556079999999
 20
510.7044909999999
 30
0.0
 11
2478.7364699999998
 21
510.7044909999999
 31
0.0
  0
LINE
  5
4E1
  8
0
  6
CONTINUOUS
 62
     7
 10
2266.0818439999998
 20
517.70449000000008
 30
0.0
 11
2266.0818439999998
 21
532.70449099999985
 31
0.0
  0
ARC
  5
4E2
  8
0
  6
CONTINUOUS
 62
     7
 10
2271.0818440000012
 20
517.70449000000008
 30
0.0
 40
5.0
 50
90.0
 51
180.0
  0
ARC
  5
4E3
  8
0
  6
CONTINUOUS
 62
     7
 10
2269.0818439999998
 20
395.70448999999991
 30
0.0
 40
3.0
 50
180.0
 51
270.0
  0
LINE
  5
4E4
  8
0
  6
CONTINUOUS
 62
     7
 10
2266.0818439999998
 20
395.70448999999991
 30
0.0
 11
2266.0818439999998
 21
517.70449000000008
 31
0.0
  0
ARC
  5
4E5
  8
LAYER01
  6
VERDECKT
 62
     3
 10
2293.7556079999999
 20
500.70449000000002
 30
0.0
 40
10.0
 50
90.0
 51
177.0
  0
LINE
  5
4E6
  8
LAYER01
  6
VERDECKT
 62
     3
 10
2278.0818389999999
 20
392.70449000000002
 30
0.0
 11
2283.7693140000001
 21
501.22785199999993
 31
0.0
  0
DIMENSION
  5
4E7
  8
LAYER01
 62
     7
  2
*D1
 10
2186.9431450000002
 20
522.70448499999986
 30
0.0
 11
2142.9431450000002
 21
457.70448799999991
 31
0.0
 53
90.0
 13
2260.985815
 23
392.70449000000002
 33
0.0
 14
2260.985815
 24
522.70448499999986
 34
0.0
 50
90.0
  0
LINE
  5
4E8
  8
0
  6
CONTINUOUS
 62
     7
 10
2766.4104050000001
 20
522.70448499999986
 30
0.0
 11
2991.088749
 21
522.70448499999986
 31
0.0
  0
LINE
  5
4E9
  8
LAYER01
  6
VERDECKT
 62
     3
 10
2783.4272179999998
 20
510.7044909999999
 30
0.0
 11
2968.408081
 21
510.7044909999999
 31
0.0
  0
LINE
  5
4EA
  8
LAYER01
  6
VERDECKT
 62
     3
 10
2596.6519619999999
 20
392.29530099999999
 30
0.0
 11
2606.2957820000001
 21
384.20317399999999
 31
0.0
  0
LINE
  5
4EB
  8
LAYER01
  6
VERDECKT
 62
     3
 10
2655.8679069999998
 20
384.20317399999999
 30
0.0
 11
2665.5117260000002
 21
392.29530099999999
 31
0.0
  0
POLYLINE
  5
4EC
  8
0
  6
CONTINUOUS
 62
     7
 66
     1
 10
0.0
 20
0.0
 30
0.0
  0
VERTEX
  5
1F73
  8
0
  6
CONTINUOUS
 62
     7
 10
2527.6314160000002
 20
384.90424999999999
 30
0.0
  0
VERTEX
  5
1F74
  8
0
  6
CONTINUOUS
 62
     7
 10
2527.4585390000002
 20
384.913611
 30
0.0
  0
VERTEX
  5
1F75
  8
0
  6
CONTINUOUS
 62
     7
 10
2527.2857940000008
 20
384.92356599999999
 30
0.0
  0
VERTEX
  5
1F76
  8
0
  6
CONTINUOUS
 62
     7
 10
2527.1131810000002
 20
384.93411600000002
 30
0.0
  0
VERTEX
  5
1F77
  8
0
  6
CONTINUOUS
 62
     7
 10
2526.9407019999999
 20
384.94526400000001
 30
0.0
  0
VERTEX
  5
1F78
  8
0
  6
CONTINUOUS
 62
     7
 10
2526.768356
 20
384.95701000000003
 30
0.0
  0
VERTEX
  5
1F79
  8
0
  6
CONTINUOUS
 62
     7
 10
2526.5961440000001
 20
384.96935400000001
 30
0.0
  0
VERTEX
  5
1F7A
  8
0
  6
CONTINUOUS
 62
     7
 10
2526.4240660000009
 20
384.98230000000001
 30
0.0
  0
VERTEX
  5
1F7B
  8
0
  6
CONTINUOUS
 62
     7
 10
2526.2521230000011
 20
384.99584700000003
 30
0.0
  0
VERTEX
  5
1F7C
  8
0
  6
CONTINUOUS
 62
     7
 10
2526.0803129999999
 20
385.009997
 30
0.0
  0
VERTEX
  5
1F7D
  8
0
  6
CONTINUOUS
 62
     7
 10
2525.9086390000011
 20
385.02475099999998
 30
0.0
  0
VERTEX
  5
1F7E
  8
0
  6
CONTINUOUS
 62
     7
 10
2525.7370989999999
 20
385.04011100000002
 30
0.0
  0
VERTEX
  5
1F7F
  8
0
  6
CONTINUOUS
 62
     7
 10
2525.5656949999998
 20
385.05607700000002
 30
0.0
  0
VERTEX
  5
1F80
  8
0
  6
CONTINUOUS
 62
     7
 10
2525.3944270000002
 20
385.07265000000001
 30
0.0
  0
VERTEX
  5
1F81
  8
0
  6
CONTINUOUS
 62
     7
 10
2525.2232939999999
 20
385.089833
 30
0.0
  0
VERTEX
  5
1F82
  8
0
  6
CONTINUOUS
 62
     7
 10
2525.0522970000002
 20
385.10762599999998
 30
0.0
  0
VERTEX
  5
1F83
  8
0
  6
CONTINUOUS
 62
     7
 10
2524.881437
 20
385.12603000000001
 30
0.0
  0
VERTEX
  5
1F84
  8
0
  6
CONTINUOUS
 62
     7
 10
2524.7107129999999
 20
385.14504599999998
 30
0.0
  0
VERTEX
  5
1F85
  8
0
  6
CONTINUOUS
 62
     7
 10
2524.5401270000002
 20
385.16467699999998
 30
0.0
  0
VERTEX
  5
1F86
  8
0
  6
CONTINUOUS
 62
     7
 10
2524.369677000001
 20
385.18492199999997
 30
0.0
  0
VERTEX
  5
1F87
  8
0
  6
CONTINUOUS
 62
     7
 10
2524.1993649999999
 20
385.205783
 30
0.0
  0
VERTEX
  5
1F88
  8
0
  6
CONTINUOUS
 62
     7
 10
2524.0291910000001
 20
385.227262
 30
0.0
  0
VERTEX
  5
1F89
  8
0
  6
CONTINUOUS
 62
     7
 10
2523.8591540000002
 20
385.24935900000003
 30
0.0
  0
VERTEX
  5
1F8A
  8
0
  6
CONTINUOUS
 62
     7
 10
2523.6892560000001
 20
385.27207600000003
 30
0.0
  0
VERTEX
  5
1F8B
  8
0
  6
CONTINUOUS
 62
     7
 10
2523.5194969999998
 20
385.295413
 30
0.0
  0
VERTEX
  5
1F8C
  8
0
  6
CONTINUOUS
 62
     7
 10
2523.3498760000011
 20
385.31937299999998
 30
0.0
  0
VERTEX
  5
1F8D
  8
0
  6
CONTINUOUS
 62
     7
 10
2523.180394
 20
385.34395699999999
 30
0.0
  0
VERTEX
  5
1F8E
  8
0
  6
CONTINUOUS
 62
     7
 10
2523.0110519999998
 20
385.36916400000001
 30
0.0
  0
VERTEX
  5
1F8F
  8
0
  6
CONTINUOUS
 62
     7
 10
2522.8418489999999
 20
385.39499799999999
 30
0.0
  0
VERTEX
  5
1F90
  8
0
  6
CONTINUOUS
 62
     7
 10
2522.6727860000001
 20
385.42145799999997
 30
0.0
  0
VERTEX
  5
1F91
  8
0
  6
CONTINUOUS
 62
     7
 10
2522.5038629999999
 20
385.44854700000002
 30
0.0
  0
VERTEX
  5
1F92
  8
0
  6
CONTINUOUS
 62
     7
 10
2522.3350810000002
 20
385.47626500000001
 30
0.0
  0
VERTEX
  5
1F93
  8
0
  6
CONTINUOUS
 62
     7
 10
2522.1664390000001
 20
385.504615
 30
0.0
  0
VERTEX
  5
1F94
  8
0
  6
CONTINUOUS
 62
     7
 10
2521.9979400000002
 20
385.53359999999998
 30
0.0
  0
VERTEX
  5
1F95
  8
0
  6
CONTINUOUS
 62
     7
 10
2521.8295819999998
 20
385.56322299999999
 30
0.0
  0
VERTEX
  5
1F96
  8
0
  6
CONTINUOUS
 62
     7
 10
2521.661368
 20
385.59348699999998
 30
0.0
  0
VERTEX
  5
1F97
  8
0
  6
CONTINUOUS
 62
     7
 10
2521.4932960000001
 20
385.624393
 30
0.0
  0
VERTEX
  5
1F98
  8
0
  6
CONTINUOUS
 62
     7
 10
2521.3253690000001
 20
385.65594399999998
 30
0.0
  0
VERTEX
  5
1F99
  8
0
  6
CONTINUOUS
 62
     7
 10
2521.1575870000001
 20
385.68814400000002
 30
0.0
  0
VERTEX
  5
1F9A
  8
0
  6
CONTINUOUS
 62
     7
 10
2520.9899489999998
 20
385.72099400000002
 30
0.0
  0
VERTEX
  5
1F9B
  8
0
  6
CONTINUOUS
 62
     7
 10
2520.8224570000002
 20
385.75449800000001
 30
0.0
  0
VERTEX
  5
1F9C
  8
0
  6
CONTINUOUS
 62
     7
 10
2520.6551119999999
 20
385.788657
 30
0.0
  0
VERTEX
  5
1F9D
  8
0
  6
CONTINUOUS
 62
     7
 10
2520.4879139999998
 20
385.82347499999997
 30
0.0
  0
VERTEX
  5
1F9E
  8
0
  6
CONTINUOUS
 62
     7
 10
2520.3208629999999
 20
385.85895399999998
 30
0.0
  0
VERTEX
  5
1F9F
  8
0
  6
CONTINUOUS
 62
     7
 10
2520.1539600000001
 20
385.89509700000002
 30
0.0
  0
VERTEX
  5
1FA0
  8
0
  6
CONTINUOUS
 62
     7
 10
2519.9872049999999
 20
385.93190600000003
 30
0.0
  0
VERTEX
  5
1FA1
  8
0
  6
CONTINUOUS
 62
     7
 10
2519.8206
 20
385.96938399999999
 30
0.0
  0
VERTEX
  5
1FA2
  8
0
  6
CONTINUOUS
 62
     7
 10
2519.654145
 20
386.00753400000002
 30
0.0
  0
VERTEX
  5
1FA3
  8
0
  6
CONTINUOUS
 62
     7
 10
2519.4878399999998
 20
386.046358
 30
0.0
  0
VERTEX
  5
1FA4
  8
0
  6
CONTINUOUS
 62
     7
 10
2519.3216870000001
 20
386.08585900000003
 30
0.0
  0
VERTEX
  5
1FA5
  8
0
  6
CONTINUOUS
 62
     7
 10
2519.1556839999998
 20
386.12603899999999
 30
0.0
  0
VERTEX
  5
1FA6
  8
0
  6
CONTINUOUS
 62
     7
 10
2518.989834
 20
386.16690199999999
 30
0.0
  0
VERTEX
  5
1FA7
  8
0
  6
CONTINUOUS
 62
     7
 10
2518.8241370000001
 20
386.20844799999998
 30
0.0
  0
VERTEX
  5
1FA8
  8
0
  6
CONTINUOUS
 62
     7
 10
2518.6585930000001
 20
386.25068299999998
 30
0.0
  0
VERTEX
  5
1FA9
  8
0
  6
CONTINUOUS
 62
     7
 10
2518.493203
 20
386.29360700000001
 30
0.0
  0
VERTEX
  5
1FAA
  8
0
  6
CONTINUOUS
 62
     7
 10
2518.3279670000002
 20
386.33722400000011
 30
0.0
  0
VERTEX
  5
1FAB
  8
0
  6
CONTINUOUS
 62
     7
 10
2518.162887
 20
386.38153499999999
 30
0.0
  0
VERTEX
  5
1FAC
  8
0
  6
CONTINUOUS
 62
     7
 10
2517.9979619999999
 20
386.42654499999998
 30
0.0
  0
VERTEX
  5
1FAD
  8
0
  6
CONTINUOUS
 62
     7
 10
2517.8331929999999
 20
386.47225500000002
 30
0.0
  0
VERTEX
  5
1FAE
  8
0
  6
CONTINUOUS
 62
     7
 10
2517.6685809999999
 20
386.518666
 30
0.0
  0
VERTEX
  5
1FAF
  8
0
  6
CONTINUOUS
 62
     7
 10
2517.5041270000002
 20
386.56578400000001
 30
0.0
  0
VERTEX
  5
1FB0
  8
0
  6
CONTINUOUS
 62
     7
 10
2517.3398299999999
 20
386.61361099999999
 30
0.0
  0
VERTEX
  5
1FB1
  8
0
  6
CONTINUOUS
 62
     7
 10
2517.175694
 20
386.66215299999999
 30
0.0
  0
VERTEX
  5
1FB2
  8
0
  6
CONTINUOUS
 62
     7
 10
2517.0117170000012
 20
386.71141499999999
 30
0.0
  0
VERTEX
  5
1FB3
  8
0
  6
CONTINUOUS
 62
     7
 10
2516.8479029999999
 20
386.76140199999998
 30
0.0
  0
VERTEX
  5
1FB4
  8
0
  6
CONTINUOUS
 62
     7
 10
2516.684252
 20
386.812119
 30
0.0
  0
VERTEX
  5
1FB5
  8
0
  6
CONTINUOUS
 62
     7
 10
2516.5207639999999
 20
386.86357099999998
 30
0.0
  0
VERTEX
  5
1FB6
  8
0
  6
CONTINUOUS
 62
     7
 10
2516.3574410000001
 20
386.91576300000003
 30
0.0
  0
VERTEX
  5
1FB7
  8
0
  6
CONTINUOUS
 62
     7
 10
2516.194285
 20
386.96869900000002
 30
0.0
  0
VERTEX
  5
1FB8
  8
0
  6
CONTINUOUS
 62
     7
 10
2516.0312949999998
 20
387.02238399999999
 30
0.0
  0
VERTEX
  5
1FB9
  8
0
  6
CONTINUOUS
 62
     7
 10
2515.8684739999999
 20
387.0768240000001
 30
0.0
  0
VERTEX
  5
1FBA
  8
0
  6
CONTINUOUS
 62
     7
 10
2515.7058230000011
 20
387.132024
 30
0.0
  0
VERTEX
  5
1FBB
  8
0
  6
CONTINUOUS
 62
     7
 10
2515.5433420000008
 20
387.18798800000002
 30
0.0
  0
VERTEX
  5
1FBC
  8
0
  6
CONTINUOUS
 62
     7
 10
2515.3810319999998
 20
387.24472100000003
 30
0.0
  0
VERTEX
  5
1FBD
  8
0
  6
CONTINUOUS
 62
     7
 10
2515.2188959999999
 20
387.30222900000001
 30
0.0
  0
VERTEX
  5
1FBE
  8
0
  6
CONTINUOUS
 62
     7
 10
2515.0569329999998
 20
387.36051500000002
 30
0.0
  0
VERTEX
  5
1FBF
  8
0
  6
CONTINUOUS
 62
     7
 10
2514.895145
 20
387.41958599999998
 30
0.0
  0
VERTEX
  5
1FC0
  8
0
  6
CONTINUOUS
 62
     7
 10
2514.7335330000001
 20
387.479445
 30
0.0
  0
VERTEX
  5
1FC1
  8
0
  6
CONTINUOUS
 62
     7
 10
2514.5720980000001
 20
387.540099
 30
0.0
  0
VERTEX
  5
1FC2
  8
0
  6
CONTINUOUS
 62
     7
 10
2514.4108409999999
 20
387.60155099999997
 30
0.0
  0
VERTEX
  5
1FC3
  8
0
  6
CONTINUOUS
 62
     7
 10
2514.2497640000001
 20
387.66380700000002
 30
0.0
  0
VERTEX
  5
1FC4
  8
0
  6
CONTINUOUS
 62
     7
 10
2514.0888670000008
 20
387.72687200000001
 30
0.0
  0
VERTEX
  5
1FC5
  8
0
  6
CONTINUOUS
 62
     7
 10
2513.928152
 20
387.79075
 30
0.0
  0
VERTEX
  5
1FC6
  8
0
  6
CONTINUOUS
 62
     7
 10
2513.7676190000011
 20
387.85544800000002
 30
0.0
  0
VERTEX
  5
1FC7
  8
0
  6
CONTINUOUS
 62
     7
 10
2513.60727
 20
387.92096800000002
 30
0.0
  0
VERTEX
  5
1FC8
  8
0
  6
CONTINUOUS
 62
     7
 10
2513.4471060000001
 20
387.98731700000002
 30
0.0
  0
VERTEX
  5
1FC9
  8
0
  6
CONTINUOUS
 62
     7
 10
2513.2871270000001
 20
388.05449900000002
 30
0.0
  0
VERTEX
  5
1FCA
  8
0
  6
CONTINUOUS
 62
     7
 10
2513.127336
 20
388.12252000000001
 30
0.0
  0
VERTEX
  5
1FCB
  8
0
  6
CONTINUOUS
 62
     7
 10
2512.9678560000002
 20
388.19133199999999
 30
0.0
  0
VERTEX
  5
1FCC
  8
0
  6
CONTINUOUS
 62
     7
 10
2512.8088109999999
 20
388.26088900000002
 30
0.0
  0
VERTEX
  5
1FCD
  8
0
  6
CONTINUOUS
 62
     7
 10
2512.6502059999998
 20
388.33119199999999
 30
0.0
  0
VERTEX
  5
1FCE
  8
0
  6
CONTINUOUS
 62
     7
 10
2512.4920440000001
 20
388.40224599999999
 30
0.0
  0
VERTEX
  5
1FCF
  8
0
  6
CONTINUOUS
 62
     7
 10
2512.3343260000001
 20
388.47405199999997
 30
0.0
  0
VERTEX
  5
1FD0
  8
0
  6
CONTINUOUS
 62
     7
 10
2512.1770569999999
 20
388.54661400000009
 30
0.0
  0
VERTEX
  5
1FD1
  8
0
  6
CONTINUOUS
 62
     7
 10
2512.0202399999998
 20
388.619934
 30
0.0
  0
VERTEX
  5
1FD2
  8
0
  6
CONTINUOUS
 62
     7
 10
2511.8638769999998
 20
388.69401699999997
 30
0.0
  0
VERTEX
  5
1FD3
  8
0
  6
CONTINUOUS
 62
     7
 10
2511.7079709999998
 20
388.76886400000001
 30
0.0
  0
VERTEX
  5
1FD4
  8
0
  6
CONTINUOUS
 62
     7
 10
2511.5525259999999
 20
388.84447799999998
 30
0.0
  0
VERTEX
  5
1FD5
  8
0
  6
CONTINUOUS
 62
     7
 10
2511.3975449999998
 20
388.920863
 30
0.0
  0
VERTEX
  5
1FD6
  8
0
  6
CONTINUOUS
 62
     7
 10
2511.243031
 20
388.99802099999999
 30
0.0
  0
VERTEX
  5
1FD7
  8
0
  6
CONTINUOUS
 62
     7
 10
2511.0889860000002
 20
389.07595600000002
 30
0.0
  0
VERTEX
  5
1FD8
  8
0
  6
CONTINUOUS
 62
     7
 10
2510.935414
 20
389.15467000000001
 30
0.0
  0
VERTEX
  5
1FD9
  8
0
  6
CONTINUOUS
 62
     7
 10
2510.782318
 20
389.23416600000002
 30
0.0
  0
VERTEX
  5
1FDA
  8
0
  6
CONTINUOUS
 62
     7
 10
2510.6297009999998
 20
389.31444699999997
 30
0.0
  0
VERTEX
  5
1FDB
  8
0
  6
CONTINUOUS
 62
     7
 10
2510.4775650000001
 20
389.39551599999999
 30
0.0
  0
VERTEX
  5
1FDC
  8
0
  6
CONTINUOUS
 62
     7
 10
2510.3259149999999
 20
389.47737699999999
 30
0.0
  0
VERTEX
  5
1FDD
  8
0
  6
CONTINUOUS
 62
     7
 10
2510.1747530000011
 20
389.56003099999998
 30
0.0
  0
VERTEX
  5
1FDE
  8
0
  6
CONTINUOUS
 62
     7
 10
2510.0240819999999
 20
389.64348200000001
 30
0.0
  0
VERTEX
  5
1FDF
  8
0
  6
CONTINUOUS
 62
     7
 10
2509.8739049999999
 20
389.727732
 30
0.0
  0
VERTEX
  5
1FE0
  8
0
  6
CONTINUOUS
 62
     7
 10
2509.7242249999999
 20
389.81278600000002
 30
0.0
  0
VERTEX
  5
1FE1
  8
0
  6
CONTINUOUS
 62
     7
 10
2509.5750459999999
 20
389.8986450000001
 30
0.0
  0
VERTEX
  5
1FE2
  8
0
  6
CONTINUOUS
 62
     7
 10
2509.4263700000001
 20
389.98531300000002
 30
0.0
  0
VERTEX
  5
1FE3
  8
0
  6
CONTINUOUS
 62
     7
 10
2509.2782000000011
 20
390.07279199999999
 30
0.0
  0
VERTEX
  5
1FE4
  8
0
  6
CONTINUOUS
 62
     7
 10
2509.1305400000001
 20
390.16108600000001
 30
0.0
  0
VERTEX
  5
1FE5
  8
0
  6
CONTINUOUS
 62
     7
 10
2508.9833920000001
 20
390.25019700000001
 30
0.0
  0
VERTEX
  5
1FE6
  8
0
  6
CONTINUOUS
 62
     7
 10
2508.8367600000001
 20
390.34012899999999
 30
0.0
  0
VERTEX
  5
1FE7
  8
0
  6
CONTINUOUS
 62
     7
 10
2508.690646
 20
390.43088299999999
 30
0.0
  0
VERTEX
  5
1FE8
  8
0
  6
CONTINUOUS
 62
     7
 10
2508.5450510000001
 20
390.522469
 30
0.0
  0
VERTEX
  5
1FE9
  8
0
  6
CONTINUOUS
 62
     7
 10
2508.3999739999999
 20
390.61489499999999
 30
0.0
  0
VERTEX
  5
1FEA
  8
0
  6
CONTINUOUS
 62
     7
 10
2508.2554190000001
 20
390.708167
 30
0.0
  0
VERTEX
  5
1FEB
  8
0
  6
CONTINUOUS
 62
     7
 10
2508.11139
 20
390.80229100000003
 30
0.0
  0
VERTEX
  5
1FEC
  8
0
  6
CONTINUOUS
 62
     7
 10
2507.9678899999999
 20
390.89727299999998
 30
0.0
  0
VERTEX
  5
1FED
  8
0
  6
CONTINUOUS
 62
     7
 10
2507.8249230000001
 20
390.99311899999998
 30
0.0
  0
VERTEX
  5
1FEE
  8
0
  6
CONTINUOUS
 62
     7
 10
2507.6824929999998
 20
391.08983499999999
 30
0.0
  0
VERTEX
  5
1FEF
  8
0
  6
CONTINUOUS
 62
     7
 10
2507.5406029999999
 20
391.18742600000002
 30
0.0
  0
VERTEX
  5
1FF0
  8
0
  6
CONTINUOUS
 62
     7
 10
2507.399257
 20
391.28589900000009
 30
0.0
  0
VERTEX
  5
1FF1
  8
0
  6
CONTINUOUS
 62
     7
 10
2507.2584579999998
 20
391.38525900000002
 30
0.0
  0
VERTEX
  5
1FF2
  8
0
  6
CONTINUOUS
 62
     7
 10
2507.118211
 20
391.48551200000003
 30
0.0
  0
VERTEX
  5
1FF3
  8
0
  6
CONTINUOUS
 62
     7
 10
2506.9785179999999
 20
391.58666399999998
 30
0.0
  0
VERTEX
  5
1FF4
  8
0
  6
CONTINUOUS
 62
     7
 10
2506.8393839999999
 20
391.68872099999999
 30
0.0
  0
VERTEX
  5
1FF5
  8
0
  6
CONTINUOUS
 62
     7
 10
2506.7008110000002
 20
391.79169000000002
 30
0.0
  0
VERTEX
  5
1FF6
  8
0
  6
CONTINUOUS
 62
     7
 10
2506.5628040000001
 20
391.89557500000001
 30
0.0
  0
VERTEX
  5
1FF7
  8
0
  6
CONTINUOUS
 62
     7
 10
2506.4253680000002
 20
392.00038499999999
 30
0.0
  0
VERTEX
  5
1FF8
  8
0
  6
CONTINUOUS
 62
     7
 10
2506.2885080000001
 20
392.10612900000001
 30
0.0
  0
VERTEX
  5
1FF9
  8
0
  6
CONTINUOUS
 62
     7
 10
2506.1522289999998
 20
392.21281399999998
 30
0.0
  0
VERTEX
  5
1FFA
  8
0
  6
CONTINUOUS
 62
     7
 10
2506.0165350000002
 20
392.320448
 30
0.0
  0
VERTEX
  5
1FFB
  8
0
  6
CONTINUOUS
 62
     7
 10
2505.8814309999998
 20
392.42903799999999
 30
0.0
  0
VERTEX
  5
1FFC
  8
0
  6
CONTINUOUS
 62
     7
 10
2505.7469230000002
 20
392.53859299999999
 30
0.0
  0
VERTEX
  5
1FFD
  8
0
  6
CONTINUOUS
 62
     7
 10
2505.6130130000001
 20
392.64912199999998
 30
0.0
  0
VERTEX
  5
1FFE
  8
0
  6
CONTINUOUS
 62
     7
 10
2505.479687
 20
392.76065499999999
 30
0.0
  0
SEQEND
  5
1FFF
  8
0
  6
CONTINUOUS
 62
     7
  0
POLYLINE
  5
57A
  8
0
  6
CONTINUOUS
 62
     7
 66
     1
 10
0.0
 20
0.0
 30
0.0
  0
VERTEX
  5
2000
  8
0
  6
CONTINUOUS
 62
     7
 10
2757.0426389999998
 20
393.06817799999999
 30
0.0
  0
VERTEX
  5
2001
  8
0
  6
CONTINUOUS
 62
     7
 10
2756.892022
 20
392.937568
 30
0.0
  0
VERTEX
  5
2002
  8
0
  6
CONTINUOUS
 62
     7
 10
2756.7404620000002
 20
392.80815799999999
 30
0.0
  0
VERTEX
  5
2003
  8
0
  6
CONTINUOUS
 62
     7
 10
2756.5879639999998
 20
392.67993899999999
 30
0.0
  0
VERTEX
  5
2004
  8
0
  6
CONTINUOUS
 62
     7
 10
2756.434534
 20
392.55290400000001
 30
0.0
  0
VERTEX
  5
2005
  8
0
  6
CONTINUOUS
 62
     7
 10
2756.2801789999999
 20
392.42704600000002
 30
0.0
  0
VERTEX
  5
2006
  8
0
  6
CONTINUOUS
 62
     7
 10
2756.1249029999999
 20
392.30235800000003
 30
0.0
  0
VERTEX
  5
2007
  8
0
  6
CONTINUOUS
 62
     7
 10
2755.9687130000002
 20
392.178831
 30
0.0
  0
VERTEX
  5
2008
  8
0
  6
CONTINUOUS
 62
     7
 10
2755.8116150000001
 20
392.05646000000002
 30
0.0
  0
VERTEX
  5
2009
  8
0
  6
CONTINUOUS
 62
     7
 10
2755.6536139999998
 20
391.93523499999998
 30
0.0
  0
VERTEX
  5
200A
  8
0
  6
CONTINUOUS
 62
     7
 10
2755.494717
 20
391.8151509999999
 30
0.0
  0
VERTEX
  5
200B
  8
0
  6
CONTINUOUS
 62
     7
 10
2755.3349280000002
 20
391.69619799999998
 30
0.0
  0
VERTEX
  5
200C
  8
0
  6
CONTINUOUS
 62
     7
 10
2755.174254
 20
391.578372
 30
0.0
  0
VERTEX
  5
200D
  8
0
  6
CONTINUOUS
 62
     7
 10
2755.0127000000002
 20
391.46166199999999
 30
0.0
  0
VERTEX
  5
200E
  8
0
  6
CONTINUOUS
 62
     7
 10
2754.850273
 20
391.34606400000001
 30
0.0
  0
VERTEX
  5
200F
  8
0
  6
CONTINUOUS
 62
     7
 10
2754.686979000001
 20
391.23156799999998
 30
0.0
  0
VERTEX
  5
2010
  8
0
  6
CONTINUOUS
 62
     7
 10
2754.5228219999999
 20
391.11816800000003
 30
0.0
  0
VERTEX
  5
2011
  8
0
  6
CONTINUOUS
 62
     7
 10
2754.3578090000001
 20
391.00585599999999
 30
0.0
  0
VERTEX
  5
2012
  8
0
  6
CONTINUOUS
 62
     7
 10
2754.1919459999999
 20
390.89462400000002
 30
0.0
  0
VERTEX
  5
2013
  8
0
  6
CONTINUOUS
 62
     7
 10
2754.0252380000002
 20
390.78446700000001
 30
0.0
  0
VERTEX
  5
2014
  8
0
  6
CONTINUOUS
 62
     7
 10
2753.8576910000002
 20
390.67537499999997
 30
0.0
  0
VERTEX
  5
2015
  8
0
  6
CONTINUOUS
 62
     7
 10
2753.6893110000001
 20
390.567342
 30
0.0
  0
VERTEX
  5
2016
  8
0
  6
CONTINUOUS
 62
     7
 10
2753.5201050000001
 20
390.46036099999998
 30
0.0
  0
VERTEX
  5
2017
  8
0
  6
CONTINUOUS
 62
     7
 10
2753.350019
 20
390.35440399999999
 30
0.0
  0
VERTEX
  5
2018
  8
0
  6
CONTINUOUS
 62
     7
 10
2753.1790299999998
 20
390.24946
 30
0.0
  0
VERTEX
  5
2019
  8
0
  6
CONTINUOUS
 62
     7
 10
2753.0071840000001
 20
390.14554800000002
 30
0.0
  0
VERTEX
  5
201A
  8
0
  6
CONTINUOUS
 62
     7
 10
2752.8345260000001
 20
390.04268500000001
 30
0.0
  0
VERTEX
  5
201B
  8
0
  6
CONTINUOUS
 62
     7
 10
2752.6611029999999
 20
389.94088699999998
 30
0.0
  0
VERTEX
  5
201C
  8
0
  6
CONTINUOUS
 62
     7
 10
2752.4869600000011
 20
389.840172
 30
0.0
  0
VERTEX
  5
201D
  8
0
  6
CONTINUOUS
 62
     7
 10
2752.312144
 20
389.74055600000003
 30
0.0
  0
VERTEX
  5
201E
  8
0
  6
CONTINUOUS
 62
     7
 10
2752.1367010000008
 20
389.6420589999999
 30
0.0
  0
VERTEX
  5
201F
  8
0
  6
CONTINUOUS
 62
     7
 10
2751.9606749999998
 20
389.54469599999999
 30
0.0
  0
VERTEX
  5
2020
  8
0
  6
CONTINUOUS
 62
     7
 10
2751.7841149999999
 20
389.44848400000001
 30
0.0
  0
VERTEX
  5
2021
  8
0
  6
CONTINUOUS
 62
     7
 10
2751.6070650000001
 20
389.35344199999997
 30
0.0
  0
VERTEX
  5
2022
  8
0
  6
CONTINUOUS
 62
     7
 10
2751.4295710000001
 20
389.25958600000001
 30
0.0
  0
VERTEX
  5
2023
  8
0
  6
CONTINUOUS
 62
     7
 10
2751.2516740000001
 20
389.16692799999998
 30
0.0
  0
VERTEX
  5
2024
  8
0
  6
CONTINUOUS
 62
     7
 10
2751.073367
 20
389.07544300000001
 30
0.0
  0
VERTEX
  5
2025
  8
0
  6
CONTINUOUS
 62
     7
 10
2750.8946500000011
 20
388.985117
 30
0.0
  0
VERTEX
  5
2026
  8
0
  6
CONTINUOUS
 62
     7
 10
2750.715526
 20
388.89594099999999
 30
0.0
  0
VERTEX
  5
2027
  8
0
  6
CONTINUOUS
 62
     7
 10
2750.535997
 20
388.807907
 30
0.0
  0
VERTEX
  5
2028
  8
0
  6
CONTINUOUS
 62
     7
 10
2750.3560680000001
 20
388.72100599999999
 30
0.0
  0
VERTEX
  5
2029
  8
0
  6
CONTINUOUS
 62
     7
 10
2750.175741
 20
388.63522899999998
 30
0.0
  0
VERTEX
  5
202A
  8
0
  6
CONTINUOUS
 62
     7
 10
2749.995019
 20
388.550567
 30
0.0
  0
VERTEX
  5
202B
  8
0
  6
CONTINUOUS
 62
     7
 10
2749.813905
 20
388.46701100000001
 30
0.0
  0
VERTEX
  5
202C
  8
0
  6
CONTINUOUS
 62
     7
 10
2749.6324030000001
 20
388.38455199999999
 30
0.0
  0
VERTEX
  5
202D
  8
0
  6
CONTINUOUS
 62
     7
 10
2749.4505159999999
 20
388.303181
 30
0.0
  0
VERTEX
  5
202E
  8
0
  6
CONTINUOUS
 62
     7
 10
2749.268247
 20
388.22289000000001
 30
0.0
  0
VERTEX
  5
202F
  8
0
  6
CONTINUOUS
 62
     7
 10
2749.085598000001
 20
388.14366999999999
 30
0.0
  0
VERTEX
  5
2030
  8
0
  6
CONTINUOUS
 62
     7
 10
2748.9025750000001
 20
388.06550900000002
 30
0.0
  0
VERTEX
  5
2031
  8
0
  6
CONTINUOUS
 62
     7
 10
2748.7191790000002
 20
387.98840000000001
 30
0.0
  0
VERTEX
  5
2032
  8
0
  6
CONTINUOUS
 62
     7
 10
2748.5354130000001
 20
387.91233599999998
 30
0.0
  0
VERTEX
  5
2033
  8
0
  6
CONTINUOUS
 62
     7
 10
2748.351279
 20
387.83731299999999
 30
0.0
  0
VERTEX
  5
2034
  8
0
  6
CONTINUOUS
 62
     7
 10
2748.1667779999998
 20
387.76332500000001
 30
0.0
  0
VERTEX
  5
2035
  8
0
  6
CONTINUOUS
 62
     7
 10
2747.9819130000001
 20
387.69036699999998
 30
0.0
  0
VERTEX
  5
2036
  8
0
  6
CONTINUOUS
 62
     7
 10
2747.7966860000001
 20
387.61843299999998
 30
0.0
  0
VERTEX
  5
2037
  8
0
  6
CONTINUOUS
 62
     7
 10
2747.611097
 20
387.54751699999991
 30
0.0
  0
VERTEX
  5
2038
  8
0
  6
CONTINUOUS
 62
     7
 10
2747.42515
 20
387.47761500000001
 30
0.0
  0
VERTEX
  5
2039
  8
0
  6
CONTINUOUS
 62
     7
 10
2747.2388460000002
 20
387.40872000000002
 30
0.0
  0
VERTEX
  5
203A
  8
0
  6
CONTINUOUS
 62
     7
 10
2747.0521880000001
 20
387.34082799999999
 30
0.0
  0
VERTEX
  5
203B
  8
0
  6
CONTINUOUS
 62
     7
 10
2746.8651759999998
 20
387.273933
 30
0.0
  0
VERTEX
  5
203C
  8
0
  6
CONTINUOUS
 62
     7
 10
2746.6778140000001
 20
387.20802900000001
 30
0.0
  0
VERTEX
  5
203D
  8
0
  6
CONTINUOUS
 62
     7
 10
2746.4901020000002
 20
387.14311199999997
 30
0.0
  0
VERTEX
  5
203E
  8
0
  6
CONTINUOUS
 62
     7
 10
2746.3020430000001
 20
387.07917500000002
 30
0.0
  0
VERTEX
  5
203F
  8
0
  6
CONTINUOUS
 62
     7
 10
2746.1136390000011
 20
387.01621299999999
 30
0.0
  0
VERTEX
  5
2040
  8
0
  6
CONTINUOUS
 62
     7
 10
2745.924892
 20
386.95422100000002
 30
0.0
  0
VERTEX
  5
2041
  8
0
  6
CONTINUOUS
 62
     7
 10
2745.7358039999999
 20
386.89319399999999
 30
0.0
  0
VERTEX
  5
2042
  8
0
  6
CONTINUOUS
 62
     7
 10
2745.5463749999999
 20
386.833125
 30
0.0
  0
VERTEX
  5
2043
  8
0
  6
CONTINUOUS
 62
     7
 10
2745.3566099999998
 20
386.77400999999998
 30
0.0
  0
VERTEX
  5
2044
  8
0
  6
CONTINUOUS
 62
     7
 10
2745.1665079999998
 20
386.71584300000001
 30
0.0
  0
VERTEX
  5
2045
  8
0
  6
CONTINUOUS
 62
     7
 10
2744.9760740000002
 20
386.65861799999999
 30
0.0
  0
VERTEX
  5
2046
  8
0
  6
CONTINUOUS
 62
     7
 10
2744.7853070000001
 20
386.60233099999999
 30
0.0
  0
VERTEX
  5
2047
  8
0
  6
CONTINUOUS
 62
     7
 10
2744.5942100000011
 20
386.54697499999997
 30
0.0
  0
VERTEX
  5
2048
  8
0
  6
CONTINUOUS
 62
     7
 10
2744.4027860000001
 20
386.492546
 30
0.0
  0
VERTEX
  5
2049
  8
0
  6
CONTINUOUS
 62
     7
 10
2744.2110339999999
 20
386.43903999999998
 30
0.0
  0
VERTEX
  5
204A
  8
0
  6
CONTINUOUS
 62
     7
 10
2744.0189559999999
 20
386.386459
 30
0.0
  0
VERTEX
  5
204B
  8
0
  6
CONTINUOUS
 62
     7
 10
2743.8265510000001
 20
386.33479699999998
 30
0.0
  0
VERTEX
  5
204C
  8
0
  6
CONTINUOUS
 62
     7
 10
2743.6338230000001
 20
386.28405299999997
 30
0.0
  0
VERTEX
  5
204D
  8
0
  6
CONTINUOUS
 62
     7
 10
2743.4407700000002
 20
386.23422199999999
 30
0.0
  0
VERTEX
  5
204E
  8
0
  6
CONTINUOUS
 62
     7
 10
2743.2473949999999
 20
386.18530299999998
 30
0.0
  0
VERTEX
  5
204F
  8
0
  6
CONTINUOUS
 62
     7
 10
2743.0536990000001
 20
386.137291
 30
0.0
  0
VERTEX
  5
2050
  8
0
  6
CONTINUOUS
 62
     7
 10
2742.8596830000001
 20
386.09018300000002
 30
0.0
  0
VERTEX
  5
2051
  8
0
  6
CONTINUOUS
 62
     7
 10
2742.6653470000001
 20
386.04397699999998
 30
0.0
  0
VERTEX
  5
2052
  8
0
  6
CONTINUOUS
 62
     7
 10
2742.4706940000001
 20
385.99866800000001
 30
0.0
  0
VERTEX
  5
2053
  8
0
  6
CONTINUOUS
 62
     7
 10
2742.2757240000001
 20
385.95425499999999
 30
0.0
  0
VERTEX
  5
2054
  8
0
  6
CONTINUOUS
 62
     7
 10
2742.080438
 20
385.91073299999999
 30
0.0
  0
VERTEX
  5
2055
  8
0
  6
CONTINUOUS
 62
     7
 10
2741.8848330000001
 20
385.86809899999997
 30
0.0
  0
VERTEX
  5
2056
  8
0
  6
CONTINUOUS
 62
     7
 10
2741.6888869999998
 20
385.82634999999999
 30
0.0
  0
VERTEX
  5
2057
  8
0
  6
CONTINUOUS
 62
     7
 10
2741.4926209999999
 20
385.78548499999999
 30
0.0
  0
VERTEX
  5
2058
  8
0
  6
CONTINUOUS
 62
     7
 10
2741.296057
 20
385.74550599999998
 30
0.0
  0
VERTEX
  5
2059
  8
0
  6
CONTINUOUS
 62
     7
 10
2741.0992219999998
 20
385.706414
 30
0.0
  0
VERTEX
  5
205A
  8
0
  6
CONTINUOUS
 62
     7
 10
2740.9021390000012
 20
385.66820899999999
 30
0.0
  0
VERTEX
  5
205B
  8
0
  6
CONTINUOUS
 62
     7
 10
2740.704834000001
 20
385.63089300000001
 30
0.0
  0
VERTEX
  5
205C
  8
0
  6
CONTINUOUS
 62
     7
 10
2740.5073320000001
 20
385.59446700000001
 30
0.0
  0
VERTEX
  5
205D
  8
0
  6
CONTINUOUS
 62
     7
 10
2740.3096559999999
 20
385.55893099999997
 30
0.0
  0
VERTEX
  5
205E
  8
0
  6
CONTINUOUS
 62
     7
 10
2740.111832
 20
385.52428700000002
 30
0.0
  0
VERTEX
  5
205F
  8
0
  6
CONTINUOUS
 62
     7
 10
2739.9138840000001
 20
385.49053500000002
 30
0.0
  0
VERTEX
  5
2060
  8
0
  6
CONTINUOUS
 62
     7
 10
2739.7158370000002
 20
385.45767799999999
 30
0.0
  0
VERTEX
  5
2061
  8
0
  6
CONTINUOUS
 62
     7
 10
2739.5177159999998
 20
385.42571500000003
 30
0.0
  0
VERTEX
  5
2062
  8
0
  6
CONTINUOUS
 62
     7
 10
2739.3195150000001
 20
385.39463799999999
 30
0.0
  0
VERTEX
  5
2063
  8
0
  6
CONTINUOUS
 62
     7
 10
2739.1212089999999
 20
385.36443500000001
 30
0.0
  0
VERTEX
  5
2064
  8
0
  6
CONTINUOUS
 62
     7
 10
2738.9227989999999
 20
385.335105
 30
0.0
  0
VERTEX
  5
2065
  8
0
  6
CONTINUOUS
 62
     7
 10
2738.7242860000001
 20
385.30664200000001
 30
0.0
  0
VERTEX
  5
2066
  8
0
  6
CONTINUOUS
 62
     7
 10
2738.52567
 20
385.27904599999999
 30
0.0
  0
VERTEX
  5
2067
  8
0
  6
CONTINUOUS
 62
     7
 10
2738.326951
 20
385.25231200000002
 30
0.0
  0
VERTEX
  5
2068
  8
0
  6
CONTINUOUS
 62
     7
 10
2738.1281300000001
 20
385.22643699999998
 30
0.0
  0
VERTEX
  5
2069
  8
0
  6
CONTINUOUS
 62
     7
 10
2737.9292070000001
 20
385.20141899999999
 30
0.0
  0
VERTEX
  5
206A
  8
0
  6
CONTINUOUS
 62
     7
 10
2737.7301830000001
 20
385.177255
 30
0.0
  0
VERTEX
  5
206B
  8
0
  6
CONTINUOUS
 62
     7
 10
2737.5310570000001
 20
385.15394099999997
 30
0.0
  0
VERTEX
  5
206C
  8
0
  6
CONTINUOUS
 62
     7
 10
2737.331831
 20
385.13147500000002
 30
0.0
  0
VERTEX
  5
206D
  8
0
  6
CONTINUOUS
 62
     7
 10
2737.1325040000002
 20
385.10985299999999
 30
0.0
  0
VERTEX
  5
206E
  8
0
  6
CONTINUOUS
 62
     7
 10
2736.9330770000001
 20
385.08907299999998
 30
0.0
  0
VERTEX
  5
206F
  8
0
  6
CONTINUOUS
 62
     7
 10
2736.7335499999999
 20
385.06913100000003
 30
0.0
  0
VERTEX
  5
2070
  8
0
  6
CONTINUOUS
 62
     7
 10
2736.5339239999998
 20
385.05002500000001
 30
0.0
  0
VERTEX
  5
2071
  8
0
  6
CONTINUOUS
 62
     7
 10
2736.334198
 20
385.03175099999999
 30
0.0
  0
VERTEX
  5
2072
  8
0
  6
CONTINUOUS
 62
     7
 10
2736.1343740000002
 20
385.01430699999997
 30
0.0
  0
VERTEX
  5
2073
  8
0
  6
CONTINUOUS
 62
     7
 10
2735.934452
 20
384.99768900000009
 30
0.0
  0
VERTEX
  5
2074
  8
0
  6
CONTINUOUS
 62
     7
 10
2735.7344309999999
 20
384.98189400000001
 30
0.0
  0
VERTEX
  5
2075
  8
0
  6
CONTINUOUS
 62
     7
 10
2735.5343130000001
 20
384.96692000000002
 30
0.0
  0
VERTEX
  5
2076
  8
0
  6
CONTINUOUS
 62
     7
 10
2735.3340979999998
 20
384.952763
 30
0.0
  0
VERTEX
  5
2077
  8
0
  6
CONTINUOUS
 62
     7
 10
2735.1337859999999
 20
384.93942099999998
 30
0.0
  0
VERTEX
  5
2078
  8
0
  6
CONTINUOUS
 62
     7
 10
2734.9333769999998
 20
384.92689000000001
 30
0.0
  0
VERTEX
  5
2079
  8
0
  6
CONTINUOUS
 62
     7
 10
2734.732872
 20
384.915167
 30
0.0
  0
VERTEX
  5
207A
  8
0
  6
CONTINUOUS
 62
     7
 10
2734.5322719999999
 20
384.90424999999999
 30
0.0
  0
SEQEND
  5
207B
  8
0
  6
CONTINUOUS
 62
     7
  0
LINE
  5
5F7
  8
0
  6
CONTINUOUS
 62
     7
 10
2591.0818450000002
 20
369.70449000000002
 30
0.0
 11
2591.0818450000002
 21
373.98723799999999
 31
0.0
  0
LINE
  5
5F8
  8
0
  6
CONTINUOUS
 62
     7
 10
2671.0818429999999
 20
373.98723799999999
 30
0.0
 11
2671.0818429999999
 21
369.70449000000002
 31
0.0
  0
LINE
  5
5F9
  8
0
  6
CONTINUOUS
 62
     7
 10
2654.0818439999998
 20
369.70449000000002
 30
0.0
 11
2671.0818429999999
 21
369.70449000000002
 31
0.0
  0
LINE
  5
5FA
  8
LAYER01
  6
VERDECKT
 62
     3
 10
2608.0818439999998
 20
369.70449000000002
 30
0.0
 11
2608.0818439999998
 21
380.372952
 31
0.0
  0
LINE
  5
5FB
  8
LAYER01
  6
VERDECKT
 62
     3
 10
2654.0818439999998
 20
369.70449000000002
 30
0.0
 11
2654.0818439999998
 21
380.372952
 31
0.0
  0
LINE
  5
5FC
  8
0
  6
CONTINUOUS
 62
     7
 10
2591.0818450000002
 20
369.70449000000002
 30
0.0
 11
2654.0818439999998
 21
369.70449000000002
 31
0.0
  0
ARC
  5
5FD
  8
0
  6
CONTINUOUS
 62
     7
 10
2679.0818440000012
 20
373.98723799999999
 30
0.0
 40
8.0
 50
93.0
 51
180.0
  0
LINE
  5
5FE
  8
0
  6
CONTINUOUS
 62
     7
 10
2583.5005329999999
 20
381.9762740000001
 30
0.0
 11
2527.6314189999998
 21
384.90424999999999
 31
0.0
  0
ARC
  5
5FF
  8
0
  6
CONTINUOUS
 62
     7
 10
2583.0818439999998
 20
373.98723799999999
 30
0.0
 40
8.0
 50
0.0
 51
87.0
  0
ARC
  5
600
  8
LAYER01
  6
VERDECKT
 62
     3
 10
2659.0818440000012
 20
380.372952
 30
0.0
 40
5.0
 50
130.0
 51
180.0
  0
ARC
  5
601
  8
LAYER01
  6
VERDECKT
 62
     3
 10
2603.0818439999998
 20
380.372952
 30
0.0
 40
5.0
 50
0.0
 51
50.0
  0
LINE
  5
602
  8
LAYER01
  6
VERDECKT
 62
     3
 10
2606.2957820000001
 20
384.20317399999999
 30
0.0
 11
2655.8679059999999
 21
384.20317399999999
 31
0.0
  0
LINE
  5
603
  8
0
  6
CONTINUOUS
 62
     7
 10
2734.5322690000012
 20
384.90424999999999
 30
0.0
 11
2678.6631550000011
 21
381.9762740000001
 31
0.0
  0
LINE
  5
604
  8
0
  6
CONTINUOUS
 62
     7
 10
2495.753283
 20
522.70448499999986
 30
0.0
 11
2766.4104050000001
 21
522.70448499999986
 31
0.0
  0
LINE
  5
605
  8
LAYER01
  6
VERDECKT
 62
     3
 10
2733.9042370000002
 20
396.88780500000001
 30
0.0
 11
2668.4639850000008
 21
393.45822599999991
 31
0.0
  0
ARC
  5
606
  8
0
  6
CONTINUOUS
 62
     7
 10
2668.7256649999999
 20
388.465079
 30
0.0
 40
5.0
 50
93.0
 51
130.0
  0
POLYLINE
  5
607
  8
LAYER01
  6
VERDECKT
 62
     3
 66
     1
 10
0.0
 20
0.0
 30
0.0
  0
VERTEX
  5
207C
  8
LAYER01
  6
VERDECKT
 62
     3
 10
2528.2594479999998
 20
396.88780500000001
 30
0.0
  0
VERTEX
  5
207D
  8
LAYER01
  6
VERDECKT
 62
     3
 10
2528.1484920000012
 20
396.89388600000001
 30
0.0
  0
VERTEX
  5
207E
  8
LAYER01
  6
VERDECKT
 62
     3
 10
2528.0376540000002
 20
396.90049399999998
 30
0.0
  0
VERTEX
  5
207F
  8
LAYER01
  6
VERDECKT
 62
     3
 10
2527.9269359999998
 20
396.90763099999998
 30
0.0
  0
VERTEX
  5
2080
  8
LAYER01
  6
VERDECKT
 62
     3
 10
2527.8163359999999
 20
396.91529800000001
 30
0.0
  0
VERTEX
  5
2081
  8
LAYER01
  6
VERDECKT
 62
     3
 10
2527.7058550000011
 20
396.923497
 30
0.0
  0
VERTEX
  5
2082
  8
LAYER01
  6
VERDECKT
 62
     3
 10
2527.5954940000001
 20
396.93222800000001
 30
0.0
  0
VERTEX
  5
2083
  8
LAYER01
  6
VERDECKT
 62
     3
 10
2527.4852540000002
 20
396.94149300000009
 30
0.0
  0
VERTEX
  5
2084
  8
LAYER01
  6
VERDECKT
 62
     3
 10
2527.375133
 20
396.95129500000002
 30
0.0
  0
VERTEX
  5
2085
  8
LAYER01
  6
VERDECKT
 62
     3
 10
2527.2651329999999
 20
396.96163300000001
 30
0.0
  0
VERTEX
  5
2086
  8
LAYER01
  6
VERDECKT
 62
     3
 10
2527.1552539999998
 20
396.97251
 30
0.0
  0
VERTEX
  5
2087
  8
LAYER01
  6
VERDECKT
 62
     3
 10
2527.0454960000002
 20
396.98392699999999
 30
0.0
  0
VERTEX
  5
2088
  8
LAYER01
  6
VERDECKT
 62
     3
 10
2526.93586
 20
396.99588499999999
 30
0.0
  0
VERTEX
  5
2089
  8
LAYER01
  6
VERDECKT
 62
     3
 10
2526.8263449999999
 20
397.00838599999997
 30
0.0
  0
VERTEX
  5
208A
  8
LAYER01
  6
VERDECKT
 62
     3
 10
2526.7169530000001
 20
397.02143100000001
 30
0.0
  0
VERTEX
  5
208B
  8
LAYER01
  6
VERDECKT
 62
     3
 10
2526.6076840000001
 20
397.03502200000003
 30
0.0
  0
VERTEX
  5
208C
  8
LAYER01
  6
VERDECKT
 62
     3
 10
2526.4985369999999
 20
397.04915999999997
 30
0.0
  0
VERTEX
  5
208D
  8
LAYER01
  6
VERDECKT
 62
     3
 10
2526.3895130000001
 20
397.06384600000001
 30
0.0
  0
VERTEX
  5
208E
  8
LAYER01
  6
VERDECKT
 62
     3
 10
2526.2806129999999
 20
397.07908200000003
 30
0.0
  0
VERTEX
  5
208F
  8
LAYER01
  6
VERDECKT
 62
     3
 10
2526.1718370000008
 20
397.09487000000001
 30
0.0
  0
VERTEX
  5
2090
  8
LAYER01
  6
VERDECKT
 62
     3
 10
2526.0631840000001
 20
397.11121000000003
 30
0.0
  0
VERTEX
  5
2091
  8
LAYER01
  6
VERDECKT
 62
     3
 10
2525.9546570000002
 20
397.12810400000001
 30
0.0
  0
VERTEX
  5
2092
  8
LAYER01
  6
VERDECKT
 62
     3
 10
2525.8462530000002
 20
397.145554
 30
0.0
  0
VERTEX
  5
2093
  8
LAYER01
  6
VERDECKT
 62
     3
 10
2525.737975
 20
397.16356100000002
 30
0.0
  0
VERTEX
  5
2094
  8
LAYER01
  6
VERDECKT
 62
     3
 10
2525.6298230000002
 20
397.18212599999998
 30
0.0
  0
VERTEX
  5
2095
  8
LAYER01
  6
VERDECKT
 62
     3
 10
2525.521796
 20
397.2012509999999
 30
0.0
  0
VERTEX
  5
2096
  8
LAYER01
  6
VERDECKT
 62
     3
 10
2525.4138950000001
 20
397.22093699999999
 30
0.0
  0
VERTEX
  5
2097
  8
LAYER01
  6
VERDECKT
 62
     3
 10
2525.3061200000002
 20
397.24118600000003
 30
0.0
  0
VERTEX
  5
2098
  8
LAYER01
  6
VERDECKT
 62
     3
 10
2525.198472
 20
397.261999
 30
0.0
  0
VERTEX
  5
2099
  8
LAYER01
  6
VERDECKT
 62
     3
 10
2525.090951000001
 20
397.28337699999997
 30
0.0
  0
VERTEX
  5
209A
  8
LAYER01
  6
VERDECKT
 62
     3
 10
2524.9835579999999
 20
397.30532199999999
 30
0.0
  0
VERTEX
  5
209B
  8
LAYER01
  6
VERDECKT
 62
     3
 10
2524.8762919999999
 20
397.32783599999999
 30
0.0
  0
VERTEX
  5
209C
  8
LAYER01
  6
VERDECKT
 62
     3
 10
2524.7691540000001
 20
397.35091899999998
 30
0.0
  0
VERTEX
  5
209D
  8
LAYER01
  6
VERDECKT
 62
     3
 10
2524.6621439999999
 20
397.374574
 30
0.0
  0
VERTEX
  5
209E
  8
LAYER01
  6
VERDECKT
 62
     3
 10
2524.5552630000002
 20
397.39880099999999
 30
0.0
  0
VERTEX
  5
209F
  8
LAYER01
  6
VERDECKT
 62
     3
 10
2524.4485100000002
 20
397.42360200000002
 30
0.0
  0
VERTEX
  5
20A0
  8
LAYER01
  6
VERDECKT
 62
     3
 10
2524.341887
 20
397.4489779999999
 30
0.0
  0
VERTEX
  5
20A1
  8
LAYER01
  6
VERDECKT
 62
     3
 10
2524.2353929999999
 20
397.47493200000002
 30
0.0
  0
VERTEX
  5
20A2
  8
LAYER01
  6
VERDECKT
 62
     3
 10
2524.1290300000001
 20
397.501463
 30
0.0
  0
VERTEX
  5
20A3
  8
LAYER01
  6
VERDECKT
 62
     3
 10
2524.0227960000011
 20
397.52857400000011
 30
0.0
  0
VERTEX
  5
20A4
  8
LAYER01
  6
VERDECKT
 62
     3
 10
2523.9166930000001
 20
397.55626699999999
 30
0.0
  0
VERTEX
  5
20A5
  8
LAYER01
  6
VERDECKT
 62
     3
 10
2523.8107199999999
 20
397.584541
 30
0.0
  0
VERTEX
  5
20A6
  8
LAYER01
  6
VERDECKT
 62
     3
 10
2523.7048789999999
 20
397.61340000000001
 30
0.0
  0
VERTEX
  5
20A7
  8
LAYER01
  6
VERDECKT
 62
     3
 10
2523.59917
 20
397.64284800000001
 30
0.0
  0
VERTEX
  5
20A8
  8
LAYER01
  6
VERDECKT
 62
     3
 10
2523.4935959999998
 20
397.67289599999998
 30
0.0
  0
VERTEX
  5
20A9
  8
LAYER01
  6
VERDECKT
 62
     3
 10
2523.3881569999999
 20
397.70354600000002
 30
0.0
  0
VERTEX
  5
20AA
  8
LAYER01
  6
VERDECKT
 62
     3
 10
2523.2828549999999
 20
397.73480599999999
 30
0.0
  0
VERTEX
  5
20AB
  8
LAYER01
  6
VERDECKT
 62
     3
 10
2523.1776909999999
 20
397.76667900000001
 30
0.0
  0
VERTEX
  5
20AC
  8
LAYER01
  6
VERDECKT
 62
     3
 10
2523.0726650000001
 20
397.799171
 30
0.0
  0
VERTEX
  5
20AD
  8
LAYER01
  6
VERDECKT
 62
     3
 10
2522.9677799999999
 20
397.83228800000001
 30
0.0
  0
VERTEX
  5
20AE
  8
LAYER01
  6
VERDECKT
 62
     3
 10
2522.8630360000002
 20
397.86603400000001
 30
0.0
  0
VERTEX
  5
20AF
  8
LAYER01
  6
VERDECKT
 62
     3
 10
2522.7584350000002
 20
397.90041400000001
 30
0.0
  0
VERTEX
  5
20B0
  8
LAYER01
  6
VERDECKT
 62
     3
 10
2522.6539769999999
 20
397.93543399999999
 30
0.0
  0
VERTEX
  5
20B1
  8
LAYER01
  6
VERDECKT
 62
     3
 10
2522.549665
 20
397.97109899999998
 30
0.0
  0
VERTEX
  5
20B2
  8
LAYER01
  6
VERDECKT
 62
     3
 10
2522.445498
 20
398.0074140000001
 30
0.0
  0
VERTEX
  5
20B3
  8
LAYER01
  6
VERDECKT
 62
     3
 10
2522.3414779999998
 20
398.04438399999998
 30
0.0
  0
VERTEX
  5
20B4
  8
LAYER01
  6
VERDECKT
 62
     3
 10
2522.2376060000001
 20
398.08201400000002
 30
0.0
  0
VERTEX
  5
20B5
  8
LAYER01
  6
VERDECKT
 62
     3
 10
2522.1338839999999
 20
398.12031000000002
 30
0.0
  0
VERTEX
  5
20B6
  8
LAYER01
  6
VERDECKT
 62
     3
 10
2522.0303119999999
 20
398.15927499999998
 30
0.0
  0
VERTEX
  5
20B7
  8
LAYER01
  6
VERDECKT
 62
     3
 10
2521.926892
 20
398.19891699999999
 30
0.0
  0
VERTEX
  5
20B8
  8
LAYER01
  6
VERDECKT
 62
     3
 10
2521.823625
 20
398.23924
 30
0.0
  0
VERTEX
  5
20B9
  8
LAYER01
  6
VERDECKT
 62
     3
 10
2521.7205119999999
 20
398.28024799999997
 30
0.0
  0
VERTEX
  5
20BA
  8
LAYER01
  6
VERDECKT
 62
     3
 10
2521.6175539999999
 20
398.32194700000002
 30
0.0
  0
VERTEX
  5
20BB
  8
LAYER01
  6
VERDECKT
 62
     3
 10
2521.5147529999999
 20
398.36434300000002
 30
0.0
  0
VERTEX
  5
20BC
  8
LAYER01
  6
VERDECKT
 62
     3
 10
2521.412155
 20
398.40742599999999
 30
0.0
  0
VERTEX
  5
20BD
  8
LAYER01
  6
VERDECKT
 62
     3
 10
2521.3098209999998
 20
398.45118200000002
 30
0.0
  0
VERTEX
  5
20BE
  8
LAYER01
  6
VERDECKT
 62
     3
 10
2521.2077709999999
 20
398.49560500000001
 30
0.0
  0
VERTEX
  5
20BF
  8
LAYER01
  6
VERDECKT
 62
     3
 10
2521.1060240000002
 20
398.54069099999998
 30
0.0
  0
VERTEX
  5
20C0
  8
LAYER01
  6
VERDECKT
 62
     3
 10
2521.0046030000012
 20
398.58643699999999
 30
0.0
  0
VERTEX
  5
20C1
  8
LAYER01
  6
VERDECKT
 62
     3
 10
2520.9035269999999
 20
398.63283699999999
 30
0.0
  0
VERTEX
  5
20C2
  8
LAYER01
  6
VERDECKT
 62
     3
 10
2520.802815
 20
398.67988700000001
 30
0.0
  0
VERTEX
  5
20C3
  8
LAYER01
  6
VERDECKT
 62
     3
 10
2520.7024889999998
 20
398.72758199999998
 30
0.0
  0
VERTEX
  5
20C4
  8
LAYER01
  6
VERDECKT
 62
     3
 10
2520.60257
 20
398.77591899999999
 30
0.0
  0
VERTEX
  5
20C5
  8
LAYER01
  6
VERDECKT
 62
     3
 10
2520.503076
 20
398.82489300000009
 30
0.0
  0
VERTEX
  5
20C6
  8
LAYER01
  6
VERDECKT
 62
     3
 10
2520.4040209999998
 20
398.87450200000001
 30
0.0
  0
VERTEX
  5
20C7
  8
LAYER01
  6
VERDECKT
 62
     3
 10
2520.3053730000001
 20
398.92476399999998
 30
0.0
  0
VERTEX
  5
20C8
  8
LAYER01
  6
VERDECKT
 62
     3
 10
2520.2071289999999
 20
398.97568699999999
 30
0.0
  0
VERTEX
  5
20C9
  8
LAYER01
  6
VERDECKT
 62
     3
 10
2520.1092910000011
 20
399.02727399999998
 30
0.0
  0
VERTEX
  5
20CA
  8
LAYER01
  6
VERDECKT
 62
     3
 10
2520.011861
 20
399.07953199999997
 30
0.0
  0
VERTEX
  5
20CB
  8
LAYER01
  6
VERDECKT
 62
     3
 10
2519.9148439999999
 20
399.13246400000003
 30
0.0
  0
VERTEX
  5
20CC
  8
LAYER01
  6
VERDECKT
 62
     3
 10
2519.8182419999998
 20
399.18607500000002
 30
0.0
  0
VERTEX
  5
20CD
  8
LAYER01
  6
VERDECKT
 62
     3
 10
2519.7220569999999
 20
399.24036999999998
 30
0.0
  0
VERTEX
  5
20CE
  8
LAYER01
  6
VERDECKT
 62
     3
 10
2519.6262929999998
 20
399.29535399999997
 30
0.0
  0
VERTEX
  5
20CF
  8
LAYER01
  6
VERDECKT
 62
     3
 10
2519.5309520000001
 20
399.35103199999998
 30
0.0
  0
VERTEX
  5
20D0
  8
LAYER01
  6
VERDECKT
 62
     3
 10
2519.4360379999998
 20
399.40740799999998
 30
0.0
  0
VERTEX
  5
20D1
  8
LAYER01
  6
VERDECKT
 62
     3
 10
2519.341543
 20
399.46448900000001
 30
0.0
  0
VERTEX
  5
20D2
  8
LAYER01
  6
VERDECKT
 62
     3
 10
2519.247464
 20
399.52228400000001
 30
0.0
  0
VERTEX
  5
20D3
  8
LAYER01
  6
VERDECKT
 62
     3
 10
2519.1538089999999
 20
399.58080000000001
 30
0.0
  0
VERTEX
  5
20D4
  8
LAYER01
  6
VERDECKT
 62
     3
 10
2519.0605839999998
 20
399.64004299999999
 30
0.0
  0
VERTEX
  5
20D5
  8
LAYER01
  6
VERDECKT
 62
     3
 10
2518.9677980000001
 20
399.700019
 30
0.0
  0
VERTEX
  5
20D6
  8
LAYER01
  6
VERDECKT
 62
     3
 10
2518.875458
 20
399.76073700000001
 30
0.0
  0
VERTEX
  5
20D7
  8
LAYER01
  6
VERDECKT
 62
     3
 10
2518.7835709999999
 20
399.822202
 30
0.0
  0
VERTEX
  5
20D8
  8
LAYER01
  6
VERDECKT
 62
     3
 10
2518.692145
 20
399.88441999999998
 30
0.0
  0
VERTEX
  5
20D9
  8
LAYER01
  6
VERDECKT
 62
     3
 10
2518.6011870000002
 20
399.94740000000002
 30
0.0
  0
VERTEX
  5
20DA
  8
LAYER01
  6
VERDECKT
 62
     3
 10
2518.5107050000011
 20
400.01114799999999
 30
0.0
  0
VERTEX
  5
20DB
  8
LAYER01
  6
VERDECKT
 62
     3
 10
2518.4207070000011
 20
400.075669
 30
0.0
  0
VERTEX
  5
20DC
  8
LAYER01
  6
VERDECKT
 62
     3
 10
2518.3312000000001
 20
400.14097199999998
 30
0.0
  0
VERTEX
  5
20DD
  8
LAYER01
  6
VERDECKT
 62
     3
 10
2518.2421909999998
 20
400.20706200000001
 30
0.0
  0
VERTEX
  5
20DE
  8
LAYER01
  6
VERDECKT
 62
     3
 10
2518.1536879999999
 20
400.27394599999991
 30
0.0
  0
VERTEX
  5
20DF
  8
LAYER01
  6
VERDECKT
 62
     3
 10
2518.0656979999999
 20
400.341632
 30
0.0
  0
VERTEX
  5
20E0
  8
LAYER01
  6
VERDECKT
 62
     3
 10
2517.9782300000011
 20
400.41012599999988
 30
0.0
  0
VERTEX
  5
20E1
  8
LAYER01
  6
VERDECKT
 62
     3
 10
2517.89129
 20
400.47943400000003
 30
0.0
  0
VERTEX
  5
20E2
  8
LAYER01
  6
VERDECKT
 62
     3
 10
2517.8048859999999
 20
400.54956399999998
 30
0.0
  0
VERTEX
  5
20E3
  8
LAYER01
  6
VERDECKT
 62
     3
 10
2517.7190249999999
 20
400.62052199999999
 30
0.0
  0
VERTEX
  5
20E4
  8
LAYER01
  6
VERDECKT
 62
     3
 10
2517.6337159999998
 20
400.69231400000001
 30
0.0
  0
VERTEX
  5
20E5
  8
LAYER01
  6
VERDECKT
 62
     3
 10
2517.548965
 20
400.764948
 30
0.0
  0
VERTEX
  5
20E6
  8
LAYER01
  6
VERDECKT
 62
     3
 10
2517.4648830000001
 20
400.83833900000002
 30
0.0
  0
VERTEX
  5
20E7
  8
LAYER01
  6
VERDECKT
 62
     3
 10
2517.3815800000002
 20
400.91240199999987
 30
0.0
  0
VERTEX
  5
20E8
  8
LAYER01
  6
VERDECKT
 62
     3
 10
2517.2990629999999
 20
400.987143
 30
0.0
  0
VERTEX
  5
20E9
  8
LAYER01
  6
VERDECKT
 62
     3
 10
2517.217341
 20
401.06256999999999
 30
0.0
  0
VERTEX
  5
20EA
  8
LAYER01
  6
VERDECKT
 62
     3
 10
2517.1364210000002
 20
401.13868799999989
 30
0.0
  0
VERTEX
  5
20EB
  8
LAYER01
  6
VERDECKT
 62
     3
 10
2517.0563090000001
 20
401.21550400000001
 30
0.0
  0
VERTEX
  5
20EC
  8
LAYER01
  6
VERDECKT
 62
     3
 10
2516.9770149999999
 20
401.293025
 30
0.0
  0
VERTEX
  5
20ED
  8
LAYER01
  6
VERDECKT
 62
     3
 10
2516.8985440000001
 20
401.37125600000002
 30
0.0
  0
VERTEX
  5
20EE
  8
LAYER01
  6
VERDECKT
 62
     3
 10
2516.820905
 20
401.45020499999993
 30
0.0
  0
VERTEX
  5
20EF
  8
LAYER01
  6
VERDECKT
 62
     3
 10
2516.7441039999999
 20
401.529877
 30
0.0
  0
VERTEX
  5
20F0
  8
LAYER01
  6
VERDECKT
 62
     3
 10
2516.6681510000012
 20
401.61027999999988
 30
0.0
  0
VERTEX
  5
20F1
  8
LAYER01
  6
VERDECKT
 62
     3
 10
2516.5930509999998
 20
401.69141899999988
 30
0.0
  0
VERTEX
  5
20F2
  8
LAYER01
  6
VERDECKT
 62
     3
 10
2516.5188120000012
 20
401.77330199999989
 30
0.0
  0
VERTEX
  5
20F3
  8
LAYER01
  6
VERDECKT
 62
     3
 10
2516.4454420000002
 20
401.85593399999999
 30
0.0
  0
VERTEX
  5
20F4
  8
LAYER01
  6
VERDECKT
 62
     3
 10
2516.3729490000001
 20
401.939322
 30
0.0
  0
VERTEX
  5
20F5
  8
LAYER01
  6
VERDECKT
 62
     3
 10
2516.30134
 20
402.02347200000003
 30
0.0
  0
VERTEX
  5
20F6
  8
LAYER01
  6
VERDECKT
 62
     3
 10
2516.2306210000002
 20
402.10839099999998
 30
0.0
  0
VERTEX
  5
20F7
  8
LAYER01
  6
VERDECKT
 62
     3
 10
2516.1608019999999
 20
402.19408499999997
 30
0.0
  0
VERTEX
  5
20F8
  8
LAYER01
  6
VERDECKT
 62
     3
 10
2516.0918890000012
 20
402.28056199999997
 30
0.0
  0
VERTEX
  5
20F9
  8
LAYER01
  6
VERDECKT
 62
     3
 10
2516.0238890000001
 20
402.36782599999992
 30
0.0
  0
VERTEX
  5
20FA
  8
LAYER01
  6
VERDECKT
 62
     3
 10
2515.9568100000001
 20
402.45588500000002
 30
0.0
  0
VERTEX
  5
20FB
  8
LAYER01
  6
VERDECKT
 62
     3
 10
2515.8906400000001
 20
402.54479500000002
 30
0.0
  0
VERTEX
  5
20FC
  8
LAYER01
  6
VERDECKT
 62
     3
 10
2515.8253810000001
 20
402.63459599999987
 30
0.0
  0
VERTEX
  5
20FD
  8
LAYER01
  6
VERDECKT
 62
     3
 10
2515.7610679999998
 20
402.72526699999997
 30
0.0
  0
VERTEX
  5
20FE
  8
LAYER01
  6
VERDECKT
 62
     3
 10
2515.6977310000002
 20
402.81678900000003
 30
0.0
  0
VERTEX
  5
20FF
  8
LAYER01
  6
VERDECKT
 62
     3
 10
2515.6354059999999
 20
402.90913999999992
 30
0.0
  0
VERTEX
  5
2100
  8
LAYER01
  6
VERDECKT
 62
     3
 10
2515.5741240000002
 20
403.00230099999987
 30
0.0
  0
VERTEX
  5
2101
  8
LAYER01
  6
VERDECKT
 62
     3
 10
2515.513919
 20
403.096251
 30
0.0
  0
VERTEX
  5
2102
  8
LAYER01
  6
VERDECKT
 62
     3
 10
2515.454823
 20
403.19097099999988
 30
0.0
  0
VERTEX
  5
2103
  8
LAYER01
  6
VERDECKT
 62
     3
 10
2515.3968690000002
 20
403.28643999999991
 30
0.0
  0
VERTEX
  5
2104
  8
LAYER01
  6
VERDECKT
 62
     3
 10
2515.340091
 20
403.38263799999987
 30
0.0
  0
VERTEX
  5
2105
  8
LAYER01
  6
VERDECKT
 62
     3
 10
2515.2845309999998
 20
403.47952400000003
 30
0.0
  0
VERTEX
  5
2106
  8
LAYER01
  6
VERDECKT
 62
     3
 10
2515.23027
 20
403.57696299999992
 30
0.0
  0
VERTEX
  5
2107
  8
LAYER01
  6
VERDECKT
 62
     3
 10
2515.1773269999999
 20
403.67493599999989
 30
0.0
  0
VERTEX
  5
2108
  8
LAYER01
  6
VERDECKT
 62
     3
 10
2515.1257110000001
 20
403.77344599999998
 30
0.0
  0
VERTEX
  5
2109
  8
LAYER01
  6
VERDECKT
 62
     3
 10
2515.0754310000002
 20
403.87249800000001
 30
0.0
  0
VERTEX
  5
210A
  8
LAYER01
  6
VERDECKT
 62
     3
 10
2515.0264940000011
 20
403.97209399999991
 30
0.0
  0
VERTEX
  5
210B
  8
LAYER01
  6
VERDECKT
 62
     3
 10
2514.9789089999999
 20
404.07223800000003
 30
0.0
  0
VERTEX
  5
210C
  8
LAYER01
  6
VERDECKT
 62
     3
 10
2514.9326839999999
 20
404.17293299999989
 30
0.0
  0
VERTEX
  5
210D
  8
LAYER01
  6
VERDECKT
 62
     3
 10
2514.8878279999999
 20
404.27418199999988
 30
0.0
  0
VERTEX
  5
210E
  8
LAYER01
  6
VERDECKT
 62
     3
 10
2514.8443499999998
 20
404.37599
 30
0.0
  0
VERTEX
  5
210F
  8
LAYER01
  6
VERDECKT
 62
     3
 10
2514.8022569999998
 20
404.4783589999999
 30
0.0
  0
VERTEX
  5
2110
  8
LAYER01
  6
VERDECKT
 62
     3
 10
2514.761559
 20
404.58129400000001
 30
0.0
  0
VERTEX
  5
2111
  8
LAYER01
  6
VERDECKT
 62
     3
 10
2514.7222689999999
 20
404.68479799999989
 30
0.0
  0
VERTEX
  5
2112
  8
LAYER01
  6
VERDECKT
 62
     3
 10
2514.684401
 20
404.78887900000001
 30
0.0
  0
VERTEX
  5
2113
  8
LAYER01
  6
VERDECKT
 62
     3
 10
2514.6479709999999
 20
404.89354300000002
 30
0.0
  0
VERTEX
  5
2114
  8
LAYER01
  6
VERDECKT
 62
     3
 10
2514.612995
 20
404.99879600000003
 30
0.0
  0
VERTEX
  5
2115
  8
LAYER01
  6
VERDECKT
 62
     3
 10
2514.579487
 20
405.10464400000001
 30
0.0
  0
VERTEX
  5
2116
  8
LAYER01
  6
VERDECKT
 62
     3
 10
2514.5474629999999
 20
405.21109200000001
 30
0.0
  0
VERTEX
  5
2117
  8
LAYER01
  6
VERDECKT
 62
     3
 10
2514.5169380000002
 20
405.31814900000001
 30
0.0
  0
VERTEX
  5
2118
  8
LAYER01
  6
VERDECKT
 62
     3
 10
2514.4879270000001
 20
405.42581899999988
 30
0.0
  0
VERTEX
  5
2119
  8
LAYER01
  6
VERDECKT
 62
     3
 10
2514.460446
 20
405.53410899999989
 30
0.0
  0
VERTEX
  5
211A
  8
LAYER01
  6
VERDECKT
 62
     3
 10
2514.4345189999999
 20
405.64299599999998
 30
0.0
  0
VERTEX
  5
211B
  8
LAYER01
  6
VERDECKT
 62
     3
 10
2514.4102090000001
 20
405.75230299999993
 30
0.0
  0
VERTEX
  5
211C
  8
LAYER01
  6
VERDECKT
 62
     3
 10
2514.3875400000002
 20
405.86198300000001
 30
0.0
  0
VERTEX
  5
211D
  8
LAYER01
  6
VERDECKT
 62
     3
 10
2514.3665219999998
 20
405.97201199999989
 30
0.0
  0
VERTEX
  5
211E
  8
LAYER01
  6
VERDECKT
 62
     3
 10
2514.3471679999998
 20
406.08237200000002
 30
0.0
  0
VERTEX
  5
211F
  8
LAYER01
  6
VERDECKT
 62
     3
 10
2514.3294900000001
 20
406.19303899999989
 30
0.0
  0
VERTEX
  5
2120
  8
LAYER01
  6
VERDECKT
 62
     3
 10
2514.313502
 20
406.30399299999999
 30
0.0
  0
VERTEX
  5
2121
  8
LAYER01
  6
VERDECKT
 62
     3
 10
2514.299215
 20
406.41521299999999
 30
0.0
  0
VERTEX
  5
2122
  8
LAYER01
  6
VERDECKT
 62
     3
 10
2514.2866410000001
 20
406.52667700000001
 30
0.0
  0
VERTEX
  5
2123
  8
LAYER01
  6
VERDECKT
 62
     3
 10
2514.2757940000001
 20
406.63836400000002
 30
0.0
  0
VERTEX
  5
2124
  8
LAYER01
  6
VERDECKT
 62
     3
 10
2514.2666850000001
 20
406.75025299999987
 30
0.0
  0
SEQEND
  5
2125
  8
LAYER01
  6
VERDECKT
 62
     3
  0
LINE
  5
6B2
  8
LAYER01
  6
VERDECKT
 62
     3
 10
2593.6997030000002
 20
393.45822599999991
 30
0.0
 11
2528.2594509999999
 21
396.88780500000001
 31
0.0
  0
ARC
  5
6B3
  8
LAYER01
  6
VERDECKT
 62
     3
 10
2593.4380230000002
 20
388.465079
 30
0.0
 40
5.0
 50
50.0
 51
87.0
  0
LINE
  5
6B4
  8
LAYER01
  6
VERDECKT
 62
     3
 10
2596.651961
 20
392.29530099999999
 30
0.0
 11
2665.5117270000001
 21
392.29530099999999
 31
0.0
  0
POLYLINE
  5
6B5
  8
LAYER01
  6
VERDECKT
 62
     3
 66
     1
 10
0.0
 20
0.0
 30
0.0
  0
VERTEX
  5
2126
  8
LAYER01
  6
VERDECKT
 62
     3
 10
2495.7532890000002
 20
522.70448999999996
 30
0.0
  0
VERTEX
  5
2127
  8
LAYER01
  6
VERDECKT
 62
     3
 10
2495.8245670000001
 20
522.70430699999997
 30
0.0
  0
VERTEX
  5
2128
  8
LAYER01
  6
VERDECKT
 62
     3
 10
2495.8958379999999
 20
522.70375799999999
 30
0.0
  0
VERTEX
  5
2129
  8
LAYER01
  6
VERDECKT
 62
     3
 10
2495.9671010000002
 20
522.70284100000003
 30
0.0
  0
VERTEX
  5
212A
  8
LAYER01
  6
VERDECKT
 62
     3
 10
2496.038356
 20
522.70155799999986
 30
0.0
  0
VERTEX
  5
212B
  8
LAYER01
  6
VERDECKT
 62
     3
 10
2496.1096030000008
 20
522.69990800000005
 30
0.0
  0
VERTEX
  5
212C
  8
LAYER01
  6
VERDECKT
 62
     3
 10
2496.1808420000011
 20
522.69789000000003
 30
0.0
  0
VERTEX
  5
212D
  8
LAYER01
  6
VERDECKT
 62
     3
 10
2496.252074
 20
522.69550399999991
 30
0.0
  0
VERTEX
  5
212E
  8
LAYER01
  6
VERDECKT
 62
     3
 10
2496.3232969999999
 20
522.69275000000005
 30
0.0
  0
VERTEX
  5
212F
  8
LAYER01
  6
VERDECKT
 62
     3
 10
2496.3945130000002
 20
522.68962799999997
 30
0.0
  0
VERTEX
  5
2130
  8
LAYER01
  6
VERDECKT
 62
     3
 10
2496.4657219999999
 20
522.68613800000003
 30
0.0
  0
VERTEX
  5
2131
  8
LAYER01
  6
VERDECKT
 62
     3
 10
2496.5369219999998
 20
522.682278
 30
0.0
  0
VERTEX
  5
2132
  8
LAYER01
  6
VERDECKT
 62
     3
 10
2496.6081140000001
 20
522.67804999999998
 30
0.0
  0
VERTEX
  5
2133
  8
LAYER01
  6
VERDECKT
 62
     3
 10
2496.6792989999999
 20
522.67345199999988
 30
0.0
  0
VERTEX
  5
2134
  8
LAYER01
  6
VERDECKT
 62
     3
 10
2496.7504760000002
 20
522.66848400000003
 30
0.0
  0
VERTEX
  5
2135
  8
LAYER01
  6
VERDECKT
 62
     3
 10
2496.821645
 20
522.66314599999998
 30
0.0
  0
VERTEX
  5
2136
  8
LAYER01
  6
VERDECKT
 62
     3
 10
2496.8928059999998
 20
522.65743799999996
 30
0.0
  0
VERTEX
  5
2137
  8
LAYER01
  6
VERDECKT
 62
     3
 10
2496.9639590000002
 20
522.65135999999995
 30
0.0
  0
VERTEX
  5
2138
  8
LAYER01
  6
VERDECKT
 62
     3
 10
2497.035104
 20
522.64491099999987
 30
0.0
  0
VERTEX
  5
2139
  8
LAYER01
  6
VERDECKT
 62
     3
 10
2497.1062419999998
 20
522.63809000000003
 30
0.0
  0
VERTEX
  5
213A
  8
LAYER01
  6
VERDECKT
 62
     3
 10
2497.1773710000011
 20
522.63089899999989
 30
0.0
  0
VERTEX
  5
213B
  8
LAYER01
  6
VERDECKT
 62
     3
 10
2497.2484930000001
 20
522.62333599999999
 30
0.0
  0
VERTEX
  5
213C
  8
LAYER01
  6
VERDECKT
 62
     3
 10
2497.3196069999999
 20
522.61540000000002
 30
0.0
  0
VERTEX
  5
213D
  8
LAYER01
  6
VERDECKT
 62
     3
 10
2497.3907129999998
 20
522.60709299999985
 30
0.0
  0
VERTEX
  5
213E
  8
LAYER01
  6
VERDECKT
 62
     3
 10
2497.4618110000001
 20
522.59841399999993
 30
0.0
  0
VERTEX
  5
213F
  8
LAYER01
  6
VERDECKT
 62
     3
 10
2497.532901
 20
522.58936100000005
 30
0.0
  0
VERTEX
  5
2140
  8
LAYER01
  6
VERDECKT
 62
     3
 10
2497.6040010000002
 20
522.57993099999999
 30
0.0
  0
VERTEX
  5
2141
  8
LAYER01
  6
VERDECKT
 62
     3
 10
2497.6751199999999
 20
522.57011799999987
 30
0.0
  0
VERTEX
  5
2142
  8
LAYER01
  6
VERDECKT
 62
     3
 10
2497.7462439999999
 20
522.55992400000002
 30
0.0
  0
VERTEX
  5
2143
  8
LAYER01
  6
VERDECKT
 62
     3
 10
2497.8173590000001
 20
522.54935199999989
 30
0.0
  0
VERTEX
  5
2144
  8
LAYER01
  6
VERDECKT
 62
     3
 10
2497.8884499999999
 20
522.53840199999991
 30
0.0
  0
VERTEX
  5
2145
  8
LAYER01
  6
VERDECKT
 62
     3
 10
2497.9595050000012
 20
522.52707699999985
 30
0.0
  0
VERTEX
  5
2146
  8
LAYER01
  6
VERDECKT
 62
     3
 10
2498.0305090000002
 20
522.51537699999994
 30
0.0
  0
VERTEX
  5
2147
  8
LAYER01
  6
VERDECKT
 62
     3
 10
2498.1014479999999
 20
522.50330599999995
 30
0.0
  0
VERTEX
  5
2148
  8
LAYER01
  6
VERDECKT
 62
     3
 10
2498.172309
 20
522.49086399999987
 30
0.0
  0
VERTEX
  5
2149
  8
LAYER01
  6
VERDECKT
 62
     3
 10
2498.2430770000001
 20
522.47805300000005
 30
0.0
  0
VERTEX
  5
214A
  8
LAYER01
  6
VERDECKT
 62
     3
 10
2498.3137379999998
 20
522.464876
 30
0.0
  0
VERTEX
  5
214B
  8
LAYER01
  6
VERDECKT
 62
     3
 10
2498.3842800000002
 20
522.45133299999986
 30
0.0
  0
VERTEX
  5
214C
  8
LAYER01
  6
VERDECKT
 62
     3
 10
2498.4546879999998
 20
522.43742599999985
 30
0.0
  0
VERTEX
  5
214D
  8
LAYER01
  6
VERDECKT
 62
     3
 10
2498.5249640000002
 20
522.42315899999994
 30
0.0
  0
VERTEX
  5
214E
  8
LAYER01
  6
VERDECKT
 62
     3
 10
2498.5951089999999
 20
522.40852999999993
 30
0.0
  0
VERTEX
  5
214F
  8
LAYER01
  6
VERDECKT
 62
     3
 10
2498.6651219999999
 20
522.39354100000003
 30
0.0
  0
VERTEX
  5
2150
  8
LAYER01
  6
VERDECKT
 62
     3
 10
2498.7350040000001
 20
522.37819100000002
 30
0.0
  0
VERTEX
  5
2151
  8
LAYER01
  6
VERDECKT
 62
     3
 10
2498.8047550000001
 20
522.36248000000001
 30
0.0
  0
VERTEX
  5
2152
  8
LAYER01
  6
VERDECKT
 62
     3
 10
2498.874374
 20
522.346408
 30
0.0
  0
VERTEX
  5
2153
  8
LAYER01
  6
VERDECKT
 62
     3
 10
2498.9438620000001
 20
522.32997499999988
 30
0.0
  0
VERTEX
  5
2154
  8
LAYER01
  6
VERDECKT
 62
     3
 10
2499.0132180000001
 20
522.31318099999987
 30
0.0
  0
VERTEX
  5
2155
  8
LAYER01
  6
VERDECKT
 62
     3
 10
2499.0824429999998
 20
522.29602599999987
 30
0.0
  0
VERTEX
  5
2156
  8
LAYER01
  6
VERDECKT
 62
     3
 10
2499.1515359999999
 20
522.27851099999998
 30
0.0
  0
VERTEX
  5
2157
  8
LAYER01
  6
VERDECKT
 62
     3
 10
2499.2204980000001
 20
522.26063399999987
 30
0.0
  0
VERTEX
  5
2158
  8
LAYER01
  6
VERDECKT
 62
     3
 10
2499.2893290000002
 20
522.24239599999987
 30
0.0
  0
VERTEX
  5
2159
  8
LAYER01
  6
VERDECKT
 62
     3
 10
2499.3580280000001
 20
522.22379899999987
 30
0.0
  0
VERTEX
  5
215A
  8
LAYER01
  6
VERDECKT
 62
     3
 10
2499.4265970000001
 20
522.20484099999999
 30
0.0
  0
VERTEX
  5
215B
  8
LAYER01
  6
VERDECKT
 62
     3
 10
2499.4950340000009
 20
522.18552299999999
 30
0.0
  0
VERTEX
  5
215C
  8
LAYER01
  6
VERDECKT
 62
     3
 10
2499.5633400000002
 20
522.16584299999988
 30
0.0
  0
VERTEX
  5
215D
  8
LAYER01
  6
VERDECKT
 62
     3
 10
2499.6315129999998
 20
522.14580000000001
 30
0.0
  0
VERTEX
  5
215E
  8
LAYER01
  6
VERDECKT
 62
     3
 10
2499.6995539999998
 20
522.12539299999992
 30
0.0
  0
VERTEX
  5
215F
  8
LAYER01
  6
VERDECKT
 62
     3
 10
2499.7674619999998
 20
522.10462099999995
 30
0.0
  0
VERTEX
  5
2160
  8
LAYER01
  6
VERDECKT
 62
     3
 10
2499.8352359999999
 20
522.083483
 30
0.0
  0
VERTEX
  5
2161
  8
LAYER01
  6
VERDECKT
 62
     3
 10
2499.902877
 20
522.06197799999995
 30
0.0
  0
VERTEX
  5
2162
  8
LAYER01
  6
VERDECKT
 62
     3
 10
2499.9703840000002
 20
522.04010400000004
 30
0.0
  0
VERTEX
  5
2163
  8
LAYER01
  6
VERDECKT
 62
     3
 10
2500.0377560000002
 20
522.01786100000004
 30
0.0
  0
VERTEX
  5
2164
  8
LAYER01
  6
VERDECKT
 62
     3
 10
2500.1049939999998
 20
521.99524799999995
 30
0.0
  0
VERTEX
  5
2165
  8
LAYER01
  6
VERDECKT
 62
     3
 10
2500.1720959999998
 20
521.97226299999988
 30
0.0
  0
VERTEX
  5
2166
  8
LAYER01
  6
VERDECKT
 62
     3
 10
2500.2390620000001
 20
521.94890599999985
 30
0.0
  0
VERTEX
  5
2167
  8
LAYER01
  6
VERDECKT
 62
     3
 10
2500.3058930000002
 20
521.92517399999986
 30
0.0
  0
VERTEX
  5
2168
  8
LAYER01
  6
VERDECKT
 62
     3
 10
2500.3725870000012
 20
521.90106800000001
 30
0.0
  0
VERTEX
  5
2169
  8
LAYER01
  6
VERDECKT
 62
     3
 10
2500.4391439999999
 20
521.87658699999986
 30
0.0
  0
VERTEX
  5
216A
  8
LAYER01
  6
VERDECKT
 62
     3
 10
2500.505564
 20
521.85172799999987
 30
0.0
  0
VERTEX
  5
216B
  8
LAYER01
  6
VERDECKT
 62
     3
 10
2500.5718460000012
 20
521.82649100000003
 30
0.0
  0
VERTEX
  5
216C
  8
LAYER01
  6
VERDECKT
 62
     3
 10
2500.6379900000002
 20
521.80087500000002
 30
0.0
  0
VERTEX
  5
216D
  8
LAYER01
  6
VERDECKT
 62
     3
 10
2500.7039960000002
 20
521.77487900000006
 30
0.0
  0
VERTEX
  5
216E
  8
LAYER01
  6
VERDECKT
 62
     3
 10
2500.769863
 20
521.7485019999998
 30
0.0
  0
VERTEX
  5
216F
  8
LAYER01
  6
VERDECKT
 62
     3
 10
2500.835591
 20
521.72174299999995
 30
0.0
  0
VERTEX
  5
2170
  8
LAYER01
  6
VERDECKT
 62
     3
 10
2500.901179
 20
521.69460000000004
 30
0.0
  0
VERTEX
  5
2171
  8
LAYER01
  6
VERDECKT
 62
     3
 10
2500.9666280000001
 20
521.66707299999996
 30
0.0
  0
VERTEX
  5
2172
  8
LAYER01
  6
VERDECKT
 62
     3
 10
2501.031935
 20
521.63915899999995
 30
0.0
  0
VERTEX
  5
2173
  8
LAYER01
  6
VERDECKT
 62
     3
 10
2501.0971
 20
521.61085400000002
 30
0.0
  0
VERTEX
  5
2174
  8
LAYER01
  6
VERDECKT
 62
     3
 10
2501.1621230000001
 20
521.58215700000005
 30
0.0
  0
VERTEX
  5
2175
  8
LAYER01
  6
VERDECKT
 62
     3
 10
2501.2270010000002
 20
521.55306499999995
 30
0.0
  0
VERTEX
  5
2176
  8
LAYER01
  6
VERDECKT
 62
     3
 10
2501.2917350000012
 20
521.52357599999993
 30
0.0
  0
VERTEX
  5
2177
  8
LAYER01
  6
VERDECKT
 62
     3
 10
2501.356323
 20
521.49368600000003
 30
0.0
  0
VERTEX
  5
2178
  8
LAYER01
  6
VERDECKT
 62
     3
 10
2501.4207649999998
 20
521.46339399999988
 30
0.0
  0
VERTEX
  5
2179
  8
LAYER01
  6
VERDECKT
 62
     3
 10
2501.4850590000001
 20
521.43269699999996
 30
0.0
  0
VERTEX
  5
217A
  8
LAYER01
  6
VERDECKT
 62
     3
 10
2501.5492049999998
 20
521.40159299999993
 30
0.0
  0
VERTEX
  5
217B
  8
LAYER01
  6
VERDECKT
 62
     3
 10
2501.613202
 20
521.37008000000003
 30
0.0
  0
VERTEX
  5
217C
  8
LAYER01
  6
VERDECKT
 62
     3
 10
2501.6770489999999
 20
521.33815400000003
 30
0.0
  0
VERTEX
  5
217D
  8
LAYER01
  6
VERDECKT
 62
     3
 10
2501.7407450000001
 20
521.30581299999994
 30
0.0
  0
VERTEX
  5
217E
  8
LAYER01
  6
VERDECKT
 62
     3
 10
2501.8042930000011
 20
521.27305299999989
 30
0.0
  0
VERTEX
  5
217F
  8
LAYER01
  6
VERDECKT
 62
     3
 10
2501.8677149999999
 20
521.23985500000003
 30
0.0
  0
VERTEX
  5
2180
  8
LAYER01
  6
VERDECKT
 62
     3
 10
2501.9310049999999
 20
521.20622100000003
 30
0.0
  0
VERTEX
  5
2181
  8
LAYER01
  6
VERDECKT
 62
     3
 10
2501.9941509999999
 20
521.17215099999999
 30
0.0
  0
VERTEX
  5
2182
  8
LAYER01
  6
VERDECKT
 62
     3
 10
2502.0571420000001
 20
521.13764900000001
 30
0.0
  0
VERTEX
  5
2183
  8
LAYER01
  6
VERDECKT
 62
     3
 10
2502.1199670000001
 20
521.10271599999987
 30
0.0
  0
VERTEX
  5
2184
  8
LAYER01
  6
VERDECKT
 62
     3
 10
2502.1826150000002
 20
521.0673559999999
 30
0.0
  0
VERTEX
  5
2185
  8
LAYER01
  6
VERDECKT
 62
     3
 10
2502.2450749999998
 20
521.03156999999987
 30
0.0
  0
VERTEX
  5
2186
  8
LAYER01
  6
VERDECKT
 62
     3
 10
2502.3073359999999
 20
520.995362
 30
0.0
  0
VERTEX
  5
2187
  8
LAYER01
  6
VERDECKT
 62
     3
 10
2502.369385
 20
520.95873300000005
 30
0.0
  0
VERTEX
  5
2188
  8
LAYER01
  6
VERDECKT
 62
     3
 10
2502.4312129999998
 20
520.92168600000002
 30
0.0
  0
VERTEX
  5
2189
  8
LAYER01
  6
VERDECKT
 62
     3
 10
2502.492808
 20
520.88422400000002
 30
0.0
  0
VERTEX
  5
218A
  8
LAYER01
  6
VERDECKT
 62
     3
 10
2502.5541589999998
 20
520.84634800000003
 30
0.0
  0
VERTEX
  5
218B
  8
LAYER01
  6
VERDECKT
 62
     3
 10
2502.6152299999999
 20
520.80808100000002
 30
0.0
  0
VERTEX
  5
218C
  8
LAYER01
  6
VERDECKT
 62
     3
 10
2502.6759940000002
 20
520.76944200000003
 30
0.0
  0
VERTEX
  5
218D
  8
LAYER01
  6
VERDECKT
 62
     3
 10
2502.7364470000002
 20
520.73042999999996
 30
0.0
  0
VERTEX
  5
218E
  8
LAYER01
  6
VERDECKT
 62
     3
 10
2502.7965880000002
 20
520.69104100000004
 30
0.0
  0
VERTEX
  5
218F
  8
LAYER01
  6
VERDECKT
 62
     3
 10
2502.8564160000001
 20
520.65127500000006
 30
0.0
  0
VERTEX
  5
2190
  8
LAYER01
  6
VERDECKT
 62
     3
 10
2502.9159289999998
 20
520.61112800000001
 30
0.0
  0
VERTEX
  5
2191
  8
LAYER01
  6
VERDECKT
 62
     3
 10
2502.9751240000001
 20
520.57059800000002
 30
0.0
  0
VERTEX
  5
2192
  8
LAYER01
  6
VERDECKT
 62
     3
 10
2503.034001
 20
520.52968299999986
 30
0.0
  0
VERTEX
  5
2193
  8
LAYER01
  6
VERDECKT
 62
     3
 10
2503.0925569999999
 20
520.488382
 30
0.0
  0
VERTEX
  5
2194
  8
LAYER01
  6
VERDECKT
 62
     3
 10
2503.1507900000001
 20
520.44669199999987
 30
0.0
  0
VERTEX
  5
2195
  8
LAYER01
  6
VERDECKT
 62
     3
 10
2503.2087000000001
 20
520.40461100000005
 30
0.0
  0
VERTEX
  5
2196
  8
LAYER01
  6
VERDECKT
 62
     3
 10
2503.2662829999999
 20
520.36213599999996
 30
0.0
  0
VERTEX
  5
2197
  8
LAYER01
  6
VERDECKT
 62
     3
 10
2503.3235380000001
 20
520.31926599999997
 30
0.0
  0
VERTEX
  5
2198
  8
LAYER01
  6
VERDECKT
 62
     3
 10
2503.380463
 20
520.27599799999996
 30
0.0
  0
VERTEX
  5
2199
  8
LAYER01
  6
VERDECKT
 62
     3
 10
2503.437058
 20
520.23233099999993
 30
0.0
  0
VERTEX
  5
219A
  8
LAYER01
  6
VERDECKT
 62
     3
 10
2503.4933190000002
 20
520.18826100000001
 30
0.0
  0
VERTEX
  5
219B
  8
LAYER01
  6
VERDECKT
 62
     3
 10
2503.5492450000002
 20
520.14378699999986
 30
0.0
  0
VERTEX
  5
219C
  8
LAYER01
  6
VERDECKT
 62
     3
 10
2503.6048340000011
 20
520.09890800000005
 30
0.0
  0
VERTEX
  5
219D
  8
LAYER01
  6
VERDECKT
 62
     3
 10
2503.660085
 20
520.05361900000003
 30
0.0
  0
VERTEX
  5
219E
  8
LAYER01
  6
VERDECKT
 62
     3
 10
2503.7149949999998
 20
520.00792100000001
 30
0.0
  0
VERTEX
  5
219F
  8
LAYER01
  6
VERDECKT
 62
     3
 10
2503.7695629999998
 20
519.96180900000002
 30
0.0
  0
VERTEX
  5
21A0
  8
LAYER01
  6
VERDECKT
 62
     3
 10
2503.8237869999998
 20
519.91528300000004
 30
0.0
  0
VERTEX
  5
21A1
  8
LAYER01
  6
VERDECKT
 62
     3
 10
2503.8776659999999
 20
519.86833899999999
 30
0.0
  0
VERTEX
  5
21A2
  8
LAYER01
  6
VERDECKT
 62
     3
 10
2503.9311969999999
 20
519.82097699999997
 30
0.0
  0
VERTEX
  5
21A3
  8
LAYER01
  6
VERDECKT
 62
     3
 10
2503.984379
 20
519.77319299999988
 30
0.0
  0
VERTEX
  5
21A4
  8
LAYER01
  6
VERDECKT
 62
     3
 10
2504.0372080000002
 20
519.72498399999995
 30
0.0
  0
VERTEX
  5
21A5
  8
LAYER01
  6
VERDECKT
 62
     3
 10
2504.0896790000002
 20
519.67634299999986
 30
0.0
  0
VERTEX
  5
21A6
  8
LAYER01
  6
VERDECKT
 62
     3
 10
2504.1417900000001
 20
519.62726799999984
 30
0.0
  0
VERTEX
  5
21A7
  8
LAYER01
  6
VERDECKT
 62
     3
 10
2504.1935370000001
 20
519.57775299999992
 30
0.0
  0
VERTEX
  5
21A8
  8
LAYER01
  6
VERDECKT
 62
     3
 10
2504.2449150000002
 20
519.52779299999986
 30
0.0
  0
VERTEX
  5
21A9
  8
LAYER01
  6
VERDECKT
 62
     3
 10
2504.2959219999998
 20
519.47738600000002
 30
0.0
  0
VERTEX
  5
21AA
  8
LAYER01
  6
VERDECKT
 62
     3
 10
2504.3465529999999
 20
519.42652499999986
 30
0.0
  0
VERTEX
  5
21AB
  8
LAYER01
  6
VERDECKT
 62
     3
 10
2504.3968049999999
 20
519.37520800000004
 30
0.0
  0
VERTEX
  5
21AC
  8
LAYER01
  6
VERDECKT
 62
     3
 10
2504.4466750000001
 20
519.32342900000003
 30
0.0
  0
VERTEX
  5
21AD
  8
LAYER01
  6
VERDECKT
 62
     3
 10
2504.4961589999998
 20
519.27118399999995
 30
0.0
  0
VERTEX
  5
21AE
  8
LAYER01
  6
VERDECKT
 62
     3
 10
2504.5452529999998
 20
519.21846900000003
 30
0.0
  0
VERTEX
  5
21AF
  8
LAYER01
  6
VERDECKT
 62
     3
 10
2504.5939530000001
 20
519.16527999999994
 30
0.0
  0
VERTEX
  5
21B0
  8
LAYER01
  6
VERDECKT
 62
     3
 10
2504.642249
 20
519.11161800000002
 30
0.0
  0
VERTEX
  5
21B1
  8
LAYER01
  6
VERDECKT
 62
     3
 10
2504.6900909999999
 20
519.05752500000006
 30
0.0
  0
VERTEX
  5
21B2
  8
LAYER01
  6
VERDECKT
 62
     3
 10
2504.7374610000002
 20
519.003016
 30
0.0
  0
VERTEX
  5
21B3
  8
LAYER01
  6
VERDECKT
 62
     3
 10
2504.7843440000001
 20
518.94809999999995
 30
0.0
  0
VERTEX
  5
21B4
  8
LAYER01
  6
VERDECKT
 62
     3
 10
2504.830731
 20
518.89278599999989
 30
0.0
  0
VERTEX
  5
21B5
  8
LAYER01
  6
VERDECKT
 62
     3
 10
2504.876608
 20
518.837084
 30
0.0
  0
VERTEX
  5
21B6
  8
LAYER01
  6
VERDECKT
 62
     3
 10
2504.9219640000001
 20
518.78100199999994
 30
0.0
  0
VERTEX
  5
21B7
  8
LAYER01
  6
VERDECKT
 62
     3
 10
2504.966785000001
 20
518.72455100000002
 30
0.0
  0
VERTEX
  5
21B8
  8
LAYER01
  6
VERDECKT
 62
     3
 10
2505.0110610000002
 20
518.66773799999987
 30
0.0
  0
VERTEX
  5
21B9
  8
LAYER01
  6
VERDECKT
 62
     3
 10
2505.0547790000001
 20
518.61057300000004
 30
0.0
  0
VERTEX
  5
21BA
  8
LAYER01
  6
VERDECKT
 62
     3
 10
2505.0979260000008
 20
518.55306599999994
 30
0.0
  0
VERTEX
  5
21BB
  8
LAYER01
  6
VERDECKT
 62
     3
 10
2505.140492
 20
518.495225
 30
0.0
  0
VERTEX
  5
21BC
  8
LAYER01
  6
VERDECKT
 62
     3
 10
2505.1824620000002
 20
518.43705999999997
 30
0.0
  0
VERTEX
  5
21BD
  8
LAYER01
  6
VERDECKT
 62
     3
 10
2505.2238459999999
 20
518.378559
 30
0.0
  0
VERTEX
  5
21BE
  8
LAYER01
  6
VERDECKT
 62
     3
 10
2505.2646559999998
 20
518.3196999999999
 30
0.0
  0
VERTEX
  5
21BF
  8
LAYER01
  6
VERDECKT
 62
     3
 10
2505.3048880000001
 20
518.26048200000002
 30
0.0
  0
VERTEX
  5
21C0
  8
LAYER01
  6
VERDECKT
 62
     3
 10
2505.3445369999999
 20
518.20090099999993
 30
0.0
  0
VERTEX
  5
21C1
  8
LAYER01
  6
VERDECKT
 62
     3
 10
2505.3836000000001
 20
518.14095599999985
 30
0.0
  0
VERTEX
  5
21C2
  8
LAYER01
  6
VERDECKT
 62
     3
 10
2505.4220719999998
 20
518.08064400000001
 30
0.0
  0
VERTEX
  5
21C3
  8
LAYER01
  6
VERDECKT
 62
     3
 10
2505.4599490000001
 20
518.01996099999997
 30
0.0
  0
VERTEX
  5
21C4
  8
LAYER01
  6
VERDECKT
 62
     3
 10
2505.497226
 20
517.95890599999996
 30
0.0
  0
VERTEX
  5
21C5
  8
LAYER01
  6
VERDECKT
 62
     3
 10
2505.5338999999999
 20
517.89747499999999
 30
0.0
  0
VERTEX
  5
21C6
  8
LAYER01
  6
VERDECKT
 62
     3
 10
2505.5699669999999
 20
517.83566699999994
 30
0.0
  0
VERTEX
  5
21C7
  8
LAYER01
  6
VERDECKT
 62
     3
 10
2505.6054210000002
 20
517.77347799999995
 30
0.0
  0
VERTEX
  5
21C8
  8
LAYER01
  6
VERDECKT
 62
     3
 10
2505.6402589999998
 20
517.71090599999991
 30
0.0
  0
VERTEX
  5
21C9
  8
LAYER01
  6
VERDECKT
 62
     3
 10
2505.6744800000001
 20
517.64793999999995
 30
0.0
  0
VERTEX
  5
21CA
  8
LAYER01
  6
VERDECKT
 62
     3
 10
2505.7080940000001
 20
517.58453399999985
 30
0.0
  0
VERTEX
  5
21CB
  8
LAYER01
  6
VERDECKT
 62
     3
 10
2505.7410909999999
 20
517.52069299999994
 30
0.0
  0
VERTEX
  5
21CC
  8
LAYER01
  6
VERDECKT
 62
     3
 10
2505.7734580000001
 20
517.45643199999995
 30
0.0
  0
VERTEX
  5
21CD
  8
LAYER01
  6
VERDECKT
 62
     3
 10
2505.8051800000012
 20
517.39176399999985
 30
0.0
  0
VERTEX
  5
21CE
  8
LAYER01
  6
VERDECKT
 62
     3
 10
2505.836245
 20
517.32670399999995
 30
0.0
  0
VERTEX
  5
21CF
  8
LAYER01
  6
VERDECKT
 62
     3
 10
2505.866638
 20
517.26126599999986
 30
0.0
  0
VERTEX
  5
21D0
  8
LAYER01
  6
VERDECKT
 62
     3
 10
2505.896346
 20
517.1954649999999
 30
0.0
  0
VERTEX
  5
21D1
  8
LAYER01
  6
VERDECKT
 62
     3
 10
2505.9253560000002
 20
517.12931300000002
 30
0.0
  0
VERTEX
  5
21D2
  8
LAYER01
  6
VERDECKT
 62
     3
 10
2505.9536520000001
 20
517.06282599999986
 30
0.0
  0
VERTEX
  5
21D3
  8
LAYER01
  6
VERDECKT
 62
     3
 10
2505.9812230000002
 20
516.99601699999994
 30
0.0
  0
VERTEX
  5
21D4
  8
LAYER01
  6
VERDECKT
 62
     3
 10
2506.0080539999999
 20
516.92890099999988
 30
0.0
  0
VERTEX
  5
21D5
  8
LAYER01
  6
VERDECKT
 62
     3
 10
2506.0341309999999
 20
516.861492
 30
0.0
  0
VERTEX
  5
21D6
  8
LAYER01
  6
VERDECKT
 62
     3
 10
2506.0594289999999
 20
516.79386399999999
 30
0.0
  0
VERTEX
  5
21D7
  8
LAYER01
  6
VERDECKT
 62
     3
 10
2506.0839289999999
 20
516.72608099999991
 30
0.0
  0
VERTEX
  5
21D8
  8
LAYER01
  6
VERDECKT
 62
     3
 10
2506.107629000001
 20
516.658141
 30
0.0
  0
VERTEX
  5
21D9
  8
LAYER01
  6
VERDECKT
 62
     3
 10
2506.1305260000008
 20
516.59004600000003
 30
0.0
  0
VERTEX
  5
21DA
  8
LAYER01
  6
VERDECKT
 62
     3
 10
2506.1526180000001
 20
516.52179299999989
 30
0.0
  0
VERTEX
  5
21DB
  8
LAYER01
  6
VERDECKT
 62
     3
 10
2506.1739040000002
 20
516.45338400000003
 30
0.0
  0
VERTEX
  5
21DC
  8
LAYER01
  6
VERDECKT
 62
     3
 10
2506.1943799999999
 20
516.384817
 30
0.0
  0
VERTEX
  5
21DD
  8
LAYER01
  6
VERDECKT
 62
     3
 10
2506.2140450000002
 20
516.31609200000003
 30
0.0
  0
VERTEX
  5
21DE
  8
LAYER01
  6
VERDECKT
 62
     3
 10
2506.2328969999999
 20
516.247209
 30
0.0
  0
VERTEX
  5
21DF
  8
LAYER01
  6
VERDECKT
 62
     3
 10
2506.2509319999999
 20
516.17816700000003
 30
0.0
  0
VERTEX
  5
21E0
  8
LAYER01
  6
VERDECKT
 62
     3
 10
2506.268149
 20
516.10896600000001
 30
0.0
  0
VERTEX
  5
21E1
  8
LAYER01
  6
VERDECKT
 62
     3
 10
2506.2845459999999
 20
516.03960400000005
 30
0.0
  0
VERTEX
  5
21E2
  8
LAYER01
  6
VERDECKT
 62
     3
 10
2506.3001199999999
 20
515.97008300000005
 30
0.0
  0
VERTEX
  5
21E3
  8
LAYER01
  6
VERDECKT
 62
     3
 10
2506.3148700000002
 20
515.90040099999999
 30
0.0
  0
VERTEX
  5
21E4
  8
LAYER01
  6
VERDECKT
 62
     3
 10
2506.3287920000012
 20
515.83055899999999
 30
0.0
  0
VERTEX
  5
21E5
  8
LAYER01
  6
VERDECKT
 62
     3
 10
2506.3418850000012
 20
515.76055399999996
 30
0.0
  0
VERTEX
  5
21E6
  8
LAYER01
  6
VERDECKT
 62
     3
 10
2506.3541460000001
 20
515.69038799999987
 30
0.0
  0
VERTEX
  5
21E7
  8
LAYER01
  6
VERDECKT
 62
     3
 10
2506.3655739999999
 20
515.62005899999997
 30
0.0
  0
VERTEX
  5
21E8
  8
LAYER01
  6
VERDECKT
 62
     3
 10
2506.3761650000001
 20
515.54956800000002
 30
0.0
  0
VERTEX
  5
21E9
  8
LAYER01
  6
VERDECKT
 62
     3
 10
2506.3859179999999
 20
515.47891399999992
 30
0.0
  0
VERTEX
  5
21EA
  8
LAYER01
  6
VERDECKT
 62
     3
 10
2506.3948310000001
 20
515.40809599999989
 30
0.0
  0
VERTEX
  5
21EB
  8
LAYER01
  6
VERDECKT
 62
     3
 10
2506.4029
 20
515.33711300000004
 30
0.0
  0
VERTEX
  5
21EC
  8
LAYER01
  6
VERDECKT
 62
     3
 10
2506.4101249999999
 20
515.26596700000005
 30
0.0
  0
VERTEX
  5
21ED
  8
LAYER01
  6
VERDECKT
 62
     3
 10
2506.4165029999999
 20
515.1946549999999
 30
0.0
  0
VERTEX
  5
21EE
  8
LAYER01
  6
VERDECKT
 62
     3
 10
2506.4220300000002
 20
515.12317800000005
 30
0.0
  0
SEQEND
  5
21EF
  8
LAYER01
  6
VERDECKT
 62
     3
  0
POLYLINE
  5
780
  8
LAYER01
  6
VERDECKT
 62
     3
 66
     1
 10
0.0
 20
0.0
 30
0.0
  0
VERTEX
  5
21F0
  8
LAYER01
  6
VERDECKT
 62
     3
 10
2478.7364689999999
 20
510.70448999999991
 30
0.0
  0
VERTEX
  5
21F1
  8
LAYER01
  6
VERDECKT
 62
     3
 10
2478.8232720000001
 20
510.70425199999988
 30
0.0
  0
VERTEX
  5
21F2
  8
LAYER01
  6
VERDECKT
 62
     3
 10
2478.9100279999998
 20
510.70353699999998
 30
0.0
  0
VERTEX
  5
21F3
  8
LAYER01
  6
VERDECKT
 62
     3
 10
2478.9967390000002
 20
510.70234599999992
 30
0.0
  0
VERTEX
  5
21F4
  8
LAYER01
  6
VERDECKT
 62
     3
 10
2479.083404
 20
510.70067899999992
 30
0.0
  0
VERTEX
  5
21F5
  8
LAYER01
  6
VERDECKT
 62
     3
 10
2479.1700230000001
 20
510.69853599999999
 30
0.0
  0
VERTEX
  5
21F6
  8
LAYER01
  6
VERDECKT
 62
     3
 10
2479.2565949999998
 20
510.69591799999989
 30
0.0
  0
VERTEX
  5
21F7
  8
LAYER01
  6
VERDECKT
 62
     3
 10
2479.3431220000002
 20
510.69282399999997
 30
0.0
  0
VERTEX
  5
21F8
  8
LAYER01
  6
VERDECKT
 62
     3
 10
2479.4296039999999
 20
510.68925400000001
 30
0.0
  0
VERTEX
  5
21F9
  8
LAYER01
  6
VERDECKT
 62
     3
 10
2479.5160390000001
 20
510.68520999999998
 30
0.0
  0
VERTEX
  5
21FA
  8
LAYER01
  6
VERDECKT
 62
     3
 10
2479.6024280000001
 20
510.68069100000002
 30
0.0
  0
VERTEX
  5
21FB
  8
LAYER01
  6
VERDECKT
 62
     3
 10
2479.688772
 20
510.6756969999999
 30
0.0
  0
VERTEX
  5
21FC
  8
LAYER01
  6
VERDECKT
 62
     3
 10
2479.7750700000001
 20
510.67022900000001
 30
0.0
  0
VERTEX
  5
21FD
  8
LAYER01
  6
VERDECKT
 62
     3
 10
2479.8613220000002
 20
510.664286
 30
0.0
  0
VERTEX
  5
21FE
  8
LAYER01
  6
VERDECKT
 62
     3
 10
2479.9475280000001
 20
510.65787
 30
0.0
  0
VERTEX
  5
21FF
  8
LAYER01
  6
VERDECKT
 62
     3
 10
2480.0336889999999
 20
510.65098
 30
0.0
  0
VERTEX
  5
2200
  8
LAYER01
  6
VERDECKT
 62
     3
 10
2480.1198039999999
 20
510.64361600000001
 30
0.0
  0
VERTEX
  5
2201
  8
LAYER01
  6
VERDECKT
 62
     3
 10
2480.2058729999999
 20
510.63577800000002
 30
0.0
  0
VERTEX
  5
2202
  8
LAYER01
  6
VERDECKT
 62
     3
 10
2480.2918960000011
 20
510.62746799999991
 30
0.0
  0
VERTEX
  5
2203
  8
LAYER01
  6
VERDECKT
 62
     3
 10
2480.3778739999998
 20
510.61868399999992
 30
0.0
  0
VERTEX
  5
2204
  8
LAYER01
  6
VERDECKT
 62
     3
 10
2480.4638060000002
 20
510.60942699999993
 30
0.0
  0
VERTEX
  5
2205
  8
LAYER01
  6
VERDECKT
 62
     3
 10
2480.5496929999999
 20
510.59969799999999
 30
0.0
  0
VERTEX
  5
2206
  8
LAYER01
  6
VERDECKT
 62
     3
 10
2480.635534
 20
510.58949599999988
 30
0.0
  0
VERTEX
  5
2207
  8
LAYER01
  6
VERDECKT
 62
     3
 10
2480.721329
 20
510.578823
 30
0.0
  0
VERTEX
  5
2208
  8
LAYER01
  6
VERDECKT
 62
     3
 10
2480.8070790000002
 20
510.56767699999989
 30
0.0
  0
VERTEX
  5
2209
  8
LAYER01
  6
VERDECKT
 62
     3
 10
2480.8927829999998
 20
510.556059
 30
0.0
  0
VERTEX
  5
220A
  8
LAYER01
  6
VERDECKT
 62
     3
 10
2480.9784420000001
 20
510.54396799999989
 30
0.0
  0
VERTEX
  5
220B
  8
LAYER01
  6
VERDECKT
 62
     3
 10
2481.0640549999998
 20
510.5314019999999
 30
0.0
  0
VERTEX
  5
220C
  8
LAYER01
  6
VERDECKT
 62
     3
 10
2481.1496219999999
 20
510.51835899999998
 30
0.0
  0
VERTEX
  5
220D
  8
LAYER01
  6
VERDECKT
 62
     3
 10
2481.235142
 20
510.50483899999989
 30
0.0
  0
VERTEX
  5
220E
  8
LAYER01
  6
VERDECKT
 62
     3
 10
2481.3206170000012
 20
510.49083999999999
 30
0.0
  0
VERTEX
  5
220F
  8
LAYER01
  6
VERDECKT
 62
     3
 10
2481.4060450000002
 20
510.476361
 30
0.0
  0
VERTEX
  5
2210
  8
LAYER01
  6
VERDECKT
 62
     3
 10
2481.4914269999999
 20
510.46140199999991
 30
0.0
  0
VERTEX
  5
2211
  8
LAYER01
  6
VERDECKT
 62
     3
 10
2481.5767620000001
 20
510.4459599999999
 30
0.0
  0
VERTEX
  5
2212
  8
LAYER01
  6
VERDECKT
 62
     3
 10
2481.6620510000012
 20
510.43003599999997
 30
0.0
  0
VERTEX
  5
2213
  8
LAYER01
  6
VERDECKT
 62
     3
 10
2481.747292
 20
510.41362699999991
 30
0.0
  0
VERTEX
  5
2214
  8
LAYER01
  6
VERDECKT
 62
     3
 10
2481.8324870000001
 20
510.39673199999999
 30
0.0
  0
VERTEX
  5
2215
  8
LAYER01
  6
VERDECKT
 62
     3
 10
2481.9176349999998
 20
510.37935099999999
 30
0.0
  0
VERTEX
  5
2216
  8
LAYER01
  6
VERDECKT
 62
     3
 10
2482.002743
 20
510.36148099999991
 30
0.0
  0
VERTEX
  5
2217
  8
LAYER01
  6
VERDECKT
 62
     3
 10
2482.0878429999998
 20
510.34310899999991
 30
0.0
  0
VERTEX
  5
2218
  8
LAYER01
  6
VERDECKT
 62
     3
 10
2482.1729249999999
 20
510.32423699999998
 30
0.0
  0
VERTEX
  5
2219
  8
LAYER01
  6
VERDECKT
 62
     3
 10
2482.2579730000002
 20
510.30486699999989
 30
0.0
  0
VERTEX
  5
221A
  8
LAYER01
  6
VERDECKT
 62
     3
 10
2482.3429679999999
 20
510.2850029999999
 30
0.0
  0
VERTEX
  5
221B
  8
LAYER01
  6
VERDECKT
 62
     3
 10
2482.427893
 20
510.26464800000002
 30
0.0
  0
VERTEX
  5
221C
  8
LAYER01
  6
VERDECKT
 62
     3
 10
2482.5127309999998
 20
510.24380400000001
 30
0.0
  0
VERTEX
  5
221D
  8
LAYER01
  6
VERDECKT
 62
     3
 10
2482.5974649999998
 20
510.22247499999992
 30
0.0
  0
VERTEX
  5
221E
  8
LAYER01
  6
VERDECKT
 62
     3
 10
2482.6820769999999
 20
510.2006639999999
 30
0.0
  0
VERTEX
  5
221F
  8
LAYER01
  6
VERDECKT
 62
     3
 10
2482.7665489999999
 20
510.17837300000002
 30
0.0
  0
VERTEX
  5
2220
  8
LAYER01
  6
VERDECKT
 62
     3
 10
2482.8508660000011
 20
510.15560699999992
 30
0.0
  0
VERTEX
  5
2221
  8
LAYER01
  6
VERDECKT
 62
     3
 10
2482.9350079999999
 20
510.13236699999999
 30
0.0
  0
VERTEX
  5
2222
  8
LAYER01
  6
VERDECKT
 62
     3
 10
2483.0189600000008
 20
510.10865699999999
 30
0.0
  0
VERTEX
  5
2223
  8
LAYER01
  6
VERDECKT
 62
     3
 10
2483.1027020000001
 20
510.08448499999992
 30
0.0
  0
VERTEX
  5
2224
  8
LAYER01
  6
VERDECKT
 62
     3
 10
2483.1862300000012
 20
510.05985599999991
 30
0.0
  0
VERTEX
  5
2225
  8
LAYER01
  6
VERDECKT
 62
     3
 10
2483.269542
 20
510.03476899999998
 30
0.0
  0
VERTEX
  5
2226
  8
LAYER01
  6
VERDECKT
 62
     3
 10
2483.3526390000002
 20
510.00922400000002
 30
0.0
  0
VERTEX
  5
2227
  8
LAYER01
  6
VERDECKT
 62
     3
 10
2483.4355190000001
 20
509.98322000000002
 30
0.0
  0
VERTEX
  5
2228
  8
LAYER01
  6
VERDECKT
 62
     3
 10
2483.518184
 20
509.95675699999998
 30
0.0
  0
VERTEX
  5
2229
  8
LAYER01
  6
VERDECKT
 62
     3
 10
2483.6006320000001
 20
509.92983299999997
 30
0.0
  0
VERTEX
  5
222A
  8
LAYER01
  6
VERDECKT
 62
     3
 10
2483.6828639999999
 20
509.90244899999999
 30
0.0
  0
VERTEX
  5
222B
  8
LAYER01
  6
VERDECKT
 62
     3
 10
2483.764878
 20
509.87460299999998
 30
0.0
  0
VERTEX
  5
222C
  8
LAYER01
  6
VERDECKT
 62
     3
 10
2483.846676000001
 20
509.84629599999988
 30
0.0
  0
VERTEX
  5
222D
  8
LAYER01
  6
VERDECKT
 62
     3
 10
2483.9282560000001
 20
509.81752599999987
 30
0.0
  0
VERTEX
  5
222E
  8
LAYER01
  6
VERDECKT
 62
     3
 10
2484.009618
 20
509.78829400000001
 30
0.0
  0
VERTEX
  5
222F
  8
LAYER01
  6
VERDECKT
 62
     3
 10
2484.0907620000012
 20
509.7585969999999
 30
0.0
  0
VERTEX
  5
2230
  8
LAYER01
  6
VERDECKT
 62
     3
 10
2484.171687
 20
509.72843699999987
 30
0.0
  0
VERTEX
  5
2231
  8
LAYER01
  6
VERDECKT
 62
     3
 10
2484.2523940000001
 20
509.697812
 30
0.0
  0
VERTEX
  5
2232
  8
LAYER01
  6
VERDECKT
 62
     3
 10
2484.3328820000002
 20
509.66672099999988
 30
0.0
  0
VERTEX
  5
2233
  8
LAYER01
  6
VERDECKT
 62
     3
 10
2484.4131510000002
 20
509.63516399999992
 30
0.0
  0
VERTEX
  5
2234
  8
LAYER01
  6
VERDECKT
 62
     3
 10
2484.4932010000011
 20
509.60314099999999
 30
0.0
  0
VERTEX
  5
2235
  8
LAYER01
  6
VERDECKT
 62
     3
 10
2484.5730309999999
 20
509.570651
 30
0.0
  0
VERTEX
  5
2236
  8
LAYER01
  6
VERDECKT
 62
     3
 10
2484.6526399999998
 20
509.53769299999988
 30
0.0
  0
VERTEX
  5
2237
  8
LAYER01
  6
VERDECKT
 62
     3
 10
2484.7320300000001
 20
509.50426699999991
 30
0.0
  0
VERTEX
  5
2238
  8
LAYER01
  6
VERDECKT
 62
     3
 10
2484.8111990000002
 20
509.470372
 30
0.0
  0
VERTEX
  5
2239
  8
LAYER01
  6
VERDECKT
 62
     3
 10
2484.8901470000001
 20
509.43600800000002
 30
0.0
  0
VERTEX
  5
223A
  8
LAYER01
  6
VERDECKT
 62
     3
 10
2484.9688740000001
 20
509.40117299999997
 30
0.0
  0
VERTEX
  5
223B
  8
LAYER01
  6
VERDECKT
 62
     3
 10
2485.04738
 20
509.36586799999992
 30
0.0
  0
VERTEX
  5
223C
  8
LAYER01
  6
VERDECKT
 62
     3
 10
2485.1256640000001
 20
509.33009199999992
 30
0.0
  0
VERTEX
  5
223D
  8
LAYER01
  6
VERDECKT
 62
     3
 10
2485.2037260000002
 20
509.29384299999998
 30
0.0
  0
VERTEX
  5
223E
  8
LAYER01
  6
VERDECKT
 62
     3
 10
2485.2815639999999
 20
509.25711899999999
 30
0.0
  0
VERTEX
  5
223F
  8
LAYER01
  6
VERDECKT
 62
     3
 10
2485.3591769999998
 20
509.2199169999999
 30
0.0
  0
VERTEX
  5
2240
  8
LAYER01
  6
VERDECKT
 62
     3
 10
2485.436565
 20
509.18223399999999
 30
0.0
  0
VERTEX
  5
2241
  8
LAYER01
  6
VERDECKT
 62
     3
 10
2485.5137239999999
 20
509.14406799999989
 30
0.0
  0
VERTEX
  5
2242
  8
LAYER01
  6
VERDECKT
 62
     3
 10
2485.590655
 20
509.10541399999988
 30
0.0
  0
VERTEX
  5
2243
  8
LAYER01
  6
VERDECKT
 62
     3
 10
2485.6673559999999
 20
509.06627200000003
 30
0.0
  0
VERTEX
  5
2244
  8
LAYER01
  6
VERDECKT
 62
     3
 10
2485.743825
 20
509.02663799999999
 30
0.0
  0
VERTEX
  5
2245
  8
LAYER01
  6
VERDECKT
 62
     3
 10
2485.8200609999999
 20
508.98650800000001
 30
0.0
  0
VERTEX
  5
2246
  8
LAYER01
  6
VERDECKT
 62
     3
 10
2485.896064
 20
508.94588099999987
 30
0.0
  0
VERTEX
  5
2247
  8
LAYER01
  6
VERDECKT
 62
     3
 10
2485.9718309999998
 20
508.90475400000003
 30
0.0
  0
VERTEX
  5
2248
  8
LAYER01
  6
VERDECKT
 62
     3
 10
2486.0473609999999
 20
508.86312299999997
 30
0.0
  0
VERTEX
  5
2249
  8
LAYER01
  6
VERDECKT
 62
     3
 10
2486.1226529999999
 20
508.820987
 30
0.0
  0
VERTEX
  5
224A
  8
LAYER01
  6
VERDECKT
 62
     3
 10
2486.1977059999999
 20
508.77834200000001
 30
0.0
  0
VERTEX
  5
224B
  8
LAYER01
  6
VERDECKT
 62
     3
 10
2486.2725180000002
 20
508.73518499999989
 30
0.0
  0
VERTEX
  5
224C
  8
LAYER01
  6
VERDECKT
 62
     3
 10
2486.3470889999999
 20
508.69151299999999
 30
0.0
  0
VERTEX
  5
224D
  8
LAYER01
  6
VERDECKT
 62
     3
 10
2486.421416000001
 20
508.64732500000002
 30
0.0
  0
VERTEX
  5
224E
  8
LAYER01
  6
VERDECKT
 62
     3
 10
2486.4954980000002
 20
508.60261700000001
 30
0.0
  0
VERTEX
  5
224F
  8
LAYER01
  6
VERDECKT
 62
     3
 10
2486.5693350000001
 20
508.5573849999999
 30
0.0
  0
VERTEX
  5
2250
  8
LAYER01
  6
VERDECKT
 62
     3
 10
2486.6429240000002
 20
508.51162900000003
 30
0.0
  0
VERTEX
  5
2251
  8
LAYER01
  6
VERDECKT
 62
     3
 10
2486.716265
 20
508.46534400000002
 30
0.0
  0
VERTEX
  5
2252
  8
LAYER01
  6
VERDECKT
 62
     3
 10
2486.789357000001
 20
508.41852799999998
 30
0.0
  0
VERTEX
  5
2253
  8
LAYER01
  6
VERDECKT
 62
     3
 10
2486.8621969999999
 20
508.37117799999999
 30
0.0
  0
VERTEX
  5
2254
  8
LAYER01
  6
VERDECKT
 62
     3
 10
2486.934784
 20
508.32329199999992
 30
0.0
  0
VERTEX
  5
2255
  8
LAYER01
  6
VERDECKT
 62
     3
 10
2487.007141
 20
508.27484199999992
 30
0.0
  0
VERTEX
  5
2256
  8
LAYER01
  6
VERDECKT
 62
     3
 10
2487.0792729999998
 20
508.2258139999999
 30
0.0
  0
VERTEX
  5
2257
  8
LAYER01
  6
VERDECKT
 62
     3
 10
2487.1511569999998
 20
508.17621799999989
 30
0.0
  0
VERTEX
  5
2258
  8
LAYER01
  6
VERDECKT
 62
     3
 10
2487.2227720000001
 20
508.12606699999992
 30
0.0
  0
VERTEX
  5
2259
  8
LAYER01
  6
VERDECKT
 62
     3
 10
2487.294093
 20
508.07537300000001
 30
0.0
  0
VERTEX
  5
225A
  8
LAYER01
  6
VERDECKT
 62
     3
 10
2487.3650980000011
 20
508.02414800000003
 30
0.0
  0
VERTEX
  5
225B
  8
LAYER01
  6
VERDECKT
 62
     3
 10
2487.4357639999998
 20
507.97240399999998
 30
0.0
  0
VERTEX
  5
225C
  8
LAYER01
  6
VERDECKT
 62
     3
 10
2487.5060669999998
 20
507.92015400000003
 30
0.0
  0
VERTEX
  5
225D
  8
LAYER01
  6
VERDECKT
 62
     3
 10
2487.5759859999998
 20
507.8674079999999
 30
0.0
  0
VERTEX
  5
225E
  8
LAYER01
  6
VERDECKT
 62
     3
 10
2487.6454960000001
 20
507.81417900000002
 30
0.0
  0
VERTEX
  5
225F
  8
LAYER01
  6
VERDECKT
 62
     3
 10
2487.714575
 20
507.76047999999992
 30
0.0
  0
VERTEX
  5
2260
  8
LAYER01
  6
VERDECKT
 62
     3
 10
2487.7831999999999
 20
507.706322
 30
0.0
  0
VERTEX
  5
2261
  8
LAYER01
  6
VERDECKT
 62
     3
 10
2487.8513520000001
 20
507.65171499999991
 30
0.0
  0
VERTEX
  5
2262
  8
LAYER01
  6
VERDECKT
 62
     3
 10
2487.9190410000001
 20
507.59665599999988
 30
0.0
  0
VERTEX
  5
2263
  8
LAYER01
  6
VERDECKT
 62
     3
 10
2487.9862680000001
 20
507.54114199999998
 30
0.0
  0
VERTEX
  5
2264
  8
LAYER01
  6
VERDECKT
 62
     3
 10
2488.0530309999999
 20
507.48517099999992
 30
0.0
  0
VERTEX
  5
2265
  8
LAYER01
  6
VERDECKT
 62
     3
 10
2488.1193290000001
 20
507.42874000000012
 30
0.0
  0
VERTEX
  5
2266
  8
LAYER01
  6
VERDECKT
 62
     3
 10
2488.1851590000001
 20
507.371849
 30
0.0
  0
VERTEX
  5
2267
  8
LAYER01
  6
VERDECKT
 62
     3
 10
2488.2505200000001
 20
507.31449500000002
 30
0.0
  0
VERTEX
  5
2268
  8
LAYER01
  6
VERDECKT
 62
     3
 10
2488.3154089999998
 20
507.25667499999997
 30
0.0
  0
VERTEX
  5
2269
  8
LAYER01
  6
VERDECKT
 62
     3
 10
2488.3798240000001
 20
507.19838899999991
 30
0.0
  0
VERTEX
  5
226A
  8
LAYER01
  6
VERDECKT
 62
     3
 10
2488.4437640000001
 20
507.13963399999989
 30
0.0
  0
VERTEX
  5
226B
  8
LAYER01
  6
VERDECKT
 62
     3
 10
2488.5072270000001
 20
507.08040899999997
 30
0.0
  0
VERTEX
  5
226C
  8
LAYER01
  6
VERDECKT
 62
     3
 10
2488.5702100000012
 20
507.02070999999989
 30
0.0
  0
VERTEX
  5
226D
  8
LAYER01
  6
VERDECKT
 62
     3
 10
2488.6327120000001
 20
506.96053699999987
 30
0.0
  0
VERTEX
  5
226E
  8
LAYER01
  6
VERDECKT
 62
     3
 10
2488.6947300000011
 20
506.89988799999992
 30
0.0
  0
VERTEX
  5
226F
  8
LAYER01
  6
VERDECKT
 62
     3
 10
2488.7562619999999
 20
506.83875899999992
 30
0.0
  0
VERTEX
  5
2270
  8
LAYER01
  6
VERDECKT
 62
     3
 10
2488.817305
 20
506.7771469999999
 30
0.0
  0
VERTEX
  5
2271
  8
LAYER01
  6
VERDECKT
 62
     3
 10
2488.8778539999998
 20
506.71504900000002
 30
0.0
  0
VERTEX
  5
2272
  8
LAYER01
  6
VERDECKT
 62
     3
 10
2488.937907
 20
506.65246200000001
 30
0.0
  0
VERTEX
  5
2273
  8
LAYER01
  6
VERDECKT
 62
     3
 10
2488.9974590000002
 20
506.58938099999989
 30
0.0
  0
VERTEX
  5
2274
  8
LAYER01
  6
VERDECKT
 62
     3
 10
2489.056509
 20
506.52580399999988
 30
0.0
  0
VERTEX
  5
2275
  8
LAYER01
  6
VERDECKT
 62
     3
 10
2489.1150510000011
 20
506.46172799999999
 30
0.0
  0
VERTEX
  5
2276
  8
LAYER01
  6
VERDECKT
 62
     3
 10
2489.173084
 20
506.39714800000007
 30
0.0
  0
VERTEX
  5
2277
  8
LAYER01
  6
VERDECKT
 62
     3
 10
2489.230602000001
 20
506.33206199999989
 30
0.0
  0
VERTEX
  5
2278
  8
LAYER01
  6
VERDECKT
 62
     3
 10
2489.2876040000001
 20
506.26646699999998
 30
0.0
  0
VERTEX
  5
2279
  8
LAYER01
  6
VERDECKT
 62
     3
 10
2489.3440850000002
 20
506.20035799999988
 30
0.0
  0
VERTEX
  5
227A
  8
LAYER01
  6
VERDECKT
 62
     3
 10
2489.400048
 20
506.13372600000002
 30
0.0
  0
VERTEX
  5
227B
  8
LAYER01
  6
VERDECKT
 62
     3
 10
2489.455512
 20
506.0665259999999
 30
0.0
  0
VERTEX
  5
227C
  8
LAYER01
  6
VERDECKT
 62
     3
 10
2489.5104679999999
 20
505.99876399999999
 30
0.0
  0
VERTEX
  5
227D
  8
LAYER01
  6
VERDECKT
 62
     3
 10
2489.5648970000002
 20
505.93045199999989
 30
0.0
  0
VERTEX
  5
227E
  8
LAYER01
  6
VERDECKT
 62
     3
 10
2489.6187850000001
 20
505.8615999999999
 30
0.0
  0
VERTEX
  5
227F
  8
LAYER01
  6
VERDECKT
 62
     3
 10
2489.672113000001
 20
505.79222099999998
 30
0.0
  0
VERTEX
  5
2280
  8
LAYER01
  6
VERDECKT
 62
     3
 10
2489.7248650000001
 20
505.72232699999989
 30
0.0
  0
VERTEX
  5
2281
  8
LAYER01
  6
VERDECKT
 62
     3
 10
2489.7770260000002
 20
505.65192999999988
 30
0.0
  0
VERTEX
  5
2282
  8
LAYER01
  6
VERDECKT
 62
     3
 10
2489.8285770000002
 20
505.58104100000003
 30
0.0
  0
VERTEX
  5
2283
  8
LAYER01
  6
VERDECKT
 62
     3
 10
2489.8795030000001
 20
505.50967300000002
 30
0.0
  0
VERTEX
  5
2284
  8
LAYER01
  6
VERDECKT
 62
     3
 10
2489.929787
 20
505.437838
 30
0.0
  0
VERTEX
  5
2285
  8
LAYER01
  6
VERDECKT
 62
     3
 10
2489.9794120000001
 20
505.36554699999988
 30
0.0
  0
VERTEX
  5
2286
  8
LAYER01
  6
VERDECKT
 62
     3
 10
2490.028362
 20
505.29281200000003
 30
0.0
  0
VERTEX
  5
2287
  8
LAYER01
  6
VERDECKT
 62
     3
 10
2490.0766050000002
 20
505.21968399999992
 30
0.0
  0
VERTEX
  5
2288
  8
LAYER01
  6
VERDECKT
 62
     3
 10
2490.1241180000011
 20
505.14620400000001
 30
0.0
  0
VERTEX
  5
2289
  8
LAYER01
  6
VERDECKT
 62
     3
 10
2490.170897
 20
505.07236899999998
 30
0.0
  0
VERTEX
  5
228A
  8
LAYER01
  6
VERDECKT
 62
     3
 10
2490.216938
 20
504.99817899999999
 30
0.0
  0
VERTEX
  5
228B
  8
LAYER01
  6
VERDECKT
 62
     3
 10
2490.2622379999998
 20
504.92363099999989
 30
0.0
  0
VERTEX
  5
228C
  8
LAYER01
  6
VERDECKT
 62
     3
 10
2490.3067930000002
 20
504.84872300000001
 30
0.0
  0
VERTEX
  5
228D
  8
LAYER01
  6
VERDECKT
 62
     3
 10
2490.3505989999999
 20
504.77345400000002
 30
0.0
  0
VERTEX
  5
228E
  8
LAYER01
  6
VERDECKT
 62
     3
 10
2490.3936520000002
 20
504.69782099999992
 30
0.0
  0
VERTEX
  5
228F
  8
LAYER01
  6
VERDECKT
 62
     3
 10
2490.4359479999998
 20
504.62182399999989
 30
0.0
  0
VERTEX
  5
2290
  8
LAYER01
  6
VERDECKT
 62
     3
 10
2490.477484
 20
504.54545899999999
 30
0.0
  0
VERTEX
  5
2291
  8
LAYER01
  6
VERDECKT
 62
     3
 10
2490.5182559999998
 20
504.46872599999989
 30
0.0
  0
VERTEX
  5
2292
  8
LAYER01
  6
VERDECKT
 62
     3
 10
2490.5582599999998
 20
504.39162199999993
 30
0.0
  0
VERTEX
  5
2293
  8
LAYER01
  6
VERDECKT
 62
     3
 10
2490.597491
 20
504.31414599999999
 30
0.0
  0
VERTEX
  5
2294
  8
LAYER01
  6
VERDECKT
 62
     3
 10
2490.6359470000002
 20
504.23629499999998
 30
0.0
  0
VERTEX
  5
2295
  8
LAYER01
  6
VERDECKT
 62
     3
 10
2490.673624
 20
504.15806800000001
 30
0.0
  0
VERTEX
  5
2296
  8
LAYER01
  6
VERDECKT
 62
     3
 10
2490.710517
 20
504.07946399999992
 30
0.0
  0
VERTEX
  5
2297
  8
LAYER01
  6
VERDECKT
 62
     3
 10
2490.7466239999999
 20
504.00047899999998
 30
0.0
  0
VERTEX
  5
2298
  8
LAYER01
  6
VERDECKT
 62
     3
 10
2490.781939
 20
503.92111299999988
 30
0.0
  0
VERTEX
  5
2299
  8
LAYER01
  6
VERDECKT
 62
     3
 10
2490.8164590000001
 20
503.84136299999989
 30
0.0
  0
VERTEX
  5
229A
  8
LAYER01
  6
VERDECKT
 62
     3
 10
2490.8501809999998
 20
503.76122800000002
 30
0.0
  0
VERTEX
  5
229B
  8
LAYER01
  6
VERDECKT
 62
     3
 10
2490.8831009999999
 20
503.68070599999999
 30
0.0
  0
VERTEX
  5
229C
  8
LAYER01
  6
VERDECKT
 62
     3
 10
2490.915215
 20
503.59979499999997
 30
0.0
  0
VERTEX
  5
229D
  8
LAYER01
  6
VERDECKT
 62
     3
 10
2490.9465180000002
 20
503.51849299999992
 30
0.0
  0
VERTEX
  5
229E
  8
LAYER01
  6
VERDECKT
 62
     3
 10
2490.9770079999998
 20
503.43679800000001
 30
0.0
  0
VERTEX
  5
229F
  8
LAYER01
  6
VERDECKT
 62
     3
 10
2491.00668
 20
503.3547089999999
 30
0.0
  0
VERTEX
  5
22A0
  8
LAYER01
  6
VERDECKT
 62
     3
 10
2491.0355280000008
 20
503.27218899999991
 30
0.0
  0
VERTEX
  5
22A1
  8
LAYER01
  6
VERDECKT
 62
     3
 10
2491.0635360000001
 20
503.18922800000001
 30
0.0
  0
VERTEX
  5
22A2
  8
LAYER01
  6
VERDECKT
 62
     3
 10
2491.0906909999999
 20
503.10586399999988
 30
0.0
  0
VERTEX
  5
22A3
  8
LAYER01
  6
VERDECKT
 62
     3
 10
2491.1169800000011
 20
503.02213499999988
 30
0.0
  0
VERTEX
  5
22A4
  8
LAYER01
  6
VERDECKT
 62
     3
 10
2491.1423880000002
 20
502.93807900000002
 30
0.0
  0
VERTEX
  5
22A5
  8
LAYER01
  6
VERDECKT
 62
     3
 10
2491.1669010000001
 20
502.85373499999992
 30
0.0
  0
VERTEX
  5
22A6
  8
LAYER01
  6
VERDECKT
 62
     3
 10
2491.1905059999999
 20
502.76914000000011
 30
0.0
  0
VERTEX
  5
22A7
  8
LAYER01
  6
VERDECKT
 62
     3
 10
2491.2131890000001
 20
502.68433299999998
 30
0.0
  0
VERTEX
  5
22A8
  8
LAYER01
  6
VERDECKT
 62
     3
 10
2491.2349359999998
 20
502.5993519999999
 30
0.0
  0
VERTEX
  5
22A9
  8
LAYER01
  6
VERDECKT
 62
     3
 10
2491.2557339999998
 20
502.51423399999999
 30
0.0
  0
VERTEX
  5
22AA
  8
LAYER01
  6
VERDECKT
 62
     3
 10
2491.275567000001
 20
502.42901799999999
 30
0.0
  0
VERTEX
  5
22AB
  8
LAYER01
  6
VERDECKT
 62
     3
 10
2491.2944229999998
 20
502.34374100000002
 30
0.0
  0
VERTEX
  5
22AC
  8
LAYER01
  6
VERDECKT
 62
     3
 10
2491.312293
 20
502.25843099999997
 30
0.0
  0
VERTEX
  5
22AD
  8
LAYER01
  6
VERDECKT
 62
     3
 10
2491.329201
 20
502.1730419999999
 30
0.0
  0
VERTEX
  5
22AE
  8
LAYER01
  6
VERDECKT
 62
     3
 10
2491.345151
 20
502.08756399999987
 30
0.0
  0
VERTEX
  5
22AF
  8
LAYER01
  6
VERDECKT
 62
     3
 10
2491.3601429999999
 20
502.00199500000002
 30
0.0
  0
VERTEX
  5
22B0
  8
LAYER01
  6
VERDECKT
 62
     3
 10
2491.3741760000012
 20
501.916338
 30
0.0
  0
VERTEX
  5
22B1
  8
LAYER01
  6
VERDECKT
 62
     3
 10
2491.3872500000011
 20
501.83059100000003
 30
0.0
  0
VERTEX
  5
22B2
  8
LAYER01
  6
VERDECKT
 62
     3
 10
2491.3993650000002
 20
501.744754
 30
0.0
  0
VERTEX
  5
22B3
  8
LAYER01
  6
VERDECKT
 62
     3
 10
2491.4105199999999
 20
501.65882800000003
 30
0.0
  0
VERTEX
  5
22B4
  8
LAYER01
  6
VERDECKT
 62
     3
 10
2491.4207150000002
 20
501.572812
 30
0.0
  0
VERTEX
  5
22B5
  8
LAYER01
  6
VERDECKT
 62
     3
 10
2491.429948
 20
501.48670599999991
 30
0.0
  0
VERTEX
  5
22B6
  8
LAYER01
  6
VERDECKT
 62
     3
 10
2491.4382209999999
 20
501.40050999999988
 30
0.0
  0
VERTEX
  5
22B7
  8
LAYER01
  6
VERDECKT
 62
     3
 10
2491.4455320000002
 20
501.31422500000002
 30
0.0
  0
VERTEX
  5
22B8
  8
LAYER01
  6
VERDECKT
 62
     3
 10
2491.4518800000001
 20
501.22784999999988
 30
0.0
  0
SEQEND
  5
22B9
  8
LAYER01
  6
VERDECKT
 62
     3
  0
LINE
  5
84B
  8
LAYER01
  6
VERDECKT
 62
     3
 10
2506.2328969999999
 20
516.247209
 30
0.0
 11
2514.299215
 21
406.41521299999999
 31
0.0
  0
LINE
  5
84C
  8
LAYER01
  6
VERDECKT
 62
     3
 10
2497.9987550000001
 20
405.90456
 30
0.0
 11
2491.4382209999999
 21
501.40050999999988
 31
0.0
  0
POLYLINE
  5
84D
  8
LAYER01
  6
VERDECKT
 62
     3
 66
     1
 10
0.0
 20
0.0
 30
0.0
  0
VERTEX
  5
22BA
  8
LAYER01
  6
VERDECKT
 62
     3
 10
2505.2149810000001
 20
392.98661099999998
 30
0.0
  0
VERTEX
  5
22BB
  8
LAYER01
  6
VERDECKT
 62
     3
 10
2505.0837240000001
 20
393.10094400000003
 30
0.0
  0
VERTEX
  5
22BC
  8
LAYER01
  6
VERDECKT
 62
     3
 10
2504.953281000001
 20
393.21611999999999
 30
0.0
  0
VERTEX
  5
22BD
  8
LAYER01
  6
VERDECKT
 62
     3
 10
2504.8237140000001
 20
393.33209499999998
 30
0.0
  0
VERTEX
  5
22BE
  8
LAYER01
  6
VERDECKT
 62
     3
 10
2504.6950860000002
 20
393.448823
 30
0.0
  0
VERTEX
  5
22BF
  8
LAYER01
  6
VERDECKT
 62
     3
 10
2504.5673999999999
 20
393.56629600000002
 30
0.0
  0
VERTEX
  5
22C0
  8
LAYER01
  6
VERDECKT
 62
     3
 10
2504.4406250000002
 20
393.68453699999998
 30
0.0
  0
VERTEX
  5
22C1
  8
LAYER01
  6
VERDECKT
 62
     3
 10
2504.314766
 20
393.80355100000003
 30
0.0
  0
VERTEX
  5
22C2
  8
LAYER01
  6
VERDECKT
 62
     3
 10
2504.1898270000002
 20
393.92334199999999
 30
0.0
  0
VERTEX
  5
22C3
  8
LAYER01
  6
VERDECKT
 62
     3
 10
2504.0658159999998
 20
394.04391600000002
 30
0.0
  0
VERTEX
  5
22C4
  8
LAYER01
  6
VERDECKT
 62
     3
 10
2503.942736
 20
394.16527600000001
 30
0.0
  0
VERTEX
  5
22C5
  8
LAYER01
  6
VERDECKT
 62
     3
 10
2503.8205939999998
 20
394.28742699999998
 30
0.0
  0
VERTEX
  5
22C6
  8
LAYER01
  6
VERDECKT
 62
     3
 10
2503.6993950000001
 20
394.41037399999999
 30
0.0
  0
VERTEX
  5
22C7
  8
LAYER01
  6
VERDECKT
 62
     3
 10
2503.5791440000012
 20
394.53412200000002
 30
0.0
  0
VERTEX
  5
22C8
  8
LAYER01
  6
VERDECKT
 62
     3
 10
2503.4598470000001
 20
394.65867400000002
 30
0.0
  0
VERTEX
  5
22C9
  8
LAYER01
  6
VERDECKT
 62
     3
 10
2503.3415089999999
 20
394.78403600000001
 30
0.0
  0
VERTEX
  5
22CA
  8
LAYER01
  6
VERDECKT
 62
     3
 10
2503.2241349999999
 20
394.910212
 30
0.0
  0
VERTEX
  5
22CB
  8
LAYER01
  6
VERDECKT
 62
     3
 10
2503.1077310000001
 20
395.03720600000003
 30
0.0
  0
VERTEX
  5
22CC
  8
LAYER01
  6
VERDECKT
 62
     3
 10
2502.9923020000001
 20
395.16502300000002
 30
0.0
  0
VERTEX
  5
22CD
  8
LAYER01
  6
VERDECKT
 62
     3
 10
2502.8778539999998
 20
395.29366800000003
 30
0.0
  0
VERTEX
  5
22CE
  8
LAYER01
  6
VERDECKT
 62
     3
 10
2502.764392
 20
395.42314599999997
 30
0.0
  0
VERTEX
  5
22CF
  8
LAYER01
  6
VERDECKT
 62
     3
 10
2502.6519210000001
 20
395.55345999999997
 30
0.0
  0
VERTEX
  5
22D0
  8
LAYER01
  6
VERDECKT
 62
     3
 10
2502.5404469999999
 20
395.68461500000001
 30
0.0
  0
VERTEX
  5
22D1
  8
LAYER01
  6
VERDECKT
 62
     3
 10
2502.4299760000008
 20
395.81661600000001
 30
0.0
  0
VERTEX
  5
22D2
  8
LAYER01
  6
VERDECKT
 62
     3
 10
2502.3205120000011
 20
395.94946800000002
 30
0.0
  0
VERTEX
  5
22D3
  8
LAYER01
  6
VERDECKT
 62
     3
 10
2502.2120610000002
 20
396.08317499999998
 30
0.0
  0
VERTEX
  5
22D4
  8
LAYER01
  6
VERDECKT
 62
     3
 10
2502.1046289999999
 20
396.21774099999999
 30
0.0
  0
VERTEX
  5
22D5
  8
LAYER01
  6
VERDECKT
 62
     3
 10
2501.9982199999999
 20
396.35317199999997
 30
0.0
  0
VERTEX
  5
22D6
  8
LAYER01
  6
VERDECKT
 62
     3
 10
2501.8928409999999
 20
396.48947099999998
 30
0.0
  0
VERTEX
  5
22D7
  8
LAYER01
  6
VERDECKT
 62
     3
 10
2501.788497
 20
396.626643
 30
0.0
  0
VERTEX
  5
22D8
  8
LAYER01
  6
VERDECKT
 62
     3
 10
2501.6851919999999
 20
396.76469400000002
 30
0.0
  0
VERTEX
  5
22D9
  8
LAYER01
  6
VERDECKT
 62
     3
 10
2501.5829330000001
 20
396.90362599999997
 30
0.0
  0
VERTEX
  5
22DA
  8
LAYER01
  6
VERDECKT
 62
     3
 10
2501.4817250000001
 20
397.04344600000002
 30
0.0
  0
VERTEX
  5
22DB
  8
LAYER01
  6
VERDECKT
 62
     3
 10
2501.3815730000001
 20
397.18415700000003
 30
0.0
  0
VERTEX
  5
22DC
  8
LAYER01
  6
VERDECKT
 62
     3
 10
2501.2824900000001
 20
397.32576999999998
 30
0.0
  0
VERTEX
  5
22DD
  8
LAYER01
  6
VERDECKT
 62
     3
 10
2501.184491
 20
397.468298
 30
0.0
  0
VERTEX
  5
22DE
  8
LAYER01
  6
VERDECKT
 62
     3
 10
2501.0875839999999
 20
397.61174799999998
 30
0.0
  0
VERTEX
  5
22DF
  8
LAYER01
  6
VERDECKT
 62
     3
 10
2500.9917810000002
 20
397.75612899999999
 30
0.0
  0
VERTEX
  5
22E0
  8
LAYER01
  6
VERDECKT
 62
     3
 10
2500.8970890000001
 20
397.90144800000002
 30
0.0
  0
VERTEX
  5
22E1
  8
LAYER01
  6
VERDECKT
 62
     3
 10
2500.8035199999999
 20
398.04771499999998
 30
0.0
  0
VERTEX
  5
22E2
  8
LAYER01
  6
VERDECKT
 62
     3
 10
2500.7110809999999
 20
398.19493599999998
 30
0.0
  0
VERTEX
  5
22E3
  8
LAYER01
  6
VERDECKT
 62
     3
 10
2500.619784
 20
398.34312599999998
 30
0.0
  0
VERTEX
  5
22E4
  8
LAYER01
  6
VERDECKT
 62
     3
 10
2500.5296629999998
 20
398.49226299999998
 30
0.0
  0
VERTEX
  5
22E5
  8
LAYER01
  6
VERDECKT
 62
     3
 10
2500.440771
 20
398.642267
 30
0.0
  0
VERTEX
  5
22E6
  8
LAYER01
  6
VERDECKT
 62
     3
 10
2500.3531640000001
 20
398.79305699999998
 30
0.0
  0
VERTEX
  5
22E7
  8
LAYER01
  6
VERDECKT
 62
     3
 10
2500.2668960000001
 20
398.94455299999998
 30
0.0
  0
VERTEX
  5
22E8
  8
LAYER01
  6
VERDECKT
 62
     3
 10
2500.182022
 20
399.09667300000001
 30
0.0
  0
VERTEX
  5
22E9
  8
LAYER01
  6
VERDECKT
 62
     3
 10
2500.098598
 20
399.24933700000003
 30
0.0
  0
VERTEX
  5
22EA
  8
LAYER01
  6
VERDECKT
 62
     3
 10
2500.0166640000002
 20
399.40248200000002
 30
0.0
  0
VERTEX
  5
22EB
  8
LAYER01
  6
VERDECKT
 62
     3
 10
2499.9361800000011
 20
399.55617100000001
 30
0.0
  0
VERTEX
  5
22EC
  8
LAYER01
  6
VERDECKT
 62
     3
 10
2499.857141
 20
399.710421
 30
0.0
  0
VERTEX
  5
22ED
  8
LAYER01
  6
VERDECKT
 62
     3
 10
2499.779552
 20
399.86523299999999
 30
0.0
  0
VERTEX
  5
22EE
  8
LAYER01
  6
VERDECKT
 62
     3
 10
2499.7034159999998
 20
400.02061099999992
 30
0.0
  0
VERTEX
  5
22EF
  8
LAYER01
  6
VERDECKT
 62
     3
 10
2499.6287400000001
 20
400.17655500000001
 30
0.0
  0
VERTEX
  5
22F0
  8
LAYER01
  6
VERDECKT
 62
     3
 10
2499.555527
 20
400.33306699999991
 30
0.0
  0
VERTEX
  5
22F1
  8
LAYER01
  6
VERDECKT
 62
     3
 10
2499.4837840000009
 20
400.49015000000003
 30
0.0
  0
VERTEX
  5
22F2
  8
LAYER01
  6
VERDECKT
 62
     3
 10
2499.4135139999999
 20
400.64780500000001
 30
0.0
  0
VERTEX
  5
22F3
  8
LAYER01
  6
VERDECKT
 62
     3
 10
2499.3447230000002
 20
400.80603500000001
 30
0.0
  0
VERTEX
  5
22F4
  8
LAYER01
  6
VERDECKT
 62
     3
 10
2499.2774159999999
 20
400.96484099999998
 30
0.0
  0
VERTEX
  5
22F5
  8
LAYER01
  6
VERDECKT
 62
     3
 10
2499.211597
 20
401.12422400000003
 30
0.0
  0
VERTEX
  5
22F6
  8
LAYER01
  6
VERDECKT
 62
     3
 10
2499.1472709999998
 20
401.28418799999992
 30
0.0
  0
VERTEX
  5
22F7
  8
LAYER01
  6
VERDECKT
 62
     3
 10
2499.0844430000002
 20
401.44473299999999
 30
0.0
  0
VERTEX
  5
22F8
  8
LAYER01
  6
VERDECKT
 62
     3
 10
2499.023119
 20
401.60586299999989
 30
0.0
  0
VERTEX
  5
22F9
  8
LAYER01
  6
VERDECKT
 62
     3
 10
2498.9633020000001
 20
401.76757700000002
 30
0.0
  0
VERTEX
  5
22FA
  8
LAYER01
  6
VERDECKT
 62
     3
 10
2498.905002
 20
401.92988100000002
 30
0.0
  0
VERTEX
  5
22FB
  8
LAYER01
  6
VERDECKT
 62
     3
 10
2498.848227
 20
402.09277700000001
 30
0.0
  0
VERTEX
  5
22FC
  8
LAYER01
  6
VERDECKT
 62
     3
 10
2498.7929880000002
 20
402.25626899999992
 30
0.0
  0
VERTEX
  5
22FD
  8
LAYER01
  6
VERDECKT
 62
     3
 10
2498.739294
 20
402.4203619999999
 30
0.0
  0
VERTEX
  5
22FE
  8
LAYER01
  6
VERDECKT
 62
     3
 10
2498.6871550000001
 20
402.585058
 30
0.0
  0
VERTEX
  5
22FF
  8
LAYER01
  6
VERDECKT
 62
     3
 10
2498.6365810000002
 20
402.750362
 30
0.0
  0
VERTEX
  5
2300
  8
LAYER01
  6
VERDECKT
 62
     3
 10
2498.5875799999999
 20
402.91627699999998
 30
0.0
  0
VERTEX
  5
2301
  8
LAYER01
  6
VERDECKT
 62
     3
 10
2498.540164
 20
403.082807
 30
0.0
  0
VERTEX
  5
2302
  8
LAYER01
  6
VERDECKT
 62
     3
 10
2498.4943410000001
 20
403.24995699999988
 30
0.0
  0
VERTEX
  5
2303
  8
LAYER01
  6
VERDECKT
 62
     3
 10
2498.4501220000002
 20
403.41772900000001
 30
0.0
  0
VERTEX
  5
2304
  8
LAYER01
  6
VERDECKT
 62
     3
 10
2498.4075160000002
 20
403.58612699999992
 30
0.0
  0
VERTEX
  5
2305
  8
LAYER01
  6
VERDECKT
 62
     3
 10
2498.366532
 20
403.75515499999989
 30
0.0
  0
VERTEX
  5
2306
  8
LAYER01
  6
VERDECKT
 62
     3
 10
2498.3271810000001
 20
403.92481800000002
 30
0.0
  0
VERTEX
  5
2307
  8
LAYER01
  6
VERDECKT
 62
     3
 10
2498.2894769999998
 20
404.09510399999999
 30
0.0
  0
VERTEX
  5
2308
  8
LAYER01
  6
VERDECKT
 62
     3
 10
2498.2534609999998
 20
404.265917
 30
0.0
  0
VERTEX
  5
2309
  8
LAYER01
  6
VERDECKT
 62
     3
 10
2498.2191550000011
 20
404.43718699999988
 30
0.0
  0
VERTEX
  5
230A
  8
LAYER01
  6
VERDECKT
 62
     3
 10
2498.186573
 20
404.60885400000001
 30
0.0
  0
VERTEX
  5
230B
  8
LAYER01
  6
VERDECKT
 62
     3
 10
2498.1557339999999
 20
404.78086200000001
 30
0.0
  0
VERTEX
  5
230C
  8
LAYER01
  6
VERDECKT
 62
     3
 10
2498.126651
 20
404.95315099999988
 30
0.0
  0
VERTEX
  5
230D
  8
LAYER01
  6
VERDECKT
 62
     3
 10
2498.099342
 20
405.12566299999997
 30
0.0
  0
VERTEX
  5
230E
  8
LAYER01
  6
VERDECKT
 62
     3
 10
2498.0738219999998
 20
405.29834299999999
 30
0.0
  0
VERTEX
  5
230F
  8
LAYER01
  6
VERDECKT
 62
     3
 10
2498.0500830000001
 20
405.47123499999998
 30
0.0
  0
VERTEX
  5
2310
  8
LAYER01
  6
VERDECKT
 62
     3
 10
2498.0281230000001
 20
405.64436999999998
 30
0.0
  0
VERTEX
  5
2311
  8
LAYER01
  6
VERDECKT
 62
     3
 10
2498.0079479999999
 20
405.81774899999999
 30
0.0
  0
VERTEX
  5
2312
  8
LAYER01
  6
VERDECKT
 62
     3
 10
2497.9895620000011
 20
405.99137100000002
 30
0.0
  0
VERTEX
  5
2313
  8
LAYER01
  6
VERDECKT
 62
     3
 10
2497.9729710000001
 20
406.16523899999987
 30
0.0
  0
VERTEX
  5
2314
  8
LAYER01
  6
VERDECKT
 62
     3
 10
2497.9581790000002
 20
406.33935199999991
 30
0.0
  0
VERTEX
  5
2315
  8
LAYER01
  6
VERDECKT
 62
     3
 10
2497.9451920000001
 20
406.513711
 30
0.0
  0
SEQEND
  5
2316
  8
LAYER01
  6
VERDECKT
 62
     3
  0
POLYLINE
  5
8AB
  8
LAYER01
  6
VERDECKT
 62
     3
 66
     1
 10
0.0
 20
0.0
 30
0.0
  0
VERTEX
  5
2317
  8
LAYER01
  6
VERDECKT
 62
     3
 10
2755.7416579999999
 20
515.12317800000005
 30
0.0
  0
VERTEX
  5
2318
  8
LAYER01
  6
VERDECKT
 62
     3
 10
2755.7483790000001
 20
515.20837300000005
 30
0.0
  0
VERTEX
  5
2319
  8
LAYER01
  6
VERDECKT
 62
     3
 10
2755.7563890000001
 20
515.29361500000005
 30
0.0
  0
VERTEX
  5
231A
  8
LAYER01
  6
VERDECKT
 62
     3
 10
2755.765675000001
 20
515.3788679999999
 30
0.0
  0
VERTEX
  5
231B
  8
LAYER01
  6
VERDECKT
 62
     3
 10
2755.7762229999998
 20
515.46410100000003
 30
0.0
  0
VERTEX
  5
231C
  8
LAYER01
  6
VERDECKT
 62
     3
 10
2755.788019000001
 20
515.54927899999996
 30
0.0
  0
VERTEX
  5
231D
  8
LAYER01
  6
VERDECKT
 62
     3
 10
2755.8010510000008
 20
515.63436899999988
 30
0.0
  0
VERTEX
  5
231E
  8
LAYER01
  6
VERDECKT
 62
     3
 10
2755.8153050000001
 20
515.71933699999988
 30
0.0
  0
VERTEX
  5
231F
  8
LAYER01
  6
VERDECKT
 62
     3
 10
2755.8307670000008
 20
515.80415000000005
 30
0.0
  0
VERTEX
  5
2320
  8
LAYER01
  6
VERDECKT
 62
     3
 10
2755.8474249999999
 20
515.88877599999989
 30
0.0
  0
VERTEX
  5
2321
  8
LAYER01
  6
VERDECKT
 62
     3
 10
2755.865264
 20
515.97317899999985
 30
0.0
  0
VERTEX
  5
2322
  8
LAYER01
  6
VERDECKT
 62
     3
 10
2755.8842709999999
 20
516.05732799999998
 30
0.0
  0
VERTEX
  5
2323
  8
LAYER01
  6
VERDECKT
 62
     3
 10
2755.9044330000002
 20
516.14118700000006
 30
0.0
  0
VERTEX
  5
2324
  8
LAYER01
  6
VERDECKT
 62
     3
 10
2755.9257360000001
 20
516.22472500000003
 30
0.0
  0
VERTEX
  5
2325
  8
LAYER01
  6
VERDECKT
 62
     3
 10
2755.948167
 20
516.307908
 30
0.0
  0
VERTEX
  5
2326
  8
LAYER01
  6
VERDECKT
 62
     3
 10
2755.9717129999999
 20
516.39070099999992
 30
0.0
  0
VERTEX
  5
2327
  8
LAYER01
  6
VERDECKT
 62
     3
 10
2755.996360000001
 20
516.473072
 30
0.0
  0
VERTEX
  5
2328
  8
LAYER01
  6
VERDECKT
 62
     3
 10
2756.0220939999999
 20
516.55498799999987
 30
0.0
  0
VERTEX
  5
2329
  8
LAYER01
  6
VERDECKT
 62
     3
 10
2756.0489029999999
 20
516.63641399999995
 30
0.0
  0
VERTEX
  5
232A
  8
LAYER01
  6
VERDECKT
 62
     3
 10
2756.0767729999998
 20
516.71731799999986
 30
0.0
  0
VERTEX
  5
232B
  8
LAYER01
  6
VERDECKT
 62
     3
 10
2756.1056899999999
 20
516.79766500000005
 30
0.0
  0
VERTEX
  5
232C
  8
LAYER01
  6
VERDECKT
 62
     3
 10
2756.1356409999999
 20
516.87742300000002
 30
0.0
  0
VERTEX
  5
232D
  8
LAYER01
  6
VERDECKT
 62
     3
 10
2756.1665990000001
 20
516.9566269999998
 30
0.0
  0
VERTEX
  5
232E
  8
LAYER01
  6
VERDECKT
 62
     3
 10
2756.1985420000001
 20
517.03533300000004
 30
0.0
  0
VERTEX
  5
232F
  8
LAYER01
  6
VERDECKT
 62
     3
 10
2756.231463000001
 20
517.11354699999993
 30
0.0
  0
VERTEX
  5
2330
  8
LAYER01
  6
VERDECKT
 62
     3
 10
2756.265355
 20
517.19127099999992
 30
0.0
  0
VERTEX
  5
2331
  8
LAYER01
  6
VERDECKT
 62
     3
 10
2756.300213
 20
517.26850899999988
 30
0.0
  0
VERTEX
  5
2332
  8
LAYER01
  6
VERDECKT
 62
     3
 10
2756.3360290000001
 20
517.34526300000005
 30
0.0
  0
VERTEX
  5
2333
  8
LAYER01
  6
VERDECKT
 62
     3
 10
2756.3727979999999
 20
517.42153799999994
 30
0.0
  0
VERTEX
  5
2334
  8
LAYER01
  6
VERDECKT
 62
     3
 10
2756.4105119999999
 20
517.49733600000002
 30
0.0
  0
VERTEX
  5
2335
  8
LAYER01
  6
VERDECKT
 62
     3
 10
2756.4491659999999
 20
517.57265999999993
 30
0.0
  0
VERTEX
  5
2336
  8
LAYER01
  6
VERDECKT
 62
     3
 10
2756.4887520000002
 20
517.64751399999989
 30
0.0
  0
VERTEX
  5
2337
  8
LAYER01
  6
VERDECKT
 62
     3
 10
2756.5292639999998
 20
517.72190199999989
 30
0.0
  0
VERTEX
  5
2338
  8
LAYER01
  6
VERDECKT
 62
     3
 10
2756.5706970000001
 20
517.79582500000004
 30
0.0
  0
VERTEX
  5
2339
  8
LAYER01
  6
VERDECKT
 62
     3
 10
2756.6130420000009
 20
517.86928899999987
 30
0.0
  0
VERTEX
  5
233A
  8
LAYER01
  6
VERDECKT
 62
     3
 10
2756.6562949999998
 20
517.94229500000006
 30
0.0
  0
VERTEX
  5
233B
  8
LAYER01
  6
VERDECKT
 62
     3
 10
2756.7004480000001
 20
518.0148469999998
 30
0.0
  0
VERTEX
  5
233C
  8
LAYER01
  6
VERDECKT
 62
     3
 10
2756.7454939999998
 20
518.086949
 30
0.0
  0
VERTEX
  5
233D
  8
LAYER01
  6
VERDECKT
 62
     3
 10
2756.7914289999999
 20
518.15860399999997
 30
0.0
  0
VERTEX
  5
233E
  8
LAYER01
  6
VERDECKT
 62
     3
 10
2756.838244
 20
518.22981399999992
 30
0.0
  0
VERTEX
  5
233F
  8
LAYER01
  6
VERDECKT
 62
     3
 10
2756.885933
 20
518.30058399999984
 30
0.0
  0
VERTEX
  5
2340
  8
LAYER01
  6
VERDECKT
 62
     3
 10
2756.934491
 20
518.37091699999985
 30
0.0
  0
VERTEX
  5
2341
  8
LAYER01
  6
VERDECKT
 62
     3
 10
2756.9839099999999
 20
518.44081500000004
 30
0.0
  0
VERTEX
  5
2342
  8
LAYER01
  6
VERDECKT
 62
     3
 10
2757.0341560000002
 20
518.51022699999987
 30
0.0
  0
VERTEX
  5
2343
  8
LAYER01
  6
VERDECKT
 62
     3
 10
2757.0851850000008
 20
518.57909199999995
 30
0.0
  0
VERTEX
  5
2344
  8
LAYER01
  6
VERDECKT
 62
     3
 10
2757.1369730000001
 20
518.64739499999996
 30
0.0
  0
VERTEX
  5
2345
  8
LAYER01
  6
VERDECKT
 62
     3
 10
2757.189496
 20
518.71512099999995
 30
0.0
  0
VERTEX
  5
2346
  8
LAYER01
  6
VERDECKT
 62
     3
 10
2757.2427299999999
 20
518.78225799999996
 30
0.0
  0
VERTEX
  5
2347
  8
LAYER01
  6
VERDECKT
 62
     3
 10
2757.2966529999999
 20
518.84879100000001
 30
0.0
  0
VERTEX
  5
2348
  8
LAYER01
  6
VERDECKT
 62
     3
 10
2757.35124
 20
518.9147059999998
 30
0.0
  0
VERTEX
  5
2349
  8
LAYER01
  6
VERDECKT
 62
     3
 10
2757.4064680000001
 20
518.97999000000004
 30
0.0
  0
VERTEX
  5
234A
  8
LAYER01
  6
VERDECKT
 62
     3
 10
2757.4623139999999
 20
519.04462799999988
 30
0.0
  0
VERTEX
  5
234B
  8
LAYER01
  6
VERDECKT
 62
     3
 10
2757.5187530000012
 20
519.1086059999999
 30
0.0
  0
VERTEX
  5
234C
  8
LAYER01
  6
VERDECKT
 62
     3
 10
2757.5757699999999
 20
519.17192
 30
0.0
  0
VERTEX
  5
234D
  8
LAYER01
  6
VERDECKT
 62
     3
 10
2757.633386
 20
519.23461599999985
 30
0.0
  0
VERTEX
  5
234E
  8
LAYER01
  6
VERDECKT
 62
     3
 10
2757.691601
 20
519.29670599999986
 30
0.0
  0
VERTEX
  5
234F
  8
LAYER01
  6
VERDECKT
 62
     3
 10
2757.750411
 20
519.35819700000002
 30
0.0
  0
VERTEX
  5
2350
  8
LAYER01
  6
VERDECKT
 62
     3
 10
2757.8098100000002
 20
519.41909400000009
 30
0.0
  0
VERTEX
  5
2351
  8
LAYER01
  6
VERDECKT
 62
     3
 10
2757.8697929999998
 20
519.47940099999994
 30
0.0
  0
VERTEX
  5
2352
  8
LAYER01
  6
VERDECKT
 62
     3
 10
2757.9303559999998
 20
519.53912400000002
 30
0.0
  0
VERTEX
  5
2353
  8
LAYER01
  6
VERDECKT
 62
     3
 10
2757.991493
 20
519.59826799999985
 30
0.0
  0
VERTEX
  5
2354
  8
LAYER01
  6
VERDECKT
 62
     3
 10
2758.0531989999999
 20
519.656837
 30
0.0
  0
VERTEX
  5
2355
  8
LAYER01
  6
VERDECKT
 62
     3
 10
2758.115468
 20
519.71483799999987
 30
0.0
  0
VERTEX
  5
2356
  8
LAYER01
  6
VERDECKT
 62
     3
 10
2758.1782969999999
 20
519.77227600000003
 30
0.0
  0
VERTEX
  5
2357
  8
LAYER01
  6
VERDECKT
 62
     3
 10
2758.2416990000002
 20
519.82916299999988
 30
0.0
  0
VERTEX
  5
2358
  8
LAYER01
  6
VERDECKT
 62
     3
 10
2758.3056820000002
 20
519.88550899999996
 30
0.0
  0
VERTEX
  5
2359
  8
LAYER01
  6
VERDECKT
 62
     3
 10
2758.37023
 20
519.94130899999993
 30
0.0
  0
VERTEX
  5
235A
  8
LAYER01
  6
VERDECKT
 62
     3
 10
2758.4353260000012
 20
519.99655700000005
 30
0.0
  0
VERTEX
  5
235B
  8
LAYER01
  6
VERDECKT
 62
     3
 10
2758.500955
 20
520.0512480000001
 30
0.0
  0
VERTEX
  5
235C
  8
LAYER01
  6
VERDECKT
 62
     3
 10
2758.5670989999999
 20
520.10537899999986
 30
0.0
  0
VERTEX
  5
235D
  8
LAYER01
  6
VERDECKT
 62
     3
 10
2758.6337440000002
 20
520.15894300000002
 30
0.0
  0
VERTEX
  5
235E
  8
LAYER01
  6
VERDECKT
 62
     3
 10
2758.7008719999999
 20
520.21193800000003
 30
0.0
  0
VERTEX
  5
235F
  8
LAYER01
  6
VERDECKT
 62
     3
 10
2758.7684680000002
 20
520.26435599999991
 30
0.0
  0
VERTEX
  5
2360
  8
LAYER01
  6
VERDECKT
 62
     3
 10
2758.8365140000001
 20
520.316194
 30
0.0
  0
VERTEX
  5
2361
  8
LAYER01
  6
VERDECKT
 62
     3
 10
2758.9049960000002
 20
520.36744699999997
 30
0.0
  0
VERTEX
  5
2362
  8
LAYER01
  6
VERDECKT
 62
     3
 10
2758.973896
 20
520.41811099999995
 30
0.0
  0
VERTEX
  5
2363
  8
LAYER01
  6
VERDECKT
 62
     3
 10
2759.0431990000002
 20
520.46817899999985
 30
0.0
  0
VERTEX
  5
2364
  8
LAYER01
  6
VERDECKT
 62
     3
 10
2759.112888000001
 20
520.51764800000001
 30
0.0
  0
VERTEX
  5
2365
  8
LAYER01
  6
VERDECKT
 62
     3
 10
2759.1829469999998
 20
520.56651299999987
 30
0.0
  0
VERTEX
  5
2366
  8
LAYER01
  6
VERDECKT
 62
     3
 10
2759.2533600000011
 20
520.61476900000002
 30
0.0
  0
VERTEX
  5
2367
  8
LAYER01
  6
VERDECKT
 62
     3
 10
2759.3241109999999
 20
520.66240999999991
 30
0.0
  0
VERTEX
  5
2368
  8
LAYER01
  6
VERDECKT
 62
     3
 10
2759.3951820000002
 20
520.70943299999999
 30
0.0
  0
VERTEX
  5
2369
  8
LAYER01
  6
VERDECKT
 62
     3
 10
2759.466559
 20
520.75583300000005
 30
0.0
  0
VERTEX
  5
236A
  8
LAYER01
  6
VERDECKT
 62
     3
 10
2759.5382239999999
 20
520.801604
 30
0.0
  0
VERTEX
  5
236B
  8
LAYER01
  6
VERDECKT
 62
     3
 10
2759.6101619999999
 20
520.84674199999995
 30
0.0
  0
VERTEX
  5
236C
  8
LAYER01
  6
VERDECKT
 62
     3
 10
2759.682382
 20
520.89126699999997
 30
0.0
  0
VERTEX
  5
236D
  8
LAYER01
  6
VERDECKT
 62
     3
 10
2759.754903
 20
520.93520699999999
 30
0.0
  0
VERTEX
  5
236E
  8
LAYER01
  6
VERDECKT
 62
     3
 10
2759.8277229999999
 20
520.97856399999989
 30
0.0
  0
VERTEX
  5
236F
  8
LAYER01
  6
VERDECKT
 62
     3
 10
2759.9008399999998
 20
521.021342
 30
0.0
  0
VERTEX
  5
2370
  8
LAYER01
  6
VERDECKT
 62
     3
 10
2759.974252
 20
521.06354399999998
 30
0.0
  0
VERTEX
  5
2371
  8
LAYER01
  6
VERDECKT
 62
     3
 10
2760.047959
 20
521.10517300000004
 30
0.0
  0
VERTEX
  5
2372
  8
LAYER01
  6
VERDECKT
 62
     3
 10
2760.1219580000002
 20
521.14623200000005
 30
0.0
  0
VERTEX
  5
2373
  8
LAYER01
  6
VERDECKT
 62
     3
 10
2760.1962480000002
 20
521.18672600000002
 30
0.0
  0
VERTEX
  5
2374
  8
LAYER01
  6
VERDECKT
 62
     3
 10
2760.2708269999998
 20
521.22665599999993
 30
0.0
  0
VERTEX
  5
2375
  8
LAYER01
  6
VERDECKT
 62
     3
 10
2760.3456919999999
 20
521.26602699999989
 30
0.0
  0
VERTEX
  5
2376
  8
LAYER01
  6
VERDECKT
 62
     3
 10
2760.4208440000002
 20
521.3048409999999
 30
0.0
  0
VERTEX
  5
2377
  8
LAYER01
  6
VERDECKT
 62
     3
 10
2760.496279
 20
521.34310199999993
 30
0.0
  0
VERTEX
  5
2378
  8
LAYER01
  6
VERDECKT
 62
     3
 10
2760.571997
 20
521.38081299999999
 30
0.0
  0
VERTEX
  5
2379
  8
LAYER01
  6
VERDECKT
 62
     3
 10
2760.6479949999998
 20
521.41797699999995
 30
0.0
  0
VERTEX
  5
237A
  8
LAYER01
  6
VERDECKT
 62
     3
 10
2760.7242730000012
 20
521.45459800000003
 30
0.0
  0
VERTEX
  5
237B
  8
LAYER01
  6
VERDECKT
 62
     3
 10
2760.800827
 20
521.49068
 30
0.0
  0
VERTEX
  5
237C
  8
LAYER01
  6
VERDECKT
 62
     3
 10
2760.877657
 20
521.52622399999996
 30
0.0
  0
VERTEX
  5
237D
  8
LAYER01
  6
VERDECKT
 62
     3
 10
2760.954761
 20
521.5612349999999
 30
0.0
  0
VERTEX
  5
237E
  8
LAYER01
  6
VERDECKT
 62
     3
 10
2761.0321359999998
 20
521.59571500000004
 30
0.0
  0
VERTEX
  5
237F
  8
LAYER01
  6
VERDECKT
 62
     3
 10
2761.1097829999999
 20
521.62966900000004
 30
0.0
  0
VERTEX
  5
2380
  8
LAYER01
  6
VERDECKT
 62
     3
 10
2761.1876980000002
 20
521.66309799999988
 30
0.0
  0
VERTEX
  5
2381
  8
LAYER01
  6
VERDECKT
 62
     3
 10
2761.2659060000001
 20
521.696011
 30
0.0
  0
VERTEX
  5
2382
  8
LAYER01
  6
VERDECKT
 62
     3
 10
2761.344423
 20
521.72841100000005
 30
0.0
  0
VERTEX
  5
2383
  8
LAYER01
  6
VERDECKT
 62
     3
 10
2761.4232390000002
 20
521.76029500000004
 30
0.0
  0
VERTEX
  5
2384
  8
LAYER01
  6
VERDECKT
 62
     3
 10
2761.50234
 20
521.79166199999986
 30
0.0
  0
VERTEX
  5
2385
  8
LAYER01
  6
VERDECKT
 62
     3
 10
2761.5817160000001
 20
521.82250899999985
 30
0.0
  0
VERTEX
  5
2386
  8
LAYER01
  6
VERDECKT
 62
     3
 10
2761.6613550000011
 20
521.85283400000003
 30
0.0
  0
VERTEX
  5
2387
  8
LAYER01
  6
VERDECKT
 62
     3
 10
2761.7412439999998
 20
521.88263600000005
 30
0.0
  0
VERTEX
  5
2388
  8
LAYER01
  6
VERDECKT
 62
     3
 10
2761.8213719999999
 20
521.91191300000003
 30
0.0
  0
VERTEX
  5
2389
  8
LAYER01
  6
VERDECKT
 62
     3
 10
2761.9017280000012
 20
521.94066099999998
 30
0.0
  0
VERTEX
  5
238A
  8
LAYER01
  6
VERDECKT
 62
     3
 10
2761.9822989999998
 20
521.96888000000001
 30
0.0
  0
VERTEX
  5
238B
  8
LAYER01
  6
VERDECKT
 62
     3
 10
2762.0630729999998
 20
521.99656800000002
 30
0.0
  0
VERTEX
  5
238C
  8
LAYER01
  6
VERDECKT
 62
     3
 10
2762.1440390000012
 20
522.02372100000002
 30
0.0
  0
VERTEX
  5
238D
  8
LAYER01
  6
VERDECKT
 62
     3
 10
2762.2251860000001
 20
522.05033900000001
 30
0.0
  0
VERTEX
  5
238E
  8
LAYER01
  6
VERDECKT
 62
     3
 10
2762.306501
 20
522.07641899999987
 30
0.0
  0
VERTEX
  5
238F
  8
LAYER01
  6
VERDECKT
 62
     3
 10
2762.387972
 20
522.10195999999985
 30
0.0
  0
VERTEX
  5
2390
  8
LAYER01
  6
VERDECKT
 62
     3
 10
2762.469587
 20
522.12695799999995
 30
0.0
  0
VERTEX
  5
2391
  8
LAYER01
  6
VERDECKT
 62
     3
 10
2762.551336
 20
522.15141299999993
 30
0.0
  0
VERTEX
  5
2392
  8
LAYER01
  6
VERDECKT
 62
     3
 10
2762.633206
 20
522.17532099999994
 30
0.0
  0
VERTEX
  5
2393
  8
LAYER01
  6
VERDECKT
 62
     3
 10
2762.715185
 20
522.19868199999996
 30
0.0
  0
VERTEX
  5
2394
  8
LAYER01
  6
VERDECKT
 62
     3
 10
2762.797262
 20
522.2214929999999
 30
0.0
  0
VERTEX
  5
2395
  8
LAYER01
  6
VERDECKT
 62
     3
 10
2762.8794240000002
 20
522.24375199999986
 30
0.0
  0
VERTEX
  5
2396
  8
LAYER01
  6
VERDECKT
 62
     3
 10
2762.9616729999998
 20
522.26546499999995
 30
0.0
  0
VERTEX
  5
2397
  8
LAYER01
  6
VERDECKT
 62
     3
 10
2763.0440149999999
 20
522.28664300000003
 30
0.0
  0
VERTEX
  5
2398
  8
LAYER01
  6
VERDECKT
 62
     3
 10
2763.1264500000011
 20
522.30728499999998
 30
0.0
  0
VERTEX
  5
2399
  8
LAYER01
  6
VERDECKT
 62
     3
 10
2763.208979
 20
522.32739400000003
 30
0.0
  0
VERTEX
  5
239A
  8
LAYER01
  6
VERDECKT
 62
     3
 10
2763.2916010000008
 20
522.34697000000006
 30
0.0
  0
VERTEX
  5
239B
  8
LAYER01
  6
VERDECKT
 62
     3
 10
2763.3743159999999
 20
522.36601399999995
 30
0.0
  0
VERTEX
  5
239C
  8
LAYER01
  6
VERDECKT
 62
     3
 10
2763.4571230000001
 20
522.38452900000004
 30
0.0
  0
VERTEX
  5
239D
  8
LAYER01
  6
VERDECKT
 62
     3
 10
2763.540023
 20
522.402514
 30
0.0
  0
VERTEX
  5
239E
  8
LAYER01
  6
VERDECKT
 62
     3
 10
2763.6230150000001
 20
522.41997200000003
 30
0.0
  0
VERTEX
  5
239F
  8
LAYER01
  6
VERDECKT
 62
     3
 10
2763.706099
 20
522.43690300000003
 30
0.0
  0
VERTEX
  5
23A0
  8
LAYER01
  6
VERDECKT
 62
     3
 10
2763.789275000001
 20
522.45330899999999
 30
0.0
  0
VERTEX
  5
23A1
  8
LAYER01
  6
VERDECKT
 62
     3
 10
2763.872543
 20
522.46919100000002
 30
0.0
  0
VERTEX
  5
23A2
  8
LAYER01
  6
VERDECKT
 62
     3
 10
2763.9559009999998
 20
522.4845499999999
 30
0.0
  0
VERTEX
  5
23A3
  8
LAYER01
  6
VERDECKT
 62
     3
 10
2764.0393509999999
 20
522.49938699999996
 30
0.0
  0
VERTEX
  5
23A4
  8
LAYER01
  6
VERDECKT
 62
     3
 10
2764.1228919999999
 20
522.51370399999985
 30
0.0
  0
VERTEX
  5
23A5
  8
LAYER01
  6
VERDECKT
 62
     3
 10
2764.2065240000002
 20
522.52750100000003
 30
0.0
  0
VERTEX
  5
23A6
  8
LAYER01
  6
VERDECKT
 62
     3
 10
2764.290246
 20
522.54078099999992
 30
0.0
  0
VERTEX
  5
23A7
  8
LAYER01
  6
VERDECKT
 62
     3
 10
2764.3740579999999
 20
522.55354399999987
 30
0.0
  0
VERTEX
  5
23A8
  8
LAYER01
  6
VERDECKT
 62
     3
 10
2764.4579610000001
 20
522.56579099999988
 30
0.0
  0
VERTEX
  5
23A9
  8
LAYER01
  6
VERDECKT
 62
     3
 10
2764.5419539999998
 20
522.57752400000004
 30
0.0
  0
VERTEX
  5
23AA
  8
LAYER01
  6
VERDECKT
 62
     3
 10
2764.626036000001
 20
522.58874300000002
 30
0.0
  0
VERTEX
  5
23AB
  8
LAYER01
  6
VERDECKT
 62
     3
 10
2764.710208
 20
522.59944900000005
 30
0.0
  0
VERTEX
  5
23AC
  8
LAYER01
  6
VERDECKT
 62
     3
 10
2764.7944699999998
 20
522.60963900000002
 30
0.0
  0
VERTEX
  5
23AD
  8
LAYER01
  6
VERDECKT
 62
     3
 10
2764.8788220000001
 20
522.61931300000003
 30
0.0
  0
VERTEX
  5
23AE
  8
LAYER01
  6
VERDECKT
 62
     3
 10
2764.963264
 20
522.62847099999988
 30
0.0
  0
VERTEX
  5
23AF
  8
LAYER01
  6
VERDECKT
 62
     3
 10
2765.0477970000002
 20
522.637112
 30
0.0
  0
VERTEX
  5
23B0
  8
LAYER01
  6
VERDECKT
 62
     3
 10
2765.1324199999999
 20
522.64523599999995
 30
0.0
  0
VERTEX
  5
23B1
  8
LAYER01
  6
VERDECKT
 62
     3
 10
2765.2171330000001
 20
522.65284199999996
 30
0.0
  0
VERTEX
  5
23B2
  8
LAYER01
  6
VERDECKT
 62
     3
 10
2765.3019380000001
 20
522.65993000000003
 30
0.0
  0
VERTEX
  5
23B3
  8
LAYER01
  6
VERDECKT
 62
     3
 10
2765.3868320000001
 20
522.66649900000004
 30
0.0
  0
VERTEX
  5
23B4
  8
LAYER01
  6
VERDECKT
 62
     3
 10
2765.471818
 20
522.67254899999989
 30
0.0
  0
VERTEX
  5
23B5
  8
LAYER01
  6
VERDECKT
 62
     3
 10
2765.5568990000002
 20
522.67807900000003
 30
0.0
  0
VERTEX
  5
23B6
  8
LAYER01
  6
VERDECKT
 62
     3
 10
2765.6420939999998
 20
522.68308599999989
 30
0.0
  0
VERTEX
  5
23B7
  8
LAYER01
  6
VERDECKT
 62
     3
 10
2765.7273869999999
 20
522.68757000000005
 30
0.0
  0
VERTEX
  5
23B8
  8
LAYER01
  6
VERDECKT
 62
     3
 10
2765.8127530000002
 20
522.69152899999995
 30
0.0
  0
VERTEX
  5
23B9
  8
LAYER01
  6
VERDECKT
 62
     3
 10
2765.8981680000002
 20
522.69496300000003
 30
0.0
  0
VERTEX
  5
23BA
  8
LAYER01
  6
VERDECKT
 62
     3
 10
2765.9836110000001
 20
522.69787099999996
 30
0.0
  0
VERTEX
  5
23BB
  8
LAYER01
  6
VERDECKT
 62
     3
 10
2766.0690559999998
 20
522.70025199999998
 30
0.0
  0
VERTEX
  5
23BC
  8
LAYER01
  6
VERDECKT
 62
     3
 10
2766.154481
 20
522.70210499999985
 30
0.0
  0
VERTEX
  5
23BD
  8
LAYER01
  6
VERDECKT
 62
     3
 10
2766.2398619999999
 20
522.70342900000003
 30
0.0
  0
VERTEX
  5
23BE
  8
LAYER01
  6
VERDECKT
 62
     3
 10
2766.3251759999998
 20
522.70422499999995
 30
0.0
  0
VERTEX
  5
23BF
  8
LAYER01
  6
VERDECKT
 62
     3
 10
2766.4103989999999
 20
522.70448999999996
 30
0.0
  0
SEQEND
  5
23C0
  8
LAYER01
  6
VERDECKT
 62
     3
  0
POLYLINE
  5
956
  8
LAYER01
  6
VERDECKT
 62
     3
 66
     1
 10
0.0
 20
0.0
 30
0.0
  0
VERTEX
  5
23C1
  8
LAYER01
  6
VERDECKT
 62
     3
 10
2770.711808
 20
501.22784999999988
 30
0.0
  0
VERTEX
  5
23C2
  8
LAYER01
  6
VERDECKT
 62
     3
 10
2770.7195100000008
 20
501.33110199999987
 30
0.0
  0
VERTEX
  5
23C3
  8
LAYER01
  6
VERDECKT
 62
     3
 10
2770.7285809999998
 20
501.43415199999998
 30
0.0
  0
VERTEX
  5
23C4
  8
LAYER01
  6
VERDECKT
 62
     3
 10
2770.7390150000001
 20
501.53700199999992
 30
0.0
  0
VERTEX
  5
23C5
  8
LAYER01
  6
VERDECKT
 62
     3
 10
2770.7508109999999
 20
501.6396499999999
 30
0.0
  0
VERTEX
  5
23C6
  8
LAYER01
  6
VERDECKT
 62
     3
 10
2770.7639629999999
 20
501.74209899999988
 30
0.0
  0
VERTEX
  5
23C7
  8
LAYER01
  6
VERDECKT
 62
     3
 10
2770.7784700000002
 20
501.84434900000002
 30
0.0
  0
VERTEX
  5
23C8
  8
LAYER01
  6
VERDECKT
 62
     3
 10
2770.7943260000011
 20
501.94639899999999
 30
0.0
  0
VERTEX
  5
23C9
  8
LAYER01
  6
VERDECKT
 62
     3
 10
2770.8115290000001
 20
502.04825099999988
 30
0.0
  0
VERTEX
  5
23CA
  8
LAYER01
  6
VERDECKT
 62
     3
 10
2770.830074
 20
502.14990499999999
 30
0.0
  0
VERTEX
  5
23CB
  8
LAYER01
  6
VERDECKT
 62
     3
 10
2770.8499590000001
 20
502.25136199999997
 30
0.0
  0
VERTEX
  5
23CC
  8
LAYER01
  6
VERDECKT
 62
     3
 10
2770.871184000001
 20
502.3526359999999
 30
0.0
  0
VERTEX
  5
23CD
  8
LAYER01
  6
VERDECKT
 62
     3
 10
2770.8937760000008
 20
502.45379999999989
 30
0.0
  0
VERTEX
  5
23CE
  8
LAYER01
  6
VERDECKT
 62
     3
 10
2770.9177260000001
 20
502.55482999999992
 30
0.0
  0
VERTEX
  5
23CF
  8
LAYER01
  6
VERDECKT
 62
     3
 10
2770.9430219999999
 20
502.655688
 30
0.0
  0
VERTEX
  5
23D0
  8
LAYER01
  6
VERDECKT
 62
     3
 10
2770.96965
 20
502.75633800000003
 30
0.0
  0
VERTEX
  5
23D1
  8
LAYER01
  6
VERDECKT
 62
     3
 10
2770.997597
 20
502.85674
 30
0.0
  0
VERTEX
  5
23D2
  8
LAYER01
  6
VERDECKT
 62
     3
 10
2771.0268489999999
 20
502.9568559999999
 30
0.0
  0
VERTEX
  5
23D3
  8
LAYER01
  6
VERDECKT
 62
     3
 10
2771.0573939999999
 20
503.05664899999999
 30
0.0
  0
VERTEX
  5
23D4
  8
LAYER01
  6
VERDECKT
 62
     3
 10
2771.089219
 20
503.15608099999997
 30
0.0
  0
VERTEX
  5
23D5
  8
LAYER01
  6
VERDECKT
 62
     3
 10
2771.1223089999999
 20
503.25511299999988
 30
0.0
  0
VERTEX
  5
23D6
  8
LAYER01
  6
VERDECKT
 62
     3
 10
2771.1566520000001
 20
503.35370799999998
 30
0.0
  0
VERTEX
  5
23D7
  8
LAYER01
  6
VERDECKT
 62
     3
 10
2771.1921870000001
 20
503.45174999999989
 30
0.0
  0
VERTEX
  5
23D8
  8
LAYER01
  6
VERDECKT
 62
     3
 10
2771.2288589999998
 20
503.54915499999993
 30
0.0
  0
VERTEX
  5
23D9
  8
LAYER01
  6
VERDECKT
 62
     3
 10
2771.2666570000001
 20
503.64592699999992
 30
0.0
  0
VERTEX
  5
23DA
  8
LAYER01
  6
VERDECKT
 62
     3
 10
2771.3055749999999
 20
503.74207100000001
 30
0.0
  0
VERTEX
  5
23DB
  8
LAYER01
  6
VERDECKT
 62
     3
 10
2771.3456030000002
 20
503.83759099999997
 30
0.0
  0
VERTEX
  5
23DC
  8
LAYER01
  6
VERDECKT
 62
     3
 10
2771.3867319999999
 20
503.93249199999991
 30
0.0
  0
VERTEX
  5
23DD
  8
LAYER01
  6
VERDECKT
 62
     3
 10
2771.4289549999999
 20
504.02677999999992
 30
0.0
  0
VERTEX
  5
23DE
  8
LAYER01
  6
VERDECKT
 62
     3
 10
2771.4722630000001
 20
504.12045799999993
 30
0.0
  0
VERTEX
  5
23DF
  8
LAYER01
  6
VERDECKT
 62
     3
 10
2771.5166479999998
 20
504.21353199999999
 30
0.0
  0
VERTEX
  5
23E0
  8
LAYER01
  6
VERDECKT
 62
     3
 10
2771.562100000001
 20
504.30600600000002
 30
0.0
  0
VERTEX
  5
23E1
  8
LAYER01
  6
VERDECKT
 62
     3
 10
2771.608612
 20
504.39788600000003
 30
0.0
  0
VERTEX
  5
23E2
  8
LAYER01
  6
VERDECKT
 62
     3
 10
2771.6561740000002
 20
504.48917499999988
 30
0.0
  0
VERTEX
  5
23E3
  8
LAYER01
  6
VERDECKT
 62
     3
 10
2771.7047790000001
 20
504.57987900000001
 30
0.0
  0
VERTEX
  5
23E4
  8
LAYER01
  6
VERDECKT
 62
     3
 10
2771.754418
 20
504.6700019999999
 30
0.0
  0
VERTEX
  5
23E5
  8
LAYER01
  6
VERDECKT
 62
     3
 10
2771.8050830000002
 20
504.75954899999999
 30
0.0
  0
VERTEX
  5
23E6
  8
LAYER01
  6
VERDECKT
 62
     3
 10
2771.856765
 20
504.84852499999988
 30
0.0
  0
VERTEX
  5
23E7
  8
LAYER01
  6
VERDECKT
 62
     3
 10
2771.909455
 20
504.93693499999989
 30
0.0
  0
VERTEX
  5
23E8
  8
LAYER01
  6
VERDECKT
 62
     3
 10
2771.9631450000002
 20
505.0247839999999
 30
0.0
  0
VERTEX
  5
23E9
  8
LAYER01
  6
VERDECKT
 62
     3
 10
2772.0178270000001
 20
505.11207499999989
 30
0.0
  0
VERTEX
  5
23EA
  8
LAYER01
  6
VERDECKT
 62
     3
 10
2772.073492
 20
505.19881500000002
 30
0.0
  0
VERTEX
  5
23EB
  8
LAYER01
  6
VERDECKT
 62
     3
 10
2772.1301309999999
 20
505.28500699999989
 30
0.0
  0
VERTEX
  5
23EC
  8
LAYER01
  6
VERDECKT
 62
     3
 10
2772.1877629999999
 20
505.37067499999989
 30
0.0
  0
VERTEX
  5
23ED
  8
LAYER01
  6
VERDECKT
 62
     3
 10
2772.2463990000001
 20
505.45582999999999
 30
0.0
  0
VERTEX
  5
23EE
  8
LAYER01
  6
VERDECKT
 62
     3
 10
2772.3060230000001
 20
505.540459
 30
0.0
  0
VERTEX
  5
23EF
  8
LAYER01
  6
VERDECKT
 62
     3
 10
2772.3666189999999
 20
505.62454699999989
 30
0.0
  0
VERTEX
  5
23F0
  8
LAYER01
  6
VERDECKT
 62
     3
 10
2772.4281729999998
 20
505.70808299999999
 30
0.0
  0
VERTEX
  5
23F1
  8
LAYER01
  6
VERDECKT
 62
     3
 10
2772.490667
 20
505.79105099999998
 30
0.0
  0
VERTEX
  5
23F2
  8
LAYER01
  6
VERDECKT
 62
     3
 10
2772.5540860000001
 20
505.87344000000002
 30
0.0
  0
VERTEX
  5
23F3
  8
LAYER01
  6
VERDECKT
 62
     3
 10
2772.618414
 20
505.9552339999999
 30
0.0
  0
VERTEX
  5
23F4
  8
LAYER01
  6
VERDECKT
 62
     3
 10
2772.6836360000002
 20
506.0364219999999
 30
0.0
  0
VERTEX
  5
23F5
  8
LAYER01
  6
VERDECKT
 62
     3
 10
2772.7497349999999
 20
506.11698999999999
 30
0.0
  0
VERTEX
  5
23F6
  8
LAYER01
  6
VERDECKT
 62
     3
 10
2772.8166780000001
 20
506.19690500000002
 30
0.0
  0
VERTEX
  5
23F7
  8
LAYER01
  6
VERDECKT
 62
     3
 10
2772.8843529999999
 20
506.27605299999999
 30
0.0
  0
VERTEX
  5
23F8
  8
LAYER01
  6
VERDECKT
 62
     3
 10
2772.9527360000002
 20
506.35442199999989
 30
0.0
  0
VERTEX
  5
23F9
  8
LAYER01
  6
VERDECKT
 62
     3
 10
2773.0218190000001
 20
506.43202000000002
 30
0.0
  0
VERTEX
  5
23FA
  8
LAYER01
  6
VERDECKT
 62
     3
 10
2773.0915960000002
 20
506.50885299999999
 30
0.0
  0
VERTEX
  5
23FB
  8
LAYER01
  6
VERDECKT
 62
     3
 10
2773.162061
 20
506.58492999999987
 30
0.0
  0
VERTEX
  5
23FC
  8
LAYER01
  6
VERDECKT
 62
     3
 10
2773.2332059999999
 20
506.66025699999989
 30
0.0
  0
VERTEX
  5
23FD
  8
LAYER01
  6
VERDECKT
 62
     3
 10
2773.305026
 20
506.73484100000002
 30
0.0
  0
VERTEX
  5
23FE
  8
LAYER01
  6
VERDECKT
 62
     3
 10
2773.3775129999999
 20
506.8086899999999
 30
0.0
  0
VERTEX
  5
23FF
  8
LAYER01
  6
VERDECKT
 62
     3
 10
2773.4506609999999
 20
506.88181200000002
 30
0.0
  0
VERTEX
  5
2400
  8
LAYER01
  6
VERDECKT
 62
     3
 10
2773.5244640000001
 20
506.95421299999998
 30
0.0
  0
VERTEX
  5
2401
  8
LAYER01
  6
VERDECKT
 62
     3
 10
2773.5989249999998
 20
507.02591100000001
 30
0.0
  0
VERTEX
  5
2402
  8
LAYER01
  6
VERDECKT
 62
     3
 10
2773.6740500000001
 20
507.09692000000001
 30
0.0
  0
VERTEX
  5
2403
  8
LAYER01
  6
VERDECKT
 62
     3
 10
2773.7498300000002
 20
507.16723999999999
 30
0.0
  0
VERTEX
  5
2404
  8
LAYER01
  6
VERDECKT
 62
     3
 10
2773.8262599999998
 20
507.23687100000001
 30
0.0
  0
VERTEX
  5
2405
  8
LAYER01
  6
VERDECKT
 62
     3
 10
2773.9033319999999
 20
507.30581599999999
 30
0.0
  0
VERTEX
  5
2406
  8
LAYER01
  6
VERDECKT
 62
     3
 10
2773.9810390000011
 20
507.37407300000001
 30
0.0
  0
VERTEX
  5
2407
  8
LAYER01
  6
VERDECKT
 62
     3
 10
2774.0593739999999
 20
507.44164499999999
 30
0.0
  0
VERTEX
  5
2408
  8
LAYER01
  6
VERDECKT
 62
     3
 10
2774.1383289999999
 20
507.508532
 30
0.0
  0
VERTEX
  5
2409
  8
LAYER01
  6
VERDECKT
 62
     3
 10
2774.2178979999999
 20
507.57473399999992
 30
0.0
  0
VERTEX
  5
240A
  8
LAYER01
  6
VERDECKT
 62
     3
 10
2774.2980729999999
 20
507.64025199999998
 30
0.0
  0
VERTEX
  5
240B
  8
LAYER01
  6
VERDECKT
 62
     3
 10
2774.378847
 20
507.70508699999988
 30
0.0
  0
VERTEX
  5
240C
  8
LAYER01
  6
VERDECKT
 62
     3
 10
2774.4602140000002
 20
507.76924000000002
 30
0.0
  0
VERTEX
  5
240D
  8
LAYER01
  6
VERDECKT
 62
     3
 10
2774.5421660000002
 20
507.83271100000002
 30
0.0
  0
VERTEX
  5
240E
  8
LAYER01
  6
VERDECKT
 62
     3
 10
2774.624695
 20
507.89550199999991
 30
0.0
  0
VERTEX
  5
240F
  8
LAYER01
  6
VERDECKT
 62
     3
 10
2774.7077960000001
 20
507.95761199999993
 30
0.0
  0
VERTEX
  5
2410
  8
LAYER01
  6
VERDECKT
 62
     3
 10
2774.7914600000008
 20
508.01904300000001
 30
0.0
  0
VERTEX
  5
2411
  8
LAYER01
  6
VERDECKT
 62
     3
 10
2774.875681
 20
508.07979499999999
 30
0.0
  0
VERTEX
  5
2412
  8
LAYER01
  6
VERDECKT
 62
     3
 10
2774.9604519999998
 20
508.13986899999998
 30
0.0
  0
VERTEX
  5
2413
  8
LAYER01
  6
VERDECKT
 62
     3
 10
2775.0457649999998
 20
508.19926600000002
 30
0.0
  0
VERTEX
  5
2414
  8
LAYER01
  6
VERDECKT
 62
     3
 10
2775.131613
 20
508.25798600000002
 30
0.0
  0
VERTEX
  5
2415
  8
LAYER01
  6
VERDECKT
 62
     3
 10
2775.2179900000001
 20
508.3160299999999
 30
0.0
  0
VERTEX
  5
2416
  8
LAYER01
  6
VERDECKT
 62
     3
 10
2775.3048050000011
 20
508.37334900000002
 30
0.0
  0
VERTEX
  5
2417
  8
LAYER01
  6
VERDECKT
 62
     3
 10
2775.3919729999998
 20
508.42989399999999
 30
0.0
  0
VERTEX
  5
2418
  8
LAYER01
  6
VERDECKT
 62
     3
 10
2775.4794919999999
 20
508.48567099999991
 30
0.0
  0
VERTEX
  5
2419
  8
LAYER01
  6
VERDECKT
 62
     3
 10
2775.5673579999998
 20
508.540684
 30
0.0
  0
VERTEX
  5
241A
  8
LAYER01
  6
VERDECKT
 62
     3
 10
2775.6555710000011
 20
508.5949389999999
 30
0.0
  0
VERTEX
  5
241B
  8
LAYER01
  6
VERDECKT
 62
     3
 10
2775.7441269999999
 20
508.64844099999988
 30
0.0
  0
VERTEX
  5
241C
  8
LAYER01
  6
VERDECKT
 62
     3
 10
2775.8330249999999
 20
508.70119499999998
 30
0.0
  0
VERTEX
  5
241D
  8
LAYER01
  6
VERDECKT
 62
     3
 10
2775.9222610000002
 20
508.75320599999998
 30
0.0
  0
VERTEX
  5
241E
  8
LAYER01
  6
VERDECKT
 62
     3
 10
2776.0118349999998
 20
508.80447800000002
 30
0.0
  0
VERTEX
  5
241F
  8
LAYER01
  6
VERDECKT
 62
     3
 10
2776.1017419999998
 20
508.85501699999992
 30
0.0
  0
VERTEX
  5
2420
  8
LAYER01
  6
VERDECKT
 62
     3
 10
2776.1919819999998
 20
508.9048269999999
 30
0.0
  0
VERTEX
  5
2421
  8
LAYER01
  6
VERDECKT
 62
     3
 10
2776.2825520000001
 20
508.95391499999999
 30
0.0
  0
VERTEX
  5
2422
  8
LAYER01
  6
VERDECKT
 62
     3
 10
2776.37345
 20
509.00228399999992
 30
0.0
  0
VERTEX
  5
2423
  8
LAYER01
  6
VERDECKT
 62
     3
 10
2776.4646729999999
 20
509.04993999999999
 30
0.0
  0
VERTEX
  5
2424
  8
LAYER01
  6
VERDECKT
 62
     3
 10
2776.5562190000001
 20
509.09688799999998
 30
0.0
  0
VERTEX
  5
2425
  8
LAYER01
  6
VERDECKT
 62
     3
 10
2776.6480850000012
 20
509.14313199999998
 30
0.0
  0
VERTEX
  5
2426
  8
LAYER01
  6
VERDECKT
 62
     3
 10
2776.7402710000001
 20
509.18867899999998
 30
0.0
  0
VERTEX
  5
2427
  8
LAYER01
  6
VERDECKT
 62
     3
 10
2776.8327720000002
 20
509.23353200000003
 30
0.0
  0
VERTEX
  5
2428
  8
LAYER01
  6
VERDECKT
 62
     3
 10
2776.9255870000002
 20
509.27769699999999
 30
0.0
  0
VERTEX
  5
2429
  8
LAYER01
  6
VERDECKT
 62
     3
 10
2777.0187139999998
 20
509.32117799999997
 30
0.0
  0
VERTEX
  5
242A
  8
LAYER01
  6
VERDECKT
 62
     3
 10
2777.1121510000012
 20
509.36398199999991
 30
0.0
  0
VERTEX
  5
242B
  8
LAYER01
  6
VERDECKT
 62
     3
 10
2777.2058950000001
 20
509.40611100000001
 30
0.0
  0
VERTEX
  5
242C
  8
LAYER01
  6
VERDECKT
 62
     3
 10
2777.299947
 20
509.447565
 30
0.0
  0
VERTEX
  5
242D
  8
LAYER01
  6
VERDECKT
 62
     3
 10
2777.3943049999998
 20
509.48834599999998
 30
0.0
  0
VERTEX
  5
242E
  8
LAYER01
  6
VERDECKT
 62
     3
 10
2777.4889710000002
 20
509.52845500000001
 30
0.0
  0
VERTEX
  5
242F
  8
LAYER01
  6
VERDECKT
 62
     3
 10
2777.5839420000011
 20
509.56789399999991
 30
0.0
  0
VERTEX
  5
2430
  8
LAYER01
  6
VERDECKT
 62
     3
 10
2777.6792190000001
 20
509.60666300000003
 30
0.0
  0
VERTEX
  5
2431
  8
LAYER01
  6
VERDECKT
 62
     3
 10
2777.774801
 20
509.64476300000001
 30
0.0
  0
VERTEX
  5
2432
  8
LAYER01
  6
VERDECKT
 62
     3
 10
2777.8706870000001
 20
509.68219599999992
 30
0.0
  0
VERTEX
  5
2433
  8
LAYER01
  6
VERDECKT
 62
     3
 10
2777.966876
 20
509.71896299999992
 30
0.0
  0
VERTEX
  5
2434
  8
LAYER01
  6
VERDECKT
 62
     3
 10
2778.0633699999998
 20
509.755065
 30
0.0
  0
VERTEX
  5
2435
  8
LAYER01
  6
VERDECKT
 62
     3
 10
2778.160166000001
 20
509.79050299999989
 30
0.0
  0
VERTEX
  5
2436
  8
LAYER01
  6
VERDECKT
 62
     3
 10
2778.2572639999999
 20
509.82527900000002
 30
0.0
  0
VERTEX
  5
2437
  8
LAYER01
  6
VERDECKT
 62
     3
 10
2778.354664
 20
509.85939400000001
 30
0.0
  0
VERTEX
  5
2438
  8
LAYER01
  6
VERDECKT
 62
     3
 10
2778.4523650000001
 20
509.89284800000001
 30
0.0
  0
VERTEX
  5
2439
  8
LAYER01
  6
VERDECKT
 62
     3
 10
2778.5503670000012
 20
509.92564299999992
 30
0.0
  0
VERTEX
  5
243A
  8
LAYER01
  6
VERDECKT
 62
     3
 10
2778.6486679999998
 20
509.9577799999999
 30
0.0
  0
VERTEX
  5
243B
  8
LAYER01
  6
VERDECKT
 62
     3
 10
2778.7472699999998
 20
509.98925999999989
 30
0.0
  0
VERTEX
  5
243C
  8
LAYER01
  6
VERDECKT
 62
     3
 10
2778.8461699999998
 20
510.02008499999988
 30
0.0
  0
VERTEX
  5
243D
  8
LAYER01
  6
VERDECKT
 62
     3
 10
2778.945369
 20
510.05025499999988
 30
0.0
  0
VERTEX
  5
243E
  8
LAYER01
  6
VERDECKT
 62
     3
 10
2779.0448660000002
 20
510.07977299999999
 30
0.0
  0
VERTEX
  5
243F
  8
LAYER01
  6
VERDECKT
 62
     3
 10
2779.1446609999998
 20
510.10863799999993
 30
0.0
  0
VERTEX
  5
2440
  8
LAYER01
  6
VERDECKT
 62
     3
 10
2779.2446749999999
 20
510.13682799999998
 30
0.0
  0
VERTEX
  5
2441
  8
LAYER01
  6
VERDECKT
 62
     3
 10
2779.3448309999999
 20
510.16432099999992
 30
0.0
  0
VERTEX
  5
2442
  8
LAYER01
  6
VERDECKT
 62
     3
 10
2779.445123
 20
510.19111800000002
 30
0.0
  0
VERTEX
  5
2443
  8
LAYER01
  6
VERDECKT
 62
     3
 10
2779.5455459999998
 20
510.217219
 30
0.0
  0
VERTEX
  5
2444
  8
LAYER01
  6
VERDECKT
 62
     3
 10
2779.6460969999998
 20
510.24262599999992
 30
0.0
  0
VERTEX
  5
2445
  8
LAYER01
  6
VERDECKT
 62
     3
 10
2779.7467690000012
 20
510.26734099999999
 30
0.0
  0
VERTEX
  5
2446
  8
LAYER01
  6
VERDECKT
 62
     3
 10
2779.8475600000002
 20
510.29136399999987
 30
0.0
  0
VERTEX
  5
2447
  8
LAYER01
  6
VERDECKT
 62
     3
 10
2779.9484630000002
 20
510.31469600000003
 30
0.0
  0
VERTEX
  5
2448
  8
LAYER01
  6
VERDECKT
 62
     3
 10
2780.0494749999998
 20
510.33733899999987
 30
0.0
  0
VERTEX
  5
2449
  8
LAYER01
  6
VERDECKT
 62
     3
 10
2780.150592
 20
510.35929399999998
 30
0.0
  0
VERTEX
  5
244A
  8
LAYER01
  6
VERDECKT
 62
     3
 10
2780.2518070000001
 20
510.380562
 30
0.0
  0
VERTEX
  5
244B
  8
LAYER01
  6
VERDECKT
 62
     3
 10
2780.353117000001
 20
510.40114399999999
 30
0.0
  0
VERTEX
  5
244C
  8
LAYER01
  6
VERDECKT
 62
     3
 10
2780.4545170000001
 20
510.421041
 30
0.0
  0
VERTEX
  5
244D
  8
LAYER01
  6
VERDECKT
 62
     3
 10
2780.5560019999998
 20
510.44025499999992
 30
0.0
  0
VERTEX
  5
244E
  8
LAYER01
  6
VERDECKT
 62
     3
 10
2780.657569
 20
510.45878699999997
 30
0.0
  0
VERTEX
  5
244F
  8
LAYER01
  6
VERDECKT
 62
     3
 10
2780.7592119999999
 20
510.47663699999998
 30
0.0
  0
VERTEX
  5
2450
  8
LAYER01
  6
VERDECKT
 62
     3
 10
2780.8609260000012
 20
510.493808
 30
0.0
  0
VERTEX
  5
2451
  8
LAYER01
  6
VERDECKT
 62
     3
 10
2780.9627070000001
 20
510.51029899999997
 30
0.0
  0
VERTEX
  5
2452
  8
LAYER01
  6
VERDECKT
 62
     3
 10
2781.0645509999999
 20
510.52611300000001
 30
0.0
  0
VERTEX
  5
2453
  8
LAYER01
  6
VERDECKT
 62
     3
 10
2781.1664519999999
 20
510.54125099999987
 30
0.0
  0
VERTEX
  5
2454
  8
LAYER01
  6
VERDECKT
 62
     3
 10
2781.268407
 20
510.55571300000003
 30
0.0
  0
VERTEX
  5
2455
  8
LAYER01
  6
VERDECKT
 62
     3
 10
2781.3704250000001
 20
510.56950499999999
 30
0.0
  0
VERTEX
  5
2456
  8
LAYER01
  6
VERDECKT
 62
     3
 10
2781.472522
 20
510.58262999999999
 30
0.0
  0
VERTEX
  5
2457
  8
LAYER01
  6
VERDECKT
 62
     3
 10
2781.5746960000001
 20
510.59508699999998
 30
0.0
  0
VERTEX
  5
2458
  8
LAYER01
  6
VERDECKT
 62
     3
 10
2781.6769480000012
 20
510.606876
 30
0.0
  0
VERTEX
  5
2459
  8
LAYER01
  6
VERDECKT
 62
     3
 10
2781.779278
 20
510.61799699999989
 30
0.0
  0
VERTEX
  5
245A
  8
LAYER01
  6
VERDECKT
 62
     3
 10
2781.8816860000002
 20
510.62844799999999
 30
0.0
  0
VERTEX
  5
245B
  8
LAYER01
  6
VERDECKT
 62
     3
 10
2781.9841719999999
 20
510.63822999999991
 30
0.0
  0
VERTEX
  5
245C
  8
LAYER01
  6
VERDECKT
 62
     3
 10
2782.0867360000002
 20
510.64733999999999
 30
0.0
  0
VERTEX
  5
245D
  8
LAYER01
  6
VERDECKT
 62
     3
 10
2782.1893789999999
 20
510.65577999999999
 30
0.0
  0
VERTEX
  5
245E
  8
LAYER01
  6
VERDECKT
 62
     3
 10
2782.2921000000001
 20
510.66354799999999
 30
0.0
  0
VERTEX
  5
245F
  8
LAYER01
  6
VERDECKT
 62
     3
 10
2782.3948989999999
 20
510.67064399999998
 30
0.0
  0
VERTEX
  5
2460
  8
LAYER01
  6
VERDECKT
 62
     3
 10
2782.497777
 20
510.67706600000002
 30
0.0
  0
VERTEX
  5
2461
  8
LAYER01
  6
VERDECKT
 62
     3
 10
2782.6007330000002
 20
510.682816
 30
0.0
  0
VERTEX
  5
2462
  8
LAYER01
  6
VERDECKT
 62
     3
 10
2782.7037679999999
 20
510.68789099999998
 30
0.0
  0
VERTEX
  5
2463
  8
LAYER01
  6
VERDECKT
 62
     3
 10
2782.8068819999999
 20
510.69229100000001
 30
0.0
  0
VERTEX
  5
2464
  8
LAYER01
  6
VERDECKT
 62
     3
 10
2782.9100739999999
 20
510.69601599999999
 30
0.0
  0
VERTEX
  5
2465
  8
LAYER01
  6
VERDECKT
 62
     3
 10
2783.0133449999998
 20
510.69906500000002
 30
0.0
  0
VERTEX
  5
2466
  8
LAYER01
  6
VERDECKT
 62
     3
 10
2783.1166950000002
 20
510.70143799999988
 30
0.0
  0
VERTEX
  5
2467
  8
LAYER01
  6
VERDECKT
 62
     3
 10
2783.2201239999999
 20
510.70313299999992
 30
0.0
  0
VERTEX
  5
2468
  8
LAYER01
  6
VERDECKT
 62
     3
 10
2783.3236320000001
 20
510.70415100000002
 30
0.0
  0
VERTEX
  5
2469
  8
LAYER01
  6
VERDECKT
 62
     3
 10
2783.4272190000002
 20
510.70448999999991
 30
0.0
  0
SEQEND
  5
246A
  8
LAYER01
  6
VERDECKT
 62
     3
  0
POLYLINE
  5
A01
  8
LAYER01
  6
VERDECKT
 62
     3
 66
     1
 10
0.0
 20
0.0
 30
0.0
  0
VERTEX
  5
246B
  8
LAYER01
  6
VERDECKT
 62
     3
 10
2747.897003
 20
406.75025299999987
 30
0.0
  0
VERTEX
  5
246C
  8
LAYER01
  6
VERDECKT
 62
     3
 10
2747.8887829999999
 20
406.64824299999998
 30
0.0
  0
VERTEX
  5
246D
  8
LAYER01
  6
VERDECKT
 62
     3
 10
2747.8791590000001
 20
406.54660999999999
 30
0.0
  0
VERTEX
  5
246E
  8
LAYER01
  6
VERDECKT
 62
     3
 10
2747.86814
 20
406.4453509999999
 30
0.0
  0
VERTEX
  5
246F
  8
LAYER01
  6
VERDECKT
 62
     3
 10
2747.8557350000001
 20
406.34446500000001
 30
0.0
  0
VERTEX
  5
2470
  8
LAYER01
  6
VERDECKT
 62
     3
 10
2747.8419530000001
 20
406.24394899999999
 30
0.0
  0
VERTEX
  5
2471
  8
LAYER01
  6
VERDECKT
 62
     3
 10
2747.826802
 20
406.14380099999988
 30
0.0
  0
VERTEX
  5
2472
  8
LAYER01
  6
VERDECKT
 62
     3
 10
2747.8102909999998
 20
406.04401799999988
 30
0.0
  0
VERTEX
  5
2473
  8
LAYER01
  6
VERDECKT
 62
     3
 10
2747.7924290000001
 20
405.94459899999998
 30
0.0
  0
VERTEX
  5
2474
  8
LAYER01
  6
VERDECKT
 62
     3
 10
2747.773224
 20
405.84553999999991
 30
0.0
  0
VERTEX
  5
2475
  8
LAYER01
  6
VERDECKT
 62
     3
 10
2747.7526849999999
 20
405.74683900000002
 30
0.0
  0
VERTEX
  5
2476
  8
LAYER01
  6
VERDECKT
 62
     3
 10
2747.7308200000002
 20
405.64849500000003
 30
0.0
  0
VERTEX
  5
2477
  8
LAYER01
  6
VERDECKT
 62
     3
 10
2747.7076400000001
 20
405.55050499999987
 30
0.0
  0
VERTEX
  5
2478
  8
LAYER01
  6
VERDECKT
 62
     3
 10
2747.6831510000002
 20
405.45286599999997
 30
0.0
  0
VERTEX
  5
2479
  8
LAYER01
  6
VERDECKT
 62
     3
 10
2747.6573629999998
 20
405.35557599999999
 30
0.0
  0
VERTEX
  5
247A
  8
LAYER01
  6
VERDECKT
 62
     3
 10
2747.6302839999998
 20
405.25863299999997
 30
0.0
  0
VERTEX
  5
247B
  8
LAYER01
  6
VERDECKT
 62
     3
 10
2747.6019240000001
 20
405.16203400000001
 30
0.0
  0
VERTEX
  5
247C
  8
LAYER01
  6
VERDECKT
 62
     3
 10
2747.5722900000001
 20
405.06577799999991
 30
0.0
  0
VERTEX
  5
247D
  8
LAYER01
  6
VERDECKT
 62
     3
 10
2747.5413920000001
 20
404.96986099999998
 30
0.0
  0
VERTEX
  5
247E
  8
LAYER01
  6
VERDECKT
 62
     3
 10
2747.509238000001
 20
404.87428199999999
 30
0.0
  0
VERTEX
  5
247F
  8
LAYER01
  6
VERDECKT
 62
     3
 10
2747.475837
 20
404.77903700000002
 30
0.0
  0
VERTEX
  5
2480
  8
LAYER01
  6
VERDECKT
 62
     3
 10
2747.441197000001
 20
404.68412599999988
 30
0.0
  0
VERTEX
  5
2481
  8
LAYER01
  6
VERDECKT
 62
     3
 10
2747.4053280000012
 20
404.58954499999999
 30
0.0
  0
VERTEX
  5
2482
  8
LAYER01
  6
VERDECKT
 62
     3
 10
2747.3682370000001
 20
404.49529200000001
 30
0.0
  0
VERTEX
  5
2483
  8
LAYER01
  6
VERDECKT
 62
     3
 10
2747.3299059999999
 20
404.40135099999998
 30
0.0
  0
VERTEX
  5
2484
  8
LAYER01
  6
VERDECKT
 62
     3
 10
2747.290328
 20
404.30773399999993
 30
0.0
  0
VERTEX
  5
2485
  8
LAYER01
  6
VERDECKT
 62
     3
 10
2747.2495370000001
 20
404.21448500000002
 30
0.0
  0
VERTEX
  5
2486
  8
LAYER01
  6
VERDECKT
 62
     3
 10
2747.2075629999999
 20
404.121647
 30
0.0
  0
VERTEX
  5
2487
  8
LAYER01
  6
VERDECKT
 62
     3
 10
2747.1644379999998
 20
404.02926099999991
 30
0.0
  0
VERTEX
  5
2488
  8
LAYER01
  6
VERDECKT
 62
     3
 10
2747.1201940000001
 20
403.93737199999998
 30
0.0
  0
VERTEX
  5
2489
  8
LAYER01
  6
VERDECKT
 62
     3
 10
2747.0748619999999
 20
403.84602000000001
 30
0.0
  0
VERTEX
  5
248A
  8
LAYER01
  6
VERDECKT
 62
     3
 10
2747.0284750000001
 20
403.75524999999999
 30
0.0
  0
VERTEX
  5
248B
  8
LAYER01
  6
VERDECKT
 62
     3
 10
2746.9810630000002
 20
403.66510499999993
 30
0.0
  0
VERTEX
  5
248C
  8
LAYER01
  6
VERDECKT
 62
     3
 10
2746.9326580000002
 20
403.575626
 30
0.0
  0
VERTEX
  5
248D
  8
LAYER01
  6
VERDECKT
 62
     3
 10
2746.8832929999999
 20
403.48685599999988
 30
0.0
  0
VERTEX
  5
248E
  8
LAYER01
  6
VERDECKT
 62
     3
 10
2746.8329920000001
 20
403.398822
 30
0.0
  0
VERTEX
  5
248F
  8
LAYER01
  6
VERDECKT
 62
     3
 10
2746.7817460000001
 20
403.31144699999999
 30
0.0
  0
VERTEX
  5
2490
  8
LAYER01
  6
VERDECKT
 62
     3
 10
2746.729558
 20
403.22471100000001
 30
0.0
  0
VERTEX
  5
2491
  8
LAYER01
  6
VERDECKT
 62
     3
 10
2746.6764360000002
 20
403.13860799999998
 30
0.0
  0
VERTEX
  5
2492
  8
LAYER01
  6
VERDECKT
 62
     3
 10
2746.62239
 20
403.05313199999989
 30
0.0
  0
VERTEX
  5
2493
  8
LAYER01
  6
VERDECKT
 62
     3
 10
2746.5674279999998
 20
402.96827699999989
 30
0.0
  0
VERTEX
  5
2494
  8
LAYER01
  6
VERDECKT
 62
     3
 10
2746.5115580000002
 20
402.88403799999998
 30
0.0
  0
VERTEX
  5
2495
  8
LAYER01
  6
VERDECKT
 62
     3
 10
2746.4547889999999
 20
402.800409
 30
0.0
  0
VERTEX
  5
2496
  8
LAYER01
  6
VERDECKT
 62
     3
 10
2746.3971289999999
 20
402.71738299999993
 30
0.0
  0
VERTEX
  5
2497
  8
LAYER01
  6
VERDECKT
 62
     3
 10
2746.3385870000002
 20
402.63495599999987
 30
0.0
  0
VERTEX
  5
2498
  8
LAYER01
  6
VERDECKT
 62
     3
 10
2746.279172
 20
402.55312099999992
 30
0.0
  0
VERTEX
  5
2499
  8
LAYER01
  6
VERDECKT
 62
     3
 10
2746.2188919999999
 20
402.47187200000002
 30
0.0
  0
VERTEX
  5
249A
  8
LAYER01
  6
VERDECKT
 62
     3
 10
2746.1577309999998
 20
402.39118100000002
 30
0.0
  0
VERTEX
  5
249B
  8
LAYER01
  6
VERDECKT
 62
     3
 10
2746.095679
 20
402.31102800000002
 30
0.0
  0
VERTEX
  5
249C
  8
LAYER01
  6
VERDECKT
 62
     3
 10
2746.0327590000002
 20
402.23142699999988
 30
0.0
  0
VERTEX
  5
249D
  8
LAYER01
  6
VERDECKT
 62
     3
 10
2745.968989
 20
402.15239000000003
 30
0.0
  0
VERTEX
  5
249E
  8
LAYER01
  6
VERDECKT
 62
     3
 10
2745.904391
 20
402.0739299999999
 30
0.0
  0
VERTEX
  5
249F
  8
LAYER01
  6
VERDECKT
 62
     3
 10
2745.8389850000008
 20
401.996058
 30
0.0
  0
VERTEX
  5
24A0
  8
LAYER01
  6
VERDECKT
 62
     3
 10
2745.7727909999999
 20
401.91878800000001
 30
0.0
  0
VERTEX
  5
24A1
  8
LAYER01
  6
VERDECKT
 62
     3
 10
2745.7058310000002
 20
401.84213099999988
 30
0.0
  0
VERTEX
  5
24A2
  8
LAYER01
  6
VERDECKT
 62
     3
 10
2745.6381240000001
 20
401.76609999999999
 30
0.0
  0
VERTEX
  5
24A3
  8
LAYER01
  6
VERDECKT
 62
     3
 10
2745.5696899999998
 20
401.69070799999997
 30
0.0
  0
VERTEX
  5
24A4
  8
LAYER01
  6
VERDECKT
 62
     3
 10
2745.500551000001
 20
401.61596700000001
 30
0.0
  0
VERTEX
  5
24A5
  8
LAYER01
  6
VERDECKT
 62
     3
 10
2745.430738
 20
401.54189799999989
 30
0.0
  0
VERTEX
  5
24A6
  8
LAYER01
  6
VERDECKT
 62
     3
 10
2745.3603320000011
 20
401.46856600000001
 30
0.0
  0
VERTEX
  5
24A7
  8
LAYER01
  6
VERDECKT
 62
     3
 10
2745.2893509999999
 20
401.39597199999997
 30
0.0
  0
VERTEX
  5
24A8
  8
LAYER01
  6
VERDECKT
 62
     3
 10
2745.2178020000001
 20
401.32410699999991
 30
0.0
  0
VERTEX
  5
24A9
  8
LAYER01
  6
VERDECKT
 62
     3
 10
2745.1456910000002
 20
401.25296500000002
 30
0.0
  0
VERTEX
  5
24AA
  8
LAYER01
  6
VERDECKT
 62
     3
 10
2745.0730250000001
 20
401.18253599999991
 30
0.0
  0
VERTEX
  5
24AB
  8
LAYER01
  6
VERDECKT
 62
     3
 10
2744.9998110000001
 20
401.11281099999991
 30
0.0
  0
VERTEX
  5
24AC
  8
LAYER01
  6
VERDECKT
 62
     3
 10
2744.9260530000001
 20
401.0437839999999
 30
0.0
  0
VERTEX
  5
24AD
  8
LAYER01
  6
VERDECKT
 62
     3
 10
2744.85176
 20
400.97544499999998
 30
0.0
  0
VERTEX
  5
24AE
  8
LAYER01
  6
VERDECKT
 62
     3
 10
2744.776937000001
 20
400.90778699999993
 30
0.0
  0
VERTEX
  5
24AF
  8
LAYER01
  6
VERDECKT
 62
     3
 10
2744.701591
 20
400.8408
 30
0.0
  0
VERTEX
  5
24B0
  8
LAYER01
  6
VERDECKT
 62
     3
 10
2744.6257289999999
 20
400.77447799999999
 30
0.0
  0
VERTEX
  5
24B1
  8
LAYER01
  6
VERDECKT
 62
     3
 10
2744.5493569999999
 20
400.70880899999992
 30
0.0
  0
VERTEX
  5
24B2
  8
LAYER01
  6
VERDECKT
 62
     3
 10
2744.472483
 20
400.64378599999998
 30
0.0
  0
VERTEX
  5
24B3
  8
LAYER01
  6
VERDECKT
 62
     3
 10
2744.3951080000002
 20
400.57940600000001
 30
0.0
  0
VERTEX
  5
24B4
  8
LAYER01
  6
VERDECKT
 62
     3
 10
2744.3172380000001
 20
400.51566300000002
 30
0.0
  0
VERTEX
  5
24B5
  8
LAYER01
  6
VERDECKT
 62
     3
 10
2744.238875
 20
400.45255200000003
 30
0.0
  0
VERTEX
  5
24B6
  8
LAYER01
  6
VERDECKT
 62
     3
 10
2744.160022
 20
400.39007099999992
 30
0.0
  0
VERTEX
  5
24B7
  8
LAYER01
  6
VERDECKT
 62
     3
 10
2744.080684
 20
400.32821300000001
 30
0.0
  0
VERTEX
  5
24B8
  8
LAYER01
  6
VERDECKT
 62
     3
 10
2744.0008640000001
 20
400.26697499999989
 30
0.0
  0
VERTEX
  5
24B9
  8
LAYER01
  6
VERDECKT
 62
     3
 10
2743.9205649999999
 20
400.20635099999998
 30
0.0
  0
VERTEX
  5
24BA
  8
LAYER01
  6
VERDECKT
 62
     3
 10
2743.8397909999999
 20
400.14633800000001
 30
0.0
  0
VERTEX
  5
24BB
  8
LAYER01
  6
VERDECKT
 62
     3
 10
2743.7585450000001
 20
400.08693099999988
 30
0.0
  0
VERTEX
  5
24BC
  8
LAYER01
  6
VERDECKT
 62
     3
 10
2743.6768310000002
 20
400.02812499999987
 30
0.0
  0
VERTEX
  5
24BD
  8
LAYER01
  6
VERDECKT
 62
     3
 10
2743.5946520000002
 20
399.96991700000001
 30
0.0
  0
VERTEX
  5
24BE
  8
LAYER01
  6
VERDECKT
 62
     3
 10
2743.512013
 20
399.91230000000002
 30
0.0
  0
VERTEX
  5
24BF
  8
LAYER01
  6
VERDECKT
 62
     3
 10
2743.428915
 20
399.85527200000001
 30
0.0
  0
VERTEX
  5
24C0
  8
LAYER01
  6
VERDECKT
 62
     3
 10
2743.3453639999998
 20
399.79882700000002
 30
0.0
  0
VERTEX
  5
24C1
  8
LAYER01
  6
VERDECKT
 62
     3
 10
2743.2613609999999
 20
399.74296099999998
 30
0.0
  0
VERTEX
  5
24C2
  8
LAYER01
  6
VERDECKT
 62
     3
 10
2743.1769119999999
 20
399.68766900000003
 30
0.0
  0
VERTEX
  5
24C3
  8
LAYER01
  6
VERDECKT
 62
     3
 10
2743.0920190000002
 20
399.632947
 30
0.0
  0
VERTEX
  5
24C4
  8
LAYER01
  6
VERDECKT
 62
     3
 10
2743.0066860000002
 20
399.57879100000002
 30
0.0
  0
VERTEX
  5
24C5
  8
LAYER01
  6
VERDECKT
 62
     3
 10
2742.9209170000008
 20
399.525195
 30
0.0
  0
VERTEX
  5
24C6
  8
LAYER01
  6
VERDECKT
 62
     3
 10
2742.8347140000001
 20
399.47215599999998
 30
0.0
  0
VERTEX
  5
24C7
  8
LAYER01
  6
VERDECKT
 62
     3
 10
2742.7480820000001
 20
399.419669
 30
0.0
  0
VERTEX
  5
24C8
  8
LAYER01
  6
VERDECKT
 62
     3
 10
2742.6610100000012
 20
399.36772999999999
 30
0.0
  0
VERTEX
  5
24C9
  8
LAYER01
  6
VERDECKT
 62
     3
 10
2742.5735050000012
 20
399.31634300000002
 30
0.0
  0
VERTEX
  5
24CA
  8
LAYER01
  6
VERDECKT
 62
     3
 10
2742.4855940000011
 20
399.26551799999999
 30
0.0
  0
VERTEX
  5
24CB
  8
LAYER01
  6
VERDECKT
 62
     3
 10
2742.3973030000011
 20
399.21526299999999
 30
0.0
  0
VERTEX
  5
24CC
  8
LAYER01
  6
VERDECKT
 62
     3
 10
2742.3086589999998
 20
399.16558700000002
 30
0.0
  0
VERTEX
  5
24CD
  8
LAYER01
  6
VERDECKT
 62
     3
 10
2742.2196890000009
 20
399.11649799999998
 30
0.0
  0
VERTEX
  5
24CE
  8
LAYER01
  6
VERDECKT
 62
     3
 10
2742.1304180000002
 20
399.06800500000003
 30
0.0
  0
VERTEX
  5
24CF
  8
LAYER01
  6
VERDECKT
 62
     3
 10
2742.0408750000011
 20
399.02011800000002
 30
0.0
  0
VERTEX
  5
24D0
  8
LAYER01
  6
VERDECKT
 62
     3
 10
2741.9510850000001
 20
398.97284300000001
 30
0.0
  0
VERTEX
  5
24D1
  8
LAYER01
  6
VERDECKT
 62
     3
 10
2741.861076000001
 20
398.92619100000002
 30
0.0
  0
VERTEX
  5
24D2
  8
LAYER01
  6
VERDECKT
 62
     3
 10
2741.7708729999999
 20
398.88017000000002
 30
0.0
  0
VERTEX
  5
24D3
  8
LAYER01
  6
VERDECKT
 62
     3
 10
2741.6804969999998
 20
398.83478300000002
 30
0.0
  0
VERTEX
  5
24D4
  8
LAYER01
  6
VERDECKT
 62
     3
 10
2741.589915
 20
398.79000300000001
 30
0.0
  0
VERTEX
  5
24D5
  8
LAYER01
  6
VERDECKT
 62
     3
 10
2741.4991230000001
 20
398.74582099999998
 30
0.0
  0
VERTEX
  5
24D6
  8
LAYER01
  6
VERDECKT
 62
     3
 10
2741.4081230000002
 20
398.70223199999998
 30
0.0
  0
VERTEX
  5
24D7
  8
LAYER01
  6
VERDECKT
 62
     3
 10
2741.3169160000011
 20
398.65923099999998
 30
0.0
  0
VERTEX
  5
24D8
  8
LAYER01
  6
VERDECKT
 62
     3
 10
2741.225504
 20
398.61681499999997
 30
0.0
  0
VERTEX
  5
24D9
  8
LAYER01
  6
VERDECKT
 62
     3
 10
2741.1338879999998
 20
398.57497599999999
 30
0.0
  0
VERTEX
  5
24DA
  8
LAYER01
  6
VERDECKT
 62
     3
 10
2741.04207
 20
398.53371199999998
 30
0.0
  0
VERTEX
  5
24DB
  8
LAYER01
  6
VERDECKT
 62
     3
 10
2740.9500530000009
 20
398.49301800000001
 30
0.0
  0
VERTEX
  5
24DC
  8
LAYER01
  6
VERDECKT
 62
     3
 10
2740.8578360000001
 20
398.45288699999998
 30
0.0
  0
VERTEX
  5
24DD
  8
LAYER01
  6
VERDECKT
 62
     3
 10
2740.7654229999998
 20
398.41331700000001
 30
0.0
  0
VERTEX
  5
24DE
  8
LAYER01
  6
VERDECKT
 62
     3
 10
2740.6728149999999
 20
398.374301
 30
0.0
  0
VERTEX
  5
24DF
  8
LAYER01
  6
VERDECKT
 62
     3
 10
2740.5800140000001
 20
398.33583500000009
 30
0.0
  0
VERTEX
  5
24E0
  8
LAYER01
  6
VERDECKT
 62
     3
 10
2740.4870219999998
 20
398.29791299999999
 30
0.0
  0
VERTEX
  5
24E1
  8
LAYER01
  6
VERDECKT
 62
     3
 10
2740.393838
 20
398.26053300000001
 30
0.0
  0
VERTEX
  5
24E2
  8
LAYER01
  6
VERDECKT
 62
     3
 10
2740.3004660000001
 20
398.22369300000003
 30
0.0
  0
VERTEX
  5
24E3
  8
LAYER01
  6
VERDECKT
 62
     3
 10
2740.2069040000001
 20
398.187389
 30
0.0
  0
VERTEX
  5
24E4
  8
LAYER01
  6
VERDECKT
 62
     3
 10
2740.1131559999999
 20
398.15161799999998
 30
0.0
  0
VERTEX
  5
24E5
  8
LAYER01
  6
VERDECKT
 62
     3
 10
2740.019220000001
 20
398.116378
 30
0.0
  0
VERTEX
  5
24E6
  8
LAYER01
  6
VERDECKT
 62
     3
 10
2739.925099000001
 20
398.08166599999998
 30
0.0
  0
VERTEX
  5
24E7
  8
LAYER01
  6
VERDECKT
 62
     3
 10
2739.8307930000001
 20
398.04748000000001
 30
0.0
  0
VERTEX
  5
24E8
  8
LAYER01
  6
VERDECKT
 62
     3
 10
2739.7363030000001
 20
398.01381600000002
 30
0.0
  0
VERTEX
  5
24E9
  8
LAYER01
  6
VERDECKT
 62
     3
 10
2739.641631
 20
397.98067300000002
 30
0.0
  0
VERTEX
  5
24EA
  8
LAYER01
  6
VERDECKT
 62
     3
 10
2739.546777
 20
397.94804599999998
 30
0.0
  0
VERTEX
  5
24EB
  8
LAYER01
  6
VERDECKT
 62
     3
 10
2739.4517420000002
 20
397.915933
 30
0.0
  0
VERTEX
  5
24EC
  8
LAYER01
  6
VERDECKT
 62
     3
 10
2739.3565269999999
 20
397.88433199999997
 30
0.0
  0
VERTEX
  5
24ED
  8
LAYER01
  6
VERDECKT
 62
     3
 10
2739.2611339999999
 20
397.85324000000003
 30
0.0
  0
VERTEX
  5
24EE
  8
LAYER01
  6
VERDECKT
 62
     3
 10
2739.1655620000001
 20
397.822653
 30
0.0
  0
VERTEX
  5
24EF
  8
LAYER01
  6
VERDECKT
 62
     3
 10
2739.069814
 20
397.79257000000001
 30
0.0
  0
VERTEX
  5
24F0
  8
LAYER01
  6
VERDECKT
 62
     3
 10
2738.9738889999999
 20
397.76298800000001
 30
0.0
  0
VERTEX
  5
24F1
  8
LAYER01
  6
VERDECKT
 62
     3
 10
2738.87779
 20
397.733903
 30
0.0
  0
VERTEX
  5
24F2
  8
LAYER01
  6
VERDECKT
 62
     3
 10
2738.7815169999999
 20
397.70531299999999
 30
0.0
  0
VERTEX
  5
24F3
  8
LAYER01
  6
VERDECKT
 62
     3
 10
2738.68507
 20
397.67721499999999
 30
0.0
  0
VERTEX
  5
24F4
  8
LAYER01
  6
VERDECKT
 62
     3
 10
2738.588452
 20
397.649607
 30
0.0
  0
VERTEX
  5
24F5
  8
LAYER01
  6
VERDECKT
 62
     3
 10
2738.4916629999998
 20
397.62248499999998
 30
0.0
  0
VERTEX
  5
24F6
  8
LAYER01
  6
VERDECKT
 62
     3
 10
2738.394687
 20
397.59584599999999
 30
0.0
  0
VERTEX
  5
24F7
  8
LAYER01
  6
VERDECKT
 62
     3
 10
2738.297513
 20
397.56968599999999
 30
0.0
  0
VERTEX
  5
24F8
  8
LAYER01
  6
VERDECKT
 62
     3
 10
2738.2001470000009
 20
397.54400700000002
 30
0.0
  0
VERTEX
  5
24F9
  8
LAYER01
  6
VERDECKT
 62
     3
 10
2738.1025930000001
 20
397.51880699999998
 30
0.0
  0
VERTEX
  5
24FA
  8
LAYER01
  6
VERDECKT
 62
     3
 10
2738.0048579999998
 20
397.49408700000009
 30
0.0
  0
VERTEX
  5
24FB
  8
LAYER01
  6
VERDECKT
 62
     3
 10
2737.9069469999999
 20
397.46984500000002
 30
0.0
  0
VERTEX
  5
24FC
  8
LAYER01
  6
VERDECKT
 62
     3
 10
2737.808865
 20
397.44608199999999
 30
0.0
  0
VERTEX
  5
24FD
  8
LAYER01
  6
VERDECKT
 62
     3
 10
2737.710619
 20
397.422797
 30
0.0
  0
VERTEX
  5
24FE
  8
LAYER01
  6
VERDECKT
 62
     3
 10
2737.6122129999999
 20
397.399991
 30
0.0
  0
VERTEX
  5
24FF
  8
LAYER01
  6
VERDECKT
 62
     3
 10
2737.513653
 20
397.37766199999999
 30
0.0
  0
VERTEX
  5
2500
  8
LAYER01
  6
VERDECKT
 62
     3
 10
2737.414945
 20
397.3558109999999
 30
0.0
  0
VERTEX
  5
2501
  8
LAYER01
  6
VERDECKT
 62
     3
 10
2737.316095000001
 20
397.33443699999998
 30
0.0
  0
VERTEX
  5
2502
  8
LAYER01
  6
VERDECKT
 62
     3
 10
2737.2171069999999
 20
397.31353999999999
 30
0.0
  0
VERTEX
  5
2503
  8
LAYER01
  6
VERDECKT
 62
     3
 10
2737.117988
 20
397.2931200000001
 30
0.0
  0
VERTEX
  5
2504
  8
LAYER01
  6
VERDECKT
 62
     3
 10
2737.0187430000001
 20
397.27317599999998
 30
0.0
  0
VERTEX
  5
2505
  8
LAYER01
  6
VERDECKT
 62
     3
 10
2736.9193770000002
 20
397.25370800000002
 30
0.0
  0
VERTEX
  5
2506
  8
LAYER01
  6
VERDECKT
 62
     3
 10
2736.819896
 20
397.23471599999999
 30
0.0
  0
VERTEX
  5
2507
  8
LAYER01
  6
VERDECKT
 62
     3
 10
2736.7203060000002
 20
397.21620000000001
 30
0.0
  0
VERTEX
  5
2508
  8
LAYER01
  6
VERDECKT
 62
     3
 10
2736.6206120000002
 20
397.19815799999998
 30
0.0
  0
VERTEX
  5
2509
  8
LAYER01
  6
VERDECKT
 62
     3
 10
2736.5208200000002
 20
397.18059199999999
 30
0.0
  0
VERTEX
  5
250A
  8
LAYER01
  6
VERDECKT
 62
     3
 10
2736.4209350000001
 20
397.163501
 30
0.0
  0
VERTEX
  5
250B
  8
LAYER01
  6
VERDECKT
 62
     3
 10
2736.3209630000001
 20
397.146884
 30
0.0
  0
VERTEX
  5
250C
  8
LAYER01
  6
VERDECKT
 62
     3
 10
2736.2209090000001
 20
397.130741
 30
0.0
  0
VERTEX
  5
250D
  8
LAYER01
  6
VERDECKT
 62
     3
 10
2736.1207890000001
 20
397.115071
 30
0.0
  0
VERTEX
  5
250E
  8
LAYER01
  6
VERDECKT
 62
     3
 10
2736.0206120000012
 20
397.099873
 30
0.0
  0
VERTEX
  5
250F
  8
LAYER01
  6
VERDECKT
 62
     3
 10
2735.92038
 20
397.08514500000001
 30
0.0
  0
VERTEX
  5
2510
  8
LAYER01
  6
VERDECKT
 62
     3
 10
2735.8200929999998
 20
397.07088700000003
 30
0.0
  0
VERTEX
  5
2511
  8
LAYER01
  6
VERDECKT
 62
     3
 10
2735.7197500000002
 20
397.057097
 30
0.0
  0
VERTEX
  5
2512
  8
LAYER01
  6
VERDECKT
 62
     3
 10
2735.6193509999998
 20
397.04377499999998
 30
0.0
  0
VERTEX
  5
2513
  8
LAYER01
  6
VERDECKT
 62
     3
 10
2735.5188979999998
 20
397.03091999999998
 30
0.0
  0
VERTEX
  5
2514
  8
LAYER01
  6
VERDECKT
 62
     3
 10
2735.4183889999999
 20
397.018529
 30
0.0
  0
VERTEX
  5
2515
  8
LAYER01
  6
VERDECKT
 62
     3
 10
2735.317826
 20
397.00660299999998
 30
0.0
  0
VERTEX
  5
2516
  8
LAYER01
  6
VERDECKT
 62
     3
 10
2735.217208
 20
396.99514099999999
 30
0.0
  0
VERTEX
  5
2517
  8
LAYER01
  6
VERDECKT
 62
     3
 10
2735.1165350000001
 20
396.98414000000002
 30
0.0
  0
VERTEX
  5
2518
  8
LAYER01
  6
VERDECKT
 62
     3
 10
2735.0158070000002
 20
396.97360099999997
 30
0.0
  0
VERTEX
  5
2519
  8
LAYER01
  6
VERDECKT
 62
     3
 10
2734.9150249999998
 20
396.96352200000001
 30
0.0
  0
VERTEX
  5
251A
  8
LAYER01
  6
VERDECKT
 62
     3
 10
2734.8141890000002
 20
396.95390099999997
 30
0.0
  0
VERTEX
  5
251B
  8
LAYER01
  6
VERDECKT
 62
     3
 10
2734.713299
 20
396.94473900000003
 30
0.0
  0
VERTEX
  5
251C
  8
LAYER01
  6
VERDECKT
 62
     3
 10
2734.6123539999999
 20
396.93603400000001
 30
0.0
  0
VERTEX
  5
251D
  8
LAYER01
  6
VERDECKT
 62
     3
 10
2734.511356
 20
396.92778499999997
 30
0.0
  0
VERTEX
  5
251E
  8
LAYER01
  6
VERDECKT
 62
     3
 10
2734.410304
 20
396.91998999999998
 30
0.0
  0
VERTEX
  5
251F
  8
LAYER01
  6
VERDECKT
 62
     3
 10
2734.3091979999999
 20
396.91264999999999
 30
0.0
  0
VERTEX
  5
2520
  8
LAYER01
  6
VERDECKT
 62
     3
 10
2734.2080390000001
 20
396.90576199999998
 30
0.0
  0
VERTEX
  5
2521
  8
LAYER01
  6
VERDECKT
 62
     3
 10
2734.1068260000002
 20
396.89932599999997
 30
0.0
  0
VERTEX
  5
2522
  8
LAYER01
  6
VERDECKT
 62
     3
 10
2734.0055600000001
 20
396.89334000000002
 30
0.0
  0
VERTEX
  5
2523
  8
LAYER01
  6
VERDECKT
 62
     3
 10
2733.9042399999998
 20
396.88780500000001
 30
0.0
  0
SEQEND
  5
2524
  8
LAYER01
  6
VERDECKT
 62
     3
  0
LINE
  5
ABC
  8
LAYER01
  6
VERDECKT
 62
     3
 10
2770.7390150000001
 20
501.53700199999992
 30
0.0
 11
2764.1435890000012
 21
405.70970299999988
 31
0.0
  0
LINE
  5
ABD
  8
LAYER01
  6
VERDECKT
 62
     3
 10
2747.7924290000001
 20
405.94459899999998
 30
0.0
 11
2755.8474249999999
 21
515.88877599999989
 31
0.0
  0
POLYLINE
  5
ABE
  8
LAYER01
  6
VERDECKT
 62
     3
 66
     1
 10
0.0
 20
0.0
 30
0.0
  0
VERTEX
  5
2525
  8
LAYER01
  6
VERDECKT
 62
     3
 10
2764.2184969999998
 20
406.513711
 30
0.0
  0
VERTEX
  5
2526
  8
LAYER01
  6
VERDECKT
 62
     3
 10
2764.2033059999999
 20
406.31179400000002
 30
0.0
  0
VERTEX
  5
2527
  8
LAYER01
  6
VERDECKT
 62
     3
 10
2764.185751
 20
406.11048899999997
 30
0.0
  0
VERTEX
  5
2528
  8
LAYER01
  6
VERDECKT
 62
     3
 10
2764.1658420000008
 20
405.90979299999998
 30
0.0
  0
VERTEX
  5
2529
  8
LAYER01
  6
VERDECKT
 62
     3
 10
2764.1435890000012
 20
405.70970299999988
 30
0.0
  0
VERTEX
  5
252A
  8
LAYER01
  6
VERDECKT
 62
     3
 10
2764.119005
 20
405.51021700000001
 30
0.0
  0
VERTEX
  5
252B
  8
LAYER01
  6
VERDECKT
 62
     3
 10
2764.0920999999998
 20
405.31133199999988
 30
0.0
  0
VERTEX
  5
252C
  8
LAYER01
  6
VERDECKT
 62
     3
 10
2764.0628839999999
 20
405.11304399999989
 30
0.0
  0
VERTEX
  5
252D
  8
LAYER01
  6
VERDECKT
 62
     3
 10
2764.0313689999998
 20
404.91535199999993
 30
0.0
  0
VERTEX
  5
252E
  8
LAYER01
  6
VERDECKT
 62
     3
 10
2763.997566
 20
404.71825199999989
 30
0.0
  0
VERTEX
  5
252F
  8
LAYER01
  6
VERDECKT
 62
     3
 10
2763.9614850000012
 20
404.52174100000002
 30
0.0
  0
VERTEX
  5
2530
  8
LAYER01
  6
VERDECKT
 62
     3
 10
2763.9231380000001
 20
404.32581699999992
 30
0.0
  0
VERTEX
  5
2531
  8
LAYER01
  6
VERDECKT
 62
     3
 10
2763.8825350000002
 20
404.13047699999993
 30
0.0
  0
VERTEX
  5
2532
  8
LAYER01
  6
VERDECKT
 62
     3
 10
2763.839688
 20
403.93571800000001
 30
0.0
  0
VERTEX
  5
2533
  8
LAYER01
  6
VERDECKT
 62
     3
 10
2763.7946069999998
 20
403.74153599999988
 30
0.0
  0
VERTEX
  5
2534
  8
LAYER01
  6
VERDECKT
 62
     3
 10
2763.747303000001
 20
403.54793000000001
 30
0.0
  0
VERTEX
  5
2535
  8
LAYER01
  6
VERDECKT
 62
     3
 10
2763.6977870000001
 20
403.35489699999999
 30
0.0
  0
VERTEX
  5
2536
  8
LAYER01
  6
VERDECKT
 62
     3
 10
2763.6460710000001
 20
403.16243300000002
 30
0.0
  0
VERTEX
  5
2537
  8
LAYER01
  6
VERDECKT
 62
     3
 10
2763.5921640000001
 20
402.97053599999992
 30
0.0
  0
VERTEX
  5
2538
  8
LAYER01
  6
VERDECKT
 62
     3
 10
2763.536079
 20
402.77920299999988
 30
0.0
  0
VERTEX
  5
2539
  8
LAYER01
  6
VERDECKT
 62
     3
 10
2763.4778249999999
 20
402.58843100000001
 30
0.0
  0
VERTEX
  5
253A
  8
LAYER01
  6
VERDECKT
 62
     3
 10
2763.417414
 20
402.39821699999999
 30
0.0
  0
VERTEX
  5
253B
  8
LAYER01
  6
VERDECKT
 62
     3
 10
2763.3548569999998
 20
402.20855899999992
 30
0.0
  0
VERTEX
  5
253C
  8
LAYER01
  6
VERDECKT
 62
     3
 10
2763.290164
 20
402.019453
 30
0.0
  0
VERTEX
  5
253D
  8
LAYER01
  6
VERDECKT
 62
     3
 10
2763.223348
 20
401.83089699999988
 30
0.0
  0
VERTEX
  5
253E
  8
LAYER01
  6
VERDECKT
 62
     3
 10
2763.1544170000002
 20
401.64288900000003
 30
0.0
  0
VERTEX
  5
253F
  8
LAYER01
  6
VERDECKT
 62
     3
 10
2763.0833200000002
 20
401.45535399999989
 30
0.0
  0
VERTEX
  5
2540
  8
LAYER01
  6
VERDECKT
 62
     3
 10
2763.010025
 20
401.26827299999991
 30
0.0
  0
VERTEX
  5
2541
  8
LAYER01
  6
VERDECKT
 62
     3
 10
2762.934577
 20
401.08171800000002
 30
0.0
  0
VERTEX
  5
2542
  8
LAYER01
  6
VERDECKT
 62
     3
 10
2762.8570209999998
 20
400.89576199999999
 30
0.0
  0
VERTEX
  5
2543
  8
LAYER01
  6
VERDECKT
 62
     3
 10
2762.7774010000012
 20
400.71047900000002
 30
0.0
  0
VERTEX
  5
2544
  8
LAYER01
  6
VERDECKT
 62
     3
 10
2762.6957609999999
 20
400.52594199999987
 30
0.0
  0
VERTEX
  5
2545
  8
LAYER01
  6
VERDECKT
 62
     3
 10
2762.6121480000002
 20
400.34222399999999
 30
0.0
  0
VERTEX
  5
2546
  8
LAYER01
  6
VERDECKT
 62
     3
 10
2762.5266040000001
 20
400.15939899999989
 30
0.0
  0
VERTEX
  5
2547
  8
LAYER01
  6
VERDECKT
 62
     3
 10
2762.4391760000012
 20
399.97753899999998
 30
0.0
  0
VERTEX
  5
2548
  8
LAYER01
  6
VERDECKT
 62
     3
 10
2762.3499069999998
 20
399.796718
 30
0.0
  0
VERTEX
  5
2549
  8
LAYER01
  6
VERDECKT
 62
     3
 10
2762.2588430000001
 20
399.617009
 30
0.0
  0
VERTEX
  5
254A
  8
LAYER01
  6
VERDECKT
 62
     3
 10
2762.1660280000001
 20
399.43848500000001
 30
0.0
  0
VERTEX
  5
254B
  8
LAYER01
  6
VERDECKT
 62
     3
 10
2762.0715019999998
 20
399.26119899999998
 30
0.0
  0
VERTEX
  5
254C
  8
LAYER01
  6
VERDECKT
 62
     3
 10
2761.9752699999999
 20
399.08506499999999
 30
0.0
  0
VERTEX
  5
254D
  8
LAYER01
  6
VERDECKT
 62
     3
 10
2761.8773430000001
 20
398.91005799999999
 30
0.0
  0
VERTEX
  5
254E
  8
LAYER01
  6
VERDECKT
 62
     3
 10
2761.777732
 20
398.73616900000002
 30
0.0
  0
VERTEX
  5
254F
  8
LAYER01
  6
VERDECKT
 62
     3
 10
2761.676449
 20
398.56339000000003
 30
0.0
  0
VERTEX
  5
2550
  8
LAYER01
  6
VERDECKT
 62
     3
 10
2761.5735070000001
 20
398.39171399999998
 30
0.0
  0
VERTEX
  5
2551
  8
LAYER01
  6
VERDECKT
 62
     3
 10
2761.468918
 20
398.22113200000001
 30
0.0
  0
VERTEX
  5
2552
  8
LAYER01
  6
VERDECKT
 62
     3
 10
2761.3626930000009
 20
398.05163499999998
 30
0.0
  0
VERTEX
  5
2553
  8
LAYER01
  6
VERDECKT
 62
     3
 10
2761.2548449999999
 20
397.883217
 30
0.0
  0
VERTEX
  5
2554
  8
LAYER01
  6
VERDECKT
 62
     3
 10
2761.145387
 20
397.715868
 30
0.0
  0
VERTEX
  5
2555
  8
LAYER01
  6
VERDECKT
 62
     3
 10
2761.03433
 20
397.54958199999999
 30
0.0
  0
VERTEX
  5
2556
  8
LAYER01
  6
VERDECKT
 62
     3
 10
2760.9216860000001
 20
397.38434799999999
 30
0.0
  0
VERTEX
  5
2557
  8
LAYER01
  6
VERDECKT
 62
     3
 10
2760.8074689999999
 20
397.22016099999991
 30
0.0
  0
VERTEX
  5
2558
  8
LAYER01
  6
VERDECKT
 62
     3
 10
2760.691687
 20
397.05701199999999
 30
0.0
  0
VERTEX
  5
2559
  8
LAYER01
  6
VERDECKT
 62
     3
 10
2760.574349
 20
396.89489700000001
 30
0.0
  0
VERTEX
  5
255A
  8
LAYER01
  6
VERDECKT
 62
     3
 10
2760.4554619999999
 20
396.733811
 30
0.0
  0
VERTEX
  5
255B
  8
LAYER01
  6
VERDECKT
 62
     3
 10
2760.3350310000001
 20
396.57374900000002
 30
0.0
  0
VERTEX
  5
255C
  8
LAYER01
  6
VERDECKT
 62
     3
 10
2760.2130659999998
 20
396.41470800000002
 30
0.0
  0
VERTEX
  5
255D
  8
LAYER01
  6
VERDECKT
 62
     3
 10
2760.089571
 20
396.25668100000001
 30
0.0
  0
VERTEX
  5
255E
  8
LAYER01
  6
VERDECKT
 62
     3
 10
2759.9645559999999
 20
396.09966500000002
 30
0.0
  0
VERTEX
  5
255F
  8
LAYER01
  6
VERDECKT
 62
     3
 10
2759.8380260000008
 20
395.94365499999998
 30
0.0
  0
VERTEX
  5
2560
  8
LAYER01
  6
VERDECKT
 62
     3
 10
2759.7099880000001
 20
395.78864700000003
 30
0.0
  0
VERTEX
  5
2561
  8
LAYER01
  6
VERDECKT
 62
     3
 10
2759.5804499999999
 20
395.63463400000001
 30
0.0
  0
VERTEX
  5
2562
  8
LAYER01
  6
VERDECKT
 62
     3
 10
2759.449419
 20
395.48161400000009
 30
0.0
  0
VERTEX
  5
2563
  8
LAYER01
  6
VERDECKT
 62
     3
 10
2759.3169010000001
 20
395.32958100000002
 30
0.0
  0
VERTEX
  5
2564
  8
LAYER01
  6
VERDECKT
 62
     3
 10
2759.1829400000001
 20
395.17857099999998
 30
0.0
  0
VERTEX
  5
2565
  8
LAYER01
  6
VERDECKT
 62
     3
 10
2759.0477620000001
 20
395.02882599999998
 30
0.0
  0
VERTEX
  5
2566
  8
LAYER01
  6
VERDECKT
 62
     3
 10
2758.911423
 20
394.88038499999999
 30
0.0
  0
VERTEX
  5
2567
  8
LAYER01
  6
VERDECKT
 62
     3
 10
2758.773944
 20
394.73324600000001
 30
0.0
  0
VERTEX
  5
2568
  8
LAYER01
  6
VERDECKT
 62
     3
 10
2758.635346
 20
394.58740699999998
 30
0.0
  0
VERTEX
  5
2569
  8
LAYER01
  6
VERDECKT
 62
     3
 10
2758.495649
 20
394.44286599999998
 30
0.0
  0
VERTEX
  5
256A
  8
LAYER01
  6
VERDECKT
 62
     3
 10
2758.354875
 20
394.299621
 30
0.0
  0
VERTEX
  5
256B
  8
LAYER01
  6
VERDECKT
 62
     3
 10
2758.213045
 20
394.15767199999999
 30
0.0
  0
VERTEX
  5
256C
  8
LAYER01
  6
VERDECKT
 62
     3
 10
2758.0701779999999
 20
394.01701400000002
 30
0.0
  0
VERTEX
  5
256D
  8
LAYER01
  6
VERDECKT
 62
     3
 10
2757.926297
 20
393.87764800000008
 30
0.0
  0
VERTEX
  5
256E
  8
LAYER01
  6
VERDECKT
 62
     3
 10
2757.781422
 20
393.73957000000001
 30
0.0
  0
VERTEX
  5
256F
  8
LAYER01
  6
VERDECKT
 62
     3
 10
2757.635573
 20
393.602779
 30
0.0
  0
VERTEX
  5
2570
  8
LAYER01
  6
VERDECKT
 62
     3
 10
2757.488773
 20
393.46727399999997
 30
0.0
  0
VERTEX
  5
2571
  8
LAYER01
  6
VERDECKT
 62
     3
 10
2757.3410199999998
 20
393.33302300000003
 30
0.0
  0
VERTEX
  5
2572
  8
LAYER01
  6
VERDECKT
 62
     3
 10
2757.1923069999998
 20
393.19999300000001
 30
0.0
  0
VERTEX
  5
2573
  8
LAYER01
  6
VERDECKT
 62
     3
 10
2757.0426389999998
 20
393.06817799999999
 30
0.0
  0
SEQEND
  5
2574
  8
LAYER01
  6
VERDECKT
 62
     3
  0
LINE
  5
B0F
  8
0
  6
CONTINUOUS
 62
     7
 10
2996.0818440000012
 20
532.70449099999985
 30
0.0
 11
2996.0818440000012
 21
517.70449000000008
 31
0.0
  0
ARC
  5
B10
  8
0
  6
CONTINUOUS
 62
     7
 10
2991.0818439999998
 20
517.70449000000008
 30
0.0
 40
5.0
 50
0.0
 51
90.0
  0
LINE
  5
B11
  8
0
  6
CONTINUOUS
 62
     7
 10
2996.0818440000012
 20
517.70449000000008
 30
0.0
 11
2996.0818440000012
 21
395.70448999999991
 31
0.0
  0
ARC
  5
B12
  8
0
  6
CONTINUOUS
 62
     7
 10
2993.0818440000012
 20
395.70448999999991
 30
0.0
 40
3.0
 50
270.0
 51
0.0
  0
ARC
  5
B13
  8
LAYER01
  6
VERDECKT
 62
     3
 10
2968.408081
 20
500.70449000000002
 30
0.0
 40
10.0
 50
3.0
 51
90.0
  0
LINE
  5
B14
  8
LAYER01
  6
VERDECKT
 62
     3
 10
2978.394374
 20
501.22785199999993
 30
0.0
 11
2984.08185
 21
392.70449000000002
 31
0.0
  0
DIMENSION
  5
B15
  8
LAYER01
 62
     7
  2
*D2
 10
2631.0818440000012
 20
1066.6684600000001
 30
0.0
 11
2325.9720579999998
 21
822.41469400000005
 31
0.0
 70
     4
 15
2489.469153
 25
891.82325500000002
 35
0.0
 40
89.318584000000016
  0
LINE
  5
B16
  8
0
  6
CONTINUOUS
 62
     7
 10
2271.0818440000012
 20
572.70449699999995
 30
0.0
 11
2991.0818439999998
 21
572.70449699999995
 31
0.0
  0
LINE
  5
B17
  8
0
  6
CONTINUOUS
 62
     7
 10
2271.0818440000012
 20
1264.668457
 30
0.0
 11
2991.0818439999998
 21
1264.668457
 31
0.0
  0
LINE
  5
B18
  8
0
  6
CONTINUOUS
 62
     7
 10
2266.0818439999998
 20
1276.668459
 30
0.0
 11
2996.0818440000012
 21
1276.668459
 31
0.0
  0
LINE
  5
B19
  8
LAYER01
  6
VERDECKT
 62
     7
 10
2280.6756340000002
 20
982.66846199999975
 30
0.0
 11
2415.269425
 21
982.66846199999975
 31
0.0
  0
LINE
  5
B1A
  8
0
  6
CONTINUOUS
 62
     7
 10
2280.6756340000002
 20
976.66846199999986
 30
0.0
 11
2415.2694289999999
 21
976.66846199999986
 31
0.0
  0
DIMENSION
  5
B1B
  8
LAYER01
 62
     7
  2
*D3
 10
2266.0818439999998
 20
1395.291626
 30
0.0
 11
2451.1733380000001
 21
1439.291626
 31
0.0
 13
2631.0818440000012
 23
1276.668459
 33
0.0
 14
2266.0818439999998
 24
1276.668459
 34
0.0
  0
DIMENSION
  5
B1C
  8
LAYER01
 62
     7
  2
*D4
 10
2266.0818439999998
 20
1477.1061580000001
 30
0.0
 11
2633.6733380000001
 21
1521.1061580000001
 31
0.0
 13
2996.0818440000012
 23
1276.668459
 33
0.0
 14
2266.0818439999998
 24
1276.668459
 34
0.0
  0
DIMENSION
  5
B1D
  8
LAYER01
 62
     7
  2
*D5
 10
2068.3753510000001
 20
841.66845899999987
 30
0.0
 11
2024.3753509999999
 21
1059.168459
 31
0.0
 53
90.0
 13
2271.0818389999999
 23
1276.668459
 33
0.0
 14
2271.0818389999999
 24
841.66845899999987
 34
0.0
 50
90.0
  0
ARC
  5
B1E
  8
0
  6
CONTINUOUS
 62
     7
 10
2271.0818440000012
 20
567.70449000000008
 30
0.0
 40
5.0
 50
90.0
 51
180.0
  0
LINE
  5
B1F
  8
0
  6
CONTINUOUS
 62
     7
 10
2266.0818439999998
 20
991.66846199999975
 30
0.0
 11
2266.0818439999998
 21
1254.668459
 31
0.0
  0
LINE
  5
B20
  8
LAYER01
  6
VERDECKT
 62
     7
 10
2272.0818439999998
 20
991.66846199999975
 30
0.0
 11
2272.0818439999998
 21
1276.668459
 31
0.0
  0
ARC
  5
B21
  8
0
  6
CONTINUOUS
 62
     7
 10
2281.0818439999998
 20
991.66845999999987
 30
0.0
 40
15.0
 50
180.0
 51
270.0
  0
ARC
  5
B22
  8
LAYER01
  6
VERDECKT
 62
     7
 10
2281.0818439999998
 20
991.66846199999975
 30
0.0
 40
9.0
 50
180.0
 51
270.0
  0
ARC
  5
B23
  8
0
  6
CONTINUOUS
 62
     7
 10
2271.0818440000012
 20
1269.6684600000001
 30
0.0
 40
5.0
 50
180.0
 51
270.0
  0
LINE
  5
B24
  8
0
  6
CONTINUOUS
 62
     7
 10
2266.0818439999998
 20
1269.668459
 30
0.0
 11
2266.0818439999998
 21
1276.668459
 31
0.0
  0
LINE
  5
B25
  8
0
  6
CONTINUOUS
 62
     7
 10
2266.0818439999998
 20
1276.668459
 30
0.0
 11
2271.0818389999999
 21
1276.668459
 31
0.0
  0
LINE
  5
B26
  8
0
  6
CONTINUOUS
 62
     7
 10
2266.0818439999998
 20
1254.668459
 30
0.0
 11
2266.0818439999998
 21
1269.668459
 31
0.0
  0
DIMENSION
  5
B27
  8
LAYER01
 62
     7
  2
*D6
 10
2159.8679430000002
 20
976.66846199999986
 30
0.0
 11
2115.8679430000002
 21
1126.6684600000001
 31
0.0
 53
90.0
 13
2271.0818389999999
 23
1276.668459
 33
0.0
 14
2271.0818389999999
 24
976.66846199999986
 34
0.0
 50
90.0
  0
DIMENSION
  5
B28
  8
LAYER01
 62
     7
  2
*D7
 10
2996.0818440000012
 20
1395.6907220000001
 30
0.0
 11
2816.1733380000001
 21
1439.6907220000001
 31
0.0
 13
2631.0818440000012
 23
1276.668459
 33
0.0
 14
2996.0818440000012
 24
1276.668459
 34
0.0
  0
DIMENSION
  5
B29
  8
LAYER01
 62
     7
  2
*D8
 10
2471.0818439999998
 20
1318.160905
 30
0.0
 11
2551.0818439999998
 21
1362.160905
 31
0.0
 13
2631.0818440000012
 23
1276.668459
 33
0.0
 14
2471.0818439999998
 24
1276.668459
 34
0.0
  0
DIMENSION
  5
B2A
  8
LAYER01
 62
     7
  2
*D9
 10
2791.0818440000012
 20
1318.160905
 30
0.0
 11
2711.0818440000012
 21
1362.160905
 31
0.0
 13
2631.0818440000012
 23
1276.668459
 33
0.0
 14
2791.0818440000012
 24
1276.668459
 34
0.0
  0
LINE
  5
B2B
  8
0
  6
CONTINUOUS
 62
     7
 10
2846.8942590000001
 20
976.66846199999986
 30
0.0
 11
2981.4880539999999
 21
976.66846199999986
 31
0.0
  0
LINE
  5
B2C
  8
LAYER01
  6
VERDECKT
 62
     7
 10
2846.894264
 20
982.66846199999975
 30
0.0
 11
2981.4880539999999
 21
982.66846199999975
 31
0.0
  0
ARC
  5
B2D
  8
0
  6
CONTINUOUS
 62
     7
 10
2631.0818440000012
 20
1066.6684600000001
 30
0.0
 40
225.0
 50
205.94448
 51
334.05552
  0
ARC
  5
B2E
  8
LAYER01
  6
VERDECKT
 62
     7
 10
2631.0818440000012
 20
1066.6684600000001
 30
0.0
 40
219.0
 50
205.944479
 51
334.055521
  0
CIRCLE
  5
B2F
  8
0
  6
CONTINUOUS
 62
     7
 10
2631.0818440000012
 20
1066.6684600000001
 30
0.0
 40
169.60267999999999
  0
DIMENSION
  5
B30
  8
LAYER01
 62
     7
  2
*D10
 10
2415.2694259999998
 20
675.70086300000003
 30
0.0
 11
2633.9316239999998
 21
719.70086300000003
 31
0.0
 13
2846.8942590000001
 23
839.94432100000006
 33
0.0
 14
2415.2694259999998
 24
839.94432100000006
 34
0.0
  0
DIMENSION
  5
B31
  8
LAYER01
 62
     7
  2
*D11
 10
2461.4791639999999
 20
748.63902499999995
 30
0.0
 11
2633.9316250000011
 21
792.63902499999995
 31
0.0
 13
2800.6845239999998
 23
839.94432100000006
 33
0.0
 14
2461.4791639999999
 24
839.94432100000006
 34
0.0
  0
ARC
  5
B32
  8
0
  6
CONTINUOUS
 62
     7
 10
2846.8942630000001
 20
961.66845999999987
 30
0.0
 40
15.0
 50
90.0
 51
154.05552
  0
ARC
  5
B33
  8
LAYER01
  6
VERDECKT
 62
     7
 10
2846.894264
 20
961.66846199999986
 30
0.0
 40
21.0
 50
90.0
 51
154.055521
  0
ARC
  5
B34
  8
0
  6
CONTINUOUS
 62
     7
 10
2415.2694259999998
 20
961.66845999999987
 30
0.0
 40
15.0
 50
25.944479999999999
 51
90.0
  0
ARC
  5
B35
  8
LAYER01
  6
VERDECKT
 62
     7
 10
2415.269425
 20
961.66846199999986
 30
0.0
 40
21.0
 50
25.944479000000001
 51
90.0
  0
CIRCLE
  5
B36
  8
0
  6
CONTINUOUS
 62
     7
 10
2631.0818440000012
 20
1181.6684600000001
 30
0.0
 40
23.0
  0
CIRCLE
  5
B37
  8
0
  6
CONTINUOUS
 62
     7
 10
2631.0818440000012
 20
1181.6684600000001
 30
0.0
 40
37.382140999999997
  0
INSERT
  5
B38
  8
LAYER01
  2
BREST-G13
 10
0.0
 20
0.0
 30
0.0
  0
CIRCLE
  5
B39
  8
LAYER01
  6
CONTINUOUS
 62
     7
 10
2791.0818440000012
 20
1216.668459
 30
0.0
 40
17.5
  0
CIRCLE
  5
B3A
  8
LAYER01
  6
CONTINUOUS
 62
     7
 10
2471.0818439999998
 20
1216.668459
 30
0.0
 40
17.5
  0
LINE
  5
B3B
  8
LAYER01
  6
STRICHPUNKTIERT
 62
     7
 10
2471.0818439999998
 20
1256.116338
 30
0.0
 11
2471.0818439999998
 21
1179.5504350000001
 31
0.0
  0
LINE
  5
B3C
  8
LAYER01
  6
STRICHPUNKTIERT
 62
     7
 10
2437.7485320000001
 20
1216.668459
 30
0.0
 11
2495.7530040000001
 21
1216.668459
 31
0.0
  0
LINE
  5
B3D
  8
LAYER01
  6
STRICHPUNKTIERT
 62
     7
 10
2759.409697000001
 20
1216.668459
 30
0.0
 11
2825.2184080000002
 21
1216.668459
 31
0.0
  0
LINE
  5
B3E
  8
LAYER01
  6
STRICHPUNKTIERT
 62
     7
 10
2791.0818440000012
 20
1254.850786
 30
0.0
 11
2791.0818440000012
 21
1179.128584
 31
0.0
  0
DIMENSION
  5
B3F
  8
LAYER01
 62
     7
  2
*D13
 10
2981.0818439999998
 20
991.66845999999987
 30
0.0
 11
3153.9922270000002
 21
860.152919
 31
0.0
 70
     4
 15
2988.7094539999998
 25
978.75259499999993
 35
0.0
 40
137.73720499999999
  0
ARC
  5
B40
  8
0
  6
CONTINUOUS
 62
     7
 10
2991.0818439999998
 20
567.70449000000008
 30
0.0
 40
5.0
 50
0.0
 51
90.0
  0
LINE
  5
B41
  8
0
  6
CONTINUOUS
 62
     7
 10
2996.0818440000012
 20
1254.668459
 30
0.0
 11
2996.0818440000012
 21
991.66846199999975
 31
0.0
  0
LINE
  5
B42
  8
LAYER01
  6
VERDECKT
 62
     7
 10
2990.0818439999998
 20
991.66846199999975
 30
0.0
 11
2990.0818439999998
 21
1276.668459
 31
0.0
  0
ARC
  5
B43
  8
0
  6
CONTINUOUS
 62
     7
 10
2981.0818439999998
 20
991.66845999999987
 30
0.0
 40
15.0
 50
270.0
 51
0.0
  0
ARC
  5
B44
  8
LAYER01
  6
VERDECKT
 62
     7
 10
2981.0818439999998
 20
991.66846199999975
 30
0.0
 40
9.0
 50
270.0
 51
0.0
  0
ARC
  5
B45
  8
0
  6
CONTINUOUS
 62
     7
 10
2991.0818439999998
 20
1269.6684600000001
 30
0.0
 40
5.0
 50
270.0
 51
0.0
  0
LINE
  5
B46
  8
0
  6
CONTINUOUS
 62
     7
 10
2996.0818440000012
 20
1269.668459
 30
0.0
 11
2996.0818440000012
 21
1276.668459
 31
0.0
  0
LINE
  5
B47
  8
0
  6
CONTINUOUS
 62
     7
 10
2991.0818490000001
 20
1276.668459
 30
0.0
 11
2996.0818440000012
 21
1276.668459
 31
0.0
  0
LINE
  5
B48
  8
0
  6
CONTINUOUS
 62
     7
 10
2996.0818440000012
 20
1269.668459
 30
0.0
 11
2996.0818440000012
 21
1254.668459
 31
0.0
  0
INSERT
  5
B49
  8
LAYER01
  2
BREST-G15
 10
0.0
 20
0.0
 30
0.0
  0
LINE
  5
B4A
  8
0
  6
CONTINUOUS
 62
     7
 10
4058.0331460000002
 20
572.70449699999995
 30
0.0
 11
4058.0331460000002
 21
510.7044909999999
 31
0.0
  0
LINE
  5
B4B
  8
0
  6
CONTINUOUS
 62
     7
 10
4046.0331439999991
 20
569.70449099999985
 30
0.0
 11
4046.0331439999991
 21
532.70449099999985
 31
0.0
  0
DIMENSION
  5
B4C
  8
LAYER01
 62
     7
  2
*D15
 10
3560.7337729999999
 20
572.70449699999995
 30
0.0
 11
3516.733772999999
 21
689.18149500000004
 31
0.0
 53
90.0
 13
3610.5011060000002
 23
522.70448499999986
 33
0.0
 14
3610.5011060000002
 24
572.70449699999995
 34
0.0
 50
90.0
  0
INSERT
  5
B4D
  8
LAYER01
  2
BREST-G17
 10
0.0
 20
0.0
 30
0.0
  0
INSERT
  5
B4E
  8
LAYER01
  2
BREST-G19
 10
0.0
 20
0.0
 30
0.0
  0
TEXT
  5
B4F
  8
LAYER01
  6
STRICHPUNKTIERT
 62
     7
 10
4393.1365062397599
 20
-362.38010136158118
 30
0.0
 40
31.525766999999998
  1
http://www.mineralwerkstoff.de
  0
TEXT
  5
B50
  8
LAYER01
  6
CONTINUOUS
 62
     7
 10
4419.4653999999991
 20
176.945875
 30
0.0
 40
10.08
  1
--------------------------------------
  7
SIMPLEX
  0
TEXT
  5
B51
  8
LAYER01
  6
CONTINUOUS
 62
     7
 10
4419.4653999999991
 20
159.665875
 30
0.0
 40
10.08
  1
Ausführung geprüft und freigegeben (Datum u. Unterschrift)
  7
SIMPLEX
  0
LINE
  5
B52
  8
0
  6
CONTINUOUS
 62
     7
 10
3915.4518360000002
 20
381.9762740000001
 30
0.0
 11
3692.5070059999998
 21
393.66031700000002
 31
0.0
  0
INSERT
  5
B53
  8
LAYER01
  2
BREST-G20
 10
0.0
 20
0.0
 30
0.0
  0
DIMENSION
  5
B54
  8
LAYER01
 62
     7
  2
*D20
 10
3940.033147000001
 20
292.77713799999998
 30
0.0
 11
4057.6833299999989
 21
336.77713799999998
 31
0.0
 13
3986.0331470000001
 23
369.70449000000002
 33
0.0
 14
3940.033147000001
 24
369.70449000000002
 34
0.0
  0
LINE
  5
B55
  8
0
  6
CONTINUOUS
 62
     7
 10
3925.651006000001
 20
393.45822599999991
 30
0.0
 11
3693.1350310000012
 21
405.64387199999999
 31
0.0
  0
LINE
  5
B56
  8
0
  6
CONTINUOUS
 62
     7
 10
4025.6248639999999
 20
522.70448499999986
 30
0.0
 11
3670.4414259999999
 21
522.70448499999986
 31
0.0
  0
LINE
  5
B57
  8
0
  6
CONTINUOUS
 62
     7
 10
3667.1422200000011
 20
501.22785199999993
 30
0.0
 11
3671.6885340000008
 21
414.47877699999992
 31
0.0
  0
ARC
  5
B58
  8
0
  6
CONTINUOUS
 62
     7
 10
3693.658398
 20
415.63016699999991
 30
0.0
 40
10.0
 50
183.0
 51
267.0
  0
LINE
  5
B59
  8
0
  6
CONTINUOUS
 62
     7
 10
3678.430475000001
 20
515.12317699999994
 30
0.0
 11
3683.6721080000002
 21
415.10680799999989
 31
0.0
  0
LINE
  5
B5A
  8
0
  6
CONTINUOUS
 62
     7
 10
3628.0331390000001
 20
522.70448499999986
 30
0.0
 11
3670.4414259999999
 21
522.70448499999986
 31
0.0
  0
ARC
  5
B5B
  8
0
  6
CONTINUOUS
 62
     7
 10
3628.0331470000001
 20
517.70449000000008
 30
0.0
 40
5.0
 50
90.0
 51
180.0
  0
LINE
  5
B5C
  8
0
  6
CONTINUOUS
 62
     7
 10
3623.0331439999991
 20
395.70448999999991
 30
0.0
 11
3623.0331439999991
 21
517.70449000000008
 31
0.0
  0
ARC
  5
B5D
  8
0
  6
CONTINUOUS
 62
     7
 10
3626.033147000001
 20
395.70448999999991
 30
0.0
 40
3.0
 50
180.0
 51
270.0
  0
LINE
  5
B5E
  8
0
  6
CONTINUOUS
 62
     7
 10
3635.0331379999998
 20
392.70449000000002
 30
0.0
 11
3626.0331350000001
 21
392.70449000000002
 31
0.0
  0
LINE
  5
B5F
  8
0
  6
CONTINUOUS
 62
     7
 10
3635.0331379999998
 20
392.70449000000002
 30
0.0
 11
3640.7206130000009
 21
501.22785199999993
 31
0.0
  0
ARC
  5
B60
  8
0
  6
CONTINUOUS
 62
     7
 10
3650.7069110000002
 20
500.70449000000002
 30
0.0
 40
10.0
 50
90.0
 51
177.0
  0
LINE
  5
B61
  8
0
  6
CONTINUOUS
 62
     7
 10
3650.706925
 20
510.7044909999999
 30
0.0
 11
3657.1559390000011
 21
510.7044909999999
 31
0.0
  0
ARC
  5
B62
  8
0
  6
CONTINUOUS
 62
     7
 10
3657.1559269999998
 20
500.70449000000002
 30
0.0
 40
10.0
 50
3.0
 51
90.0
  0
ARC
  5
B63
  8
0
  6
CONTINUOUS
 62
     7
 10
3670.4414310000002
 20
514.70448999999996
 30
0.0
 40
8.0
 50
3.0
 51
90.0
  0
ARC
  5
B64
  8
0
  6
CONTINUOUS
 62
     7
 10
3693.658398
 20
415.63016699999991
 30
0.0
 40
22.0
 50
183.0
 51
267.0
  0
LINE
  5
B65
  8
0
  6
CONTINUOUS
 62
     7
 10
3635.0331379999998
 20
392.70449000000002
 30
0.0
 11
3710.7452830000002
 21
392.70449000000002
 31
0.0
  0
DIMENSION
  5
B66
  8
LAYER01
 62
     7
  2
*D21
 10
3560.7337729999999
 20
522.70448499999986
 30
0.0
 11
3516.733772999999
 21
457.70448799999991
 31
0.0
 53
90.0
 13
3610.5011060000002
 23
392.70449000000002
 33
0.0
 14
3610.5011060000002
 24
522.70448499999986
 34
0.0
 50
90.0
  0
DIMENSION
  5
B67
  8
LAYER01
 62
     7
  2
*D22
 10
4058.0331460000002
 20
199.97656900000001
 30
0.0
 11
4012.406207
 21
243.97656900000001
 31
0.0
 13
3963.0331460000002
 23
269.394318
 33
0.0
 14
4058.0331460000002
 24
269.394318
 34
0.0
  0
DIMENSION
  5
B68
  8
LAYER01
 62
     7
  2
*D23
 10
4234.2797309999996
 20
369.70449000000002
 30
0.0
 11
4190.2797309999996
 21
449.01407999999992
 31
0.0
 53
90.0
 13
4058.0331460000002
 23
522.70448499999986
 33
0.0
 14
4058.0331460000002
 24
369.70449000000002
 34
0.0
 50
90.0
  0
ARC
  5
B69
  8
0
  6
CONTINUOUS
 62
     7
 10
4001.7200380000008
 20
402.50505699999991
 30
0.0
 40
22.0
 50
288.08556599999997
 51
357.0
  0
LINE
  5
B6A
  8
0
  6
CONTINUOUS
 62
     7
 10
3987.8192100000001
 20
384.20317399999999
 30
0.0
 11
3997.463029
 21
392.29530099999999
 31
0.0
  0
LINE
  5
B6B
  8
0
  6
CONTINUOUS
 62
     7
 10
3928.6032660000001
 20
392.29530099999999
 30
0.0
 11
3938.247085
 21
384.20317399999999
 31
0.0
  0
LINE
  5
B6C
  8
0
  6
CONTINUOUS
 62
     7
 10
3963.0331460000002
 20
353.42632900000001
 30
0.0
 11
3963.0331460000002
 21
412.61409300000003
 31
0.0
  0
LINE
  5
B6D
  8
0
  6
CONTINUOUS
 62
     7
 10
3923.033148
 20
369.70449000000002
 30
0.0
 11
3923.033148
 21
373.98723799999999
 31
0.0
  0
LINE
  5
B6E
  8
0
  6
CONTINUOUS
 62
     7
 10
4003.0331460000002
 20
373.98723799999999
 30
0.0
 11
4003.0331460000002
 21
369.70449000000002
 31
0.0
  0
ARC
  5
B6F
  8
0
  6
CONTINUOUS
 62
     7
 10
3991.0331470000001
 20
380.372952
 30
0.0
 40
5.0
 50
130.0
 51
180.0
  0
LINE
  5
B70
  8
0
  6
CONTINUOUS
 62
     7
 10
3986.0331470000001
 20
380.372952
 30
0.0
 11
3986.0331470000001
 21
369.70449000000002
 31
0.0
  0
LINE
  5
B71
  8
0
  6
CONTINUOUS
 62
     7
 10
3986.0331470000001
 20
369.70449000000002
 30
0.0
 11
4003.0331460000002
 21
369.70449000000002
 31
0.0
  0
ARC
  5
B72
  8
0
  6
CONTINUOUS
 62
     7
 10
4011.0331470000001
 20
373.98723799999999
 30
0.0
 40
8.0
 50
108.085566
 51
180.0
  0
ARC
  5
B73
  8
0
  6
CONTINUOUS
 62
     7
 10
3915.033147000001
 20
373.98723799999999
 30
0.0
 40
8.0
 50
0.0
 51
87.0
  0
LINE
  5
B74
  8
0
  6
CONTINUOUS
 62
     7
 10
3923.033148
 20
369.70449000000002
 30
0.0
 11
3940.033147000001
 21
369.70449000000002
 31
0.0
  0
LINE
  5
B75
  8
0
  6
CONTINUOUS
 62
     7
 10
3940.033147000001
 20
369.70449000000002
 30
0.0
 11
3940.033147000001
 21
380.372952
 31
0.0
  0
ARC
  5
B76
  8
0
  6
CONTINUOUS
 62
     7
 10
3935.0331470000001
 20
380.372952
 30
0.0
 40
5.0
 50
0.0
 51
50.0
  0
LINE
  5
B77
  8
0
  6
CONTINUOUS
 62
     7
 10
3940.033147000001
 20
369.70449000000002
 30
0.0
 11
3986.0331470000001
 21
369.70449000000002
 31
0.0
  0
LINE
  5
B78
  8
FORMAT
  6
CONTINUOUS
 62
     7
 10
3938.247085
 20
384.20317399999999
 30
0.0
 11
3987.8192090000011
 21
384.20317399999999
 31
0.0
  0
LINE
  5
B79
  8
0
  6
CONTINUOUS
 62
     7
 10
4023.6898879999999
 20
401.35366599999998
 30
0.0
 11
4028.9240700000009
 21
501.22785199999993
 31
0.0
  0
ARC
  5
B7A
  8
0
  6
CONTINUOUS
 62
     7
 10
4001.7744439999992
 20
403.54318000000001
 30
0.0
 40
10.0
 50
273.0
 51
357.0
  0
LINE
  5
B7B
  8
0
  6
CONTINUOUS
 62
     7
 10
4011.7607379999999
 20
403.01982099999998
 30
0.0
 11
4017.6358260000002
 21
515.12317699999994
 31
0.0
  0
LINE
  5
B7C
  8
0
  6
CONTINUOUS
 62
     7
 10
4002.2978039999998
 20
393.55688500000002
 30
0.0
 11
4000.4152880000001
 21
393.45822599999991
 31
0.0
  0
ARC
  5
B7D
  8
0
  6
CONTINUOUS
 62
     7
 10
4000.6769679999989
 20
388.465079
 30
0.0
 40
5.0
 50
93.0
 51
130.0
  0
ARC
  5
B7E
  8
0
  6
CONTINUOUS
 62
     7
 10
4038.9103679999989
 20
500.70449000000002
 30
0.0
 40
10.0
 50
90.0
 51
177.0
  0
LINE
  5
B7F
  8
0
  6
CONTINUOUS
 62
     7
 10
4038.910367
 20
510.7044909999999
 30
0.0
 11
4058.0331460000002
 21
510.7044909999999
 31
0.0
  0
ARC
  5
B80
  8
0
  6
CONTINUOUS
 62
     7
 10
4036.0331470000001
 20
532.70448999999996
 30
0.0
 40
10.0
 50
270.0
 51
0.0
  0
LINE
  5
B81
  8
0
  6
CONTINUOUS
 62
     7
 10
4025.6248639999999
 20
522.70448499999986
 30
0.0
 11
4036.0331460000002
 21
522.70448499999986
 31
0.0
  0
ARC
  5
B82
  8
0
  6
CONTINUOUS
 62
     7
 10
4025.6248639999999
 20
514.70448999999996
 30
0.0
 40
8.0
 50
90.0
 51
177.0
  0
ARC
  5
B83
  8
0
  6
CONTINUOUS
 62
     7
 10
3925.389326
 20
388.465079
 30
0.0
 40
5.0
 50
50.0
 51
87.0
  0
LINE
  5
B84
  8
0
  6
CONTINUOUS
 62
     7
 10
4058.0331460000002
 20
501.22785199999993
 30
0.0
 11
4058.0331460000002
 21
510.7044909999999
 31
0.0
  0
LINE
  5
B85
  8
0
  6
CONTINUOUS
 62
     7
 10
4021.4164559999999
 20
392.70449000000002
 30
0.0
 11
4058.0331460000002
 21
392.70449000000002
 31
0.0
  0
LINE
  5
B86
  8
0
  6
CONTINUOUS
 62
     7
 10
4058.0331460000002
 20
392.70449000000002
 30
0.0
 11
4058.0331460000002
 21
501.22785199999993
 31
0.0
  0
LINE
  5
B87
  8
FORMAT
  6
CONTINUOUS
 62
     7
 10
3997.4630299999999
 20
392.29530099999999
 30
0.0
 11
3928.6032639999999
 21
392.29530099999999
 31
0.0
  0
DIMENSION
  5
B88
  8
LAYER01
 62
     7
  2
*D24
 10
4165.1542680000011
 20
392.70449000000002
 30
0.0
 11
4121.1542680000002
 21
460.51407999999998
 31
0.0
 53
90.0
 13
4058.0331460000002
 23
522.70448499999986
 33
0.0
 14
4058.0331460000002
 24
392.70449000000002
 34
0.0
 50
90.0
  0
TEXT
  5
B89
  8
LAYER01
  6
VERDECKT
 62
     1
 10
4906.1101749999998
 20
-587.92608299999995
 30
0.0
 40
22.5
  1
A. Sprenger GmbH
  7
SIMPLEX
  0
TEXT
  5
B8A
  8
LAYER01
  6
CONTINUOUS
 62
     7
 10
4898.8110340000012
 20
-448.58658099999991
 30
0.0
 40
6.75
  1
Diese Zeichnung ist geistiges Eigentum der A. Sprenger GmbH
  7
SIMPLEX
  0
TEXT
  5
B8B
  8
LAYER01
  6
CONTINUOUS
 62
     7
 10
4898.8110340000012
 20
-460.15800899999988
 30
0.0
 40
6.75
  1
und urheberrechtlich geschützt. Ohne unsere Zustimmung darf 
  7
SIMPLEX
  0
TEXT
  5
B8C
  8
LAYER01
  6
CONTINUOUS
 62
     7
 10
4898.8110340000012
 20
-471.72943800000002
 30
0.0
 40
6.75
  1
sie in keiner Form verwendet oder Dritten zugänglich gemacht
  7
SIMPLEX
  0
TEXT
  5
B8D
  8
LAYER01
  6
CONTINUOUS
 62
     7
 10
4898.8110340000012
 20
-483.30086599999998
 30
0.0
 40
6.75
  1
werden. (§106 Urheberrecht)
  7
SIMPLEX
  0
TEXT
  5
B8E
  8
LAYER01
  6
VERDECKT
 62
     1
 10
4906.1101749999998
 20
-676.29067799999996
 30
0.0
 40
31.5
  1
Brest
  7
SIMPLEX
  0
TEXT
  5
B8F
  8
LAYER01
  6
CONTINUOUS
 62
     1
 10
4671.745817
 20
-768.67164300000002
 30
0.0
 40
31.5
  1
61xxx
  7
SIMPLEX
  0
TEXT
  5
B90
  8
LAYER01
  6
VERDECKT
 62
     1
 10
4697.610717999999
 20
-640.02240099999995
 30
0.0
 40
9.0
  1
21.7.2022
  7
SIMPLEX
  0
TEXT
  5
B91
  8
LAYER01
  6
VERDECKT
 62
     1
 10
4784.1521590000002
 20
-640.05528400000003
 30
0.0
 40
9.0
  1
b.s.
  7
SIMPLEX
  0
TEXT
  5
B92
  8
LAYER01
  6
VERDECKT
 62
     1
 10
4965.4595300000001
 20
-529.89560199999994
 30
0.0
 40
9.0
  1
1 : 10 (DIN A3)
  7
SIMPLEX
  0
TEXT
  5
B93
  8
LAYER01
  6
VERDECKT
 62
     1
 10
5197.4152639999993
 20
-529.89560199999994
 30
0.0
 40
9.0
  1
brest.skd
  7
SIMPLEX
  0
DIMENSION
  5
B94
  8
LAYER01
 62
     7
  2
*D25
 10
4018.0331469999992
 20
607.34914400000002
 30
0.0
 11
3848.033147000001
 21
651.34914400000002
 31
0.0
 13
3678.0331470000001
 23
572.70449699999995
 33
0.0
 14
4018.0331469999992
 24
572.70449699999995
 34
0.0
  0
DIMENSION
  5
B95
  8
LAYER01
 62
     7
  2
*D26
 10
4058.0331470000001
 20
687.60915699999987
 30
0.0
 11
3840.5331470000001
 21
731.60915699999998
 31
0.0
 13
3623.033147000001
 23
572.70449699999995
 33
0.0
 14
4058.0331470000001
 24
572.70449699999995
 34
0.0
  0
DIMENSION
  5
B96
  8
LAYER01
 62
     7
  2
*D27
 10
3678.0331470000001
 20
607.34914400000002
 30
0.0
 11
3651.6048600000008
 21
637.34914400000002
 31
0.0
 13
3623.033147000001
 23
572.70449699999995
 33
0.0
 14
3678.0331470000001
 24
572.70449699999995
 34
0.0
  0
LINE
  5
B97
  8
0
  6
CONTINUOUS
 62
     7
 10
4058.0331460000002
 20
572.70449699999995
 30
0.0
 11
4049.0331500000002
 21
572.70449699999995
 31
0.0
  0
ARC
  5
B98
  8
0
  6
CONTINUOUS
 62
     7
 10
4049.0331470000001
 20
569.70448999999996
 30
0.0
 40
3.0
 50
90.0
 51
180.0
  0
ENDSEC
  0
EOF