  0
SECTION
  2
HEADER
  9
$ACADVER
  1
AC1009
  9
$INSBASE
 10
0.0
 20
0.0
 30
0.0
  9
$EXTMIN
 10
-446.5405541846194
 20
-704.14314020712118
 30
-0.0015258207003583
  9
$EXTMAX
 10
4491.9970443314014
 20
2039.8983024009219
 30
0.0000000349246037
  9
$LIMMIN
 10
-504.73148200000003
 20
-768.63152000000002
  9
$LIMMAX
 10
3695.2685179999999
 20
2201.3684800000001
  9
$ORTHOMODE
 70
     1
  9
$REGENMODE
 70
     1
  9
$FILLMODE
 70
     1
  9
$QTEXTMODE
 70
     0
  9
$MIRRTEXT
 70
     0
  9
$DRAGMODE
 70
     2
  9
$LTSCALE
 40
5.0
  9
$OSMODE
 70
    37
  9
$ATTMODE
 70
     1
  9
$TEXTSIZE
 40
0.0
  9
$TRACEWID
 40
0.05
  9
$TEXTSTYLE
  7
STANDARD
  9
$CLAYER
  8
LAYER01
  9
$CELTYPE
  6
CONTINUOUS
  9
$CECOLOR
 62
     7
  9
$DIMSCALE
 40
1.0
  9
$DIMASZ
 40
0.18
  9
$DIMEXO
 40
0.0625
  9
$DIMDLI
 40
0.38
  9
$DIMRND
 40
0.0
  9
$DIMDLE
 40
0.0
  9
$DIMEXE
 40
0.18
  9
$DIMTP
 40
0.0
  9
$DIMTM
 40
0.0
  9
$DIMTXT
 40
0.18
  9
$DIMCEN
 40
0.09
  9
$DIMTSZ
 40
0.0
  9
$DIMTOL
 70
     0
  9
$DIMLIM
 70
     0
  9
$DIMTIH
 70
     1
  9
$DIMTOH
 70
     1
  9
$DIMSE1
 70
     0
  9
$DIMSE2
 70
     0
  9
$DIMTAD
 70
     0
  9
$DIMZIN
 70
     0
  9
$DIMBLK
  1

  9
$DIMASO
 70
     1
  9
$DIMSHO
 70
     1
  9
$DIMPOST
  1

  9
$DIMAPOST
  1

  9
$DIMALT
 70
     0
  9
$DIMALTD
 70
     2
  9
$DIMALTF
 40
25.399999999999999
  9
$DIMLFAC
 40
1.0
  9
$DIMTOFL
 70
     0
  9
$DIMTVP
 40
0.0
  9
$DIMTIX
 70
     0
  9
$DIMSOXD
 70
     0
  9
$DIMSAH
 70
     0
  9
$DIMBLK1
  1

  9
$DIMBLK2
  1

  9
$DIMSTYLE
  2
STANDARD
  9
$DIMCLRD
 70
     0
  9
$DIMCLRE
 70
     0
  9
$DIMCLRT
 70
     0
  9
$DIMTFAC
 40
1.0
  9
$DIMGAP
 40
0.09
  9
$LUNITS
 70
     2
  9
$LUPREC
 70
     4
  9
$SKETCHINC
 40
0.1
  9
$FILLETRAD
 40
11.0
  9
$AUNITS
 70
     0
  9
$AUPREC
 70
     0
  9
$MENU
  1
acad
  9
$ELEVATION
 40
0.0
  9
$PELEVATION
 40
0.0
  9
$THICKNESS
 40
0.0
  9
$LIMCHECK
 70
     0
  9
$BLIPMODE
 70
     0
  9
$CHAMFERA
 40
0.0
  9
$CHAMFERB
 40
0.0
  9
$SKPOLY
 70
     0
  9
$TDCREATE
 40
11441389.194884891
  9
$TDUPDATE
 40
2459776.3570097801
  9
$TDINDWG
 40
0.0004341319
  9
$TDUSRTIMER
 40
0.000433831
  9
$USRTIMER
 70
     1
  9
$ANGBASE
 50
0.0
  9
$ANGDIR
 70
     0
  9
$PDMODE
 70
     0
  9
$PDSIZE
 40
0.0
  9
$PLINEWID
 40
0.0
  9
$COORDS
 70
     0
  9
$SPLFRAME
 70
     0
  9
$SPLINETYPE
 70
     6
  9
$SPLINESEGS
 70
    10
  9
$ATTDIA
 70
     0
  9
$ATTREQ
 70
     1
  9
$HANDLING
 70
     1
  9
$HANDSEED
  5
1006
  9
$SURFTAB1
 70
     6
  9
$SURFTAB2
 70
     6
  9
$SURFTYPE
 70
     6
  9
$SURFU
 70
     6
  9
$SURFV
 70
     6
  9
$UCSNAME
  2

  9
$UCSORG
 10
0.0
 20
0.0
 30
0.0
  9
$UCSXDIR
 10
1.0
 20
0.0
 30
0.0
  9
$UCSYDIR
 10
0.0
 20
1.0
 30
0.0
  9
$PUCSNAME
  2

  9
$PUCSORG
 10
0.0
 20
0.0
 30
0.0
  9
$PUCSXDIR
 10
1.0
 20
0.0
 30
0.0
  9
$PUCSYDIR
 10
0.0
 20
1.0
 30
0.0
  9
$USERI1
 70
     0
  9
$USERI2
 70
     0
  9
$USERI3
 70
     0
  9
$USERI4
 70
     0
  9
$USERI5
 70
     0
  9
$USERR1
 40
0.0
  9
$USERR2
 40
0.0
  9
$USERR3
 40
0.0
  9
$USERR4
 40
0.0
  9
$USERR5
 40
0.0
  9
$WORLDVIEW
 70
     1
  9
$SHADEDGE
 70
     3
  9
$SHADEDIF
 70
    70
  9
$TILEMODE
 70
     1
  9
$MAXACTVP
 70
    64
  9
$PLIMCHECK
 70
     0
  9
$PEXTMIN
 10
1.0000000000000000E+020
 20
1.0000000000000000E+020
 30
1.0000000000000000E+020
  9
$PEXTMAX
 10
-1.0000000000000000E+020
 20
-1.0000000000000000E+020
 30
-1.0000000000000000E+020
  9
$PLIMMIN
 10
0.0
 20
0.0
  9
$PLIMMAX
 10
12.0
 20
9.0
  9
$UNITMODE
 70
     0
  9
$VISRETAIN
 70
     1
  9
$PLINEGEN
 70
     0
  9
$PSLTSCALE
 70
     1
  0
ENDSEC
  0
SECTION
  2
TABLES
  0
TABLE
  2
VPORT
 70
     1
  0
VPORT
  2
*ACTIVE
 70
     0
 10
0.0
 20
0.0
 11
1.0
 21
1.0
 12
1993.6327811657
 22
716.36847999999986
 13
0.0
 23
0.0
 14
1.0
 24
1.0
 15
0.0
 25
0.0
 16
0.0
 26
0.0
 36
1.0
 17
0.0
 27
0.0
 37
0.0
 40
2997.5
 41
1.9103554868624411
 42
50.0
 43
0.0
 44
0.0
 50
0.0
 51
0.0
 71
     0
 72
   100
 73
     1
 74
     1
 75
     0
 76
     0
 77
     0
 78
     0
  0
ENDTAB
  0
TABLE
  2
LTYPE
 70
    11
  0
LTYPE
  2
CONTINUOUS
 70
     0
  3
Solid line
 72
    65
 73
     0
 40
0.0
  0
LTYPE
  2
GESTRICHELT
 70
     0
  3
__ __ __ __ __ __ __ __ __ __ __ __ __ __ __
 72
    65
 73
     2
 40
0.75
 49
0.5
 49
-0.25
  0
LTYPE
  2
VERDECKT
 70
     0
  3
_ _ _ _ _ _ _ _ _ _ _ _ _ _ _ _ _ _ _ _ _ _ 
 72
    65
 73
     2
 40
0.25
 49
0.125
 49
-0.125
  0
LTYPE
  2
MITTELLINIE
 70
     0
  3
____ _ ____ _ ____ _ ____ _ ____ _ ____ _ __
 72
    65
 73
     4
 40
2.0
 49
1.25
 49
-0.25
 49
0.25
 49
-0.25
  0
LTYPE
  2
PHANTOM
 70
     0
  3
_____ _ _ _____ _ _ _____ _ _ _____ _ _ ____
 72
    65
 73
     6
 40
2.5
 49
1.25
 49
-0.25
 49
0.25
 49
-0.25
 49
0.25
 49
-0.25
  0
LTYPE
  2
PUNKTIERT
 70
     0
  3
............................................
 72
    65
 73
     2
 40
0.25
 49
0.0
 49
-0.25
  0
LTYPE
  2
STRICHPUNKTIERT
 70
     0
  3
__ . __ . __ . __ . __ . __ . __ . __ . __ .
 72
    65
 73
     4
 40
1.0
 49
0.5
 49
-0.25
 49
0.0
 49
-0.25
  0
LTYPE
  2
RAND
 70
     0
  3
__ __ . __ __ . __ __ . __ __ . __ __ . __ _
 72
    65
 73
     6
 40
1.75
 49
0.5
 49
-0.25
 49
0.5
 49
-0.25
 49
0.0
 49
-0.25
  0
LTYPE
  2
TRENNLINIE
 70
     0
  3
__ . . __ . . __ . . __ . . __ . . __ . . __
 72
    65
 73
     6
 40
1.25
 49
0.5
 49
-0.25
 49
0.0
 49
-0.25
 49
0.0
 49
-0.25
  0
LTYPE
  2
ENG_PUNKTIERT
 70
     0
  3
Schließen                                   
 72
    65
 73
     2
 40
0.1
 49
0.05
 49
-0.05
  0
LTYPE
  2
CLOSE
 70
     0
  3
                                            
 72
    65
 73
     0
 40
0.0
  0
ENDTAB
  0
TABLE
  2
LAYER
 70
   256
  0
LAYER
  2
0
 70
     0
 62
     7
  6
CONTINUOUS
  0
LAYER
  2
LAYER01
 70
     0
 62
     7
  6
CONTINUOUS
  0
LAYER
  2
LAYER02
 70
     0
 62
     7
  6
CONTINUOUS
  0
LAYER
  2
LAYER03
 70
     0
 62
     7
  6
CONTINUOUS
  0
LAYER
  2
LAYER04
 70
     0
 62
     7
  6
CONTINUOUS
  0
LAYER
  2
LAYER05
 70
     0
 62
     7
  6
CONTINUOUS
  0
LAYER
  2
LAYER06
 70
     0
 62
     7
  6
CONTINUOUS
  0
LAYER
  2
LAYER07
 70
     0
 62
     7
  6
CONTINUOUS
  0
LAYER
  2
LAYER08
 70
     0
 62
     7
  6
CONTINUOUS
  0
LAYER
  2
LAYER09
 70
     0
 62
     7
  6
CONTINUOUS
  0
LAYER
  2
LAYER10
 70
     0
 62
     7
  6
CONTINUOUS
  0
LAYER
  2
2
 70
     0
 62
     7
  6
CONTINUOUS
  0
LAYER
  2
5
 70
     0
 62
     7
  6
CONTINUOUS
  0
LAYER
  2
RAUMAUFM
 70
     0
 62
     7
  6
CONTINUOUS
  0
LAYER
  2
EINRICHT
 70
     0
 62
     7
  6
CONTINUOUS
  0
LAYER
  2
HILFE
 70
     0
 62
     7
  6
CONTINUOUS
  0
LAYER
  2
SCHNITTE
 70
     0
 62
     7
  6
CONTINUOUS
  0
LAYER
  2
SCHRAFF1
 70
     0
 62
     7
  6
CONTINUOUS
  0
LAYER
  2
SCHRAFF2
 70
     0
 62
     7
  6
CONTINUOUS
  0
LAYER
  2
BEMASS-1
 70
     0
 62
     7
  6
CONTINUOUS
  0
LAYER
  2
BEMASS-2
 70
     0
 62
     7
  6
CONTINUOUS
  0
LAYER
  2
TEXT
 70
     0
 62
     7
  6
CONTINUOUS
  0
LAYER
  2
SYMBOLE
 70
     0
 62
     7
  6
CONTINUOUS
  0
LAYER
  2
RAHMEN
 70
     0
 62
     7
  6
CONTINUOUS
  0
LAYER
  2
SCHRIFTF
 70
     0
 62
     7
  6
CONTINUOUS
  0
LAYER
  2
ACHSEN
 70
     0
 62
     7
  6
CONTINUOUS
  0
LAYER
  2
ZEICHN
 70
     0
 62
     7
  6
CONTINUOUS
  0
LAYER
  2
7
 70
     0
 62
     7
  6
CONTINUOUS
  0
LAYER
  2
1
 70
     0
 62
     7
  6
CONTINUOUS
  0
LAYER
  2
6
 70
     0
 62
     7
  6
CONTINUOUS
  0
LAYER
  2
4
 70
     0
 62
     7
  6
CONTINUOUS
  0
LAYER
  2
GRUNDEBENE
 70
     0
 62
     7
  6
CONTINUOUS
  0
LAYER
  2
GRUNDRISS
 70
     0
 62
     7
  6
CONTINUOUS
  0
LAYER
  2
BEMASSUNGGRUNDRISS
 70
     0
 62
     7
  6
CONTINUOUS
  0
LAYER
  2
WANDELEMENTE
 70
     0
 62
     7
  6
CONTINUOUS
  0
LAYER
  2
KUECHE
 70
     0
 62
     7
  6
CONTINUOUS
  0
LAYER
  2
THEKEBROETCHEN
 70
     0
 62
     7
  6
CONTINUOUS
  0
LAYER
  2
CENTERLINIE
 70
     0
 62
     7
  6
CONTINUOUS
  0
LAYER
  2
UMRISSE
 70
     0
 62
     7
  6
CONTINUOUS
  0
LAYER
  2
MAUER
 70
     0
 62
     7
  6
CONTINUOUS
  0
LAYER
  2
SCHRAFFUR
 70
     0
 62
     7
  6
CONTINUOUS
  0
LAYER
  2
MASSLINIE
 70
     0
 62
     7
  6
CONTINUOUS
  0
LAYER
  2
PV
 70
     0
 62
     7
  6
CONTINUOUS
  0
LAYER
  2
BESCHRIFTUNG
 70
     0
 62
     7
  6
CONTINUOUS
  0
LAYER
  2
AS
 70
     0
 62
     7
  6
CONTINUOUS
  0
LAYER
  2
PL
 70
     0
 62
     7
  6
CONTINUOUS
  0
LAYER
  2
UK
 70
     0
 62
     7
  6
CONTINUOUS
  0
LAYER
  2
TEXT3
 70
     0
 62
     7
  6
CONTINUOUS
  0
LAYER
  2
TEXT7
 70
     0
 62
     7
  6
CONTINUOUS
  0
LAYER
  2
BEPL1
 70
     0
 62
     7
  6
CONTINUOUS
  0
LAYER
  2
BEPL2
 70
     0
 62
     7
  6
CONTINUOUS
  0
LAYER
  2
BEPL2V
 70
     0
 62
     7
  6
CONTINUOUS
  0
LAYER
  2
BEPL4
 70
     0
 62
     7
  6
CONTINUOUS
  0
LAYER
  2
BEPL
 70
     0
 62
     7
  6
CONTINUOUS
  0
LAYER
  2
UK1
 70
     0
 62
     7
  6
CONTINUOUS
  0
LAYER
  2
UK2
 70
     0
 62
     7
  6
CONTINUOUS
  0
LAYER
  2
UK2V
 70
     0
 62
     7
  6
CONTINUOUS
  0
LAYER
  2
UK3
 70
     0
 62
     7
  6
CONTINUOUS
  0
LAYER
  2
TEXT2
 70
     0
 62
     7
  6
CONTINUOUS
  0
LAYER
  2
HILF2S
 70
     0
 62
     7
  6
CONTINUOUS
  0
LAYER
  2
UK1V
 70
     0
 62
     7
  6
CONTINUOUS
  0
LAYER
  2
GAIN_ZRA
 70
     0
 62
     7
  6
CONTINUOUS
  0
LAYER
  2
GAIN_ZSF
 70
     0
 62
     7
  6
CONTINUOUS
  0
LAYER
  2
RAHM4
 70
     0
 62
     7
  6
CONTINUOUS
  0
LAYER
  2
KORPUSBAND
 70
     0
 62
     7
  6
CONTINUOUS
  0
LAYER
  2
E---LGPL--------
 70
     0
 62
     7
  6
CONTINUOUS
  0
LAYER
  2
E---NPFL--------
 70
     0
 62
     7
  6
CONTINUOUS
  0
LAYER
  2
E---PLNKTXT-----
 70
     0
 62
     7
  6
CONTINUOUS
  0
LAYER
  2
E---PLNK--------
 70
     0
 62
     7
  6
CONTINUOUS
  0
LAYER
  2
E---PLNR--------
 70
     0
 62
     7
  6
CONTINUOUS
  0
LAYER
  2
D547_ARCHICAD
 70
     0
 62
     7
  6
CONTINUOUS
  0
LAYER
  2
D547_E---TEXT--------
 70
     0
 62
     7
  6
CONTINUOUS
  0
LAYER
  2
E---LEGD--------
 70
     0
 62
     7
  6
CONTINUOUS
  0
LAYER
  2
D43_ARCHICAD
 70
     0
 62
     7
  6
CONTINUOUS
  0
LAYER
  2
D43_FENSTER_VON_B---FASS--
 70
     0
 62
     7
  6
CONTINUOUS
  0
LAYER
  2
D43_E---SCHN--------
 70
     0
 62
     7
  6
CONTINUOUS
  0
LAYER
  2
D43_B---MW-N--------
 70
     0
 62
     7
  6
CONTINUOUS
  0
LAYER
  2
D43_B---DECK--------
 70
     0
 62
     7
  6
CONTINUOUS
  0
LAYER
  2
D43_B---MW-S--------
 70
     0
 62
     7
  6
CONTINUOUS
  0
LAYER
  2
D43_B---MW----------
 70
     0
 62
     7
  6
CONTINUOUS
  0
LAYER
  2
D43_B---FASS--------
 70
     0
 62
     7
  6
CONTINUOUS
  0
LAYER
  2
D43_E---RASG--------
 70
     0
 62
     7
  6
CONTINUOUS
  0
LAYER
  2
D40_ARCHICAD
 70
     0
 62
     7
  6
CONTINUOUS
  0
LAYER
  2
D40_E---MW--------
 70
     0
 62
     7
  6
CONTINUOUS
  0
LAYER
  2
D40_E---FASSKON-----
 70
     0
 62
     7
  6
CONTINUOUS
  0
LAYER
  2
D40_TÜREN_VON_B---MW-N----
 70
     0
 62
     7
  6
CONTINUOUS
  0
LAYER
  2
D40_E---MW-L------
 70
     0
 62
     7
  6
CONTINUOUS
  0
LAYER
  2
D40_TÜREN_VON_B---MW------
 70
     0
 62
     7
  6
CONTINUOUS
  0
LAYER
  2
D40_E---VERM--------
 70
     0
 62
     7
  6
CONTINUOUS
  0
LAYER
  2
D40_FENSTER_VON_E---MW-L--
 70
     0
 62
     7
  6
CONTINUOUS
  0
LAYER
  2
D40_FENSTER_VON_B---MW-N--
 70
     0
 62
     7
  6
CONTINUOUS
  0
LAYER
  2
D40_E---SCHN--------
 70
     0
 62
     7
  6
CONTINUOUS
  0
LAYER
  2
D40_E---AUFZ--------
 70
     0
 62
     7
  6
CONTINUOUS
  0
LAYER
  2
D40_E---DECK--------
 70
     0
 62
     7
  6
CONTINUOUS
  0
LAYER
  2
D40_E---RAUMINF-----
 70
     0
 62
     7
  6
CONTINUOUS
  0
LAYER
  2
D40_E---TEXT--------
 70
     0
 62
     7
  6
CONTINUOUS
  0
LAYER
  2
D40_B---TEXT--------
 70
     0
 62
     7
  6
CONTINUOUS
  0
LAYER
  2
D40_B---MW-N--------
 70
     0
 62
     7
  6
CONTINUOUS
  0
LAYER
  2
D40_B---DECK--------
 70
     0
 62
     7
  6
CONTINUOUS
  0
LAYER
  2
D40_B---AUFZ--------
 70
     0
 62
     7
  6
CONTINUOUS
  0
LAYER
  2
D40_B---MW-S--------
 70
     0
 62
     7
  6
CONTINUOUS
  0
LAYER
  2
D40_B---MW----------
 70
     0
 62
     7
  6
CONTINUOUS
  0
LAYER
  2
D40_E---MOEB--------
 70
     0
 62
     7
  6
CONTINUOUS
  0
LAYER
  2
D40_B---UMGB--------
 70
     0
 62
     7
  6
CONTINUOUS
  0
LAYER
  2
D40_B---FASS--------
 70
     0
 62
     7
  6
CONTINUOUS
  0
LAYER
  2
D40_E---DACH--------
 70
     0
 62
     7
  6
CONTINUOUS
  0
LAYER
  2
D40_E---BODE--------
 70
     0
 62
     7
  6
CONTINUOUS
  0
LAYER
  2
D40_E---TREP--------
 70
     0
 62
     7
  6
CONTINUOUS
  0
LAYER
  2
D40_E---RASG--------
 70
     0
 62
     7
  6
CONTINUOUS
  0
LAYER
  2
D40_B---MW-K--------
 70
     0
 62
     7
  6
CONTINUOUS
  0
LAYER
  2
D40_E---FASSGLA-----
 70
     0
 62
     7
  6
CONTINUOUS
  0
LAYER
  2
D40_B---VERM--------
 70
     0
 62
     7
  6
CONTINUOUS
  0
LAYER
  2
D40_E---UMGBGSG-----
 70
     0
 62
     7
  6
CONTINUOUS
  0
LAYER
  2
D40_E---RASF--------
 70
     0
 62
     7
  6
CONTINUOUS
  0
LAYER
  2
D40_E---PFLA--------
 70
     0
 62
     7
  6
CONTINUOUS
  0
LAYER
  2
D40_E---KONS-ST-----
 70
     0
 62
     7
  6
CONTINUOUS
  0
LAYER
  2
D40_E---WERB--------
 70
     0
 62
     7
  6
CONTINUOUS
  0
LAYER
  2
D40_E---TUERINF-----
 70
     0
 62
     7
  6
CONTINUOUS
  0
LAYER
  2
D40_E---WOLK--------
 70
     0
 62
     7
  6
CONTINUOUS
  0
LAYER
  2
D40_B---MW-L--------
 70
     0
 62
     7
  6
CONTINUOUS
  0
LAYER
  2
D40_B---SANI--------
 70
     0
 62
     7
  6
CONTINUOUS
  0
LAYER
  2
D40_E---SANI--------
 70
     0
 62
     7
  6
CONTINUOUS
  0
LAYER
  2
D40_E---MW-K------
 70
     0
 62
     7
  6
CONTINUOUS
  0
LAYER
  2
D40_E---OBJE--------
 70
     0
 62
     7
  6
CONTINUOUS
  0
LAYER
  2
D40_E---ASPR--------
 70
     0
 62
     7
  6
CONTINUOUS
  0
LAYER
  2
D40_E---VERMTGA-----
 70
     0
 62
     7
  6
CONTINUOUS
  0
LAYER
  2
D40_E---PARK--------
 70
     0
 62
     7
  6
CONTINUOUS
  0
LAYER
  2
D40_E---ISOL--------
 70
     0
 62
     7
  6
CONTINUOUS
  0
LAYER
  2
D40_E---TUER--------
 70
     0
 62
     7
  6
CONTINUOUS
  0
LAYER
  2
D40_E---MW--BRA---
 70
     0
 62
     7
  6
CONTINUOUS
  0
LAYER
  2
D41_ARCHICAD
 70
     0
 62
     7
  6
CONTINUOUS
  0
LAYER
  2
D41_E---MW--------
 70
     0
 62
     7
  6
CONTINUOUS
  0
LAYER
  2
D41_E---FASSKON-----
 70
     0
 62
     7
  6
CONTINUOUS
  0
LAYER
  2
D41_TÜREN_VON_B---MW-N----
 70
     0
 62
     7
  6
CONTINUOUS
  0
LAYER
  2
D41_E---MW-L------
 70
     0
 62
     7
  6
CONTINUOUS
  0
LAYER
  2
D41_TÜREN_VON_B---MW------
 70
     0
 62
     7
  6
CONTINUOUS
  0
LAYER
  2
D41_E---VERM--------
 70
     0
 62
     7
  6
CONTINUOUS
  0
LAYER
  2
D41_FENSTER_VON_E---MW-L--
 70
     0
 62
     7
  6
CONTINUOUS
  0
LAYER
  2
D41_FENSTER_VON_B---MW-N--
 70
     0
 62
     7
  6
CONTINUOUS
  0
LAYER
  2
D41_E---SCHN--------
 70
     0
 62
     7
  6
CONTINUOUS
  0
LAYER
  2
D41_E---AUFZ--------
 70
     0
 62
     7
  6
CONTINUOUS
  0
LAYER
  2
D41_E---DECK--------
 70
     0
 62
     7
  6
CONTINUOUS
  0
LAYER
  2
D41_E---RAUMINF-----
 70
     0
 62
     7
  6
CONTINUOUS
  0
LAYER
  2
D41_E---TEXT--------
 70
     0
 62
     7
  6
CONTINUOUS
  0
LAYER
  2
D41_B---TEXT--------
 70
     0
 62
     7
  6
CONTINUOUS
  0
LAYER
  2
D41_B---MW-N--------
 70
     0
 62
     7
  6
CONTINUOUS
  0
LAYER
  2
D41_B---DECK--------
 70
     0
 62
     7
  6
CONTINUOUS
  0
LAYER
  2
D41_B---AUFZ--------
 70
     0
 62
     7
  6
CONTINUOUS
  0
LAYER
  2
D41_B---MW-S--------
 70
     0
 62
     7
  6
CONTINUOUS
  0
LAYER
  2
D41_B---MW----------
 70
     0
 62
     7
  6
CONTINUOUS
  0
LAYER
  2
D41_E---MOEB--------
 70
     0
 62
     7
  6
CONTINUOUS
  0
LAYER
  2
D41_B---UMGB--------
 70
     0
 62
     7
  6
CONTINUOUS
  0
LAYER
  2
D41_B---FASS--------
 70
     0
 62
     7
  6
CONTINUOUS
  0
LAYER
  2
D41_E---DACH--------
 70
     0
 62
     7
  6
CONTINUOUS
  0
LAYER
  2
D41_E---BODE--------
 70
     0
 62
     7
  6
CONTINUOUS
  0
LAYER
  2
D41_E---TREP--------
 70
     0
 62
     7
  6
CONTINUOUS
  0
LAYER
  2
D41_E---RASG--------
 70
     0
 62
     7
  6
CONTINUOUS
  0
LAYER
  2
D41_B---MW-K--------
 70
     0
 62
     7
  6
CONTINUOUS
  0
LAYER
  2
D41_E---FASSGLA-----
 70
     0
 62
     7
  6
CONTINUOUS
  0
LAYER
  2
D41_B---VERM--------
 70
     0
 62
     7
  6
CONTINUOUS
  0
LAYER
  2
D41_E---UMGBGSG-----
 70
     0
 62
     7
  6
CONTINUOUS
  0
LAYER
  2
D41_E---RASF--------
 70
     0
 62
     7
  6
CONTINUOUS
  0
LAYER
  2
D41_E---PFLA--------
 70
     0
 62
     7
  6
CONTINUOUS
  0
LAYER
  2
D41_E---KONS-ST-----
 70
     0
 62
     7
  6
CONTINUOUS
  0
LAYER
  2
D41_E---WERB--------
 70
     0
 62
     7
  6
CONTINUOUS
  0
LAYER
  2
D41_E---TUERINF-----
 70
     0
 62
     7
  6
CONTINUOUS
  0
LAYER
  2
D41_E---WOLK--------
 70
     0
 62
     7
  6
CONTINUOUS
  0
LAYER
  2
D41_B---MW-L--------
 70
     0
 62
     7
  6
CONTINUOUS
  0
LAYER
  2
D41_B---SANI--------
 70
     0
 62
     7
  6
CONTINUOUS
  0
LAYER
  2
D41_E---SANI--------
 70
     0
 62
     7
  6
CONTINUOUS
  0
LAYER
  2
D41_E---MW-K------
 70
     0
 62
     7
  6
CONTINUOUS
  0
LAYER
  2
D41_E---OBJE--------
 70
     0
 62
     7
  6
CONTINUOUS
  0
LAYER
  2
D41_E---ASPR--------
 70
     0
 62
     7
  6
CONTINUOUS
  0
LAYER
  2
D41_E---VERMTGA-----
 70
     0
 62
     7
  6
CONTINUOUS
  0
LAYER
  2
D41_E---PARK--------
 70
     0
 62
     7
  6
CONTINUOUS
  0
LAYER
  2
D41_E---ISOL--------
 70
     0
 62
     7
  6
CONTINUOUS
  0
LAYER
  2
D41_E---TUER--------
 70
     0
 62
     7
  6
CONTINUOUS
  0
LAYER
  2
D41_E---MW--BRA---
 70
     0
 62
     7
  6
CONTINUOUS
  0
LAYER
  2
D42_ARCHICAD
 70
     0
 62
     7
  6
CONTINUOUS
  0
LAYER
  2
D42_FENSTER_VON_B---FASS--
 70
     0
 62
     7
  6
CONTINUOUS
  0
LAYER
  2
D42_E---SCHN--------
 70
     0
 62
     7
  6
CONTINUOUS
  0
LAYER
  2
D42_B---MW-N--------
 70
     0
 62
     7
  6
CONTINUOUS
  0
LAYER
  2
D42_B---DECK--------
 70
     0
 62
     7
  6
CONTINUOUS
  0
LAYER
  2
D42_B---MW-S--------
 70
     0
 62
     7
  6
CONTINUOUS
  0
LAYER
  2
D42_B---MW----------
 70
     0
 62
     7
  6
CONTINUOUS
  0
LAYER
  2
D42_B---FASS--------
 70
     0
 62
     7
  6
CONTINUOUS
  0
LAYER
  2
D42_E---RASG--------
 70
     0
 62
     7
  6
CONTINUOUS
  0
LAYER
  2
CONSTRUCTION_CLASS
 70
     0
 62
     7
  6
CONTINUOUS
  0
LAYER
  2
PATTERN_CLASS
 70
     0
 62
     7
  6
CONTINUOUS
  0
LAYER
  2
KONSTRUKTION
 70
     0
 62
     7
  6
CONTINUOUS
  0
LAYER
  2
BEMAßUNG
 70
     0
 62
     7
  6
CONTINUOUS
  0
LAYER
  2
HILFSGEOMETRIE
 70
     0
 62
     7
  6
CONTINUOUS
  0
LAYER
  2
UNSICHTBAR
 70
     0
 62
     7
  6
CONTINUOUS
  0
LAYER
  2
LOGO
 70
     0
 62
     7
  6
CONTINUOUS
  0
LAYER
  2
VERWALTUNG
 70
     0
 62
     7
  6
CONTINUOUS
  0
LAYER
  2
UNSICHTBARE_GEWINDE
 70
     0
 62
     7
  6
CONTINUOUS
  0
LAYER
  2
SICHTBARE_GEWINDE
 70
     0
 62
     7
  6
CONTINUOUS
  0
LAYER
  2
DEFPOINTS
 70
     0
 62
     7
  6
CONTINUOUS
  0
LAYER
  2
THICK
 70
     0
 62
     7
  6
CONTINUOUS
  0
LAYER
  2
HIDDEN
 70
     0
 62
     7
  6
CONTINUOUS
  0
LAYER
  2
SCHRAFFURGRUNDRISS
 70
     0
 62
     7
  6
CONTINUOUS
  0
LAYER
  2
BEMASSUNG_GRUNDRISS
 70
     0
 62
     7
  6
CONTINUOUS
  0
LAYER
  2
STATIK
 70
     0
 62
     7
  6
CONTINUOUS
  0
LAYER
  2
TÜREN
 70
     0
 62
     7
  6
CONTINUOUS
  0
LAYER
  2
SANITÄR
 70
     0
 62
     7
  6
CONTINUOUS
  0
LAYER
  2
BEMASSUNG_GIPSKARTON
 70
     0
 62
     7
  6
CONTINUOUS
  0
LAYER
  2
EINRICHTUNGEN
 70
     0
 62
     7
  6
CONTINUOUS
  0
LAYER
  2
BECKEN
 70
     0
 62
     7
  6
CONTINUOUS
  0
LAYER
  2
BELEUCHTUNG
 70
     0
 62
     7
  6
CONTINUOUS
  0
LAYER
  2
BESCHRIFTUNGEN
 70
     0
 62
     7
  6
CONTINUOUS
  0
LAYER
  2
ELEKTRO_1__DOSEN_SCHALTER
 70
     0
 62
     7
  6
CONTINUOUS
  0
LAYER
  2
DEFAULT_1
 70
     0
 62
     7
  6
CONTINUOUS
  0
LAYER
  2
AM_0
 70
     0
 62
     7
  6
CONTINUOUS
  0
LAYER
  2
FRAME0_7
 70
     0
 62
     7
  6
CONTINUOUS
  0
LAYER
  2
AM_BOR
 70
     0
 62
     7
  6
CONTINUOUS
  0
LAYER
  2
RAHM2
 70
     0
 62
     7
  6
CONTINUOUS
  0
LAYER
  2
RAHM3
 70
     0
 62
     7
  6
CONTINUOUS
  0
LAYER
  2
FRAME0_5
 70
     0
 62
     7
  6
CONTINUOUS
  0
LAYER
  2
8
 70
     0
 62
     7
  6
CONTINUOUS
  0
LAYER
  2
AM_5
 70
     0
 62
     7
  6
CONTINUOUS
  0
LAYER
  2
AM_7
 70
     0
 62
     7
  6
CONTINUOUS
  0
LAYER
  2
HILFSLINIEN
 70
     0
 62
     7
  6
CONTINUOUS
  0
LAYER
  2
DRAWING_TEMPLATE
 70
     0
 62
     7
  6
CONTINUOUS
  0
LAYER
  2
TECHNOBOX_EXTERNALREFSYMBO
 70
     0
 62
     7
  6
CONTINUOUS
  0
LAYER
  2
TECHNOBOX_POLYCLIPSYMBOL_L
 70
     0
 62
     7
  6
CONTINUOUS
  0
LAYER
  2
100
 70
     0
 62
     7
  6
CONTINUOUS
  0
LAYER
  2
101
 70
     0
 62
     7
  6
CONTINUOUS
  0
LAYER
  2
KONTUR
 70
     0
 62
     7
  6
CONTINUOUS
  0
LAYER
  2
MITTELLINIE
 70
     0
 62
     7
  6
CONTINUOUS
  0
LAYER
  2
GESTRICHELT
 70
     0
 62
     7
  6
CONTINUOUS
  0
LAYER
  2
HILFSLINIE
 70
     0
 62
     7
  6
CONTINUOUS
  0
LAYER
  2
TEXT-25
 70
     0
 62
     7
  6
CONTINUOUS
  0
LAYER
  2
TEXT35
 70
     0
 62
     7
  6
CONTINUOUS
  0
LAYER
  2
TEXT-50
 70
     0
 62
     7
  6
CONTINUOUS
  0
LAYER
  2
TEXT-70
 70
     0
 62
     7
  6
CONTINUOUS
  0
LAYER
  2
ANSICHTSFENSTER
 70
     0
 62
     7
  6
CONTINUOUS
  0
LAYER
  2
KERA0
 70
     0
 62
     7
  6
CONTINUOUS
  0
LAYER
  2
KERA1
 70
     0
 62
     7
  6
CONTINUOUS
  0
LAYER
  2
KERA2
 70
     0
 62
     7
  6
CONTINUOUS
  0
LAYER
  2
KERA3
 70
     0
 62
     7
  6
CONTINUOUS
  0
LAYER
  2
KERA4
 70
     0
 62
     7
  6
CONTINUOUS
  0
LAYER
  2
KERA5
 70
     0
 62
     7
  6
CONTINUOUS
  0
LAYER
  2
KERA6
 70
     0
 62
     7
  6
CONTINUOUS
  0
LAYER
  2
KERA7
 70
     0
 62
     7
  6
CONTINUOUS
  0
LAYER
  2
20
 70
     0
 62
     7
  6
CONTINUOUS
  0
LAYER
  2
50
 70
     0
 62
     7
  6
CONTINUOUS
  0
LAYER
  2
FORMAT
 70
     0
 62
     7
  6
CONTINUOUS
  0
LAYER
  2
BECKEN_FUTURA_EBENE_1
 70
     0
 62
     7
  6
CONTINUOUS
  0
LAYER
  2
EBENE_1
 70
     0
 62
     7
  6
CONTINUOUS
  0
LAYER
  2
EBENE_2
 70
     0
 62
     7
  6
CONTINUOUS
  0
LAYER
  2
EBENE_5
 70
     0
 62
     7
  6
CONTINUOUS
  0
LAYER
  2
3
 70
     0
 62
     7
  6
CONTINUOUS
  0
LAYER
  2
GEB-KONTUR-A
 70
     0
 62
     7
  6
CONTINUOUS
  0
LAYER
  2
GEB-SYMETRIE
 70
     0
 62
     7
  6
CONTINUOUS
  0
LAYER
  2
GEB-ART-NR
 70
     0
 62
     7
  6
CONTINUOUS
  0
LAYER
  2
PROJECTION
 70
     0
 62
     7
  6
CONTINUOUS
  0
ENDTAB
  0
TABLE
  2
STYLE
 70
     3
  0
STYLE
  2
STANDARD
 70
     0
 40
0.0
 41
1.0
 50
0.0
 71
     0
 42
0.0
  3
txt
  4

  0
STYLE
  2
ANNOTATIVE
 70
     0
 40
0.0
 41
1.0
 50
0.0
 71
     0
 42
0.2
  3
txt
  4

  0
STYLE
  2
SIMPLEX
 70
     0
 40
0.0
 41
1.0
 50
0.0
 71
     0
 42
0.0
  3
simplex
  4

  0
ENDTAB
  0
TABLE
  2
VIEW
 70
     0
  0
ENDTAB
  0
TABLE
  2
UCS
 70
     0
  0
ENDTAB
  0
TABLE
  2
APPID
 70
     3
  0
APPID
  2
ACAD
 70
     0
  0
APPID
  2
ACADANNOTATIVE
 70
     0
  0
APPID
  2
ACAD_MLEADERVER
 70
     0
  0
ENDTAB
  0
TABLE
  2
DIMSTYLE
 70
     2
  0
DIMSTYLE
  2
STANDARD
 70
     0
  3

  4

  5

  6

  7

 40
1.0
 41
0.18
 42
0.0625
 43
0.38
 44
0.18
 45
0.0
 46
0.0
 47
0.0
 48
0.0
140
0.18
141
0.09
142
0.0
143
25.399999999999999
144
1.0
145
0.0
146
1.0
147
0.09
 71
     0
 72
     0
 73
     1
 74
     1
 75
     0
 76
     0
 77
     0
 78
     0
170
     0
171
     2
172
     0
173
     0
174
     0
175
     0
176
     0
177
     0
178
     0
  0
DIMSTYLE
  2
ANNOTATIVE
 70
     0
  3

  4

  5

  6

  7

 40
1.0
 41
0.18
 42
0.0625
 43
0.38
 44
0.18
 45
0.0
 46
0.0
 47
0.0
 48
0.0
140
0.18
141
0.09
142
0.0
143
25.399999999999999
144
1.0
145
0.0
146
1.0
147
0.09
 71
     0
 72
     0
 73
     1
 74
     1
 75
     0
 76
     0
 77
     0
 78
     0
170
     0
171
     2
172
     0
173
     0
174
     0
175
     0
176
     0
177
     0
178
     0
  0
ENDTAB
  0
ENDSEC
  0
SECTION
  2
BLOCKS
  0
BLOCK
  8
0
  2
$MODEL_SPACE
 70
     0
 10
0.0
 20
0.0
 30
0.0
  3
$MODEL_SPACE
  1

  0
ENDBLK
  5
76
  8
0
  0
BLOCK
 67
     1
  8
0
  2
$PAPER_SPACE
 70
     0
 10
0.0
 20
0.0
 30
0.0
  3
$PAPER_SPACE
  1

  0
ENDBLK
  5
72
 67
     1
  8
0
  0
BLOCK
  8
0
  2
*D0
 70
     1
 10
0.0
 20
0.0
 30
0.0
  3
*D0
  1

  0
LINE
  5
187
  8
LAYER01
 62
     7
 10
872.27821099999983
 20
1507.282336
 30
0.0
 11
1622.2782110000001
 21
1507.282336
 31
0.0
  0
LINE
  5
188
  8
LAYER01
 62
     7
 10
872.27821099999983
 20
1432.1502009999999
 30
0.0
 11
872.27821099999983
 21
1522.282336
 31
0.0
  0
LINE
  5
189
  8
LAYER01
 62
     7
 10
1622.2782110000001
 20
1432.1502009999999
 30
0.0
 11
1622.2782110000001
 21
1522.282336
 31
0.0
  0
SOLID
  5
18A
  8
LAYER01
 62
     7
 10
896.27821099999994
 20
1503.282496
 30
0.0
 11
872.27821099999983
 21
1507.282336
 31
0.0
 12
896.27821099999994
 22
1511.2821759999999
 32
0.0
 13
896.27821099999994
 23
1511.2821759999999
 33
0.0
  0
SOLID
  5
18B
  8
LAYER01
 62
     7
 10
1598.2782110000001
 20
1503.282496
 30
0.0
 11
1622.2782110000001
 21
1507.282336
 31
0.0
 12
1598.2782110000001
 22
1511.2821759999999
 32
0.0
 13
1598.2782110000001
 23
1511.2821759999999
 33
0.0
  0
TEXT
  5
18C
  8
LAYER01
  6
VERDECKT
 62
     7
 10
1223.2012130000001
 20
1522.282336
 30
0.0
 40
30.0
  1
250 - 750
  0
POINT
  5
18D
  8
LAYER01
 62
     7
 10
872.27821099999983
 20
1420.1502009999999
 30
0.0
  0
POINT
  5
18E
  8
LAYER01
 62
     7
 10
1622.2782110000001
 20
1420.1502009999999
 30
0.0
  0
POINT
  5
18F
  8
LAYER01
 62
     7
 10
1622.2782110000001
 20
1507.282336
 30
0.0
  0
ENDBLK
  5
190
  8
0
  0
BLOCK
  8
0
  2
*D1
 70
     1
 10
0.0
 20
0.0
 30
0.0
  3
*D1
  1

  0
LINE
  5
193
  8
LAYER01
 62
     7
 10
122.278211
 20
1618.0365260000001
 30
0.0
 11
1622.2782110000001
 21
1618.0365260000001
 31
0.0
  0
LINE
  5
194
  8
LAYER01
 62
     7
 10
122.278211
 20
1432.1502009999999
 30
0.0
 11
122.278211
 21
1633.0365260000001
 31
0.0
  0
LINE
  5
195
  8
LAYER01
 62
     7
 10
1622.2782110000001
 20
1432.1502009999999
 30
0.0
 11
1622.2782110000001
 21
1633.0365260000001
 31
0.0
  0
SOLID
  5
196
  8
LAYER01
 62
     7
 10
146.278211
 20
1614.0366859999999
 30
0.0
 11
122.278211
 21
1618.0365260000001
 31
0.0
 12
146.278211
 22
1622.036366
 32
0.0
 13
146.278211
 23
1622.036366
 33
0.0
  0
SOLID
  5
197
  8
LAYER01
 62
     7
 10
1598.2782110000001
 20
1614.0366859999999
 30
0.0
 11
1622.2782110000001
 21
1618.0365260000001
 31
0.0
 12
1598.2782110000001
 22
1622.036366
 32
0.0
 13
1598.2782110000001
 23
1622.036366
 33
0.0
  0
TEXT
  5
198
  8
LAYER01
  6
VERDECKT
 62
     7
 10
840.17554700000005
 20
1633.0365260000001
 30
0.0
 40
30.0
  1
500 - 1500
  0
POINT
  5
199
  8
LAYER01
 62
     7
 10
122.278211
 20
1420.1502009999999
 30
0.0
  0
POINT
  5
19A
  8
LAYER01
 62
     7
 10
1622.2782110000001
 20
1420.1502009999999
 30
0.0
  0
POINT
  5
19B
  8
LAYER01
 62
     7
 10
1622.2782110000001
 20
1618.0365260000001
 30
0.0
  0
ENDBLK
  5
19C
  8
0
  0
BLOCK
  8
0
  2
*D2
 70
     1
 10
0.0
 20
0.0
 30
0.0
  3
*D2
  1

  0
LINE
  5
19F
  8
LAYER01
 62
     7
 10
1637.2782110000001
 20
-85.090289999999996
 30
0.0
 11
1287.2782110000001
 21
-85.090289999999996
 31
0.0
  0
LINE
  5
1A0
  8
LAYER01
 62
     7
 10
1637.2782110000001
 20
-34.370911999999997
 30
0.0
 11
1637.2782110000001
 21
-100.09029
 31
0.0
  0
LINE
  5
1A1
  8
LAYER01
 62
     7
 10
1287.2782110000001
 20
-34.370911999999997
 30
0.0
 11
1287.2782110000001
 21
-100.09029
 31
0.0
  0
SOLID
  5
1A2
  8
LAYER01
 62
     7
 10
1613.2782110000001
 20
-81.090450000000004
 30
0.0
 11
1637.2782110000001
 21
-85.090289999999996
 31
0.0
 12
1613.2782110000001
 22
-89.090129999999988
 32
0.0
 13
1613.2782110000001
 23
-89.090129999999988
 33
0.0
  0
SOLID
  5
1A3
  8
LAYER01
 62
     7
 10
1311.2782110000001
 20
-81.090450000000004
 30
0.0
 11
1287.2782110000001
 21
-85.090289999999996
 31
0.0
 12
1311.2782110000001
 22
-89.090129999999988
 32
0.0
 13
1311.2782110000001
 23
-89.090129999999988
 33
0.0
  0
TEXT
  5
1A4
  8
LAYER01
  6
VERDECKT
 62
     7
 10
1438.2012130000001
 20
-70.090289999999996
 30
0.0
 40
30.0
  1
350
  0
POINT
  5
1A5
  8
LAYER01
 62
     7
 10
1637.2782110000001
 20
-22.370912000000001
 30
0.0
  0
POINT
  5
1A6
  8
LAYER01
 62
     7
 10
1287.2782110000001
 20
-22.370912000000001
 30
0.0
  0
POINT
  5
1A7
  8
LAYER01
 62
     7
 10
1287.2782110000001
 20
-85.090289999999996
 30
0.0
  0
ENDBLK
  5
1A8
  8
0
  0
BLOCK
  8
0
  2
*D3
 70
     1
 10
0.0
 20
0.0
 30
0.0
  3
*D3
  1

  0
LINE
  5
1AB
  8
LAYER01
 62
     7
 10
2132.2782109999998
 20
419.00202899999988
 30
0.0
 11
122.278211
 21
419.00202899999988
 31
0.0
  0
LINE
  5
1AC
  8
LAYER01
 62
     7
 10
2132.2782109999998
 20
243.629088
 30
0.0
 11
2132.2782109999998
 21
434.00202899999999
 31
0.0
  0
LINE
  5
1AD
  8
LAYER01
 62
     7
 10
122.278211
 20
243.629088
 30
0.0
 11
122.278211
 21
434.00202899999999
 31
0.0
  0
SOLID
  5
1AE
  8
LAYER01
 62
     7
 10
2108.2782109999998
 20
423.001869
 30
0.0
 11
2132.2782109999998
 21
419.00202899999988
 31
0.0
 12
2108.2782109999998
 22
415.00218899999987
 32
0.0
 13
2108.2782109999998
 23
415.00218899999987
 33
0.0
  0
SOLID
  5
1AF
  8
LAYER01
 62
     7
 10
146.278211
 20
423.001869
 30
0.0
 11
122.278211
 21
419.00202899999988
 31
0.0
 12
146.278211
 22
415.00218899999987
 32
0.0
 13
146.278211
 23
415.00218899999987
 33
0.0
  0
TEXT
  5
1B0
  8
LAYER01
  6
CONTINUOUS
 62
     7
 10
1095.1755470000001
 20
434.00202899999999
 30
0.0
 40
30.0
  1
1000 - 3000
  0
POINT
  5
1B1
  8
LAYER01
 62
     7
 10
2132.2782109999998
 20
231.629088
 30
0.0
  0
POINT
  5
1B2
  8
LAYER01
 62
     7
 10
122.278211
 20
231.629088
 30
0.0
  0
POINT
  5
1B3
  8
LAYER01
 62
     7
 10
122.278211
 20
419.00202899999988
 30
0.0
  0
ENDBLK
  5
1B4
  8
0
  0
BLOCK
  8
0
  2
*D4
 70
     1
 10
0.0
 20
0.0
 30
0.0
  3
*D4
  1

  0
LINE
  5
1B7
  8
LAYER01
 62
     7
 10
1462.2782110000001
 20
316.177234
 30
0.0
 11
2132.2782109999998
 21
316.177234
 31
0.0
  0
LINE
  5
1B8
  8
LAYER01
 62
     7
 10
1462.2782110000001
 20
243.629088
 30
0.0
 11
1462.2782110000001
 21
331.177234
 31
0.0
  0
LINE
  5
1B9
  8
LAYER01
 62
     7
 10
2132.2782109999998
 20
243.629088
 30
0.0
 11
2132.2782109999998
 21
331.177234
 31
0.0
  0
SOLID
  5
1BA
  8
LAYER01
 62
     7
 10
1486.2782110000001
 20
312.17739399999999
 30
0.0
 11
1462.2782110000001
 21
316.177234
 31
0.0
 12
1486.2782110000001
 22
320.177074
 32
0.0
 13
1486.2782110000001
 23
320.177074
 33
0.0
  0
SOLID
  5
1BB
  8
LAYER01
 62
     7
 10
2108.2782109999998
 20
312.17739399999999
 30
0.0
 11
2132.2782109999998
 21
316.177234
 31
0.0
 12
2108.2782109999998
 22
320.177074
 32
0.0
 13
2108.2782109999998
 23
320.177074
 33
0.0
  0
TEXT
  5
1BC
  8
LAYER01
  6
VERDECKT
 62
     7
 10
1773.4789410000001
 20
331.177234
 30
0.0
 40
30.0
  1
B=250 - 750
  0
POINT
  5
1BD
  8
LAYER01
 62
     7
 10
1462.2782110000001
 20
231.629088
 30
0.0
  0
POINT
  5
1BE
  8
LAYER01
 62
     7
 10
2132.2782109999998
 20
231.629088
 30
0.0
  0
POINT
  5
1BF
  8
LAYER01
 62
     7
 10
2132.2782109999998
 20
316.177234
 30
0.0
  0
ENDBLK
  5
1C0
  8
0
  0
BLOCK
  8
0
  2
*D5
 70
     1
 10
0.0
 20
0.0
 30
0.0
  3
*D5
  1

  0
LINE
  5
1C3
  8
LAYER01
 62
     7
 10
122.278211
 20
317.61961400000001
 30
0.0
 11
792.27821100000006
 21
317.61961400000001
 31
0.0
  0
LINE
  5
1C4
  8
LAYER01
 62
     7
 10
122.278211
 20
243.629088
 30
0.0
 11
122.278211
 21
332.61961400000001
 31
0.0
  0
LINE
  5
1C5
  8
LAYER01
 62
     7
 10
792.27821100000006
 20
243.629088
 30
0.0
 11
792.27821100000006
 21
332.61961400000001
 31
0.0
  0
SOLID
  5
1C6
  8
LAYER01
 62
     7
 10
146.278211
 20
313.61977400000001
 30
0.0
 11
122.278211
 21
317.61961400000001
 31
0.0
 12
146.278211
 22
321.61945400000002
 32
0.0
 13
146.278211
 23
321.61945400000002
 33
0.0
  0
SOLID
  5
1C7
  8
LAYER01
 62
     7
 10
768.27821100000006
 20
313.61977400000001
 30
0.0
 11
792.27821100000006
 21
317.61961400000001
 31
0.0
 12
768.27821100000006
 22
321.61945400000002
 32
0.0
 13
768.27821100000006
 23
321.61945400000002
 33
0.0
  0
TEXT
  5
1C8
  8
LAYER01
  6
VERDECKT
 62
     7
 10
433.47894099999991
 20
332.61961400000001
 30
0.0
 40
30.0
  1
A=250 - 750
  0
POINT
  5
1C9
  8
LAYER01
 62
     7
 10
122.278211
 20
231.629088
 30
0.0
  0
POINT
  5
1CA
  8
LAYER01
 62
     7
 10
792.27821100000006
 20
231.629088
 30
0.0
  0
POINT
  5
1CB
  8
LAYER01
 62
     7
 10
792.27821100000006
 20
317.61961400000001
 30
0.0
  0
ENDBLK
  5
1CC
  8
0
  0
BLOCK
  8
0
  2
CUADRA-G7
 70
     0
 10
0.0
 20
0.0
 30
0.0
  3
CUADRA-G7
  1

  0
LINE
  5
1CF
  8
LAYER01
  6
CONTINUOUS
 62
     7
 10
286.73077599999999
 20
197.999032
 30
0.0
 11
246.73077599999999
 21
157.999032
 31
0.0
  0
LINE
  5
1D0
  8
LAYER01
  6
CONTINUOUS
 62
     7
 10
306.73077599999999
 20
197.999032
 30
0.0
 11
266.73077599999999
 21
157.999032
 31
0.0
  0
LINE
  5
1D1
  8
LAYER01
  6
CONTINUOUS
 62
     7
 10
246.73077599999999
 20
31.203443
 30
0.0
 11
266.73077599999999
 21
-68.838222999999999
 31
0.0
  0
LINE
  5
1D2
  8
LAYER01
  6
CONTINUOUS
 62
     7
 10
266.73077599999999
 20
31.203443
 30
0.0
 11
286.73077599999999
 21
-68.838222999999999
 31
0.0
  0
LINE
  5
1D3
  8
LAYER01
  6
CONTINUOUS
 62
     7
 10
246.73077599999999
 20
157.999032
 30
0.0
 11
267.85603900000001
 21
52.328705999999997
 31
0.0
  0
LINE
  5
1D4
  8
LAYER01
  6
CONTINUOUS
 62
     7
 10
267.85603900000001
 20
52.328705999999997
 30
0.0
 11
246.73077599999999
 21
31.203443
 31
0.0
  0
LINE
  5
1D5
  8
LAYER01
  6
CONTINUOUS
 62
     7
 10
287.85603900000001
 20
52.328705999999997
 30
0.0
 11
266.73077599999999
 21
31.203443
 31
0.0
  0
LINE
  5
1D6
  8
LAYER01
  6
CONTINUOUS
 62
     7
 10
266.73077599999999
 20
157.999032
 30
0.0
 11
287.85603900000001
 21
52.328705999999997
 31
0.0
  0
LINE
  5
1D7
  8
LAYER01
  6
CONTINUOUS
 62
     7
 10
273.45733799999999
 20
264.39387599999998
 30
0.0
 11
286.73077599999999
 21
197.999032
 31
0.0
  0
LINE
  5
1D8
  8
LAYER01
  6
CONTINUOUS
 62
     7
 10
292.79724399999998
 20
267.69571999999999
 30
0.0
 11
306.73077599999999
 21
197.999032
 31
0.0
  0
ENDBLK
  5
1D9
  8
0
  0
BLOCK
  8
0
  2
*D7
 70
     1
 10
0.0
 20
0.0
 30
0.0
  3
*D7
  1

  0
LINE
  5
1DC
  8
LAYER01
 62
     7
 10
78.014323000000005
 20
-10.370912000000001
 30
0.0
 11
78.014323000000005
 21
219.629088
 31
0.0
  0
LINE
  5
1DD
  8
LAYER01
 62
     7
 10
110.278211
 20
-10.370912000000001
 30
0.0
 11
63.014322999999997
 21
-10.370912000000001
 31
0.0
  0
LINE
  5
1DE
  8
LAYER01
 62
     7
 10
110.278211
 20
219.629088
 30
0.0
 11
63.014322999999997
 21
219.629088
 31
0.0
  0
SOLID
  5
1DF
  8
LAYER01
 62
     7
 10
82.014162999999996
 20
13.629087999999999
 30
0.0
 11
78.014323000000005
 21
-10.370912000000001
 31
0.0
 12
74.014482999999998
 22
13.629087999999999
 32
0.0
 13
74.014482999999998
 23
13.629087999999999
 33
0.0
  0
SOLID
  5
1E0
  8
LAYER01
 62
     7
 10
82.014162999999996
 20
195.629088
 30
0.0
 11
78.014323000000005
 21
219.629088
 31
0.0
 12
74.014482999999998
 22
195.629088
 32
0.0
 13
74.014482999999998
 23
195.629088
 33
0.0
  0
TEXT
  5
1E1
  8
LAYER01
  6
VERDECKT
 62
     7
 10
63.014322999999997
 20
82.259523000000016
 30
0.0
 40
30.0
  1
230
 50
90.0
  0
POINT
  5
1E2
  8
LAYER01
 62
     7
 10
122.278211
 20
-10.370912000000001
 30
0.0
  0
POINT
  5
1E3
  8
LAYER01
 62
     7
 10
122.278211
 20
219.629088
 30
0.0
  0
POINT
  5
1E4
  8
LAYER01
 62
     7
 10
78.014323000000005
 20
219.629088
 30
0.0
  0
ENDBLK
  5
1E5
  8
0
  0
BLOCK
  8
0
  2
*D8
 70
     1
 10
0.0
 20
0.0
 30
0.0
  3
*D8
  1

  0
LINE
  5
1E8
  8
LAYER01
 62
     7
 10
34.207259000000001
 20
-22.370912000000001
 30
0.0
 11
34.207259000000001
 21
231.629088
 31
0.0
  0
LINE
  5
1E9
  8
LAYER01
 62
     7
 10
110.278211
 20
-22.370912000000001
 30
0.0
 11
19.207259000000001
 21
-22.370912000000001
 31
0.0
  0
LINE
  5
1EA
  8
LAYER01
 62
     7
 10
110.278211
 20
231.629088
 30
0.0
 11
19.207259000000001
 21
231.629088
 31
0.0
  0
SOLID
  5
1EB
  8
LAYER01
 62
     7
 10
38.207098999999999
 20
1.629087999999999
 30
0.0
 11
34.207259000000001
 21
-22.370912000000001
 31
0.0
 12
30.207419000000002
 22
1.629087999999999
 32
0.0
 13
30.207419000000002
 23
1.629087999999999
 33
0.0
  0
SOLID
  5
1EC
  8
LAYER01
 62
     7
 10
38.207098999999999
 20
207.629088
 30
0.0
 11
34.207259000000001
 21
231.629088
 31
0.0
 12
30.207419000000002
 22
207.629088
 32
0.0
 13
30.207419000000002
 23
207.629088
 33
0.0
  0
TEXT
  5
1ED
  8
LAYER01
  6
VERDECKT
 62
     7
 10
19.207259000000001
 20
82.259523000000016
 30
0.0
 40
30.0
  1
254
 50
90.0
  0
POINT
  5
1EE
  8
LAYER01
 62
     7
 10
122.278211
 20
-22.370912000000001
 30
0.0
  0
POINT
  5
1EF
  8
LAYER01
 62
     7
 10
122.278211
 20
231.629088
 30
0.0
  0
POINT
  5
1F0
  8
LAYER01
 62
     7
 10
34.207259000000001
 20
231.629088
 30
0.0
  0
ENDBLK
  5
1F1
  8
0
  0
BLOCK
  8
0
  2
*D9
 70
     1
 10
0.0
 20
0.0
 30
0.0
  3
*D9
  1

  0
LINE
  5
1F4
  8
LAYER01
 62
     7
 10
967.27821099999994
 20
-85.090289999999996
 30
0.0
 11
617.27821100000006
 21
-85.090289999999996
 31
0.0
  0
LINE
  5
1F5
  8
LAYER01
 62
     7
 10
967.27821099999994
 20
-34.370911999999997
 30
0.0
 11
967.27821099999994
 21
-100.09029
 31
0.0
  0
LINE
  5
1F6
  8
LAYER01
 62
     7
 10
617.27821100000006
 20
-34.370911999999997
 30
0.0
 11
617.27821100000006
 21
-100.09029
 31
0.0
  0
SOLID
  5
1F7
  8
LAYER01
 62
     7
 10
943.27821099999994
 20
-81.090450000000004
 30
0.0
 11
967.27821099999994
 21
-85.090289999999996
 31
0.0
 12
943.27821099999994
 22
-89.090129999999988
 32
0.0
 13
943.27821099999994
 23
-89.090129999999988
 33
0.0
  0
SOLID
  5
1F8
  8
LAYER01
 62
     7
 10
641.27821100000006
 20
-81.090450000000004
 30
0.0
 11
617.27821100000006
 21
-85.090289999999996
 31
0.0
 12
641.27821100000006
 22
-89.090129999999988
 32
0.0
 13
641.27821100000006
 23
-89.090129999999988
 33
0.0
  0
TEXT
  5
1F9
  8
LAYER01
  6
VERDECKT
 62
     7
 10
768.20121299999994
 20
-70.090289999999996
 30
0.0
 40
30.0
  1
350
  0
POINT
  5
1FA
  8
LAYER01
 62
     7
 10
967.27821099999994
 20
-22.370912000000001
 30
0.0
  0
POINT
  5
1FB
  8
LAYER01
 62
     7
 10
617.27821100000006
 20
-22.370912000000001
 30
0.0
  0
POINT
  5
1FC
  8
LAYER01
 62
     7
 10
617.27821100000006
 20
-85.090289999999996
 30
0.0
  0
ENDBLK
  5
1FD
  8
0
  0
BLOCK
  8
0
  2
CUADRA-G11
 70
     0
 10
0.0
 20
0.0
 30
0.0
  3
CUADRA-G11
  1

  0
LINE
  5
200
  8
LAYER01
  6
CONTINUOUS
 62
     7
 10
1131.892509
 20
197.999032
 30
0.0
 11
1091.892509
 21
157.999032
 31
0.0
  0
LINE
  5
201
  8
LAYER01
  6
CONTINUOUS
 62
     7
 10
1151.892509
 20
197.999032
 30
0.0
 11
1111.892509
 21
157.999032
 31
0.0
  0
LINE
  5
202
  8
LAYER01
  6
CONTINUOUS
 62
     7
 10
1091.892509
 20
31.203443
 30
0.0
 11
1111.892509
 21
-68.838222999999999
 31
0.0
  0
LINE
  5
203
  8
LAYER01
  6
CONTINUOUS
 62
     7
 10
1111.892509
 20
31.203443
 30
0.0
 11
1131.892509
 21
-68.838222999999999
 31
0.0
  0
LINE
  5
204
  8
LAYER01
  6
CONTINUOUS
 62
     7
 10
1091.892509
 20
157.999032
 30
0.0
 11
1113.0177719999999
 21
52.328705999999997
 31
0.0
  0
LINE
  5
205
  8
LAYER01
  6
CONTINUOUS
 62
     7
 10
1113.0177719999999
 20
52.328705999999997
 30
0.0
 11
1091.892509
 21
31.203443
 31
0.0
  0
LINE
  5
206
  8
LAYER01
  6
CONTINUOUS
 62
     7
 10
1133.0177719999999
 20
52.328705999999997
 30
0.0
 11
1111.892509
 21
31.203443
 31
0.0
  0
LINE
  5
207
  8
LAYER01
  6
CONTINUOUS
 62
     7
 10
1111.892509
 20
157.999032
 30
0.0
 11
1133.0177719999999
 21
52.328705999999997
 31
0.0
  0
LINE
  5
208
  8
LAYER01
  6
CONTINUOUS
 62
     7
 10
1118.6190710000001
 20
264.39387599999998
 30
0.0
 11
1131.892509
 21
197.999032
 31
0.0
  0
LINE
  5
209
  8
LAYER01
  6
CONTINUOUS
 62
     7
 10
1137.958977
 20
267.69571999999999
 30
0.0
 11
1151.892509
 21
197.999032
 31
0.0
  0
ENDBLK
  5
20A
  8
0
  0
BLOCK
  8
0
  2
*D11
 70
     1
 10
0.0
 20
0.0
 30
0.0
  3
*D11
  1

  0
LINE
  5
20D
  8
LAYER01
 62
     7
 10
792.27821100000006
 20
317.787418
 30
0.0
 11
1462.2782110000001
 21
317.787418
 31
0.0
  0
LINE
  5
20E
  8
LAYER01
 62
     7
 10
792.27821100000006
 20
243.629088
 30
0.0
 11
792.27821100000006
 21
332.787418
 31
0.0
  0
LINE
  5
20F
  8
LAYER01
 62
     7
 10
1462.2782110000001
 20
243.629088
 30
0.0
 11
1462.2782110000001
 21
332.787418
 31
0.0
  0
SOLID
  5
210
  8
LAYER01
 62
     7
 10
816.27821100000006
 20
313.787578
 30
0.0
 11
792.27821100000006
 21
317.787418
 31
0.0
 12
816.27821100000006
 22
321.78725800000001
 32
0.0
 13
816.27821100000006
 23
321.78725800000001
 33
0.0
  0
SOLID
  5
211
  8
LAYER01
 62
     7
 10
1438.2782110000001
 20
313.787578
 30
0.0
 11
1462.2782110000001
 21
317.787418
 31
0.0
 12
1438.2782110000001
 22
321.78725800000001
 32
0.0
 13
1438.2782110000001
 23
321.78725800000001
 33
0.0
  0
TEXT
  5
212
  8
LAYER01
  6
VERDECKT
 62
     7
 10
1104.756071
 20
332.787418
 30
0.0
 40
30.0
  1
C=500 - 15000
  0
POINT
  5
213
  8
LAYER01
 62
     7
 10
792.27821100000006
 20
231.629088
 30
0.0
  0
POINT
  5
214
  8
LAYER01
 62
     7
 10
1462.2782110000001
 20
231.629088
 30
0.0
  0
POINT
  5
215
  8
LAYER01
 62
     7
 10
1462.2782110000001
 20
317.787418
 30
0.0
  0
ENDBLK
  5
216
  8
0
  0
BLOCK
  8
0
  2
CUADRA-G13
 70
     0
 10
0.0
 20
0.0
 30
0.0
  3
CUADRA-G13
  1

  0
LINE
  5
219
  8
0
  6
CONTINUOUS
 62
   255
 10
792.27821100000006
 20
104.629088
 30
0.0
 11
792.27821100000006
 21
107.129088
 31
0.0
  0
LINE
  5
21A
  8
0
  6
CONTINUOUS
 62
   255
 10
792.27821100000006
 20
104.629088
 30
0.0
 11
789.77821100000006
 21
104.629088
 31
0.0
  0
LINE
  5
21B
  8
0
  6
CONTINUOUS
 62
   255
 10
792.27821100000006
 20
104.629088
 30
0.0
 11
792.27821100000006
 21
102.129088
 31
0.0
  0
LINE
  5
21C
  8
0
  6
CONTINUOUS
 62
   255
 10
792.27821100000006
 20
104.629088
 30
0.0
 11
794.77821100000006
 21
104.629088
 31
0.0
  0
LINE
  5
21D
  8
0
  6
CONTINUOUS
 62
   255
 10
792.27821100000006
 20
109.629088
 30
0.0
 11
792.27821100000006
 21
142.879088
 31
0.0
  0
LINE
  5
21E
  8
0
  6
CONTINUOUS
 62
   255
 10
787.27821100000006
 20
104.629088
 30
0.0
 11
754.02821100000006
 21
104.629088
 31
0.0
  0
LINE
  5
21F
  8
0
  6
CONTINUOUS
 62
   255
 10
792.27821100000006
 20
99.62908800000001
 30
0.0
 11
792.27821100000006
 21
66.379087999999996
 31
0.0
  0
LINE
  5
220
  8
0
  6
CONTINUOUS
 62
   255
 10
797.27821100000006
 20
104.629088
 30
0.0
 11
830.52821100000006
 21
104.629088
 31
0.0
  0
ENDBLK
  5
221
  8
0
  0
BLOCK
  8
0
  2
CUADRA-G14
 70
     0
 10
0.0
 20
0.0
 30
0.0
  3
CUADRA-G14
  1

  0
LINE
  5
224
  8
0
  6
CONTINUOUS
 62
   255
 10
1462.2782110000001
 20
104.629088
 30
0.0
 11
1462.2782110000001
 21
107.129088
 31
0.0
  0
LINE
  5
225
  8
0
  6
CONTINUOUS
 62
   255
 10
1462.2782110000001
 20
104.629088
 30
0.0
 11
1459.7782110000001
 21
104.629088
 31
0.0
  0
LINE
  5
226
  8
0
  6
CONTINUOUS
 62
   255
 10
1462.2782110000001
 20
104.629088
 30
0.0
 11
1462.2782110000001
 21
102.129088
 31
0.0
  0
LINE
  5
227
  8
0
  6
CONTINUOUS
 62
   255
 10
1462.2782110000001
 20
104.629088
 30
0.0
 11
1464.7782110000001
 21
104.629088
 31
0.0
  0
LINE
  5
228
  8
0
  6
CONTINUOUS
 62
   255
 10
1462.2782110000001
 20
109.629088
 30
0.0
 11
1462.2782110000001
 21
142.879088
 31
0.0
  0
LINE
  5
229
  8
0
  6
CONTINUOUS
 62
   255
 10
1457.2782110000001
 20
104.629088
 30
0.0
 11
1424.0282110000001
 21
104.629088
 31
0.0
  0
LINE
  5
22A
  8
0
  6
CONTINUOUS
 62
   255
 10
1462.2782110000001
 20
99.62908800000001
 30
0.0
 11
1462.2782110000001
 21
66.379087999999996
 31
0.0
  0
LINE
  5
22B
  8
0
  6
CONTINUOUS
 62
   255
 10
1467.2782110000001
 20
104.629088
 30
0.0
 11
1500.5282109999989
 21
104.629088
 31
0.0
  0
ENDBLK
  5
22C
  8
0
  0
BLOCK
  8
0
  2
*D14
 70
     1
 10
0.0
 20
0.0
 30
0.0
  3
*D14
  1

  0
LINE
  5
22F
  8
LAYER01
 62
     7
 10
122.278211
 20
1507.282336
 30
0.0
 11
872.27821099999983
 21
1507.282336
 31
0.0
  0
LINE
  5
230
  8
LAYER01
 62
     7
 10
122.278211
 20
1432.1502009999999
 30
0.0
 11
122.278211
 21
1522.282336
 31
0.0
  0
LINE
  5
231
  8
LAYER01
 62
     7
 10
872.27821099999983
 20
1432.1502009999999
 30
0.0
 11
872.27821099999983
 21
1522.282336
 31
0.0
  0
SOLID
  5
232
  8
LAYER01
 62
     7
 10
146.278211
 20
1503.282496
 30
0.0
 11
122.278211
 21
1507.282336
 31
0.0
 12
146.278211
 22
1511.2821759999999
 32
0.0
 13
146.278211
 23
1511.2821759999999
 33
0.0
  0
SOLID
  5
233
  8
LAYER01
 62
     7
 10
848.27821099999983
 20
1503.282496
 30
0.0
 11
872.27821099999983
 21
1507.282336
 31
0.0
 12
848.27821099999983
 22
1511.2821759999999
 32
0.0
 13
848.27821099999983
 23
1511.2821759999999
 33
0.0
  0
TEXT
  5
234
  8
LAYER01
  6
VERDECKT
 62
     7
 10
473.201213
 20
1522.282336
 30
0.0
 40
30.0
  1
250 - 750
  0
POINT
  5
235
  8
LAYER01
 62
     7
 10
122.278211
 20
1420.1502009999999
 30
0.0
  0
POINT
  5
236
  8
LAYER01
 62
     7
 10
872.27821099999983
 20
1420.1502009999999
 30
0.0
  0
POINT
  5
237
  8
LAYER01
 62
     7
 10
872.27821099999983
 20
1507.282336
 30
0.0
  0
ENDBLK
  5
238
  8
0
  0
BLOCK
  8
0
  2
*D15
 70
     1
 10
0.0
 20
0.0
 30
0.0
  3
*D15
  1

  0
LINE
  5
23B
  8
LAYER01
 62
     7
 10
77.883363000000003
 20
854.72697200000005
 30
0.0
 11
77.883363000000003
 21
934.72697199999993
 31
0.0
  0
LINE
  5
23C
  8
LAYER01
 62
     7
 10
110.278211
 20
854.72697200000005
 30
0.0
 11
62.883363000000003
 21
854.72697200000005
 31
0.0
  0
LINE
  5
23D
  8
LAYER01
 62
     7
 10
110.278211
 20
934.72697199999993
 30
0.0
 11
62.883363000000003
 21
934.72697199999993
 31
0.0
  0
SOLID
  5
23E
  8
LAYER01
 62
     7
 10
81.883202999999995
 20
878.72697200000005
 30
0.0
 11
77.883363000000003
 21
854.72697200000005
 31
0.0
 12
73.883522999999997
 22
878.72697200000005
 32
0.0
 13
73.883522999999997
 23
878.72697200000005
 33
0.0
  0
SOLID
  5
23F
  8
LAYER01
 62
     7
 10
81.883202999999995
 20
910.72697200000005
 30
0.0
 11
77.883363000000003
 21
934.72697199999993
 31
0.0
 12
73.883522999999997
 22
910.72697200000005
 32
0.0
 13
73.883522999999997
 23
910.72697200000005
 33
0.0
  0
TEXT
  5
240
  8
LAYER01
  6
VERDECKT
 62
     7
 10
62.883363000000003
 20
878.67563999999993
 30
0.0
 40
30.0
  1
80
 50
90.0
  0
POINT
  5
241
  8
LAYER01
 62
     7
 10
122.278211
 20
854.72697200000005
 30
0.0
  0
POINT
  5
242
  8
LAYER01
 62
     7
 10
122.278211
 20
934.72697199999993
 30
0.0
  0
POINT
  5
243
  8
LAYER01
 62
     7
 10
77.883363000000003
 20
934.72697199999993
 30
0.0
  0
ENDBLK
  5
244
  8
0
  0
BLOCK
  8
0
  2
*D16
 70
     1
 10
0.0
 20
0.0
 30
0.0
  3
*D16
  1

  0
LINE
  5
247
  8
LAYER01
 62
     7
 10
34.544767
 20
934.72697199999993
 30
0.0
 11
34.544767
 21
886.72697200000005
 31
0.0
  0
LINE
  5
248
  8
LAYER01
 62
     7
 10
34.544767
 20
939.72697200000005
 30
0.0
 11
34.544767
 21
987.72697200000005
 31
0.0
  0
LINE
  5
249
  8
LAYER01
 62
     7
 10
110.278211
 20
934.72697199999993
 30
0.0
 11
19.544767
 21
934.72697199999993
 31
0.0
  0
LINE
  5
24A
  8
LAYER01
 62
     7
 10
110.278211
 20
939.72697200000005
 30
0.0
 11
19.544767
 21
939.72697200000005
 31
0.0
  0
SOLID
  5
24B
  8
LAYER01
 62
     7
 10
38.544606999999999
 20
910.72697200000005
 30
0.0
 11
34.544767
 21
934.72697199999993
 31
0.0
 12
30.544927000000001
 22
910.72697200000005
 32
0.0
 13
30.544927000000001
 23
910.72697200000005
 33
0.0
  0
SOLID
  5
24C
  8
LAYER01
 62
     7
 10
38.544606999999999
 20
963.72697200000005
 30
0.0
 11
34.544767
 21
939.72697200000005
 31
0.0
 12
30.544927000000001
 22
963.72697200000005
 32
0.0
 13
30.544927000000001
 23
963.72697200000005
 33
0.0
  0
TEXT
  5
24D
  8
LAYER01
  6
VERDECKT
 62
     7
 10
19.544767
 20
1002.726972
 30
0.0
 40
30.0
  1
5
 50
90.0
  0
POINT
  5
24E
  8
LAYER01
 62
     7
 10
122.278211
 20
934.72697199999993
 30
0.0
  0
POINT
  5
24F
  8
LAYER01
 62
     7
 10
122.278211
 20
939.72697200000005
 30
0.0
  0
POINT
  5
250
  8
LAYER01
 62
     7
 10
34.544767
 20
939.72697200000005
 30
0.0
  0
ENDBLK
  5
251
  8
0
  0
BLOCK
  8
0
  2
*D17
 70
     1
 10
0.0
 20
0.0
 30
0.0
  3
*D17
  1

  0
LINE
  5
254
  8
LAYER01
 62
     7
 10
78.014323000000005
 20
1178.1502009999999
 30
0.0
 11
78.014323000000005
 21
1408.1502009999999
 31
0.0
  0
LINE
  5
255
  8
LAYER01
 62
     7
 10
110.278211
 20
1178.1502009999999
 30
0.0
 11
63.014322999999997
 21
1178.1502009999999
 31
0.0
  0
LINE
  5
256
  8
LAYER01
 62
     7
 10
110.278211
 20
1408.1502009999999
 30
0.0
 11
63.014322999999997
 21
1408.1502009999999
 31
0.0
  0
SOLID
  5
257
  8
LAYER01
 62
     7
 10
82.014162999999996
 20
1202.1502009999999
 30
0.0
 11
78.014323000000005
 21
1178.1502009999999
 31
0.0
 12
74.014482999999998
 22
1202.1502009999999
 32
0.0
 13
74.014482999999998
 23
1202.1502009999999
 33
0.0
  0
SOLID
  5
258
  8
LAYER01
 62
     7
 10
82.014162999999996
 20
1384.1502009999999
 30
0.0
 11
78.014323000000005
 21
1408.1502009999999
 31
0.0
 12
74.014482999999998
 22
1384.1502009999999
 32
0.0
 13
74.014482999999998
 23
1384.1502009999999
 33
0.0
  0
TEXT
  5
259
  8
LAYER01
  6
VERDECKT
 62
     7
 10
63.014322999999997
 20
1270.780636
 30
0.0
 40
30.0
  1
230
 50
90.0
  0
POINT
  5
25A
  8
LAYER01
 62
     7
 10
122.278211
 20
1178.1502009999999
 30
0.0
  0
POINT
  5
25B
  8
LAYER01
 62
     7
 10
122.278211
 20
1408.1502009999999
 30
0.0
  0
POINT
  5
25C
  8
LAYER01
 62
     7
 10
78.014323000000005
 20
1408.1502009999999
 30
0.0
  0
ENDBLK
  5
25D
  8
0
  0
BLOCK
  8
0
  2
*D18
 70
     1
 10
0.0
 20
0.0
 30
0.0
  3
*D18
  1

  0
LINE
  5
260
  8
LAYER01
 62
     7
 10
34.207259000000001
 20
1166.1502009999999
 30
0.0
 11
34.207259000000001
 21
1420.1502009999999
 31
0.0
  0
LINE
  5
261
  8
LAYER01
 62
     7
 10
110.278211
 20
1166.1502009999999
 30
0.0
 11
19.207259000000001
 21
1166.1502009999999
 31
0.0
  0
LINE
  5
262
  8
LAYER01
 62
     7
 10
110.278211
 20
1420.1502009999999
 30
0.0
 11
19.207259000000001
 21
1420.1502009999999
 31
0.0
  0
SOLID
  5
263
  8
LAYER01
 62
     7
 10
38.207098999999999
 20
1190.1502009999999
 30
0.0
 11
34.207259000000001
 21
1166.1502009999999
 31
0.0
 12
30.207419000000002
 22
1190.1502009999999
 32
0.0
 13
30.207419000000002
 23
1190.1502009999999
 33
0.0
  0
SOLID
  5
264
  8
LAYER01
 62
     7
 10
38.207098999999999
 20
1396.1502009999999
 30
0.0
 11
34.207259000000001
 21
1420.1502009999999
 31
0.0
 12
30.207419000000002
 22
1396.1502009999999
 32
0.0
 13
30.207419000000002
 23
1396.1502009999999
 33
0.0
  0
TEXT
  5
265
  8
LAYER01
  6
VERDECKT
 62
     7
 10
19.207259000000001
 20
1270.780636
 30
0.0
 40
30.0
  1
254
 50
90.0
  0
POINT
  5
266
  8
LAYER01
 62
     7
 10
122.278211
 20
1166.1502009999999
 30
0.0
  0
POINT
  5
267
  8
LAYER01
 62
     7
 10
122.278211
 20
1420.1502009999999
 30
0.0
  0
POINT
  5
268
  8
LAYER01
 62
     7
 10
34.207259000000001
 20
1420.1502009999999
 30
0.0
  0
ENDBLK
  5
269
  8
0
  0
BLOCK
  8
0
  2
*D19
 70
     1
 10
0.0
 20
0.0
 30
0.0
  3
*D19
  1

  0
LINE
  5
26C
  8
LAYER01
 62
     7
 10
1047.2782110000001
 20
1103.430824
 30
0.0
 11
697.27821100000006
 21
1103.430824
 31
0.0
  0
LINE
  5
26D
  8
LAYER01
 62
     7
 10
1047.2782110000001
 20
1154.1502009999999
 30
0.0
 11
1047.2782110000001
 21
1088.430824
 31
0.0
  0
LINE
  5
26E
  8
LAYER01
 62
     7
 10
697.27821100000006
 20
1154.1502009999999
 30
0.0
 11
697.27821100000006
 21
1088.430824
 31
0.0
  0
SOLID
  5
26F
  8
LAYER01
 62
     7
 10
1023.2782110000001
 20
1107.430664
 30
0.0
 11
1047.2782110000001
 21
1103.430824
 31
0.0
 12
1023.2782110000001
 22
1099.4309840000001
 32
0.0
 13
1023.2782110000001
 23
1099.4309840000001
 33
0.0
  0
SOLID
  5
270
  8
LAYER01
 62
     7
 10
721.27821100000006
 20
1107.430664
 30
0.0
 11
697.27821100000006
 21
1103.430824
 31
0.0
 12
721.27821100000006
 22
1099.4309840000001
 32
0.0
 13
721.27821100000006
 23
1099.4309840000001
 33
0.0
  0
TEXT
  5
271
  8
LAYER01
  6
VERDECKT
 62
     7
 10
848.20121300000005
 20
1118.430824
 30
0.0
 40
30.0
  1
350
  0
POINT
  5
272
  8
LAYER01
 62
     7
 10
1047.2782110000001
 20
1166.1502009999999
 30
0.0
  0
POINT
  5
273
  8
LAYER01
 62
     7
 10
697.27821100000006
 20
1166.1502009999999
 30
0.0
  0
POINT
  5
274
  8
LAYER01
 62
     7
 10
697.27821100000006
 20
1103.430824
 30
0.0
  0
ENDBLK
  5
275
  8
0
  0
BLOCK
  8
0
  2
CUADRA-G21
 70
     0
 10
0.0
 20
0.0
 30
0.0
  3
CUADRA-G21
  1

  0
LINE
  5
278
  8
0
  6
CONTINUOUS
 62
   255
 10
872.27821099999983
 20
1293.1502009999999
 30
0.0
 11
872.27821099999983
 21
1295.6502009999999
 31
0.0
  0
LINE
  5
279
  8
0
  6
CONTINUOUS
 62
   255
 10
872.27821099999983
 20
1293.1502009999999
 30
0.0
 11
869.77821100000006
 21
1293.1502009999999
 31
0.0
  0
LINE
  5
27A
  8
0
  6
CONTINUOUS
 62
   255
 10
872.27821099999983
 20
1293.1502009999999
 30
0.0
 11
872.27821099999983
 21
1290.6502009999999
 31
0.0
  0
LINE
  5
27B
  8
0
  6
CONTINUOUS
 62
   255
 10
872.27821099999983
 20
1293.1502009999999
 30
0.0
 11
874.77821099999994
 21
1293.1502009999999
 31
0.0
  0
LINE
  5
27C
  8
0
  6
CONTINUOUS
 62
   255
 10
872.27821099999983
 20
1298.1502009999999
 30
0.0
 11
872.27821099999983
 21
1331.4002009999999
 31
0.0
  0
LINE
  5
27D
  8
0
  6
CONTINUOUS
 62
   255
 10
867.27821099999994
 20
1293.1502009999999
 30
0.0
 11
834.02821100000006
 21
1293.1502009999999
 31
0.0
  0
LINE
  5
27E
  8
0
  6
CONTINUOUS
 62
   255
 10
872.27821099999983
 20
1288.1502009999999
 30
0.0
 11
872.27821099999983
 21
1254.9002009999999
 31
0.0
  0
LINE
  5
27F
  8
0
  6
CONTINUOUS
 62
   255
 10
877.27821099999994
 20
1293.1502009999999
 30
0.0
 11
910.52821099999994
 21
1293.1502009999999
 31
0.0
  0
ENDBLK
  5
280
  8
0
  0
BLOCK
  8
0
  2
*D21
 70
     1
 10
0.0
 20
0.0
 30
0.0
  3
*D21
  1

  0
LINE
  5
283
  8
LAYER01
 62
     7
 10
2218.5569209999999
 20
691.71695299999988
 30
0.0
 11
2091.5569209999999
 21
691.71695299999988
 31
0.0
  0
LINE
  5
284
  8
LAYER01
 62
     7
 10
2218.5569209999999
 20
730.05798400000003
 30
0.0
 11
2218.5569209999999
 21
676.71695299999999
 31
0.0
  0
LINE
  5
285
  8
LAYER01
 62
     7
 10
2091.5569209999999
 20
730.05798400000003
 30
0.0
 11
2091.5569209999999
 21
676.71695299999999
 31
0.0
  0
SOLID
  5
286
  8
LAYER01
 62
     7
 10
2194.5569209999999
 20
695.71679299999994
 30
0.0
 11
2218.5569209999999
 21
691.71695299999988
 31
0.0
 12
2194.5569209999999
 22
687.71711300000004
 32
0.0
 13
2194.5569209999999
 23
687.71711300000004
 33
0.0
  0
SOLID
  5
287
  8
LAYER01
 62
     7
 10
2115.5569209999999
 20
695.71679299999994
 30
0.0
 11
2091.5569209999999
 21
691.71695299999988
 31
0.0
 12
2115.5569209999999
 22
687.71711300000004
 32
0.0
 13
2115.5569209999999
 23
687.71711300000004
 33
0.0
  0
TEXT
  5
288
  8
LAYER01
  6
VERDECKT
 62
     7
 10
2132.622331
 20
706.71695299999999
 30
0.0
 40
30.0
  1
127
  0
POINT
  5
289
  8
LAYER01
 62
     7
 10
2218.5569209999999
 20
742.05798400000003
 30
0.0
  0
POINT
  5
28A
  8
LAYER01
 62
     7
 10
2091.5569209999999
 20
742.05798400000003
 30
0.0
  0
POINT
  5
28B
  8
LAYER01
 62
     7
 10
2091.5569209999999
 20
691.71695299999988
 30
0.0
  0
ENDBLK
  5
28C
  8
0
  0
BLOCK
  8
0
  2
CUADRA-G23
 70
     0
 10
0.0
 20
0.0
 30
0.0
  3
CUADRA-G23
  1

  0
POLYLINE
  5
28F
  8
LAYER01
  6
CONTINUOUS
 62
     7
 66
     1
 10
0.0
 20
0.0
 30
0.0
 70
     1
  0
VERTEX
  5
B26
  8
LAYER01
  6
CONTINUOUS
 62
     7
 10
2464.8030189999999
 20
62.777769999999997
 30
0.0
  0
VERTEX
  5
B27
  8
LAYER01
  6
CONTINUOUS
 62
     7
 10
2501.8558659999999
 20
62.777769999999997
 30
0.0
  0
VERTEX
  5
B28
  8
LAYER01
  6
CONTINUOUS
 62
     7
 10
2548.3873490000001
 20
-43.210608000000001
 30
0.0
  0
VERTEX
  5
B29
  8
LAYER01
  6
CONTINUOUS
 62
     7
 10
2594.9188319999998
 20
62.777769999999997
 30
0.0
  0
VERTEX
  5
B2A
  8
LAYER01
  6
CONTINUOUS
 62
     7
 10
2633.695068
 20
62.777769999999997
 30
0.0
  0
VERTEX
  5
B2B
  8
LAYER01
  6
CONTINUOUS
 62
     7
 10
2548.3873490000001
 20
-126.794938
 30
0.0
  0
VERTEX
  5
B2C
  8
LAYER01
  6
CONTINUOUS
 62
     7
 10
2464.8030189999999
 20
62.777769999999997
 30
0.0
  0
VERTEX
  5
B2D
  8
LAYER01
  6
CONTINUOUS
 62
     7
 10
2464.8030189999999
 20
62.777769999999997
 30
0.0
  0
SEQEND
  5
B2E
  8
LAYER01
  6
CONTINUOUS
 62
     7
  0
POLYLINE
  5
299
  8
LAYER01
  6
CONTINUOUS
 62
     7
 66
     1
 10
0.0
 20
0.0
 30
0.0
 70
     1
  0
VERTEX
  5
B2F
  8
LAYER01
  6
CONTINUOUS
 62
     7
 10
2591.4720550000002
 20
-66.476348999999985
 30
0.0
  0
VERTEX
  5
B30
  8
LAYER01
  6
CONTINUOUS
 62
     7
 10
2604.3974669999998
 20
-36.317055000000003
 30
0.0
  0
VERTEX
  5
B31
  8
LAYER01
  6
CONTINUOUS
 62
     7
 10
2660.4075859999998
 20
-36.317055000000003
 30
0.0
  0
VERTEX
  5
B32
  8
LAYER01
  6
CONTINUOUS
 62
     7
 10
2631.9716790000002
 20
25.724921999999999
 30
0.0
  0
VERTEX
  5
B33
  8
LAYER01
  6
CONTINUOUS
 62
     7
 10
2648.3438679999999
 20
65.362852000000004
 30
0.0
  0
VERTEX
  5
B34
  8
LAYER01
  6
CONTINUOUS
 62
     7
 10
2725.0346450000002
 20
-96.635643999999999
 30
0.0
  0
VERTEX
  5
B35
  8
LAYER01
  6
CONTINUOUS
 62
     7
 10
2725.0346450000002
 20
62.777769999999997
 30
0.0
  0
VERTEX
  5
B36
  8
LAYER01
  6
CONTINUOUS
 62
     7
 10
2827.576247
 20
62.777769999999997
 30
0.0
  0
VERTEX
  5
B37
  8
LAYER01
  6
CONTINUOUS
 62
     7
 10
2827.576247
 20
62.777769999999997
 30
0.0
  0
VERTEX
  5
B38
  8
LAYER01
  6
CONTINUOUS
 62
     7
 10
2837.0548819999999
 20
61.054381999999997
 30
0.0
  0
VERTEX
  5
B39
  8
LAYER01
  6
CONTINUOUS
 62
     7
 10
2845.6718230000001
 20
57.607605
 30
0.0
  0
VERTEX
  5
B3A
  8
LAYER01
  6
CONTINUOUS
 62
     7
 10
2853.4270710000001
 20
51.575746000000002
 30
0.0
  0
VERTEX
  5
B3B
  8
LAYER01
  6
CONTINUOUS
 62
     7
 10
2860.320624
 20
45.543886999999991
 30
0.0
  0
VERTEX
  5
B3C
  8
LAYER01
  6
CONTINUOUS
 62
     7
 10
2866.3524819999998
 20
37.788640000000001
 30
0.0
  0
VERTEX
  5
B3D
  8
LAYER01
  6
CONTINUOUS
 62
     7
 10
2870.6609530000001
 20
29.171699
 30
0.0
  0
VERTEX
  5
B3E
  8
LAYER01
  6
CONTINUOUS
 62
     7
 10
2874.1077300000002
 20
18.831368999999999
 30
0.0
  0
VERTEX
  5
B3F
  8
LAYER01
  6
CONTINUOUS
 62
     7
 10
2874.9694239999999
 20
9.3527339999999999
 30
0.0
  0
VERTEX
  5
B40
  8
LAYER01
  6
CONTINUOUS
 62
     7
 10
2874.9694239999999
 20
9.3527339999999999
 30
0.0
  0
VERTEX
  5
B41
  8
LAYER01
  6
CONTINUOUS
 62
     7
 10
2874.9694239999999
 20
-0.9875959999999999
 30
0.0
  0
VERTEX
  5
B42
  8
LAYER01
  6
CONTINUOUS
 62
     7
 10
2873.2460350000001
 20
-9.6045369999999988
 30
0.0
  0
VERTEX
  5
B43
  8
LAYER01
  6
CONTINUOUS
 62
     7
 10
2869.7992589999999
 20
-18.221478000000001
 30
0.0
  0
VERTEX
  5
B44
  8
LAYER01
  6
CONTINUOUS
 62
     7
 10
2865.4907880000001
 20
-25.976724999999998
 30
0.0
  0
VERTEX
  5
B45
  8
LAYER01
  6
CONTINUOUS
 62
     7
 10
2859.4589289999999
 20
-32.870278000000013
 30
0.0
  0
VERTEX
  5
B46
  8
LAYER01
  6
CONTINUOUS
 62
     7
 10
2852.565376
 20
-38.902137000000003
 30
0.0
  0
VERTEX
  5
B47
  8
LAYER01
  6
CONTINUOUS
 62
     7
 10
2844.810129
 20
-43.210608000000001
 30
0.0
  0
VERTEX
  5
B48
  8
LAYER01
  6
CONTINUOUS
 62
     7
 10
2835.331494
 20
-46.657384
 30
0.0
  0
VERTEX
  5
B49
  8
LAYER01
  6
CONTINUOUS
 62
     7
 10
2890.479918
 20
-119.901385
 30
0.0
  0
VERTEX
  5
B4A
  8
LAYER01
  6
CONTINUOUS
 62
     7
 10
2890.479918
 20
62.777769999999997
 30
0.0
  0
VERTEX
  5
B4B
  8
LAYER01
  6
CONTINUOUS
 62
     7
 10
2926.6710710000002
 20
62.777769999999997
 30
0.0
  0
VERTEX
  5
B4C
  8
LAYER01
  6
CONTINUOUS
 62
     7
 10
2926.6710710000002
 20
-121.624774
 30
0.0
  0
VERTEX
  5
B4D
  8
LAYER01
  6
CONTINUOUS
 62
     7
 10
2849.1185999999998
 20
-121.624774
 30
0.0
  0
VERTEX
  5
B4E
  8
LAYER01
  6
CONTINUOUS
 62
     7
 10
2774.1512109999999
 20
-25.976724999999998
 30
0.0
  0
VERTEX
  5
B4F
  8
LAYER01
  6
CONTINUOUS
 62
     7
 10
2812.065752
 20
-25.976724999999998
 30
0.0
  0
VERTEX
  5
B50
  8
LAYER01
  6
CONTINUOUS
 62
     7
 10
2812.065752
 20
-25.976724999999998
 30
0.0
  0
VERTEX
  5
B51
  8
LAYER01
  6
CONTINUOUS
 62
     7
 10
2817.235917
 20
-25.115030999999998
 30
0.0
  0
VERTEX
  5
B52
  8
LAYER01
  6
CONTINUOUS
 62
     7
 10
2822.406082
 20
-23.391642999999998
 30
0.0
  0
VERTEX
  5
B53
  8
LAYER01
  6
CONTINUOUS
 62
     7
 10
2826.7145529999998
 20
-20.806560999999999
 30
0.0
  0
VERTEX
  5
B54
  8
LAYER01
  6
CONTINUOUS
 62
     7
 10
2831.0230230000002
 20
-17.359784000000001
 30
0.0
  0
VERTEX
  5
B55
  8
LAYER01
  6
CONTINUOUS
 62
     7
 10
2833.6081060000001
 20
-13.051313
 30
0.0
  0
VERTEX
  5
B56
  8
LAYER01
  6
CONTINUOUS
 62
     7
 10
2836.1931880000002
 20
-7.8811489999999997
 30
0.0
  0
VERTEX
  5
B57
  8
LAYER01
  6
CONTINUOUS
 62
     7
 10
2837.916576000001
 20
-2.710983999999999
 30
0.0
  0
VERTEX
  5
B58
  8
LAYER01
  6
CONTINUOUS
 62
     7
 10
2837.916576000001
 20
3.320875
 30
0.0
  0
VERTEX
  5
B59
  8
LAYER01
  6
CONTINUOUS
 62
     7
 10
2837.916576000001
 20
3.320875
 30
0.0
  0
VERTEX
  5
B5A
  8
LAYER01
  6
CONTINUOUS
 62
     7
 10
2837.916576000001
 20
8.4910399999999981
 30
0.0
  0
VERTEX
  5
B5B
  8
LAYER01
  6
CONTINUOUS
 62
     7
 10
2836.1931880000002
 20
13.661205000000001
 30
0.0
  0
VERTEX
  5
B5C
  8
LAYER01
  6
CONTINUOUS
 62
     7
 10
2834.4697999999999
 20
18.831368999999999
 30
0.0
  0
VERTEX
  5
B5D
  8
LAYER01
  6
CONTINUOUS
 62
     7
 10
2831.0230230000002
 20
23.13984
 30
0.0
  0
VERTEX
  5
B5E
  8
LAYER01
  6
CONTINUOUS
 62
     7
 10
2827.576247
 20
26.586615999999999
 30
0.0
  0
VERTEX
  5
B5F
  8
LAYER01
  6
CONTINUOUS
 62
     7
 10
2822.406082
 20
29.171699
 30
0.0
  0
VERTEX
  5
B60
  8
LAYER01
  6
CONTINUOUS
 62
     7
 10
2817.235917
 20
30.895087
 30
0.0
  0
VERTEX
  5
B61
  8
LAYER01
  6
CONTINUOUS
 62
     7
 10
2812.065752
 20
31.756781
 30
0.0
  0
VERTEX
  5
B62
  8
LAYER01
  6
CONTINUOUS
 62
     7
 10
2763.8108809999999
 20
31.756781
 30
0.0
  0
VERTEX
  5
B63
  8
LAYER01
  6
CONTINUOUS
 62
     7
 10
2763.8108809999999
 20
-121.624774
 30
0.0
  0
VERTEX
  5
B64
  8
LAYER01
  6
CONTINUOUS
 62
     7
 10
2701.768904
 20
-121.624774
 30
0.0
  0
VERTEX
  5
B65
  8
LAYER01
  6
CONTINUOUS
 62
     7
 10
2675.9180799999999
 20
-66.476348999999985
 30
0.0
  0
VERTEX
  5
B66
  8
LAYER01
  6
CONTINUOUS
 62
     7
 10
2591.4720550000002
 20
-66.476348999999985
 30
0.0
  0
VERTEX
  5
B67
  8
LAYER01
  6
CONTINUOUS
 62
     7
 10
2591.4720550000002
 20
-66.476348999999985
 30
0.0
  0
SEQEND
  5
B68
  8
LAYER01
  6
CONTINUOUS
 62
     7
  0
POLYLINE
  5
2D4
  8
LAYER01
  6
CONTINUOUS
 62
     7
 66
     1
 10
0.0
 20
0.0
 30
0.0
 70
     1
  0
VERTEX
  5
B69
  8
LAYER01
  6
CONTINUOUS
 62
     7
 10
3093.8397319999999
 20
50.714052000000002
 30
0.0
  0
VERTEX
  5
B6A
  8
LAYER01
  6
CONTINUOUS
 62
     7
 10
3070.5739910000002
 20
21.416452
 30
0.0
  0
VERTEX
  5
B6B
  8
LAYER01
  6
CONTINUOUS
 62
     7
 10
3070.5739910000002
 20
21.416452
 30
0.0
  0
VERTEX
  5
B6C
  8
LAYER01
  6
CONTINUOUS
 62
     7
 10
3062.8187440000002
 20
26.586615999999999
 30
0.0
  0
VERTEX
  5
B6D
  8
LAYER01
  6
CONTINUOUS
 62
     7
 10
3055.0634970000001
 20
30.895087
 30
0.0
  0
VERTEX
  5
B6E
  8
LAYER01
  6
CONTINUOUS
 62
     7
 10
3046.446555
 20
33.480170000000001
 30
0.0
  0
VERTEX
  5
B6F
  8
LAYER01
  6
CONTINUOUS
 62
     7
 10
3036.96792
 20
33.480170000000001
 30
0.0
  0
VERTEX
  5
B70
  8
LAYER01
  6
CONTINUOUS
 62
     7
 10
3036.96792
 20
33.480170000000001
 30
0.0
  0
VERTEX
  5
B71
  8
LAYER01
  6
CONTINUOUS
 62
     7
 10
3030.9360609999999
 20
33.480170000000001
 30
0.0
  0
VERTEX
  5
B72
  8
LAYER01
  6
CONTINUOUS
 62
     7
 10
3024.9042020000002
 20
32.618474999999997
 30
0.0
  0
VERTEX
  5
B73
  8
LAYER01
  6
CONTINUOUS
 62
     7
 10
3018.872343
 20
30.895087
 30
0.0
  0
VERTEX
  5
B74
  8
LAYER01
  6
CONTINUOUS
 62
     7
 10
3012.8404839999998
 20
28.310005
 30
0.0
  0
VERTEX
  5
B75
  8
LAYER01
  6
CONTINUOUS
 62
     7
 10
3007.6703200000002
 20
25.724921999999999
 30
0.0
  0
VERTEX
  5
B76
  8
LAYER01
  6
CONTINUOUS
 62
     7
 10
3003.3618489999999
 20
22.278146
 30
0.0
  0
VERTEX
  5
B77
  8
LAYER01
  6
CONTINUOUS
 62
     7
 10
2998.1916839999999
 20
18.831368999999999
 30
0.0
  0
VERTEX
  5
B78
  8
LAYER01
  6
CONTINUOUS
 62
     7
 10
2994.7449080000001
 20
14.522899000000001
 30
0.0
  0
VERTEX
  5
B79
  8
LAYER01
  6
CONTINUOUS
 62
     7
 10
2990.4364370000012
 20
9.3527339999999999
 30
0.0
  0
VERTEX
  5
B7A
  8
LAYER01
  6
CONTINUOUS
 62
     7
 10
2987.8513549999998
 20
4.1825689999999991
 30
0.0
  0
VERTEX
  5
B7B
  8
LAYER01
  6
CONTINUOUS
 62
     7
 10
2984.4045780000001
 20
-0.9875959999999999
 30
0.0
  0
VERTEX
  5
B7C
  8
LAYER01
  6
CONTINUOUS
 62
     7
 10
2981.8194960000001
 20
-6.1577599999999988
 30
0.0
  0
VERTEX
  5
B7D
  8
LAYER01
  6
CONTINUOUS
 62
     7
 10
2980.0961069999998
 20
-12.189619
 30
0.0
  0
VERTEX
  5
B7E
  8
LAYER01
  6
CONTINUOUS
 62
     7
 10
2979.2344130000001
 20
-18.221478000000001
 30
0.0
  0
VERTEX
  5
B7F
  8
LAYER01
  6
CONTINUOUS
 62
     7
 10
2978.372719
 20
-24.253336999999998
 30
0.0
  0
VERTEX
  5
B80
  8
LAYER01
  6
CONTINUOUS
 62
     7
 10
2977.5110249999998
 20
-31.146889999999999
 30
0.0
  0
VERTEX
  5
B81
  8
LAYER01
  6
CONTINUOUS
 62
     7
 10
2977.5110249999998
 20
-31.146889999999999
 30
0.0
  0
VERTEX
  5
B82
  8
LAYER01
  6
CONTINUOUS
 62
     7
 10
2978.372719
 20
-37.178749000000003
 30
0.0
  0
VERTEX
  5
B83
  8
LAYER01
  6
CONTINUOUS
 62
     7
 10
2979.2344130000001
 20
-43.210608000000001
 30
0.0
  0
VERTEX
  5
B84
  8
LAYER01
  6
CONTINUOUS
 62
     7
 10
2980.0961069999998
 20
-49.242466999999998
 30
0.0
  0
VERTEX
  5
B85
  8
LAYER01
  6
CONTINUOUS
 62
     7
 10
2982.6811899999998
 20
-54.412631999999988
 30
0.0
  0
VERTEX
  5
B86
  8
LAYER01
  6
CONTINUOUS
 62
     7
 10
2984.4045780000001
 20
-59.582796000000002
 30
0.0
  0
VERTEX
  5
B87
  8
LAYER01
  6
CONTINUOUS
 62
     7
 10
2987.8513549999998
 20
-64.752960999999999
 30
0.0
  0
VERTEX
  5
B88
  8
LAYER01
  6
CONTINUOUS
 62
     7
 10
2991.298131
 20
-69.923125999999996
 30
0.0
  0
VERTEX
  5
B89
  8
LAYER01
  6
CONTINUOUS
 62
     7
 10
2994.7449080000001
 20
-74.231596999999994
 30
0.0
  0
VERTEX
  5
B8A
  8
LAYER01
  6
CONTINUOUS
 62
     7
 10
2999.0533780000001
 20
-78.540067000000008
 30
0.0
  0
VERTEX
  5
B8B
  8
LAYER01
  6
CONTINUOUS
 62
     7
 10
3003.3618489999999
 20
-81.986843999999991
 30
0.0
  0
VERTEX
  5
B8C
  8
LAYER01
  6
CONTINUOUS
 62
     7
 10
3008.5320139999999
 20
-84.571926000000005
 30
0.0
  0
VERTEX
  5
B8D
  8
LAYER01
  6
CONTINUOUS
 62
     7
 10
3013.702178
 20
-87.157007999999976
 30
0.0
  0
VERTEX
  5
B8E
  8
LAYER01
  6
CONTINUOUS
 62
     7
 10
3019.7340370000002
 20
-89.742091000000016
 30
0.0
  0
VERTEX
  5
B8F
  8
LAYER01
  6
CONTINUOUS
 62
     7
 10
3024.9042020000002
 20
-91.465478999999988
 30
0.0
  0
VERTEX
  5
B90
  8
LAYER01
  6
CONTINUOUS
 62
     7
 10
3030.9360609999999
 20
-92.327173000000002
 30
0.0
  0
VERTEX
  5
B91
  8
LAYER01
  6
CONTINUOUS
 62
     7
 10
3037.8296140000002
 20
-92.327173000000002
 30
0.0
  0
VERTEX
  5
B92
  8
LAYER01
  6
CONTINUOUS
 62
     7
 10
3037.8296140000002
 20
-92.327173000000002
 30
0.0
  0
VERTEX
  5
B93
  8
LAYER01
  6
CONTINUOUS
 62
     7
 10
3047.3082490000002
 20
-91.465478999999988
 30
0.0
  0
VERTEX
  5
B94
  8
LAYER01
  6
CONTINUOUS
 62
     7
 10
3055.0634970000001
 20
-89.742091000000016
 30
0.0
  0
VERTEX
  5
B95
  8
LAYER01
  6
CONTINUOUS
 62
     7
 10
3062.8187440000002
 20
-85.433620000000005
 30
0.0
  0
VERTEX
  5
B96
  8
LAYER01
  6
CONTINUOUS
 62
     7
 10
3070.5739910000002
 20
-80.263455000000008
 30
0.0
  0
VERTEX
  5
B97
  8
LAYER01
  6
CONTINUOUS
 62
     7
 10
3092.9780380000002
 20
-110.42274999999999
 30
0.0
  0
VERTEX
  5
B98
  8
LAYER01
  6
CONTINUOUS
 62
     7
 10
3092.9780380000002
 20
-110.42274999999999
 30
0.0
  0
VERTEX
  5
B99
  8
LAYER01
  6
CONTINUOUS
 62
     7
 10
3080.0526260000001
 20
-118.177997
 30
0.0
  0
VERTEX
  5
B9A
  8
LAYER01
  6
CONTINUOUS
 62
     7
 10
3073.1590730000012
 20
-120.763079
 30
0.0
  0
VERTEX
  5
B9B
  8
LAYER01
  6
CONTINUOUS
 62
     7
 10
3067.1272140000001
 20
-123.348162
 30
0.0
  0
VERTEX
  5
B9C
  8
LAYER01
  6
CONTINUOUS
 62
     7
 10
3060.2336610000002
 20
-125.07155
 30
0.0
  0
VERTEX
  5
B9D
  8
LAYER01
  6
CONTINUOUS
 62
     7
 10
3053.3401079999999
 20
-125.933244
 30
0.0
  0
VERTEX
  5
B9E
  8
LAYER01
  6
CONTINUOUS
 62
     7
 10
3037.8296140000002
 20
-126.794938
 30
0.0
  0
VERTEX
  5
B9F
  8
LAYER01
  6
CONTINUOUS
 62
     7
 10
3037.8296140000002
 20
-126.794938
 30
0.0
  0
VERTEX
  5
BA0
  8
LAYER01
  6
CONTINUOUS
 62
     7
 10
3027.4892840000002
 20
-125.933244
 30
0.0
  0
VERTEX
  5
BA1
  8
LAYER01
  6
CONTINUOUS
 62
     7
 10
3018.0106489999998
 20
-124.209856
 30
0.0
  0
VERTEX
  5
BA2
  8
LAYER01
  6
CONTINUOUS
 62
     7
 10
3008.5320139999999
 20
-122.486468
 30
0.0
  0
VERTEX
  5
BA3
  8
LAYER01
  6
CONTINUOUS
 62
     7
 10
2999.9150719999998
 20
-119.039691
 30
0.0
  0
VERTEX
  5
BA4
  8
LAYER01
  6
CONTINUOUS
 62
     7
 10
2991.298131
 20
-114.73122100000001
 30
0.0
  0
VERTEX
  5
BA5
  8
LAYER01
  6
CONTINUOUS
 62
     7
 10
2983.542884
 20
-110.42274999999999
 30
0.0
  0
VERTEX
  5
BA6
  8
LAYER01
  6
CONTINUOUS
 62
     7
 10
2975.7876369999999
 20
-104.390891
 30
0.0
  0
VERTEX
  5
BA7
  8
LAYER01
  6
CONTINUOUS
 62
     7
 10
2968.894084
 20
-98.359031999999999
 30
0.0
  0
VERTEX
  5
BA8
  8
LAYER01
  6
CONTINUOUS
 62
     7
 10
2962.0005310000001
 20
-91.465478999999988
 30
0.0
  0
VERTEX
  5
BA9
  8
LAYER01
  6
CONTINUOUS
 62
     7
 10
2956.8303660000001
 20
-83.710231999999991
 30
0.0
  0
VERTEX
  5
BAA
  8
LAYER01
  6
CONTINUOUS
 62
     7
 10
2951.6602010000011
 20
-75.954984999999994
 30
0.0
  0
VERTEX
  5
BAB
  8
LAYER01
  6
CONTINUOUS
 62
     7
 10
2947.3517310000002
 20
-67.338043999999996
 30
0.0
  0
VERTEX
  5
BAC
  8
LAYER01
  6
CONTINUOUS
 62
     7
 10
2944.7666479999998
 20
-58.721102000000002
 30
0.0
  0
VERTEX
  5
BAD
  8
LAYER01
  6
CONTINUOUS
 62
     7
 10
2942.1815660000002
 20
-49.242466999999998
 30
0.0
  0
VERTEX
  5
BAE
  8
LAYER01
  6
CONTINUOUS
 62
     7
 10
2940.458177
 20
-39.76383100000001
 30
0.0
  0
VERTEX
  5
BAF
  8
LAYER01
  6
CONTINUOUS
 62
     7
 10
2939.5964829999998
 20
-29.423501999999999
 30
0.0
  0
VERTEX
  5
BB0
  8
LAYER01
  6
CONTINUOUS
 62
     7
 10
2939.5964829999998
 20
-29.423501999999999
 30
0.0
  0
VERTEX
  5
BB1
  8
LAYER01
  6
CONTINUOUS
 62
     7
 10
2940.458177
 20
-19.944866000000001
 30
0.0
  0
VERTEX
  5
BB2
  8
LAYER01
  6
CONTINUOUS
 62
     7
 10
2942.1815660000002
 20
-9.6045369999999988
 30
0.0
  0
VERTEX
  5
BB3
  8
LAYER01
  6
CONTINUOUS
 62
     7
 10
2943.9049540000001
 20
-0.9875959999999999
 30
0.0
  0
VERTEX
  5
BB4
  8
LAYER01
  6
CONTINUOUS
 62
     7
 10
2947.3517310000002
 20
8.4910399999999981
 30
0.0
  0
VERTEX
  5
BB5
  8
LAYER01
  6
CONTINUOUS
 62
     7
 10
2951.6602010000011
 20
17.107980999999999
 30
0.0
  0
VERTEX
  5
BB6
  8
LAYER01
  6
CONTINUOUS
 62
     7
 10
2955.968672
 20
24.863227999999999
 30
0.0
  0
VERTEX
  5
BB7
  8
LAYER01
  6
CONTINUOUS
 62
     7
 10
2962.0005310000001
 20
32.618474999999997
 30
0.0
  0
VERTEX
  5
BB8
  8
LAYER01
  6
CONTINUOUS
 62
     7
 10
2968.0323899999999
 20
39.512028000000001
 30
0.0
  0
VERTEX
  5
BB9
  8
LAYER01
  6
CONTINUOUS
 62
     7
 10
2974.9259430000002
 20
45.543886999999991
 30
0.0
  0
VERTEX
  5
BBA
  8
LAYER01
  6
CONTINUOUS
 62
     7
 10
2982.6811899999998
 20
51.575746000000002
 30
0.0
  0
VERTEX
  5
BBB
  8
LAYER01
  6
CONTINUOUS
 62
     7
 10
2990.4364370000012
 20
55.884217000000007
 30
0.0
  0
VERTEX
  5
BBC
  8
LAYER01
  6
CONTINUOUS
 62
     7
 10
2999.0533780000001
 20
60.192687999999997
 30
0.0
  0
VERTEX
  5
BBD
  8
LAYER01
  6
CONTINUOUS
 62
     7
 10
3007.6703200000002
 20
63.639463999999997
 30
0.0
  0
VERTEX
  5
BBE
  8
LAYER01
  6
CONTINUOUS
 62
     7
 10
3017.1489550000001
 20
66.224545999999989
 30
0.0
  0
VERTEX
  5
BBF
  8
LAYER01
  6
CONTINUOUS
 62
     7
 10
3027.4892840000002
 20
67.086241000000001
 30
0.0
  0
VERTEX
  5
BC0
  8
LAYER01
  6
CONTINUOUS
 62
     7
 10
3036.96792
 20
67.947935000000001
 30
0.0
  0
VERTEX
  5
BC1
  8
LAYER01
  6
CONTINUOUS
 62
     7
 10
3036.96792
 20
67.947935000000001
 30
0.0
  0
VERTEX
  5
BC2
  8
LAYER01
  6
CONTINUOUS
 62
     7
 10
3052.4784140000002
 20
67.086241000000001
 30
0.0
  0
VERTEX
  5
BC3
  8
LAYER01
  6
CONTINUOUS
 62
     7
 10
3060.2336610000002
 20
66.224545999999989
 30
0.0
  0
VERTEX
  5
BC4
  8
LAYER01
  6
CONTINUOUS
 62
     7
 10
3067.1272140000001
 20
64.501157999999975
 30
0.0
  0
VERTEX
  5
BC5
  8
LAYER01
  6
CONTINUOUS
 62
     7
 10
3073.1590730000012
 20
61.916076000000011
 30
0.0
  0
VERTEX
  5
BC6
  8
LAYER01
  6
CONTINUOUS
 62
     7
 10
3080.0526260000001
 20
59.330993000000007
 30
0.0
  0
VERTEX
  5
BC7
  8
LAYER01
  6
CONTINUOUS
 62
     7
 10
3086.946179
 20
55.022523
 30
0.0
  0
VERTEX
  5
BC8
  8
LAYER01
  6
CONTINUOUS
 62
     7
 10
3093.8397319999999
 20
50.714052000000002
 30
0.0
  0
VERTEX
  5
BC9
  8
LAYER01
  6
CONTINUOUS
 62
     7
 10
3093.8397319999999
 20
50.714052000000002
 30
0.0
  0
SEQEND
  5
BCA
  8
LAYER01
  6
CONTINUOUS
 62
     7
  0
POLYLINE
  5
337
  8
LAYER01
  6
CONTINUOUS
 62
     7
 66
     1
 10
0.0
 20
0.0
 30
0.0
 70
     1
  0
VERTEX
  5
BCB
  8
LAYER01
  6
CONTINUOUS
 62
     7
 10
3177.4240629999999
 20
67.086241000000001
 30
0.0
  0
VERTEX
  5
BCC
  8
LAYER01
  6
CONTINUOUS
 62
     7
 10
3177.4240629999999
 20
67.086241000000001
 30
0.0
  0
VERTEX
  5
BCD
  8
LAYER01
  6
CONTINUOUS
 62
     7
 10
3167.9454270000001
 20
66.224545999999989
 30
0.0
  0
VERTEX
  5
BCE
  8
LAYER01
  6
CONTINUOUS
 62
     7
 10
3157.605098
 20
65.362852000000004
 30
0.0
  0
VERTEX
  5
BCF
  8
LAYER01
  6
CONTINUOUS
 62
     7
 10
3148.9881569999998
 20
62.777769999999997
 30
0.0
  0
VERTEX
  5
BD0
  8
LAYER01
  6
CONTINUOUS
 62
     7
 10
3139.5095209999999
 20
59.330993000000007
 30
0.0
  0
VERTEX
  5
BD1
  8
LAYER01
  6
CONTINUOUS
 62
     7
 10
3130.8925800000002
 20
55.884217000000007
 30
0.0
  0
VERTEX
  5
BD2
  8
LAYER01
  6
CONTINUOUS
 62
     7
 10
3123.1373330000001
 20
50.714052000000002
 30
0.0
  0
VERTEX
  5
BD3
  8
LAYER01
  6
CONTINUOUS
 62
     7
 10
3115.3820860000001
 20
45.543886999999991
 30
0.0
  0
VERTEX
  5
BD4
  8
LAYER01
  6
CONTINUOUS
 62
     7
 10
3108.4885330000002
 20
38.650334000000001
 30
0.0
  0
VERTEX
  5
BD5
  8
LAYER01
  6
CONTINUOUS
 62
     7
 10
3102.456674
 20
31.756781
 30
0.0
  0
VERTEX
  5
BD6
  8
LAYER01
  6
CONTINUOUS
 62
     7
 10
3096.4248149999999
 20
24.863227999999999
 30
0.0
  0
VERTEX
  5
BD7
  8
LAYER01
  6
CONTINUOUS
 62
     7
 10
3091.2546499999999
 20
17.107980999999999
 30
0.0
  0
VERTEX
  5
BD8
  8
LAYER01
  6
CONTINUOUS
 62
     7
 10
3086.946179
 20
8.4910399999999981
 30
0.0
  0
VERTEX
  5
BD9
  8
LAYER01
  6
CONTINUOUS
 62
     7
 10
3084.361097
 20
-0.9875959999999999
 30
0.0
  0
VERTEX
  5
BDA
  8
LAYER01
  6
CONTINUOUS
 62
     7
 10
3081.7760149999999
 20
-9.6045369999999988
 30
0.0
  0
VERTEX
  5
BDB
  8
LAYER01
  6
CONTINUOUS
 62
     7
 10
3080.0526260000001
 20
-19.944866000000001
 30
0.0
  0
VERTEX
  5
BDC
  8
LAYER01
  6
CONTINUOUS
 62
     7
 10
3079.190932
 20
-29.423501999999999
 30
0.0
  0
VERTEX
  5
BDD
  8
LAYER01
  6
CONTINUOUS
 62
     7
 10
3079.190932
 20
-29.423501999999999
 30
0.0
  0
VERTEX
  5
BDE
  8
LAYER01
  6
CONTINUOUS
 62
     7
 10
3080.0526260000001
 20
-39.76383100000001
 30
0.0
  0
VERTEX
  5
BDF
  8
LAYER01
  6
CONTINUOUS
 62
     7
 10
3080.9143199999999
 20
-49.242466999999998
 30
0.0
  0
VERTEX
  5
BE0
  8
LAYER01
  6
CONTINUOUS
 62
     7
 10
3083.4994030000012
 20
-58.721102000000002
 30
0.0
  0
VERTEX
  5
BE1
  8
LAYER01
  6
CONTINUOUS
 62
     7
 10
3086.946179
 20
-67.338043999999996
 30
0.0
  0
VERTEX
  5
BE2
  8
LAYER01
  6
CONTINUOUS
 62
     7
 10
3090.3929560000001
 20
-75.954984999999994
 30
0.0
  0
VERTEX
  5
BE3
  8
LAYER01
  6
CONTINUOUS
 62
     7
 10
3095.5631210000001
 20
-83.710231999999991
 30
0.0
  0
VERTEX
  5
BE4
  8
LAYER01
  6
CONTINUOUS
 62
     7
 10
3100.7332849999998
 20
-91.465478999999988
 30
0.0
  0
VERTEX
  5
BE5
  8
LAYER01
  6
CONTINUOUS
 62
     7
 10
3106.765144
 20
-98.359031999999999
 30
0.0
  0
VERTEX
  5
BE6
  8
LAYER01
  6
CONTINUOUS
 62
     7
 10
3113.6586969999998
 20
-105.252585
 30
0.0
  0
VERTEX
  5
BE7
  8
LAYER01
  6
CONTINUOUS
 62
     7
 10
3121.4139439999999
 20
-110.42274999999999
 30
0.0
  0
VERTEX
  5
BE8
  8
LAYER01
  6
CONTINUOUS
 62
     7
 10
3129.1691920000012
 20
-115.592915
 30
0.0
  0
VERTEX
  5
BE9
  8
LAYER01
  6
CONTINUOUS
 62
     7
 10
3137.7861330000001
 20
-119.901385
 30
0.0
  0
VERTEX
  5
BEA
  8
LAYER01
  6
CONTINUOUS
 62
     7
 10
3146.4030739999998
 20
-123.348162
 30
0.0
  0
VERTEX
  5
BEB
  8
LAYER01
  6
CONTINUOUS
 62
     7
 10
3155.8817100000001
 20
-125.07155
 30
0.0
  0
VERTEX
  5
BEC
  8
LAYER01
  6
CONTINUOUS
 62
     7
 10
3165.3603450000001
 20
-126.794938
 30
0.0
  0
VERTEX
  5
BED
  8
LAYER01
  6
CONTINUOUS
 62
     7
 10
3174.83898
 20
-127.656633
 30
0.0
  0
VERTEX
  5
BEE
  8
LAYER01
  6
CONTINUOUS
 62
     7
 10
3174.83898
 20
-127.656633
 30
0.0
  0
VERTEX
  5
BEF
  8
LAYER01
  6
CONTINUOUS
 62
     7
 10
3185.17931
 20
-126.794938
 30
0.0
  0
VERTEX
  5
BF0
  8
LAYER01
  6
CONTINUOUS
 62
     7
 10
3194.6579449999999
 20
-125.07155
 30
0.0
  0
VERTEX
  5
BF1
  8
LAYER01
  6
CONTINUOUS
 62
     7
 10
3204.1365810000002
 20
-122.486468
 30
0.0
  0
VERTEX
  5
BF2
  8
LAYER01
  6
CONTINUOUS
 62
     7
 10
3212.753522
 20
-119.039691
 30
0.0
  0
VERTEX
  5
BF3
  8
LAYER01
  6
CONTINUOUS
 62
     7
 10
3221.3704629999988
 20
-114.73122100000001
 30
0.0
  0
VERTEX
  5
BF4
  8
LAYER01
  6
CONTINUOUS
 62
     7
 10
3229.1257110000001
 20
-109.56105599999999
 30
0.0
  0
VERTEX
  5
BF5
  8
LAYER01
  6
CONTINUOUS
 62
     7
 10
3236.8809580000002
 20
-104.390891
 30
0.0
  0
VERTEX
  5
BF6
  8
LAYER01
  6
CONTINUOUS
 62
     7
 10
3243.7745110000001
 20
-97.497338000000013
 30
0.0
  0
VERTEX
  5
BF7
  8
LAYER01
  6
CONTINUOUS
 62
     7
 10
3249.8063699999998
 20
-90.603785000000002
 30
0.0
  0
VERTEX
  5
BF8
  8
LAYER01
  6
CONTINUOUS
 62
     7
 10
3254.9765339999999
 20
-82.848538000000005
 30
0.0
  0
VERTEX
  5
BF9
  8
LAYER01
  6
CONTINUOUS
 62
     7
 10
3259.2850050000011
 20
-75.093291000000008
 30
0.0
  0
VERTEX
  5
BFA
  8
LAYER01
  6
CONTINUOUS
 62
     7
 10
3263.593476
 20
-66.476348999999985
 30
0.0
  0
VERTEX
  5
BFB
  8
LAYER01
  6
CONTINUOUS
 62
     7
 10
3267.0402519999998
 20
-56.997714000000002
 30
0.0
  0
VERTEX
  5
BFC
  8
LAYER01
  6
CONTINUOUS
 62
     7
 10
3268.7636399999992
 20
-47.519078999999991
 30
0.0
  0
VERTEX
  5
BFD
  8
LAYER01
  6
CONTINUOUS
 62
     7
 10
3269.6253350000002
 20
-38.040443000000003
 30
0.0
  0
VERTEX
  5
BFE
  8
LAYER01
  6
CONTINUOUS
 62
     7
 10
3270.4870289999999
 20
-27.700113999999999
 30
0.0
  0
VERTEX
  5
BFF
  8
LAYER01
  6
CONTINUOUS
 62
     7
 10
3270.4870289999999
 20
-27.700113999999999
 30
0.0
  0
VERTEX
  5
C00
  8
LAYER01
  6
CONTINUOUS
 62
     7
 10
3269.6253350000002
 20
-18.221478000000001
 30
0.0
  0
VERTEX
  5
C01
  8
LAYER01
  6
CONTINUOUS
 62
     7
 10
3267.901946
 20
-8.7428429999999988
 30
0.0
  0
VERTEX
  5
C02
  8
LAYER01
  6
CONTINUOUS
 62
     7
 10
3265.3168639999999
 20
-0.125901
 30
0.0
  0
VERTEX
  5
C03
  8
LAYER01
  6
CONTINUOUS
 62
     7
 10
3262.7317819999998
 20
8.4910399999999981
 30
0.0
  0
VERTEX
  5
C04
  8
LAYER01
  6
CONTINUOUS
 62
     7
 10
3258.423311
 20
16.246286999999999
 30
0.0
  0
VERTEX
  5
C05
  8
LAYER01
  6
CONTINUOUS
 62
     7
 10
3254.1148400000002
 20
24.001533999999999
 30
0.0
  0
VERTEX
  5
C06
  8
LAYER01
  6
CONTINUOUS
 62
     7
 10
3248.9446760000001
 20
31.756781
 30
0.0
  0
VERTEX
  5
C07
  8
LAYER01
  6
CONTINUOUS
 62
     7
 10
3242.9128170000008
 20
37.788640000000001
 30
0.0
  0
VERTEX
  5
C08
  8
LAYER01
  6
CONTINUOUS
 62
     7
 10
3236.019264
 20
43.820498999999998
 30
0.0
  0
VERTEX
  5
C09
  8
LAYER01
  6
CONTINUOUS
 62
     7
 10
3229.1257110000001
 20
49.852358000000002
 30
0.0
  0
VERTEX
  5
C0A
  8
LAYER01
  6
CONTINUOUS
 62
     7
 10
3221.3704629999988
 20
54.160829000000007
 30
0.0
  0
VERTEX
  5
C0B
  8
LAYER01
  6
CONTINUOUS
 62
     7
 10
3213.6152160000001
 20
58.469298999999999
 30
0.0
  0
VERTEX
  5
C0C
  8
LAYER01
  6
CONTINUOUS
 62
     7
 10
3204.9982749999999
 20
61.916076000000011
 30
0.0
  0
VERTEX
  5
C0D
  8
LAYER01
  6
CONTINUOUS
 62
     7
 10
3196.3813340000002
 20
64.501157999999975
 30
0.0
  0
VERTEX
  5
C0E
  8
LAYER01
  6
CONTINUOUS
 62
     7
 10
3186.9026979999999
 20
66.224545999999989
 30
0.0
  0
VERTEX
  5
C0F
  8
LAYER01
  6
CONTINUOUS
 62
     7
 10
3177.4240629999999
 20
67.086241000000001
 30
0.0
  0
VERTEX
  5
C10
  8
LAYER01
  6
CONTINUOUS
 62
     7
 10
3177.4240629999999
 20
67.086241000000001
 30
0.0
  0
SEQEND
  5
C11
  8
LAYER01
  6
CONTINUOUS
 62
     7
  0
POLYLINE
  5
37F
  8
LAYER01
  6
CONTINUOUS
 62
     7
 66
     1
 10
0.0
 20
0.0
 30
0.0
 70
     1
  0
VERTEX
  5
C12
  8
LAYER01
  6
CONTINUOUS
 62
     7
 10
3174.83898
 20
-92.327173000000002
 30
0.0
  0
VERTEX
  5
C13
  8
LAYER01
  6
CONTINUOUS
 62
     7
 10
3174.83898
 20
-92.327173000000002
 30
0.0
  0
VERTEX
  5
C14
  8
LAYER01
  6
CONTINUOUS
 62
     7
 10
3168.8071220000002
 20
-91.465478999999988
 30
0.0
  0
VERTEX
  5
C15
  8
LAYER01
  6
CONTINUOUS
 62
     7
 10
3162.775263
 20
-90.603785000000002
 30
0.0
  0
VERTEX
  5
C16
  8
LAYER01
  6
CONTINUOUS
 62
     7
 10
3156.7434039999998
 20
-89.742091000000016
 30
0.0
  0
VERTEX
  5
C17
  8
LAYER01
  6
CONTINUOUS
 62
     7
 10
3150.7115450000001
 20
-87.157007999999976
 30
0.0
  0
VERTEX
  5
C18
  8
LAYER01
  6
CONTINUOUS
 62
     7
 10
3145.5413800000001
 20
-84.571926000000005
 30
0.0
  0
VERTEX
  5
C19
  8
LAYER01
  6
CONTINUOUS
 62
     7
 10
3140.3712150000001
 20
-81.125150000000005
 30
0.0
  0
VERTEX
  5
C1A
  8
LAYER01
  6
CONTINUOUS
 62
     7
 10
3136.0627450000002
 20
-77.678372999999993
 30
0.0
  0
VERTEX
  5
C1B
  8
LAYER01
  6
CONTINUOUS
 62
     7
 10
3131.7542739999999
 20
-73.369901999999996
 30
0.0
  0
VERTEX
  5
C1C
  8
LAYER01
  6
CONTINUOUS
 62
     7
 10
3127.4458030000001
 20
-69.061431999999996
 30
0.0
  0
VERTEX
  5
C1D
  8
LAYER01
  6
CONTINUOUS
 62
     7
 10
3123.9990269999998
 20
-64.752960999999999
 30
0.0
  0
VERTEX
  5
C1E
  8
LAYER01
  6
CONTINUOUS
 62
     7
 10
3121.4139439999999
 20
-59.582796000000002
 30
0.0
  0
VERTEX
  5
C1F
  8
LAYER01
  6
CONTINUOUS
 62
     7
 10
3118.8288620000012
 20
-53.550936999999998
 30
0.0
  0
VERTEX
  5
C20
  8
LAYER01
  6
CONTINUOUS
 62
     7
 10
3116.2437799999998
 20
-48.380772999999998
 30
0.0
  0
VERTEX
  5
C21
  8
LAYER01
  6
CONTINUOUS
 62
     7
 10
3115.3820860000001
 20
-42.348914000000001
 30
0.0
  0
VERTEX
  5
C22
  8
LAYER01
  6
CONTINUOUS
 62
     7
 10
3113.6586969999998
 20
-36.317055000000003
 30
0.0
  0
VERTEX
  5
C23
  8
LAYER01
  6
CONTINUOUS
 62
     7
 10
3113.6586969999998
 20
-29.423501999999999
 30
0.0
  0
VERTEX
  5
C24
  8
LAYER01
  6
CONTINUOUS
 62
     7
 10
3113.6586969999998
 20
-29.423501999999999
 30
0.0
  0
VERTEX
  5
C25
  8
LAYER01
  6
CONTINUOUS
 62
     7
 10
3114.520391
 20
-23.391642999999998
 30
0.0
  0
VERTEX
  5
C26
  8
LAYER01
  6
CONTINUOUS
 62
     7
 10
3115.3820860000001
 20
-17.359784000000001
 30
0.0
  0
VERTEX
  5
C27
  8
LAYER01
  6
CONTINUOUS
 62
     7
 10
3117.105474
 20
-11.327925
 30
0.0
  0
VERTEX
  5
C28
  8
LAYER01
  6
CONTINUOUS
 62
     7
 10
3118.8288620000012
 20
-5.2960659999999997
 30
0.0
  0
VERTEX
  5
C29
  8
LAYER01
  6
CONTINUOUS
 62
     7
 10
3121.4139439999999
 20
-0.125901
 30
0.0
  0
VERTEX
  5
C2A
  8
LAYER01
  6
CONTINUOUS
 62
     7
 10
3124.860721
 20
5.0442629999999991
 30
0.0
  0
VERTEX
  5
C2B
  8
LAYER01
  6
CONTINUOUS
 62
     7
 10
3128.3074980000001
 20
9.3527339999999999
 30
0.0
  0
VERTEX
  5
C2C
  8
LAYER01
  6
CONTINUOUS
 62
     7
 10
3132.6159680000001
 20
13.661205000000001
 30
0.0
  0
VERTEX
  5
C2D
  8
LAYER01
  6
CONTINUOUS
 62
     7
 10
3136.9244389999999
 20
17.969674999999999
 30
0.0
  0
VERTEX
  5
C2E
  8
LAYER01
  6
CONTINUOUS
 62
     7
 10
3141.2329089999998
 20
21.416452
 30
0.0
  0
VERTEX
  5
C2F
  8
LAYER01
  6
CONTINUOUS
 62
     7
 10
3146.4030739999998
 20
24.863227999999999
 30
0.0
  0
VERTEX
  5
C30
  8
LAYER01
  6
CONTINUOUS
 62
     7
 10
3152.434933
 20
27.448311
 30
0.0
  0
VERTEX
  5
C31
  8
LAYER01
  6
CONTINUOUS
 62
     7
 10
3157.605098
 20
29.171699
 30
0.0
  0
VERTEX
  5
C32
  8
LAYER01
  6
CONTINUOUS
 62
     7
 10
3163.6369570000002
 20
30.895087
 30
0.0
  0
VERTEX
  5
C33
  8
LAYER01
  6
CONTINUOUS
 62
     7
 10
3169.6688159999999
 20
31.756781
 30
0.0
  0
VERTEX
  5
C34
  8
LAYER01
  6
CONTINUOUS
 62
     7
 10
3176.5623690000002
 20
31.756781
 30
0.0
  0
VERTEX
  5
C35
  8
LAYER01
  6
CONTINUOUS
 62
     7
 10
3176.5623690000002
 20
31.756781
 30
0.0
  0
VERTEX
  5
C36
  8
LAYER01
  6
CONTINUOUS
 62
     7
 10
3182.5942279999999
 20
30.895087
 30
0.0
  0
VERTEX
  5
C37
  8
LAYER01
  6
CONTINUOUS
 62
     7
 10
3188.6260870000001
 20
30.033393
 30
0.0
  0
VERTEX
  5
C38
  8
LAYER01
  6
CONTINUOUS
 62
     7
 10
3193.7962510000002
 20
28.310005
 30
0.0
  0
VERTEX
  5
C39
  8
LAYER01
  6
CONTINUOUS
 62
     7
 10
3199.8281099999999
 20
26.586615999999999
 30
0.0
  0
VERTEX
  5
C3A
  8
LAYER01
  6
CONTINUOUS
 62
     7
 10
3204.1365810000002
 20
24.001533999999999
 30
0.0
  0
VERTEX
  5
C3B
  8
LAYER01
  6
CONTINUOUS
 62
     7
 10
3209.3067460000002
 20
20.554758
 30
0.0
  0
VERTEX
  5
C3C
  8
LAYER01
  6
CONTINUOUS
 62
     7
 10
3213.6152160000001
 20
17.107980999999999
 30
0.0
  0
VERTEX
  5
C3D
  8
LAYER01
  6
CONTINUOUS
 62
     7
 10
3217.923687
 20
13.661205000000001
 30
0.0
  0
VERTEX
  5
C3E
  8
LAYER01
  6
CONTINUOUS
 62
     7
 10
3221.3704629999988
 20
9.3527339999999999
 30
0.0
  0
VERTEX
  5
C3F
  8
LAYER01
  6
CONTINUOUS
 62
     7
 10
3224.8172399999999
 20
4.1825689999999991
 30
0.0
  0
VERTEX
  5
C40
  8
LAYER01
  6
CONTINUOUS
 62
     7
 10
3228.2640160000001
 20
-0.125901
 30
0.0
  0
VERTEX
  5
C41
  8
LAYER01
  6
CONTINUOUS
 62
     7
 10
3230.849099
 20
-5.2960659999999997
 30
0.0
  0
VERTEX
  5
C42
  8
LAYER01
  6
CONTINUOUS
 62
     7
 10
3232.5724869999999
 20
-11.327925
 30
0.0
  0
VERTEX
  5
C43
  8
LAYER01
  6
CONTINUOUS
 62
     7
 10
3234.2958749999998
 20
-16.498090000000001
 30
0.0
  0
VERTEX
  5
C44
  8
LAYER01
  6
CONTINUOUS
 62
     7
 10
3235.157569
 20
-22.529948999999998
 30
0.0
  0
VERTEX
  5
C45
  8
LAYER01
  6
CONTINUOUS
 62
     7
 10
3235.157569
 20
-28.561807999999999
 30
0.0
  0
VERTEX
  5
C46
  8
LAYER01
  6
CONTINUOUS
 62
     7
 10
3235.157569
 20
-28.561807999999999
 30
0.0
  0
VERTEX
  5
C47
  8
LAYER01
  6
CONTINUOUS
 62
     7
 10
3235.157569
 20
-35.455361000000003
 30
0.0
  0
VERTEX
  5
C48
  8
LAYER01
  6
CONTINUOUS
 62
     7
 10
3234.2958749999998
 20
-41.487220000000001
 30
0.0
  0
VERTEX
  5
C49
  8
LAYER01
  6
CONTINUOUS
 62
     7
 10
3233.4341810000001
 20
-47.519078999999991
 30
0.0
  0
VERTEX
  5
C4A
  8
LAYER01
  6
CONTINUOUS
 62
     7
 10
3230.849099
 20
-52.689243000000012
 30
0.0
  0
VERTEX
  5
C4B
  8
LAYER01
  6
CONTINUOUS
 62
     7
 10
3229.1257110000001
 20
-58.721102000000002
 30
0.0
  0
VERTEX
  5
C4C
  8
LAYER01
  6
CONTINUOUS
 62
     7
 10
3225.678934
 20
-63.891267000000013
 30
0.0
  0
VERTEX
  5
C4D
  8
LAYER01
  6
CONTINUOUS
 62
     7
 10
3222.2321579999998
 20
-69.061431999999996
 30
0.0
  0
VERTEX
  5
C4E
  8
LAYER01
  6
CONTINUOUS
 62
     7
 10
3217.923687
 20
-73.369901999999996
 30
0.0
  0
VERTEX
  5
C4F
  8
LAYER01
  6
CONTINUOUS
 62
     7
 10
3213.6152160000001
 20
-77.678372999999993
 30
0.0
  0
VERTEX
  5
C50
  8
LAYER01
  6
CONTINUOUS
 62
     7
 10
3209.3067460000002
 20
-81.125150000000005
 30
0.0
  0
VERTEX
  5
C51
  8
LAYER01
  6
CONTINUOUS
 62
     7
 10
3204.1365810000002
 20
-84.571926000000005
 30
0.0
  0
VERTEX
  5
C52
  8
LAYER01
  6
CONTINUOUS
 62
     7
 10
3198.9664160000011
 20
-87.157007999999976
 30
0.0
  0
VERTEX
  5
C53
  8
LAYER01
  6
CONTINUOUS
 62
     7
 10
3192.934557
 20
-88.880397000000002
 30
0.0
  0
VERTEX
  5
C54
  8
LAYER01
  6
CONTINUOUS
 62
     7
 10
3186.9026979999999
 20
-90.603785000000002
 30
0.0
  0
VERTEX
  5
C55
  8
LAYER01
  6
CONTINUOUS
 62
     7
 10
3180.8708390000011
 20
-91.465478999999988
 30
0.0
  0
VERTEX
  5
C56
  8
LAYER01
  6
CONTINUOUS
 62
     7
 10
3174.83898
 20
-92.327173000000002
 30
0.0
  0
VERTEX
  5
C57
  8
LAYER01
  6
CONTINUOUS
 62
     7
 10
3174.83898
 20
-92.327173000000002
 30
0.0
  0
SEQEND
  5
C58
  8
LAYER01
  6
CONTINUOUS
 62
     7
  0
POLYLINE
  5
3C7
  8
LAYER01
  6
CONTINUOUS
 62
     7
 66
     1
 10
0.0
 20
0.0
 30
0.0
 70
     1
  0
VERTEX
  5
C59
  8
LAYER01
  6
CONTINUOUS
 62
     7
 10
3243.7745110000001
 20
62.777769999999997
 30
0.0
  0
VERTEX
  5
C5A
  8
LAYER01
  6
CONTINUOUS
 62
     7
 10
3335.1140879999998
 20
62.777769999999997
 30
0.0
  0
VERTEX
  5
C5B
  8
LAYER01
  6
CONTINUOUS
 62
     7
 10
3335.1140879999998
 20
62.777769999999997
 30
0.0
  0
VERTEX
  5
C5C
  8
LAYER01
  6
CONTINUOUS
 62
     7
 10
3345.4544179999998
 20
61.054381999999997
 30
0.0
  0
VERTEX
  5
C5D
  8
LAYER01
  6
CONTINUOUS
 62
     7
 10
3354.9330530000011
 20
56.745911
 30
0.0
  0
VERTEX
  5
C5E
  8
LAYER01
  6
CONTINUOUS
 62
     7
 10
3362.6882999999998
 20
51.575746000000002
 30
0.0
  0
VERTEX
  5
C5F
  8
LAYER01
  6
CONTINUOUS
 62
     7
 10
3369.581854
 20
44.682192999999998
 30
0.0
  0
VERTEX
  5
C60
  8
LAYER01
  6
CONTINUOUS
 62
     7
 10
3375.6137119999999
 20
37.788640000000001
 30
0.0
  0
VERTEX
  5
C61
  8
LAYER01
  6
CONTINUOUS
 62
     7
 10
3379.9221830000001
 20
29.171699
 30
0.0
  0
VERTEX
  5
C62
  8
LAYER01
  6
CONTINUOUS
 62
     7
 10
3382.5072650000002
 20
18.831368999999999
 30
0.0
  0
VERTEX
  5
C63
  8
LAYER01
  6
CONTINUOUS
 62
     7
 10
3383.3689599999998
 20
9.3527339999999999
 30
0.0
  0
VERTEX
  5
C64
  8
LAYER01
  6
CONTINUOUS
 62
     7
 10
3383.3689599999998
 20
9.3527339999999999
 30
0.0
  0
VERTEX
  5
C65
  8
LAYER01
  6
CONTINUOUS
 62
     7
 10
3382.5072650000002
 20
-0.9875959999999999
 30
0.0
  0
VERTEX
  5
C66
  8
LAYER01
  6
CONTINUOUS
 62
     7
 10
3380.7838770000012
 20
-9.6045369999999988
 30
0.0
  0
VERTEX
  5
C67
  8
LAYER01
  6
CONTINUOUS
 62
     7
 10
3377.3371010000001
 20
-18.221478000000001
 30
0.0
  0
VERTEX
  5
C68
  8
LAYER01
  6
CONTINUOUS
 62
     7
 10
3373.0286299999998
 20
-25.976724999999998
 30
0.0
  0
VERTEX
  5
C69
  8
LAYER01
  6
CONTINUOUS
 62
     7
 10
3366.9967710000001
 20
-32.870278000000013
 30
0.0
  0
VERTEX
  5
C6A
  8
LAYER01
  6
CONTINUOUS
 62
     7
 10
3360.9649119999999
 20
-38.040443000000003
 30
0.0
  0
VERTEX
  5
C6B
  8
LAYER01
  6
CONTINUOUS
 62
     7
 10
3352.3479710000001
 20
-43.210608000000001
 30
0.0
  0
VERTEX
  5
C6C
  8
LAYER01
  6
CONTINUOUS
 62
     7
 10
3343.7310299999999
 20
-46.657384
 30
0.0
  0
VERTEX
  5
C6D
  8
LAYER01
  6
CONTINUOUS
 62
     7
 10
3399.7411480000001
 20
-121.624774
 30
0.0
  0
VERTEX
  5
C6E
  8
LAYER01
  6
CONTINUOUS
 62
     7
 10
3356.656442
 20
-121.624774
 30
0.0
  0
VERTEX
  5
C6F
  8
LAYER01
  6
CONTINUOUS
 62
     7
 10
3281.6890520000002
 20
-25.976724999999998
 30
0.0
  0
VERTEX
  5
C70
  8
LAYER01
  6
CONTINUOUS
 62
     7
 10
3323.912065
 20
-25.976724999999998
 30
0.0
  0
VERTEX
  5
C71
  8
LAYER01
  6
CONTINUOUS
 62
     7
 10
3323.912065
 20
-25.976724999999998
 30
0.0
  0
VERTEX
  5
C72
  8
LAYER01
  6
CONTINUOUS
 62
     7
 10
3329.0822290000001
 20
-24.253336999999998
 30
0.0
  0
VERTEX
  5
C73
  8
LAYER01
  6
CONTINUOUS
 62
     7
 10
3333.3906999999999
 20
-22.529948999999998
 30
0.0
  0
VERTEX
  5
C74
  8
LAYER01
  6
CONTINUOUS
 62
     7
 10
3336.837477
 20
-19.083172000000001
 30
0.0
  0
VERTEX
  5
C75
  8
LAYER01
  6
CONTINUOUS
 62
     7
 10
3340.2842529999998
 20
-15.636396
 30
0.0
  0
VERTEX
  5
C76
  8
LAYER01
  6
CONTINUOUS
 62
     7
 10
3342.8693360000002
 20
-11.327925
 30
0.0
  0
VERTEX
  5
C77
  8
LAYER01
  6
CONTINUOUS
 62
     7
 10
3345.4544179999998
 20
-7.0194549999999998
 30
0.0
  0
VERTEX
  5
C78
  8
LAYER01
  6
CONTINUOUS
 62
     7
 10
3346.316112
 20
-1.8492900000000001
 30
0.0
  0
VERTEX
  5
C79
  8
LAYER01
  6
CONTINUOUS
 62
     7
 10
3346.316112
 20
3.320875
 30
0.0
  0
VERTEX
  5
C7A
  8
LAYER01
  6
CONTINUOUS
 62
     7
 10
3346.316112
 20
3.320875
 30
0.0
  0
VERTEX
  5
C7B
  8
LAYER01
  6
CONTINUOUS
 62
     7
 10
3346.316112
 20
8.4910399999999981
 30
0.0
  0
VERTEX
  5
C7C
  8
LAYER01
  6
CONTINUOUS
 62
     7
 10
3344.5927240000001
 20
12.79951
 30
0.0
  0
VERTEX
  5
C7D
  8
LAYER01
  6
CONTINUOUS
 62
     7
 10
3342.8693360000002
 20
17.107980999999999
 30
0.0
  0
VERTEX
  5
C7E
  8
LAYER01
  6
CONTINUOUS
 62
     7
 10
3340.2842529999998
 20
21.416452
 30
0.0
  0
VERTEX
  5
C7F
  8
LAYER01
  6
CONTINUOUS
 62
     7
 10
3336.837477
 20
24.863227999999999
 30
0.0
  0
VERTEX
  5
C80
  8
LAYER01
  6
CONTINUOUS
 62
     7
 10
3333.3906999999999
 20
27.448311
 30
0.0
  0
VERTEX
  5
C81
  8
LAYER01
  6
CONTINUOUS
 62
     7
 10
3328.2205349999999
 20
30.033393
 30
0.0
  0
VERTEX
  5
C82
  8
LAYER01
  6
CONTINUOUS
 62
     7
 10
3323.912065
 20
31.756781
 30
0.0
  0
VERTEX
  5
C83
  8
LAYER01
  6
CONTINUOUS
 62
     7
 10
3274.7954989999998
 20
31.756781
 30
0.0
  0
VERTEX
  5
C84
  8
LAYER01
  6
CONTINUOUS
 62
     7
 10
3243.7745110000001
 20
62.777769999999997
 30
0.0
  0
VERTEX
  5
C85
  8
LAYER01
  6
CONTINUOUS
 62
     7
 10
3243.7745110000001
 20
62.777769999999997
 30
0.0
  0
SEQEND
  5
C86
  8
LAYER01
  6
CONTINUOUS
 62
     7
  0
POLYLINE
  5
3F6
  8
LAYER01
  6
CONTINUOUS
 62
     7
 66
     1
 10
0.0
 20
0.0
 30
0.0
 70
     1
  0
VERTEX
  5
C87
  8
LAYER01
  6
CONTINUOUS
 62
     7
 10
3423.0068890000011
 20
17.107980999999999
 30
0.0
  0
VERTEX
  5
C88
  8
LAYER01
  6
CONTINUOUS
 62
     7
 10
3423.0068890000011
 20
17.107980999999999
 30
0.0
  0
VERTEX
  5
C89
  8
LAYER01
  6
CONTINUOUS
 62
     7
 10
3427.3153600000001
 20
17.969674999999999
 30
0.0
  0
VERTEX
  5
C8A
  8
LAYER01
  6
CONTINUOUS
 62
     7
 10
3431.6238309999999
 20
18.831368999999999
 30
0.0
  0
VERTEX
  5
C8B
  8
LAYER01
  6
CONTINUOUS
 62
     7
 10
3435.9323009999998
 20
21.416452
 30
0.0
  0
VERTEX
  5
C8C
  8
LAYER01
  6
CONTINUOUS
 62
     7
 10
3439.3790779999999
 20
24.001533999999999
 30
0.0
  0
VERTEX
  5
C8D
  8
LAYER01
  6
CONTINUOUS
 62
     7
 10
3441.96416
 20
27.448311
 30
0.0
  0
VERTEX
  5
C8E
  8
LAYER01
  6
CONTINUOUS
 62
     7
 10
3443.6875490000011
 20
30.895087
 30
0.0
  0
VERTEX
  5
C8F
  8
LAYER01
  6
CONTINUOUS
 62
     7
 10
3445.4109370000001
 20
35.203558000000001
 30
0.0
  0
VERTEX
  5
C90
  8
LAYER01
  6
CONTINUOUS
 62
     7
 10
3445.4109370000001
 20
40.373722999999998
 30
0.0
  0
VERTEX
  5
C91
  8
LAYER01
  6
CONTINUOUS
 62
     7
 10
3445.4109370000001
 20
40.373722999999998
 30
0.0
  0
VERTEX
  5
C92
  8
LAYER01
  6
CONTINUOUS
 62
     7
 10
3445.4109370000001
 20
44.682192999999998
 30
0.0
  0
VERTEX
  5
C93
  8
LAYER01
  6
CONTINUOUS
 62
     7
 10
3443.6875490000011
 20
48.990664000000002
 30
0.0
  0
VERTEX
  5
C94
  8
LAYER01
  6
CONTINUOUS
 62
     7
 10
3441.96416
 20
52.437440000000002
 30
0.0
  0
VERTEX
  5
C95
  8
LAYER01
  6
CONTINUOUS
 62
     7
 10
3439.3790779999999
 20
55.884217000000007
 30
0.0
  0
VERTEX
  5
C96
  8
LAYER01
  6
CONTINUOUS
 62
     7
 10
3435.9323009999998
 20
58.469298999999999
 30
0.0
  0
VERTEX
  5
C97
  8
LAYER01
  6
CONTINUOUS
 62
     7
 10
3431.6238309999999
 20
61.054381999999997
 30
0.0
  0
VERTEX
  5
C98
  8
LAYER01
  6
CONTINUOUS
 62
     7
 10
3427.3153600000001
 20
61.916076000000011
 30
0.0
  0
VERTEX
  5
C99
  8
LAYER01
  6
CONTINUOUS
 62
     7
 10
3423.0068890000011
 20
62.777769999999997
 30
0.0
  0
VERTEX
  5
C9A
  8
LAYER01
  6
CONTINUOUS
 62
     7
 10
3423.0068890000011
 20
62.777769999999997
 30
0.0
  0
VERTEX
  5
C9B
  8
LAYER01
  6
CONTINUOUS
 62
     7
 10
3418.6984189999998
 20
61.916076000000011
 30
0.0
  0
VERTEX
  5
C9C
  8
LAYER01
  6
CONTINUOUS
 62
     7
 10
3414.389948
 20
61.054381999999997
 30
0.0
  0
VERTEX
  5
C9D
  8
LAYER01
  6
CONTINUOUS
 62
     7
 10
3410.0814780000001
 20
58.469298999999999
 30
0.0
  0
VERTEX
  5
C9E
  8
LAYER01
  6
CONTINUOUS
 62
     7
 10
3406.6347009999999
 20
55.884217000000007
 30
0.0
  0
VERTEX
  5
C9F
  8
LAYER01
  6
CONTINUOUS
 62
     7
 10
3404.0496189999999
 20
52.437440000000002
 30
0.0
  0
VERTEX
  5
CA0
  8
LAYER01
  6
CONTINUOUS
 62
     7
 10
3402.3262300000001
 20
48.990664000000002
 30
0.0
  0
VERTEX
  5
CA1
  8
LAYER01
  6
CONTINUOUS
 62
     7
 10
3400.6028419999998
 20
44.682192999999998
 30
0.0
  0
VERTEX
  5
CA2
  8
LAYER01
  6
CONTINUOUS
 62
     7
 10
3400.6028419999998
 20
40.373722999999998
 30
0.0
  0
VERTEX
  5
CA3
  8
LAYER01
  6
CONTINUOUS
 62
     7
 10
3400.6028419999998
 20
40.373722999999998
 30
0.0
  0
VERTEX
  5
CA4
  8
LAYER01
  6
CONTINUOUS
 62
     7
 10
3400.6028419999998
 20
35.203558000000001
 30
0.0
  0
VERTEX
  5
CA5
  8
LAYER01
  6
CONTINUOUS
 62
     7
 10
3402.3262300000001
 20
30.895087
 30
0.0
  0
VERTEX
  5
CA6
  8
LAYER01
  6
CONTINUOUS
 62
     7
 10
3404.0496189999999
 20
27.448311
 30
0.0
  0
VERTEX
  5
CA7
  8
LAYER01
  6
CONTINUOUS
 62
     7
 10
3406.6347009999999
 20
24.001533999999999
 30
0.0
  0
VERTEX
  5
CA8
  8
LAYER01
  6
CONTINUOUS
 62
     7
 10
3410.0814780000001
 20
21.416452
 30
0.0
  0
VERTEX
  5
CA9
  8
LAYER01
  6
CONTINUOUS
 62
     7
 10
3414.389948
 20
18.831368999999999
 30
0.0
  0
VERTEX
  5
CAA
  8
LAYER01
  6
CONTINUOUS
 62
     7
 10
3418.6984189999998
 20
17.969674999999999
 30
0.0
  0
VERTEX
  5
CAB
  8
LAYER01
  6
CONTINUOUS
 62
     7
 10
3423.0068890000011
 20
17.107980999999999
 30
0.0
  0
VERTEX
  5
CAC
  8
LAYER01
  6
CONTINUOUS
 62
     7
 10
3423.0068890000011
 20
17.107980999999999
 30
0.0
  0
SEQEND
  5
CAD
  8
LAYER01
  6
CONTINUOUS
 62
     7
  0
POLYLINE
  5
41E
  8
LAYER01
  6
CONTINUOUS
 62
     7
 66
     1
 10
0.0
 20
0.0
 30
0.0
 70
     1
  0
VERTEX
  5
CAE
  8
LAYER01
  6
CONTINUOUS
 62
     7
 10
3423.0068890000011
 20
59.330993000000007
 30
0.0
  0
VERTEX
  5
CAF
  8
LAYER01
  6
CONTINUOUS
 62
     7
 10
3423.0068890000011
 20
59.330993000000007
 30
0.0
  0
VERTEX
  5
CB0
  8
LAYER01
  6
CONTINUOUS
 62
     7
 10
3426.4536659999999
 20
58.469298999999999
 30
0.0
  0
VERTEX
  5
CB1
  8
LAYER01
  6
CONTINUOUS
 62
     7
 10
3429.9004430000009
 20
57.607605
 30
0.0
  0
VERTEX
  5
CB2
  8
LAYER01
  6
CONTINUOUS
 62
     7
 10
3433.3472190000002
 20
55.884217000000007
 30
0.0
  0
VERTEX
  5
CB3
  8
LAYER01
  6
CONTINUOUS
 62
     7
 10
3435.9323009999998
 20
53.299133999999988
 30
0.0
  0
VERTEX
  5
CB4
  8
LAYER01
  6
CONTINUOUS
 62
     7
 10
3438.5173840000002
 20
50.714052000000002
 30
0.0
  0
VERTEX
  5
CB5
  8
LAYER01
  6
CONTINUOUS
 62
     7
 10
3440.2407720000001
 20
47.267276000000003
 30
0.0
  0
VERTEX
  5
CB6
  8
LAYER01
  6
CONTINUOUS
 62
     7
 10
3441.96416
 20
43.820498999999998
 30
0.0
  0
VERTEX
  5
CB7
  8
LAYER01
  6
CONTINUOUS
 62
     7
 10
3441.96416
 20
40.373722999999998
 30
0.0
  0
VERTEX
  5
CB8
  8
LAYER01
  6
CONTINUOUS
 62
     7
 10
3441.96416
 20
40.373722999999998
 30
0.0
  0
VERTEX
  5
CB9
  8
LAYER01
  6
CONTINUOUS
 62
     7
 10
3441.96416
 20
36.065252000000001
 30
0.0
  0
VERTEX
  5
CBA
  8
LAYER01
  6
CONTINUOUS
 62
     7
 10
3440.2407720000001
 20
32.618474999999997
 30
0.0
  0
VERTEX
  5
CBB
  8
LAYER01
  6
CONTINUOUS
 62
     7
 10
3438.5173840000002
 20
29.171699
 30
0.0
  0
VERTEX
  5
CBC
  8
LAYER01
  6
CONTINUOUS
 62
     7
 10
3435.9323009999998
 20
26.586615999999999
 30
0.0
  0
VERTEX
  5
CBD
  8
LAYER01
  6
CONTINUOUS
 62
     7
 10
3433.3472190000002
 20
24.001533999999999
 30
0.0
  0
VERTEX
  5
CBE
  8
LAYER01
  6
CONTINUOUS
 62
     7
 10
3429.9004430000009
 20
22.278146
 30
0.0
  0
VERTEX
  5
CBF
  8
LAYER01
  6
CONTINUOUS
 62
     7
 10
3426.4536659999999
 20
21.416452
 30
0.0
  0
VERTEX
  5
CC0
  8
LAYER01
  6
CONTINUOUS
 62
     7
 10
3423.0068890000011
 20
21.416452
 30
0.0
  0
VERTEX
  5
CC1
  8
LAYER01
  6
CONTINUOUS
 62
     7
 10
3423.0068890000011
 20
21.416452
 30
0.0
  0
VERTEX
  5
CC2
  8
LAYER01
  6
CONTINUOUS
 62
     7
 10
3419.5601130000009
 20
21.416452
 30
0.0
  0
VERTEX
  5
CC3
  8
LAYER01
  6
CONTINUOUS
 62
     7
 10
3415.2516420000011
 20
22.278146
 30
0.0
  0
VERTEX
  5
CC4
  8
LAYER01
  6
CONTINUOUS
 62
     7
 10
3412.6665600000001
 20
24.001533999999999
 30
0.0
  0
VERTEX
  5
CC5
  8
LAYER01
  6
CONTINUOUS
 62
     7
 10
3409.2197830000009
 20
26.586615999999999
 30
0.0
  0
VERTEX
  5
CC6
  8
LAYER01
  6
CONTINUOUS
 62
     7
 10
3407.496395000001
 20
29.171699
 30
0.0
  0
VERTEX
  5
CC7
  8
LAYER01
  6
CONTINUOUS
 62
     7
 10
3405.7730069999998
 20
32.618474999999997
 30
0.0
  0
VERTEX
  5
CC8
  8
LAYER01
  6
CONTINUOUS
 62
     7
 10
3404.0496189999999
 20
36.065252000000001
 30
0.0
  0
VERTEX
  5
CC9
  8
LAYER01
  6
CONTINUOUS
 62
     7
 10
3404.0496189999999
 20
40.373722999999998
 30
0.0
  0
VERTEX
  5
CCA
  8
LAYER01
  6
CONTINUOUS
 62
     7
 10
3404.0496189999999
 20
40.373722999999998
 30
0.0
  0
VERTEX
  5
CCB
  8
LAYER01
  6
CONTINUOUS
 62
     7
 10
3404.0496189999999
 20
43.820498999999998
 30
0.0
  0
VERTEX
  5
CCC
  8
LAYER01
  6
CONTINUOUS
 62
     7
 10
3405.7730069999998
 20
47.267276000000003
 30
0.0
  0
VERTEX
  5
CCD
  8
LAYER01
  6
CONTINUOUS
 62
     7
 10
3407.496395000001
 20
50.714052000000002
 30
0.0
  0
VERTEX
  5
CCE
  8
LAYER01
  6
CONTINUOUS
 62
     7
 10
3409.2197830000009
 20
53.299133999999988
 30
0.0
  0
VERTEX
  5
CCF
  8
LAYER01
  6
CONTINUOUS
 62
     7
 10
3412.6665600000001
 20
55.884217000000007
 30
0.0
  0
VERTEX
  5
CD0
  8
LAYER01
  6
CONTINUOUS
 62
     7
 10
3415.2516420000011
 20
57.607605
 30
0.0
  0
VERTEX
  5
CD1
  8
LAYER01
  6
CONTINUOUS
 62
     7
 10
3419.5601130000009
 20
58.469298999999999
 30
0.0
  0
VERTEX
  5
CD2
  8
LAYER01
  6
CONTINUOUS
 62
     7
 10
3423.0068890000011
 20
59.330993000000007
 30
0.0
  0
VERTEX
  5
CD3
  8
LAYER01
  6
CONTINUOUS
 62
     7
 10
3423.0068890000011
 20
59.330993000000007
 30
0.0
  0
SEQEND
  5
CD4
  8
LAYER01
  6
CONTINUOUS
 62
     7
  0
POLYLINE
  5
446
  8
LAYER01
  6
CONTINUOUS
 62
     7
 66
     1
 10
0.0
 20
0.0
 30
0.0
 70
     1
  0
VERTEX
  5
CD5
  8
LAYER01
  6
CONTINUOUS
 62
     7
 10
3426.4536659999999
 20
38.650334000000001
 30
0.0
  0
VERTEX
  5
CD6
  8
LAYER01
  6
CONTINUOUS
 62
     7
 10
3426.4536659999999
 20
38.650334000000001
 30
0.0
  0
VERTEX
  5
CD7
  8
LAYER01
  6
CONTINUOUS
 62
     7
 10
3429.038747999999
 20
39.512028000000001
 30
0.0
  0
VERTEX
  5
CD8
  8
LAYER01
  6
CONTINUOUS
 62
     7
 10
3431.6238309999999
 20
40.373722999999998
 30
0.0
  0
VERTEX
  5
CD9
  8
LAYER01
  6
CONTINUOUS
 62
     7
 10
3433.3472190000002
 20
42.958804999999991
 30
0.0
  0
VERTEX
  5
CDA
  8
LAYER01
  6
CONTINUOUS
 62
     7
 10
3433.3472190000002
 20
45.543886999999991
 30
0.0
  0
VERTEX
  5
CDB
  8
LAYER01
  6
CONTINUOUS
 62
     7
 10
3433.3472190000002
 20
45.543886999999991
 30
0.0
  0
VERTEX
  5
CDC
  8
LAYER01
  6
CONTINUOUS
 62
     7
 10
3433.3472190000002
 20
48.990664000000002
 30
0.0
  0
VERTEX
  5
CDD
  8
LAYER01
  6
CONTINUOUS
 62
     7
 10
3430.7621370000002
 20
51.575746000000002
 30
0.0
  0
VERTEX
  5
CDE
  8
LAYER01
  6
CONTINUOUS
 62
     7
 10
3428.1770540000002
 20
52.437440000000002
 30
0.0
  0
VERTEX
  5
CDF
  8
LAYER01
  6
CONTINUOUS
 62
     7
 10
3424.730278
 20
52.437440000000002
 30
0.0
  0
VERTEX
  5
CE0
  8
LAYER01
  6
CONTINUOUS
 62
     7
 10
3414.389948
 20
52.437440000000002
 30
0.0
  0
VERTEX
  5
CE1
  8
LAYER01
  6
CONTINUOUS
 62
     7
 10
3414.389948
 20
27.448311
 30
0.0
  0
VERTEX
  5
CE2
  8
LAYER01
  6
CONTINUOUS
 62
     7
 10
3417.8367250000001
 20
27.448311
 30
0.0
  0
VERTEX
  5
CE3
  8
LAYER01
  6
CONTINUOUS
 62
     7
 10
3417.8367250000001
 20
38.650334000000001
 30
0.0
  0
VERTEX
  5
CE4
  8
LAYER01
  6
CONTINUOUS
 62
     7
 10
3423.0068890000011
 20
38.650334000000001
 30
0.0
  0
VERTEX
  5
CE5
  8
LAYER01
  6
CONTINUOUS
 62
     7
 10
3429.038747999999
 20
27.448311
 30
0.0
  0
VERTEX
  5
CE6
  8
LAYER01
  6
CONTINUOUS
 62
     7
 10
3433.3472190000002
 20
27.448311
 30
0.0
  0
VERTEX
  5
CE7
  8
LAYER01
  6
CONTINUOUS
 62
     7
 10
3426.4536659999999
 20
38.650334000000001
 30
0.0
  0
VERTEX
  5
CE8
  8
LAYER01
  6
CONTINUOUS
 62
     7
 10
3426.4536659999999
 20
38.650334000000001
 30
0.0
  0
SEQEND
  5
CE9
  8
LAYER01
  6
CONTINUOUS
 62
     7
  0
POLYLINE
  5
45C
  8
LAYER01
  6
CONTINUOUS
 62
     7
 66
     1
 10
0.0
 20
0.0
 30
0.0
 70
     1
  0
VERTEX
  5
CEA
  8
LAYER01
  6
CONTINUOUS
 62
     7
 10
3423.8685839999998
 20
48.990664000000002
 30
0.0
  0
VERTEX
  5
CEB
  8
LAYER01
  6
CONTINUOUS
 62
     7
 10
3423.8685839999998
 20
48.990664000000002
 30
0.0
  0
VERTEX
  5
CEC
  8
LAYER01
  6
CONTINUOUS
 62
     7
 10
3428.1770540000002
 20
48.128970000000002
 30
0.0
  0
VERTEX
  5
CED
  8
LAYER01
  6
CONTINUOUS
 62
     7
 10
3429.9004430000009
 20
47.267276000000003
 30
0.0
  0
VERTEX
  5
CEE
  8
LAYER01
  6
CONTINUOUS
 62
     7
 10
3429.9004430000009
 20
45.543886999999991
 30
0.0
  0
VERTEX
  5
CEF
  8
LAYER01
  6
CONTINUOUS
 62
     7
 10
3429.9004430000009
 20
45.543886999999991
 30
0.0
  0
VERTEX
  5
CF0
  8
LAYER01
  6
CONTINUOUS
 62
     7
 10
3429.038747999999
 20
43.820498999999998
 30
0.0
  0
VERTEX
  5
CF1
  8
LAYER01
  6
CONTINUOUS
 62
     7
 10
3427.3153600000001
 20
42.958804999999991
 30
0.0
  0
VERTEX
  5
CF2
  8
LAYER01
  6
CONTINUOUS
 62
     7
 10
3422.145195000001
 20
42.097110999999991
 30
0.0
  0
VERTEX
  5
CF3
  8
LAYER01
  6
CONTINUOUS
 62
     7
 10
3417.8367250000001
 20
42.097110999999991
 30
0.0
  0
VERTEX
  5
CF4
  8
LAYER01
  6
CONTINUOUS
 62
     7
 10
3417.8367250000001
 20
48.990664000000002
 30
0.0
  0
VERTEX
  5
CF5
  8
LAYER01
  6
CONTINUOUS
 62
     7
 10
3423.8685839999998
 20
48.990664000000002
 30
0.0
  0
VERTEX
  5
CF6
  8
LAYER01
  6
CONTINUOUS
 62
     7
 10
3423.8685839999998
 20
48.990664000000002
 30
0.0
  0
SEQEND
  5
CF7
  8
LAYER01
  6
CONTINUOUS
 62
     7
  0
ENDBLK
  5
46B
  8
0
  0
BLOCK
  8
0
  2
CUADRA-G25
 70
     0
 10
0.0
 20
0.0
 30
0.0
  3
CUADRA-G25
  1

  0
TEXT
  5
46E
  8
LAYER01
  6
VERDECKT
 62
     1
 10
2423.7575850000012
 20
-387.267672
 30
0.0
 40
9.8979999999999997
  1
A. Sprenger GmbH
  7
SIMPLEX
  0
TEXT
  5
46F
  8
LAYER01
  6
VERDECKT
 62
     1
 10
2423.7575850000012
 20
-404.23567199999991
 30
0.0
 40
9.8979999999999997
  1
Berner Str. 10
  7
SIMPLEX
  0
TEXT
  5
470
  8
LAYER01
  6
VERDECKT
 62
     1
 10
2423.7575850000012
 20
-421.20367199999993
 30
0.0
 40
9.8979999999999997
  1
60437 Frankfurt
  7
SIMPLEX
  0
TEXT
  5
471
  8
LAYER01
  6
VERDECKT
 62
     1
 10
2423.7575850000012
 20
-438.171672
 30
0.0
 40
9.8979999999999997
  1
Tel.: 069 - 507 27 41
  7
SIMPLEX
  0
TEXT
  5
472
  8
LAYER01
  6
VERDECKT
 62
     1
 10
2423.7575850000012
 20
-455.1396719999999
 30
0.0
 40
9.8979999999999997
  1
Fax: 069 - 507 72 91
  7
SIMPLEX
  0
TEXT
  5
473
  8
LAYER01
  6
VERDECKT
 62
     1
 10
2423.7575850000012
 20
-472.10767199999998
 30
0.0
 40
9.8979999999999997
  1
info@varicor.org
  7
SIMPLEX
  0
ENDBLK
  5
474
  8
0
  0
BLOCK
  8
0
  2
CUADRA-G24
 70
     0
 10
0.0
 20
0.0
 30
0.0
  3
CUADRA-G24
  1

  0
TEXT
  5
477
  8
LAYER01
  6
CONTINUOUS
 62
     1
 10
3463.8576910000002
 20
-619.95004100000006
 30
0.0
 40
9.8979999999999997
  1
Blatt
  7
SIMPLEX
  0
LINE
  5
478
  8
LAYER01
  6
CONTINUOUS
 62
     1
 10
2409.720691
 20
-550.664041
 30
0.0
 11
3003.6006910000001
 21
-550.664041
 31
0.0
  0
LINE
  5
479
  8
LAYER01
  6
CONTINUOUS
 62
     1
 10
2409.720691
 20
-575.40904099999989
 30
0.0
 11
3003.6006910000001
 21
-575.40904099999989
 31
0.0
  0
LINE
  5
47A
  8
LAYER01
  6
CONTINUOUS
 62
     1
 10
2409.720691
 20
-600.15404100000001
 30
0.0
 11
3528.1946909999988
 21
-600.15404100000001
 31
0.0
  0
LINE
  5
47B
  8
LAYER01
  6
CONTINUOUS
 62
     1
 10
2409.720691
 20
-674.38904100000002
 30
0.0
 11
3528.1946909999988
 21
-674.38904100000002
 31
0.0
  0
LINE
  5
47C
  8
LAYER01
  6
CONTINUOUS
 62
     1
 10
2409.720691
 20
-476.42904099999998
 30
0.0
 11
3528.1946909999988
 21
-476.42904099999998
 31
0.0
  0
POLYLINE
  5
47D
  8
LAYER01
  6
CONTINUOUS
 62
     1
 66
     1
 10
0.0
 20
0.0
 30
0.0
 70
     1
  0
VERTEX
  5
CF8
  8
LAYER01
  6
CONTINUOUS
 62
     1
 10
2409.720691
 20
-704.08304099999987
 30
0.0
  0
VERTEX
  5
CF9
  8
LAYER01
  6
CONTINUOUS
 62
     1
 10
2409.720691
 20
-372.50004100000001
 30
0.0
  0
VERTEX
  5
CFA
  8
LAYER01
  6
CONTINUOUS
 62
     1
 10
3528.1946909999988
 20
-372.50004100000001
 30
0.0
  0
VERTEX
  5
CFB
  8
LAYER01
  6
CONTINUOUS
 62
     1
 10
3528.1946909999988
 20
-704.08304099999987
 30
0.0
  0
SEQEND
  5
CFC
  8
LAYER01
  6
CONTINUOUS
 62
     1
  0
LINE
  5
483
  8
LAYER01
  6
CONTINUOUS
 62
     1
 10
2409.720691
 20
-501.17404099999987
 30
0.0
 11
3003.6006910000001
 21
-501.17404099999987
 31
0.0
  0
LINE
  5
484
  8
LAYER01
  6
CONTINUOUS
 62
     1
 10
2409.720691
 20
-525.91904099999999
 30
0.0
 11
3003.6006910000001
 21
-525.91904099999999
 31
0.0
  0
LINE
  5
485
  8
LAYER01
  6
CONTINUOUS
 62
     1
 10
2731.4056909999999
 20
-372.50004100000001
 30
0.0
 11
2731.4056909999999
 21
-704.08304099999987
 31
0.0
  0
INSERT
  5
486
  8
LAYER01
  2
CUADRA-G25
 10
0.0
 20
0.0
 30
0.0
  0
LINE
  5
487
  8
LAYER01
  6
CONTINUOUS
 62
     1
 10
2409.720691
 20
-649.6440409999999
 30
0.0
 11
2731.4056909999999
 21
-649.6440409999999
 31
0.0
  0
LINE
  5
488
  8
LAYER01
  6
CONTINUOUS
 62
     1
 10
2409.720691
 20
-624.89904100000001
 30
0.0
 11
2731.4056909999999
 21
-624.89904100000001
 31
0.0
  0
LINE
  5
489
  8
LAYER01
  6
CONTINUOUS
 62
     1
 10
2454.2616910000011
 20
-476.42904099999998
 30
0.0
 11
2454.2616910000011
 21
-704.08304099999987
 31
0.0
  0
TEXT
  5
48A
  8
LAYER01
  6
CONTINUOUS
 62
     1
 10
2418.0342839999998
 20
-694.18504099999996
 30
0.0
 40
9.4031000000000002
  1
Zust
  7
SIMPLEX
  0
LINE
  5
48B
  8
LAYER01
  6
CONTINUOUS
 62
     1
 10
2610.4369040000001
 20
-704.08304099999987
 30
0.0
 11
2610.4369040000001
 21
-476.42904099999998
 31
0.0
  0
LINE
  5
48C
  8
LAYER01
  6
CONTINUOUS
 62
     1
 10
2686.8646910000002
 20
-476.42904099999998
 30
0.0
 11
2686.8646910000002
 21
-704.08304099999987
 31
0.0
  0
TEXT
  5
48D
  8
LAYER01
  6
CONTINUOUS
 62
     1
 10
2497.940122
 20
-694.18504099999996
 30
0.0
 40
9.4031000000000002
  1
Änderung
  7
SIMPLEX
  0
TEXT
  5
48E
  8
LAYER01
  6
CONTINUOUS
 62
     1
 10
2624.362924
 20
-694.18504099999996
 30
0.0
 40
9.4031000000000002
  1
Datum
  7
SIMPLEX
  0
TEXT
  5
48F
  8
LAYER01
  6
CONTINUOUS
 62
     1
 10
2690.5902030000011
 20
-694.18504099999996
 30
0.0
 40
9.4031000000000002
  1
Name
  7
SIMPLEX
  0
LINE
  5
490
  8
LAYER01
  6
CONTINUOUS
 62
     1
 10
3528.1946909999988
 20
-412.09204099999999
 30
0.0
 11
3003.6006910000001
 21
-412.09204099999999
 31
0.0
  0
LINE
  5
491
  8
LAYER01
  6
CONTINUOUS
 62
     1
 10
2795.7426909999999
 20
-575.40904099999989
 30
0.0
 11
2795.7426909999999
 21
-476.42904099999998
 31
0.0
  0
TEXT
  5
492
  8
LAYER01
  6
CONTINUOUS
 62
     1
 10
2741.303691000001
 20
-520.97004100000004
 30
0.0
 40
9.8979999999999997
  1
Bearb.
  7
SIMPLEX
  0
TEXT
  5
493
  8
LAYER01
  6
CONTINUOUS
 62
     1
 10
2741.303691000001
 20
-570.46004100000005
 30
0.0
 40
9.8979999999999997
  1
Norm
  7
SIMPLEX
  0
TEXT
  5
494
  8
LAYER01
  6
CONTINUOUS
 62
     1
 10
2741.303691000001
 20
-545.71504100000004
 30
0.0
 40
9.8979999999999997
  1
Gepr.
  7
SIMPLEX
  0
TEXT
  5
495
  8
LAYER01
  6
CONTINUOUS
 62
     1
 10
2820.4876909999998
 20
-496.22504099999998
 30
0.0
 40
9.8979999999999997
  1
Datum
  7
SIMPLEX
  0
TEXT
  5
496
  8
LAYER01
  6
CONTINUOUS
 62
     1
 10
2919.4676909999998
 20
-496.22504099999998
 30
0.0
 40
9.8979999999999997
  1
Name
  7
SIMPLEX
  0
TEXT
  5
497
  8
LAYER01
  6
CONTINUOUS
 62
     1
 10
3503.4496909999998
 20
-669.44004099999995
 30
0.0
 40
9.8979999999999997
  1
Bl.
  7
SIMPLEX
  0
LINE
  5
498
  8
LAYER01
  6
CONTINUOUS
 62
     1
 10
3003.6006910000001
 20
-704.08304099999987
 30
0.0
 11
3003.6006910000001
 21
-372.50004100000001
 31
0.0
  0
LINE
  5
499
  8
LAYER01
  6
CONTINUOUS
 62
     1
 10
2889.7736909999999
 20
-600.15404100000001
 30
0.0
 11
2889.7736909999999
 21
-372.50004100000001
 31
0.0
  0
LINE
  5
49A
  8
LAYER01
  6
CONTINUOUS
 62
     1
 10
3315.3876909999999
 20
-372.50004100000001
 30
0.0
 11
3315.3876909999999
 21
-412.09204099999999
 31
0.0
  0
TEXT
  5
49B
  8
LAYER01
  6
CONTINUOUS
 62
     1
 10
3014.3835720000002
 20
-397.76963699999999
 30
0.0
 40
9.8979999999999997
  1
Maßstab
  7
SIMPLEX
  0
LINE
  5
49C
  8
LAYER01
  6
CONTINUOUS
 62
     1
 10
3453.959691
 20
-600.15404100000001
 30
0.0
 11
3453.959691
 21
-674.38904100000002
 31
0.0
  0
LINE
  5
49D
  8
LAYER01
  6
CONTINUOUS
 62
     1
 10
3453.959691
 20
-649.6440409999999
 30
0.0
 11
3528.1946909999988
 21
-649.6440409999999
 31
0.0
  0
ENDBLK
  5
49E
  8
0
  0
BLOCK
  8
0
  2
CUADRA-G26
 70
     0
 10
0.0
 20
0.0
 30
0.0
  3
CUADRA-G26
  1

  0
LINE
  5
4A1
  8
LAYER01
  6
CONTINUOUS
 62
     7
 10
1954.0491039999999
 20
197.999032
 30
0.0
 11
1914.0491039999999
 21
157.999032
 31
0.0
  0
LINE
  5
4A2
  8
LAYER01
  6
CONTINUOUS
 62
     7
 10
1974.0491039999999
 20
197.999032
 30
0.0
 11
1934.0491039999999
 21
157.999032
 31
0.0
  0
LINE
  5
4A3
  8
LAYER01
  6
CONTINUOUS
 62
     7
 10
1914.0491039999999
 20
31.203443
 30
0.0
 11
1934.0491039999999
 21
-68.838222999999999
 31
0.0
  0
LINE
  5
4A4
  8
LAYER01
  6
CONTINUOUS
 62
     7
 10
1934.0491039999999
 20
31.203443
 30
0.0
 11
1954.0491039999999
 21
-68.838222999999999
 31
0.0
  0
LINE
  5
4A5
  8
LAYER01
  6
CONTINUOUS
 62
     7
 10
1914.0491039999999
 20
157.999032
 30
0.0
 11
1935.1743670000001
 21
52.328705999999997
 31
0.0
  0
LINE
  5
4A6
  8
LAYER01
  6
CONTINUOUS
 62
     7
 10
1935.1743670000001
 20
52.328705999999997
 30
0.0
 11
1914.0491039999999
 21
31.203443
 31
0.0
  0
LINE
  5
4A7
  8
LAYER01
  6
CONTINUOUS
 62
     7
 10
1955.1743670000001
 20
52.328705999999997
 30
0.0
 11
1934.0491039999999
 21
31.203443
 31
0.0
  0
LINE
  5
4A8
  8
LAYER01
  6
CONTINUOUS
 62
     7
 10
1934.0491039999999
 20
157.999032
 30
0.0
 11
1955.1743670000001
 21
52.328705999999997
 31
0.0
  0
LINE
  5
4A9
  8
LAYER01
  6
CONTINUOUS
 62
     7
 10
1940.775666
 20
264.39387599999998
 30
0.0
 11
1954.0491039999999
 21
197.999032
 31
0.0
  0
LINE
  5
4AA
  8
LAYER01
  6
CONTINUOUS
 62
     7
 10
1960.1155719999999
 20
267.69571999999999
 30
0.0
 11
1974.0491039999999
 21
197.999032
 31
0.0
  0
ENDBLK
  5
4AB
  8
0
  0
BLOCK
  8
0
  2
*D26
 70
     1
 10
0.0
 20
0.0
 30
0.0
  3
*D26
  1

  0
LINE
  5
4AE
  8
LAYER01
 62
     7
 10
2068.5569209999999
 20
748.62420599999984
 30
0.0
 11
2020.5569210000001
 21
748.62420599999984
 31
0.0
  0
LINE
  5
4AF
  8
LAYER01
 62
     7
 10
2114.5569209999999
 20
748.62420599999984
 30
0.0
 11
2162.5569209999999
 21
748.62420599999984
 31
0.0
  0
LINE
  5
4B0
  8
LAYER01
 62
     7
 10
2068.5569209999999
 20
830.72697199999982
 30
0.0
 11
2068.5569209999999
 21
733.62420599999996
 31
0.0
  0
LINE
  5
4B1
  8
LAYER01
 62
     7
 10
2114.5569209999999
 20
830.72697199999982
 30
0.0
 11
2114.5569209999999
 21
733.62420599999996
 31
0.0
  0
SOLID
  5
4B2
  8
LAYER01
 62
     7
 10
2044.5569210000001
 20
744.62436600000001
 30
0.0
 11
2068.5569209999999
 21
748.62420599999984
 31
0.0
 12
2044.5569210000001
 22
752.62404600000002
 32
0.0
 13
2044.5569210000001
 23
752.62404600000002
 33
0.0
  0
SOLID
  5
4B3
  8
LAYER01
 62
     7
 10
2138.5569209999999
 20
744.62436600000001
 30
0.0
 11
2114.5569209999999
 21
748.62420599999984
 31
0.0
 12
2138.5569209999999
 22
752.62404600000002
 32
0.0
 13
2138.5569209999999
 23
752.62404600000002
 33
0.0
  0
TEXT
  5
4B4
  8
LAYER01
  6
VERDECKT
 62
     7
 10
2177.5569209999999
 20
763.62420599999984
 30
0.0
 40
30.0
  1
46
  0
POINT
  5
4B5
  8
LAYER01
 62
     7
 10
2068.5569209999999
 20
842.72697199999993
 30
0.0
  0
POINT
  5
4B6
  8
LAYER01
 62
     7
 10
2114.5569209999999
 20
842.72697199999993
 30
0.0
  0
POINT
  5
4B7
  8
LAYER01
 62
     7
 10
2114.5569209999999
 20
748.62420599999984
 30
0.0
  0
ENDBLK
  5
4B8
  8
0
  0
BLOCK
  8
0
  2
*D27
 70
     1
 10
0.0
 20
0.0
 30
0.0
  3
*D27
  1

  0
LINE
  5
4BB
  8
LAYER01
 62
     7
 10
1976.6562510000001
 20
979.17153900000005
 30
0.0
 11
2206.4575909999999
 21
979.17153900000005
 31
0.0
  0
LINE
  5
4BC
  8
LAYER01
 62
     7
 10
1976.6562510000001
 20
961.25875199999984
 30
0.0
 11
1976.6562510000001
 21
994.17153900000005
 31
0.0
  0
LINE
  5
4BD
  8
LAYER01
 62
     7
 10
2206.4575909999999
 20
961.25875199999984
 30
0.0
 11
2206.4575909999999
 21
994.17153900000005
 31
0.0
  0
SOLID
  5
4BE
  8
LAYER01
 62
     7
 10
2000.6562510000001
 20
975.17169899999999
 30
0.0
 11
1976.6562510000001
 21
979.17153900000005
 31
0.0
 12
2000.6562510000001
 22
983.17137899999977
 32
0.0
 13
2000.6562510000001
 23
983.17137899999977
 33
0.0
  0
SOLID
  5
4BF
  8
LAYER01
 62
     7
 10
2182.4575909999999
 20
975.17169899999999
 30
0.0
 11
2206.4575909999999
 21
979.17153900000005
 31
0.0
 12
2182.4575909999999
 22
983.17137899999977
 32
0.0
 13
2182.4575909999999
 23
983.17137899999977
 33
0.0
  0
TEXT
  5
4C0
  8
LAYER01
  6
VERDECKT
 62
     7
 10
2069.122331
 20
994.17153900000005
 30
0.0
 40
30.0
  1
230
  0
POINT
  5
4C1
  8
LAYER01
 62
     7
 10
1976.6562510000001
 20
949.25875199999984
 30
0.0
  0
POINT
  5
4C2
  8
LAYER01
 62
     7
 10
2206.4575909999999
 20
949.25875199999984
 30
0.0
  0
POINT
  5
4C3
  8
LAYER01
 62
     7
 10
2206.4575909999999
 20
979.17153900000005
 30
0.0
  0
ENDBLK
  5
4C4
  8
0
  0
BLOCK
  8
0
  2
*D28
 70
     1
 10
0.0
 20
0.0
 30
0.0
  3
*D28
  1

  0
LINE
  5
4C7
  8
LAYER01
 62
     7
 10
2218.5569209999999
 20
1086.0550330000001
 30
0.0
 11
1964.5569210000001
 21
1086.0550330000001
 31
0.0
  0
LINE
  5
4C8
  8
LAYER01
 62
     7
 10
2218.5569209999999
 20
961.25875199999984
 30
0.0
 11
2218.5569209999999
 21
1101.0550330000001
 31
0.0
  0
LINE
  5
4C9
  8
LAYER01
 62
     7
 10
1964.5569210000001
 20
961.25875199999984
 30
0.0
 11
1964.5569210000001
 21
1101.0550330000001
 31
0.0
  0
SOLID
  5
4CA
  8
LAYER01
 62
     7
 10
2194.5569209999999
 20
1090.054873
 30
0.0
 11
2218.5569209999999
 21
1086.0550330000001
 31
0.0
 12
2194.5569209999999
 22
1082.0551929999999
 32
0.0
 13
2194.5569209999999
 23
1082.0551929999999
 33
0.0
  0
SOLID
  5
4CB
  8
LAYER01
 62
     7
 10
1988.5569210000001
 20
1090.054873
 30
0.0
 11
1964.5569210000001
 21
1086.0550330000001
 31
0.0
 12
1988.5569210000001
 22
1082.0551929999999
 32
0.0
 13
1988.5569210000001
 23
1082.0551929999999
 33
0.0
  0
TEXT
  5
4CC
  8
LAYER01
  6
VERDECKT
 62
     7
 10
2069.122331
 20
1101.0550330000001
 30
0.0
 40
30.0
  1
254
  0
POINT
  5
4CD
  8
LAYER01
 62
     7
 10
2218.5569209999999
 20
949.25875199999984
 30
0.0
  0
POINT
  5
4CE
  8
LAYER01
 62
     7
 10
1964.5569210000001
 20
949.25875199999984
 30
0.0
  0
POINT
  5
4CF
  8
LAYER01
 62
     7
 10
1964.5569210000001
 20
1086.0550330000001
 30
0.0
  0
ENDBLK
  5
4D0
  8
0
  0
BLOCK
  8
0
  2
*D29
 70
     1
 10
0.0
 20
0.0
 30
0.0
  3
*D29
  1

  0
LINE
  5
4D3
  8
LAYER01
 62
     7
 10
1976.6562510000001
 20
1030.9717310000001
 30
0.0
 11
2024.6562510000001
 21
1030.9717310000001
 31
0.0
  0
LINE
  5
4D4
  8
LAYER01
 62
     7
 10
1964.5569210000001
 20
1030.9717310000001
 30
0.0
 11
1916.5569210000001
 21
1030.9717310000001
 31
0.0
  0
LINE
  5
4D5
  8
LAYER01
 62
     7
 10
1976.6562510000001
 20
961.25875199999984
 30
0.0
 11
1976.6562510000001
 21
1045.9717310000001
 31
0.0
  0
LINE
  5
4D6
  8
LAYER01
 62
     7
 10
1964.5569210000001
 20
961.25875199999984
 30
0.0
 11
1964.5569210000001
 21
1045.9717310000001
 31
0.0
  0
SOLID
  5
4D7
  8
LAYER01
 62
     7
 10
2000.6562510000001
 20
1034.971571
 30
0.0
 11
1976.6562510000001
 21
1030.9717310000001
 31
0.0
 12
2000.6562510000001
 22
1026.9718909999999
 32
0.0
 13
2000.6562510000001
 23
1026.9718909999999
 33
0.0
  0
SOLID
  5
4D8
  8
LAYER01
 62
     7
 10
1940.5569210000001
 20
1034.971571
 30
0.0
 11
1964.5569210000001
 21
1030.9717310000001
 31
0.0
 12
1940.5569210000001
 22
1026.9718909999999
 32
0.0
 13
1940.5569210000001
 23
1026.9718909999999
 33
0.0
  0
TEXT
  5
4D9
  8
LAYER01
  6
VERDECKT
 62
     7
 10
2039.6562510000001
 20
1045.9717310000001
 30
0.0
 40
30.0
  1
12
  0
POINT
  5
4DA
  8
LAYER01
 62
     7
 10
1976.6562510000001
 20
949.25875199999984
 30
0.0
  0
POINT
  5
4DB
  8
LAYER01
 62
     7
 10
1964.5569210000001
 20
949.25875199999984
 30
0.0
  0
POINT
  5
4DC
  8
LAYER01
 62
     7
 10
1964.5569210000001
 20
1030.9717310000001
 30
0.0
  0
ENDBLK
  5
4DD
  8
0
  0
BLOCK
  8
0
  2
CUADRA-G31
 70
     0
 10
0.0
 20
0.0
 30
0.0
  3
CUADRA-G31
  1

  0
LINE
  5
4E0
  8
0
  6
CONTINUOUS
 62
   255
 10
2055.1104140000002
 20
842.72697199999993
 30
0.0
 11
2064.2360530000001
 21
851.85261099999991
 31
0.0
  0
LINE
  5
4E1
  8
0
  6
CONTINUOUS
 62
   255
 10
2049.7557870000001
 20
850.84272899999996
 30
0.0
 11
2056.3968089999998
 21
857.48375099999998
 31
0.0
  0
LINE
  5
4E2
  8
0
  6
CONTINUOUS
 62
   255
 10
2039.6672229999999
 20
854.22454900000002
 30
0.0
 11
2050.9072769999998
 21
865.46460299999978
 31
0.0
  0
LINE
  5
4E3
  8
0
  6
CONTINUOUS
 62
   255
 10
2026.8676359999999
 20
854.89534700000002
 30
0.0
 11
2038.285709
 21
866.31341899999995
 31
0.0
  0
LINE
  5
4E4
  8
0
  6
CONTINUOUS
 62
   255
 10
2014.0680500000001
 20
855.56614499999978
 30
0.0
 11
2025.486122
 21
866.98421699999994
 31
0.0
  0
LINE
  5
4E5
  8
0
  6
CONTINUOUS
 62
   255
 10
2001.268464
 20
856.236943
 30
0.0
 11
2012.6865359999999
 21
867.65501500000005
 31
0.0
  0
LINE
  5
4E6
  8
0
  6
CONTINUOUS
 62
   255
 10
1988.4688779999999
 20
856.90774099999999
 30
0.0
 11
1999.8869500000001
 21
868.32581300000004
 31
0.0
  0
LINE
  5
4E7
  8
0
  6
CONTINUOUS
 62
   255
 10
1972.8177250000001
 20
854.72697200000005
 30
0.0
 11
1987.087364
 21
868.9966109999998
 31
0.0
  0
LINE
  5
4E8
  8
0
  6
CONTINUOUS
 62
   255
 10
1964.5569210000001
 20
859.93655299999978
 30
0.0
 11
1979.683757
 21
875.06338800000003
 31
0.0
  0
LINE
  5
4E9
  8
0
  6
CONTINUOUS
 62
   255
 10
1964.5569210000001
 20
873.40693699999997
 30
0.0
 11
1979.0129589999999
 21
887.86297499999989
 31
0.0
  0
LINE
  5
4EA
  8
0
  6
CONTINUOUS
 62
   255
 10
1964.5569210000001
 20
886.87732100000005
 30
0.0
 11
1978.342161
 21
900.66256099999998
 31
0.0
  0
LINE
  5
4EB
  8
0
  6
CONTINUOUS
 62
   255
 10
1964.5569210000001
 20
900.34770500000002
 30
0.0
 11
1977.6713629999999
 21
913.46214699999996
 31
0.0
  0
LINE
  5
4EC
  8
0
  6
CONTINUOUS
 62
   255
 10
1964.5569210000001
 20
913.81808899999999
 30
0.0
 11
1977.0005650000001
 21
926.26173400000005
 31
0.0
  0
LINE
  5
4ED
  8
0
  6
CONTINUOUS
 62
   255
 10
1964.5569210000001
 20
927.28847300000007
 30
0.0
 11
1971.99542
 21
934.72697199999993
 31
0.0
  0
ENDBLK
  5
4EE
  8
0
  0
BLOCK
  8
0
  2
*D31
 70
     1
 10
0.0
 20
0.0
 30
0.0
  3
*D31
  1

  0
LINE
  5
4F1
  8
LAYER01
 62
     7
 10
1923.501117
 20
934.72697199999993
 30
0.0
 11
1923.501117
 21
864.72697200000005
 31
0.0
  0
LINE
  5
4F2
  8
LAYER01
 62
     7
 10
1946.8857559999999
 20
934.72697199999993
 30
0.0
 11
1908.501117
 21
934.72697199999993
 31
0.0
  0
LINE
  5
4F3
  8
LAYER01
 62
     7
 10
1946.8857559999999
 20
864.72697200000005
 30
0.0
 11
1908.501117
 21
864.72697200000005
 31
0.0
  0
SOLID
  5
4F4
  8
LAYER01
 62
     7
 10
1919.5012770000001
 20
910.72697200000005
 30
0.0
 11
1923.501117
 21
934.72697199999993
 31
0.0
 12
1927.500957
 22
910.72697200000005
 32
0.0
 13
1927.500957
 23
910.72697200000005
 33
0.0
  0
SOLID
  5
4F5
  8
LAYER01
 62
     7
 10
1919.5012770000001
 20
888.72697200000005
 30
0.0
 11
1923.501117
 21
864.72697200000005
 31
0.0
 12
1927.500957
 22
888.72697200000005
 32
0.0
 13
1927.500957
 23
888.72697200000005
 33
0.0
  0
TEXT
  5
4F6
  8
LAYER01
  6
VERDECKT
 62
     7
 10
1908.501117
 20
884.77057899999988
 30
0.0
 40
30.0
  1
70
 50
90.0
  0
POINT
  5
4F7
  8
LAYER01
 62
     7
 10
1958.8857559999999
 20
934.72697199999993
 30
0.0
  0
POINT
  5
4F8
  8
LAYER01
 62
     7
 10
1958.8857559999999
 20
864.72697200000005
 30
0.0
  0
POINT
  5
4F9
  8
LAYER01
 62
     7
 10
1923.501117
 20
864.72697200000005
 30
0.0
  0
ENDBLK
  5
4FA
  8
0
  0
BLOCK
  8
0
  2
*D32
 70
     1
 10
0.0
 20
0.0
 30
0.0
  3
*D32
  1

  0
LINE
  5
4FD
  8
LAYER01
 62
     7
 10
1866.2290740000001
 20
934.72697199999993
 30
0.0
 11
1866.2290740000001
 21
854.72697200000005
 31
0.0
  0
LINE
  5
4FE
  8
LAYER01
 62
     7
 10
1946.8857559999999
 20
934.72697199999993
 30
0.0
 11
1851.2290740000001
 21
934.72697199999993
 31
0.0
  0
LINE
  5
4FF
  8
LAYER01
 62
     7
 10
1946.8857559999999
 20
854.72697200000005
 30
0.0
 11
1851.2290740000001
 21
854.72697200000005
 31
0.0
  0
SOLID
  5
500
  8
LAYER01
 62
     7
 10
1862.2292339999999
 20
910.72697200000005
 30
0.0
 11
1866.2290740000001
 21
934.72697199999993
 31
0.0
 12
1870.228914
 22
910.72697200000005
 32
0.0
 13
1870.228914
 23
910.72697200000005
 33
0.0
  0
SOLID
  5
501
  8
LAYER01
 62
     7
 10
1862.2292339999999
 20
878.72697200000005
 30
0.0
 11
1866.2290740000001
 21
854.72697200000005
 31
0.0
 12
1870.228914
 22
878.72697200000005
 32
0.0
 13
1870.228914
 23
878.72697200000005
 33
0.0
  0
TEXT
  5
502
  8
LAYER01
  6
VERDECKT
 62
     7
 10
1851.2290740000001
 20
879.77057899999977
 30
0.0
 40
30.0
  1
80
 50
90.0
  0
POINT
  5
503
  8
LAYER01
 62
     7
 10
1958.8857559999999
 20
934.72697199999993
 30
0.0
  0
POINT
  5
504
  8
LAYER01
 62
     7
 10
1958.8857559999999
 20
854.72697200000005
 30
0.0
  0
POINT
  5
505
  8
LAYER01
 62
     7
 10
1866.2290740000001
 20
854.72697200000005
 30
0.0
  0
ENDBLK
  5
506
  8
0
  0
BLOCK
  8
0
  2
*D33
 70
     1
 10
0.0
 20
0.0
 30
0.0
  3
*D33
  1

  0
LINE
  5
509
  8
LAYER01
 62
     7
 10
1814.793672
 20
934.72697199999993
 30
0.0
 11
1814.793672
 21
842.72697199999993
 31
0.0
  0
LINE
  5
50A
  8
LAYER01
 62
     7
 10
1946.8857559999999
 20
934.72697199999993
 30
0.0
 11
1799.793672
 21
934.72697199999993
 31
0.0
  0
LINE
  5
50B
  8
LAYER01
 62
     7
 10
1946.8857559999999
 20
842.72697199999993
 30
0.0
 11
1799.793672
 21
842.72697199999993
 31
0.0
  0
SOLID
  5
50C
  8
LAYER01
 62
     7
 10
1810.7938320000001
 20
910.72697200000005
 30
0.0
 11
1814.793672
 21
934.72697199999993
 31
0.0
 12
1818.793512
 22
910.72697200000005
 32
0.0
 13
1818.793512
 23
910.72697200000005
 33
0.0
  0
SOLID
  5
50D
  8
LAYER01
 62
     7
 10
1810.7938320000001
 20
866.72697200000005
 30
0.0
 11
1814.793672
 21
842.72697199999993
 31
0.0
 12
1818.793512
 22
866.72697200000005
 32
0.0
 13
1818.793512
 23
866.72697200000005
 33
0.0
  0
TEXT
  5
50E
  8
LAYER01
  6
VERDECKT
 62
     7
 10
1799.793672
 20
873.77057899999988
 30
0.0
 40
30.0
  1
92
 50
90.0
  0
POINT
  5
50F
  8
LAYER01
 62
     7
 10
1958.8857559999999
 20
934.72697199999993
 30
0.0
  0
POINT
  5
510
  8
LAYER01
 62
     7
 10
1958.8857559999999
 20
842.72697199999993
 30
0.0
  0
POINT
  5
511
  8
LAYER01
 62
     7
 10
1814.793672
 20
842.72697199999993
 30
0.0
  0
ENDBLK
  5
512
  8
0
  0
BLOCK
  8
0
  2
*D34
 70
     1
 10
0.0
 20
0.0
 30
0.0
  3
*D34
  1

  0
LINE
  5
515
  8
LAYER01
 62
     7
 10
2206.4575909999999
 20
1030.9717310000001
 30
0.0
 11
2158.4575909999999
 21
1030.9717310000001
 31
0.0
  0
LINE
  5
516
  8
LAYER01
 62
     7
 10
2218.5569209999999
 20
1030.9717310000001
 30
0.0
 11
2266.5569209999999
 21
1030.9717310000001
 31
0.0
  0
LINE
  5
517
  8
LAYER01
 62
     7
 10
2206.4575909999999
 20
961.25875199999984
 30
0.0
 11
2206.4575909999999
 21
1045.9717310000001
 31
0.0
  0
LINE
  5
518
  8
LAYER01
 62
     7
 10
2218.5569209999999
 20
961.25875199999984
 30
0.0
 11
2218.5569209999999
 21
1045.9717310000001
 31
0.0
  0
SOLID
  5
519
  8
LAYER01
 62
     7
 10
2182.4575909999999
 20
1026.9718909999999
 30
0.0
 11
2206.4575909999999
 21
1030.9717310000001
 31
0.0
 12
2182.4575909999999
 22
1034.971571
 32
0.0
 13
2182.4575909999999
 23
1034.971571
 33
0.0
  0
SOLID
  5
51A
  8
LAYER01
 62
     7
 10
2242.5569209999999
 20
1026.9718909999999
 30
0.0
 11
2218.5569209999999
 21
1030.9717310000001
 31
0.0
 12
2242.5569209999999
 22
1034.971571
 32
0.0
 13
2242.5569209999999
 23
1034.971571
 33
0.0
  0
TEXT
  5
51B
  8
LAYER01
  6
VERDECKT
 62
     7
 10
2281.5569209999999
 20
1045.9717310000001
 30
0.0
 40
30.0
  1
12
  0
POINT
  5
51C
  8
LAYER01
 62
     7
 10
2206.4575909999999
 20
949.25875199999984
 30
0.0
  0
POINT
  5
51D
  8
LAYER01
 62
     7
 10
2218.5569209999999
 20
949.25875199999984
 30
0.0
  0
POINT
  5
51E
  8
LAYER01
 62
     7
 10
2218.5569209999999
 20
1030.9717310000001
 30
0.0
  0
ENDBLK
  5
51F
  8
0
  0
BLOCK
  8
0
  2
CUADRA-G36
 70
     0
 10
0.0
 20
0.0
 30
0.0
  3
CUADRA-G36
  1

  0
LINE
  5
522
  8
0
  6
CONTINUOUS
 62
   255
 10
2204.5121410000002
 20
857.42485699999986
 30
0.0
 11
2215.0757739999999
 21
867.98849000000007
 31
0.0
  0
LINE
  5
523
  8
0
  6
CONTINUOUS
 62
   255
 10
2190.2967610000001
 20
856.67986099999985
 30
0.0
 11
2215.8207699999998
 21
882.20387000000005
 31
0.0
  0
LINE
  5
524
  8
0
  6
CONTINUOUS
 62
   255
 10
2203.8847129999999
 20
883.73819700000001
 30
0.0
 11
2216.5657670000001
 21
896.41925100000003
 31
0.0
  0
LINE
  5
525
  8
0
  6
CONTINUOUS
 62
   255
 10
2176.0813800000001
 20
855.93486400000006
 30
0.0
 11
2188.7624340000002
 21
868.61591799999997
 31
0.0
  0
LINE
  5
526
  8
0
  6
CONTINUOUS
 62
   255
 10
2204.6297089999998
 20
897.95357799999988
 30
0.0
 11
2217.310763
 21
910.63463200000001
 31
0.0
  0
LINE
  5
527
  8
0
  6
CONTINUOUS
 62
   255
 10
2161.8659990000001
 20
855.18986799999982
 30
0.0
 11
2174.5470529999998
 21
867.87092199999995
 31
0.0
  0
LINE
  5
528
  8
0
  6
CONTINUOUS
 62
   255
 10
2205.3747060000001
 20
912.16895899999997
 30
0.0
 11
2218.5569209999999
 21
925.35117400000001
 31
0.0
  0
LINE
  5
529
  8
0
  6
CONTINUOUS
 62
   255
 10
2147.6506180000001
 20
854.44487100000015
 30
0.0
 11
2160.3316719999998
 21
867.12592500000005
 31
0.0
  0
LINE
  5
52A
  8
0
  6
CONTINUOUS
 62
   255
 10
2206.119702
 20
926.38433900000007
 30
0.0
 11
2218.5569209999999
 21
938.82155799999998
 31
0.0
  0
LINE
  5
52B
  8
0
  6
CONTINUOUS
 62
   255
 10
2122.4623350000002
 20
842.72697199999993
 30
0.0
 11
2146.1162920000002
 21
866.38092899999992
 31
0.0
  0
ENDBLK
  5
52C
  8
0
  0
BLOCK
  8
0
  2
*D36
 70
     1
 10
0.0
 20
0.0
 30
0.0
  3
*D36
  1

  0
LINE
  5
52F
  8
LAYER01
 62
     7
 10
2218.5569209999999
 20
958.37850399999979
 30
0.0
 11
2266.5569209999999
 21
958.37850399999979
 31
0.0
  0
LINE
  5
530
  8
LAYER01
 62
     7
 10
2212.5569209999999
 20
958.37850399999979
 30
0.0
 11
2164.5569209999999
 21
958.37850399999979
 31
0.0
  0
LINE
  5
531
  8
LAYER01
 62
     7
 10
2218.5569209999999
 20
951.72697199999993
 30
0.0
 11
2218.5569209999999
 21
973.37850399999991
 31
0.0
  0
LINE
  5
532
  8
LAYER01
 62
     7
 10
2212.5569209999999
 20
951.72697199999993
 30
0.0
 11
2212.5569209999999
 21
973.37850399999991
 31
0.0
  0
SOLID
  5
533
  8
LAYER01
 62
     7
 10
2242.5569209999999
 20
962.37834399999997
 30
0.0
 11
2218.5569209999999
 21
958.37850399999979
 31
0.0
 12
2242.5569209999999
 22
954.37866399999996
 32
0.0
 13
2242.5569209999999
 23
954.37866399999996
 33
0.0
  0
SOLID
  5
534
  8
LAYER01
 62
     7
 10
2188.5569209999999
 20
962.37834399999997
 30
0.0
 11
2212.5569209999999
 21
958.37850399999979
 31
0.0
 12
2188.5569209999999
 22
954.37866399999996
 32
0.0
 13
2188.5569209999999
 23
954.37866399999996
 33
0.0
  0
TEXT
  5
535
  8
LAYER01
  6
VERDECKT
 62
     7
 10
2281.5569209999999
 20
973.37850399999991
 30
0.0
 40
30.0
  1
6
  0
POINT
  5
536
  8
LAYER01
 62
     7
 10
2218.5569209999999
 20
939.72697200000005
 30
0.0
  0
POINT
  5
537
  8
LAYER01
 62
     7
 10
2212.5569209999999
 20
939.72697200000005
 30
0.0
  0
POINT
  5
538
  8
LAYER01
 62
     7
 10
2212.5569209999999
 20
958.37850399999979
 30
0.0
  0
ENDBLK
  5
539
  8
0
  0
ENDSEC
  0
SECTION
  2
ENTITIES
  0
POLYLINE
  5
53A
  8
LAYER01
  6
CONTINUOUS
 62
     7
 66
     1
 10
0.0
 20
0.0
 30
0.0
 70
     1
  0
VERTEX
  5
CFD
  8
LAYER01
  6
CONTINUOUS
 62
     7
 10
-446.51271200000002
 20
-704.08304099999987
 30
0.0
  0
VERTEX
  5
CFE
  8
LAYER01
  6
CONTINUOUS
 62
     7
 10
-446.51271200000002
 20
2039.706506
 30
0.0
  0
VERTEX
  5
CFF
  8
LAYER01
  6
CONTINUOUS
 62
     7
 10
3528.1946909999988
 20
2039.706506
 30
0.0
  0
VERTEX
  5
D00
  8
LAYER01
  6
CONTINUOUS
 62
     7
 10
3528.1946909999988
 20
-704.08304099999987
 30
0.0
  0
SEQEND
  5
D01
  8
LAYER01
  6
CONTINUOUS
 62
     7
  0
LINE
  5
540
  8
0
  6
CONTINUOUS
 62
     7
 10
1622.2782110000001
 20
1420.1502009999999
 30
0.0
 11
122.278211
 21
1420.1502009999999
 31
0.0
  0
LINE
  5
541
  8
0
  6
CONTINUOUS
 62
     7
 10
122.278211
 20
1414.1502009999999
 30
0.0
 11
1622.2782110000001
 21
1414.1502009999999
 31
0.0
  0
LINE
  5
542
  8
0
  6
CONTINUOUS
 62
     7
 10
122.278211
 20
1166.1502009999999
 30
0.0
 11
1622.2782110000001
 21
1166.1502009999999
 31
0.0
  0
LINE
  5
543
  8
0
  6
CONTINUOUS
 62
     7
 10
1622.2782110000001
 20
854.72697200000005
 30
0.0
 11
122.278211
 21
854.72697200000005
 31
0.0
  0
LINE
  5
544
  8
0
  6
CONTINUOUS
 62
     7
 10
122.278211
 20
934.72697199999993
 30
0.0
 11
1622.2782110000001
 21
934.72697199999993
 31
0.0
  0
LINE
  5
545
  8
0
  6
CONTINUOUS
 62
     7
 10
122.278211
 20
939.72697200000005
 30
0.0
 11
1622.2782110000001
 21
939.72697200000005
 31
0.0
  0
LINE
  5
546
  8
LAYER01
  6
VERDECKT
 62
     3
 10
1058.665786
 20
922.72697200000005
 30
0.0
 11
1622.2782110000001
 21
922.72697200000005
 31
0.0
  0
DIMENSION
  5
547
  8
LAYER01
 62
     7
  2
*D0
 10
1622.2782110000001
 20
1507.282336
 30
0.0
 11
1277.775742
 21
1537.282336
 31
0.0
 13
872.27821099999983
 23
1420.1502009999999
 33
0.0
 14
1622.2782110000001
 24
1420.1502009999999
 34
0.0
  0
DIMENSION
  5
548
  8
LAYER01
 62
     7
  2
*D1
 10
1622.2782110000001
 20
1618.0365260000001
 30
0.0
 11
901.97317499999997
 21
1648.0365260000001
 31
0.0
 13
122.278211
 23
1420.1502009999999
 33
0.0
 14
1622.2782110000001
 24
1420.1502009999999
 34
0.0
  0
DIMENSION
  5
549
  8
LAYER01
 62
     7
  2
*D2
 10
1287.2782110000001
 20
-85.090289999999996
 30
0.0
 11
1462.2782110000001
 21
-55.090290000000003
 31
0.0
 13
1637.2782110000001
 23
-22.370912000000001
 33
0.0
 14
1287.2782110000001
 24
-22.370912000000001
 34
0.0
  0
LINE
  5
54A
  8
0
  6
CONTINUOUS
 62
     7
 10
1287.2782110000001
 20
-10.370912000000001
 30
0.0
 11
1637.2782110000001
 21
-10.370912000000001
 31
0.0
  0
LINE
  5
54B
  8
0
  6
CONTINUOUS
 62
     7
 10
1637.2782110000001
 20
219.629088
 30
0.0
 11
1287.2782110000001
 21
219.629088
 31
0.0
  0
LINE
  5
54C
  8
LAYER01
  6
VERDECKT
 62
     7
 10
1047.2782110000001
 20
1178.1502009999999
 30
0.0
 11
1622.2782110000001
 21
1178.1502009999999
 31
0.0
  0
LINE
  5
54D
  8
0
  6
CONTINUOUS
 62
     7
 10
1146.3687990000001
 20
225.629088
 30
0.0
 11
1948.5253949999999
 21
225.629088
 31
0.0
  0
LINE
  5
54E
  8
0
  6
CONTINUOUS
 62
     7
 10
1144.925743
 20
231.629088
 30
0.0
 11
1947.4123850000001
 21
231.629088
 31
0.0
  0
LINE
  5
54F
  8
0
  6
CONTINUOUS
 62
     7
 10
1122.6029169999999
 20
-22.370912000000001
 30
0.0
 11
1924.759513
 21
-22.370912000000001
 31
0.0
  0
DIMENSION
  5
550
  8
LAYER01
 62
     7
  2
*D3
 10
122.278211
 20
419.00202899999988
 30
0.0
 11
1164.1962739999999
 21
449.00202899999999
 31
0.0
 13
2132.2782109999998
 23
231.629088
 33
0.0
 14
122.278211
 24
231.629088
 34
0.0
  0
DIMENSION
  5
551
  8
LAYER01
 62
     7
  2
*D4
 10
2132.2782109999998
 20
316.177234
 30
0.0
 11
1844.1048020000001
 21
346.177234
 31
0.0
 13
1462.2782110000001
 23
231.629088
 33
0.0
 14
2132.2782109999998
 24
231.629088
 34
0.0
  0
LINE
  5
552
  8
LAYER01
  6
VERDECKT
 62
     7
 10
274.27356900000001
 20
-10.370912000000001
 30
0.0
 11
617.27821100000006
 21
-10.370912000000001
 31
0.0
  0
LINE
  5
553
  8
0
  6
CONTINUOUS
 62
     7
 10
301.207066
 20
225.629088
 30
0.0
 11
1126.3687990000001
 21
225.629088
 31
0.0
  0
LINE
  5
554
  8
0
  6
CONTINUOUS
 62
     7
 10
299.76400999999998
 20
231.629088
 30
0.0
 11
1125.1692989999999
 21
231.629088
 31
0.0
  0
LINE
  5
555
  8
0
  6
CONTINUOUS
 62
     7
 10
277.44118399999991
 20
-22.370912000000001
 30
0.0
 11
1102.6029169999999
 21
-22.370912000000001
 31
0.0
  0
DIMENSION
  5
556
  8
LAYER01
 62
     7
  2
*D5
 10
792.27821100000006
 20
317.61961400000001
 30
0.0
 11
504.10480199999989
 21
347.61961400000001
 31
0.0
 13
122.278211
 23
231.629088
 33
0.0
 14
792.27821100000006
 24
231.629088
 34
0.0
  0
INSERT
  5
557
  8
LAYER01
  2
CUADRA-G7
 10
0.0
 20
0.0
 30
0.0
  0
LINE
  5
558
  8
0
  6
CONTINUOUS
 62
     7
 10
122.278211
 20
225.629088
 30
0.0
 11
122.278211
 21
-22.370912000000001
 31
0.0
  0
DIMENSION
  5
559
  8
LAYER01
 62
     7
  2
*D7
 10
78.014323000000005
 20
219.629088
 30
0.0
 11
48.014322999999997
 21
106.336521
 31
0.0
 53
90.0
 13
122.278211
 23
-10.370912000000001
 33
0.0
 14
122.278211
 24
219.629088
 34
0.0
 50
90.0
  0
DIMENSION
  5
55A
  8
LAYER01
 62
     7
  2
*D8
 10
34.207259000000001
 20
231.629088
 30
0.0
 11
4.2072589999999987
 21
106.336521
 31
0.0
 53
90.0
 13
122.278211
 23
-22.370912000000001
 33
0.0
 14
122.278211
 24
231.629088
 34
0.0
 50
90.0
  0
LINE
  5
55B
  8
0
  6
CONTINUOUS
 62
     7
 10
122.278211
 20
231.629088
 30
0.0
 11
122.278211
 21
225.629088
 31
0.0
  0
LINE
  5
55C
  8
0
  6
CONTINUOUS
 62
     7
 10
122.278211
 20
225.629088
 30
0.0
 11
281.207066
 21
225.629088
 31
0.0
  0
LINE
  5
55D
  8
0
  6
CONTINUOUS
 62
     7
 10
122.278211
 20
231.629088
 30
0.0
 11
281.207066
 21
231.629088
 31
0.0
  0
LINE
  5
55E
  8
0
  6
CONTINUOUS
 62
     7
 10
122.278211
 20
-22.370912000000001
 30
0.0
 11
256.73077599999999
 21
-22.370912000000001
 31
0.0
  0
LINE
  5
55F
  8
LAYER01
  6
VERDECKT
 62
     7
 10
122.278211
 20
-10.370912000000001
 30
0.0
 11
255.04218399999999
 21
-10.370912000000001
 31
0.0
  0
DIMENSION
  5
560
  8
LAYER01
 62
     7
  2
*D9
 10
617.27821100000006
 20
-85.090289999999996
 30
0.0
 11
792.27821100000006
 21
-55.090290000000003
 31
0.0
 13
967.27821099999994
 23
-22.370912000000001
 33
0.0
 14
617.27821100000006
 24
-22.370912000000001
 34
0.0
  0
INSERT
  5
561
  8
LAYER01
  2
CUADRA-G11
 10
0.0
 20
0.0
 30
0.0
  0
LINE
  5
562
  8
LAYER01
  6
VERDECKT
 62
     7
 10
967.27821099999994
 20
-10.370912000000001
 30
0.0
 11
1100.203917
 21
-10.370912000000001
 31
0.0
  0
DIMENSION
  5
563
  8
LAYER01
 62
     7
  2
*D11
 10
1462.2782110000001
 20
317.787418
 30
0.0
 11
1189.8281300000001
 21
347.787418
 31
0.0
 13
792.27821100000006
 23
231.629088
 33
0.0
 14
1462.2782110000001
 24
231.629088
 34
0.0
  0
LINE
  5
564
  8
0
  6
CONTINUOUS
 62
     7
 10
617.27821100000006
 20
-10.370912000000001
 30
0.0
 11
967.27821099999994
 21
-10.370912000000001
 31
0.0
  0
LINE
  5
565
  8
0
  6
CONTINUOUS
 62
     7
 10
967.27821099999994
 20
219.629088
 30
0.0
 11
617.27821100000006
 21
219.629088
 31
0.0
  0
LINE
  5
566
  8
0
  6
CONTINUOUS
 62
     7
 10
617.27821100000006
 20
-10.370912000000001
 30
0.0
 11
617.27821100000006
 21
219.629088
 31
0.0
  0
INSERT
  5
567
  8
LAYER01
  2
CUADRA-G13
 10
0.0
 20
0.0
 30
0.0
  0
CIRCLE
  5
568
  8
0
  6
CONTINUOUS
 62
     7
 10
792.27821100000006
 20
104.629088
 30
0.0
 40
33.188609999999997
  0
CIRCLE
  5
569
  8
0
  6
CONTINUOUS
 62
     7
 10
792.27821100000006
 20
104.629088
 30
0.0
 40
23.0
  0
LINE
  5
56A
  8
0
  6
CONTINUOUS
 62
     7
 10
967.27821099999994
 20
-10.370912000000001
 30
0.0
 11
967.27821099999994
 21
219.629088
 31
0.0
  0
LINE
  5
56B
  8
0
  6
CONTINUOUS
 62
     7
 10
1287.2782110000001
 20
-10.370912000000001
 30
0.0
 11
1287.2782110000001
 21
219.629088
 31
0.0
  0
INSERT
  5
56C
  8
LAYER01
  2
CUADRA-G14
 10
0.0
 20
0.0
 30
0.0
  0
CIRCLE
  5
56D
  8
0
  6
CONTINUOUS
 62
     7
 10
1462.2782110000001
 20
104.629088
 30
0.0
 40
33.188609999999997
  0
CIRCLE
  5
56E
  8
0
  6
CONTINUOUS
 62
     7
 10
1462.2782110000001
 20
104.629088
 30
0.0
 40
23.0
  0
LINE
  5
56F
  8
LAYER01
  6
VERDECKT
 62
     7
 10
1120.203917
 20
-10.370912000000001
 30
0.0
 11
1287.2782110000001
 21
-10.370912000000001
 31
0.0
  0
LINE
  5
570
  8
LAYER01
  6
VERDECKT
 62
     3
 10
122.278211
 20
922.72697200000005
 30
0.0
 11
685.89063599999997
 21
922.72697200000005
 31
0.0
  0
DIMENSION
  5
571
  8
LAYER01
 62
     7
  2
*D14
 10
872.27821099999983
 20
1507.282336
 30
0.0
 11
527.77574200000004
 21
1537.282336
 31
0.0
 13
122.278211
 23
1420.1502009999999
 33
0.0
 14
872.27821099999983
 24
1420.1502009999999
 34
0.0
  0
LINE
  5
572
  8
LAYER01
  6
VERDECKT
 62
     7
 10
122.278211
 20
1178.1502009999999
 30
0.0
 11
697.27821100000006
 21
1178.1502009999999
 31
0.0
  0
DIMENSION
  5
573
  8
LAYER01
 62
     7
  2
*D15
 10
77.883363000000003
 20
934.72697199999993
 30
0.0
 11
47.883363000000003
 21
894.72697200000005
 31
0.0
 53
90.0
 13
122.278211
 23
854.72697200000005
 33
0.0
 14
122.278211
 24
934.72697199999993
 34
0.0
 50
90.0
  0
DIMENSION
  5
574
  8
LAYER01
 62
     7
  2
*D16
 10
34.544767
 20
939.72697200000005
 30
0.0
 11
4.5447670000000002
 21
1010.752638
 31
0.0
 53
90.0
 13
122.278211
 23
934.72697199999993
 33
0.0
 14
122.278211
 24
939.72697200000005
 34
0.0
 50
90.0
  0
LINE
  5
575
  8
0
  6
CONTINUOUS
 62
     7
 10
122.278211
 20
854.72697200000005
 30
0.0
 11
122.278211
 21
934.72697199999993
 31
0.0
  0
LINE
  5
576
  8
0
  6
CONTINUOUS
 62
     7
 10
122.278211
 20
939.72697200000005
 30
0.0
 11
122.278211
 21
934.72697199999993
 31
0.0
  0
LINE
  5
577
  8
0
  6
CONTINUOUS
 62
     7
 10
122.278211
 20
1414.1502009999999
 30
0.0
 11
122.278211
 21
1166.1502009999999
 31
0.0
  0
DIMENSION
  5
578
  8
LAYER01
 62
     7
  2
*D17
 10
78.014323000000005
 20
1408.1502009999999
 30
0.0
 11
48.014322999999997
 21
1294.857634
 31
0.0
 53
90.0
 13
122.278211
 23
1178.1502009999999
 33
0.0
 14
122.278211
 24
1408.1502009999999
 34
0.0
 50
90.0
  0
DIMENSION
  5
579
  8
LAYER01
 62
     7
  2
*D18
 10
34.207259000000001
 20
1420.1502009999999
 30
0.0
 11
4.2072589999999987
 21
1294.857634
 31
0.0
 53
90.0
 13
122.278211
 23
1166.1502009999999
 33
0.0
 14
122.278211
 24
1420.1502009999999
 34
0.0
 50
90.0
  0
LINE
  5
57A
  8
0
  6
CONTINUOUS
 62
     7
 10
122.278211
 20
1420.1502009999999
 30
0.0
 11
122.278211
 21
1414.1502009999999
 31
0.0
  0
LINE
  5
57B
  8
0
  6
CONTINUOUS
 62
     7
 10
697.27821100000006
 20
1178.1502009999999
 30
0.0
 11
1047.2782110000001
 21
1178.1502009999999
 31
0.0
  0
DIMENSION
  5
57C
  8
LAYER01
 62
     7
  2
*D19
 10
697.27821100000006
 20
1103.430824
 30
0.0
 11
872.27821099999983
 21
1133.430824
 31
0.0
 13
1047.2782110000001
 23
1166.1502009999999
 33
0.0
 14
697.27821100000006
 24
1166.1502009999999
 34
0.0
  0
LINE
  5
57D
  8
LAYER01
  6
VERDECKT
 62
     3
 10
1058.665786
 20
922.72697200000005
 30
0.0
 11
685.89063599999997
 21
922.72697200000005
 31
0.0
  0
LINE
  5
57E
  8
LAYER01
  6
VERDECKT
 62
     3
 10
911.9631730000001
 20
865.60139399999991
 30
0.0
 11
1044.0182359999999
 21
872.52210699999989
 31
0.0
  0
LINE
  5
57F
  8
LAYER01
  6
VERDECKT
 62
     3
 10
933.75471500000003
 20
854.72697200000005
 30
0.0
 11
1055.441965
 21
861.10433099999989
 31
0.0
  0
LINE
  5
580
  8
0
  6
CONTINUOUS
 62
     7
 10
1047.2782110000001
 20
1408.1502009999999
 30
0.0
 11
697.27821100000006
 21
1408.1502009999999
 31
0.0
  0
LINE
  5
581
  8
LAYER01
  6
VERDECKT
 62
     3
 10
697.27821100000006
 20
934.72697199999993
 30
0.0
 11
700.44682999999998
 21
874.26611899999989
 31
0.0
  0
LINE
  5
582
  8
LAYER01
  6
VERDECKT
 62
     3
 10
689.11445700000002
 20
861.10433099999989
 30
0.0
 11
810.80170599999985
 21
854.72697200000005
 31
0.0
  0
LINE
  5
583
  8
LAYER01
  6
VERDECKT
 62
     3
 10
700.53818599999988
 20
872.52210699999989
 30
0.0
 11
832.5932489999999
 21
865.60139399999991
 31
0.0
  0
POLYLINE
  5
584
  8
LAYER01
  6
VERDECKT
 62
     3
 66
     1
 10
0.0
 20
0.0
 30
0.0
  0
VERTEX
  5
D02
  8
LAYER01
  6
VERDECKT
 62
     3
 10
700.448666
 20
874.26483399999995
 30
0.0
  0
VERTEX
  5
D03
  8
LAYER01
  6
VERDECKT
 62
     3
 10
700.448666
 20
874.25283399999989
 30
0.0
  0
VERTEX
  5
D04
  8
LAYER01
  6
VERDECKT
 62
     3
 10
700.448666
 20
874.23483399999986
 30
0.0
  0
VERTEX
  5
D05
  8
LAYER01
  6
VERDECKT
 62
     3
 10
700.448666
 20
874.22283400000003
 30
0.0
  0
VERTEX
  5
D06
  8
LAYER01
  6
VERDECKT
 62
     3
 10
700.448666
 20
874.21083399999986
 30
0.0
  0
VERTEX
  5
D07
  8
LAYER01
  6
VERDECKT
 62
     3
 10
700.448666
 20
874.19283399999995
 30
0.0
  0
VERTEX
  5
D08
  8
LAYER01
  6
VERDECKT
 62
     3
 10
700.448666
 20
874.180834
 30
0.0
  0
VERTEX
  5
D09
  8
LAYER01
  6
VERDECKT
 62
     3
 10
700.45466599999986
 20
874.16283399999998
 30
0.0
  0
VERTEX
  5
D0A
  8
LAYER01
  6
VERDECKT
 62
     3
 10
700.45466599999986
 20
874.15083400000015
 30
0.0
  0
VERTEX
  5
D0B
  8
LAYER01
  6
VERDECKT
 62
     3
 10
700.45466599999986
 20
874.13883399999997
 30
0.0
  0
VERTEX
  5
D0C
  8
LAYER01
  6
VERDECKT
 62
     3
 10
700.45466599999986
 20
874.12083399999995
 30
0.0
  0
VERTEX
  5
D0D
  8
LAYER01
  6
VERDECKT
 62
     3
 10
700.45466599999986
 20
874.10883400000012
 30
0.0
  0
VERTEX
  5
D0E
  8
LAYER01
  6
VERDECKT
 62
     3
 10
700.45466599999986
 20
874.09083399999997
 30
0.0
  0
VERTEX
  5
D0F
  8
LAYER01
  6
VERDECKT
 62
     3
 10
700.45466599999986
 20
874.07883399999992
 30
0.0
  0
VERTEX
  5
D10
  8
LAYER01
  6
VERDECKT
 62
     3
 10
700.45466599999986
 20
874.06683399999986
 30
0.0
  0
VERTEX
  5
D11
  8
LAYER01
  6
VERDECKT
 62
     3
 10
700.46066599999995
 20
874.04883399999983
 30
0.0
  0
VERTEX
  5
D12
  8
LAYER01
  6
VERDECKT
 62
     3
 10
700.46066599999995
 20
874.03683399999989
 30
0.0
  0
VERTEX
  5
D13
  8
LAYER01
  6
VERDECKT
 62
     3
 10
700.46066599999995
 20
874.01883399999986
 30
0.0
  0
VERTEX
  5
D14
  8
LAYER01
  6
VERDECKT
 62
     3
 10
700.46066599999995
 20
874.00683400000003
 30
0.0
  0
VERTEX
  5
D15
  8
LAYER01
  6
VERDECKT
 62
     3
 10
700.46066599999995
 20
873.99483399999986
 30
0.0
  0
VERTEX
  5
D16
  8
LAYER01
  6
VERDECKT
 62
     3
 10
700.46066599999995
 20
873.97683399999994
 30
0.0
  0
VERTEX
  5
D17
  8
LAYER01
  6
VERDECKT
 62
     3
 10
700.46066599999995
 20
873.964834
 30
0.0
  0
VERTEX
  5
D18
  8
LAYER01
  6
VERDECKT
 62
     3
 10
700.46066599999995
 20
873.95283399999994
 30
0.0
  0
VERTEX
  5
D19
  8
LAYER01
  6
VERDECKT
 62
     3
 10
700.46666600000003
 20
873.93483400000014
 30
0.0
  0
VERTEX
  5
D1A
  8
LAYER01
  6
VERDECKT
 62
     3
 10
700.46666600000003
 20
873.92283399999997
 30
0.0
  0
VERTEX
  5
D1B
  8
LAYER01
  6
VERDECKT
 62
     3
 10
700.46666600000003
 20
873.90483400000005
 30
0.0
  0
VERTEX
  5
D1C
  8
LAYER01
  6
VERDECKT
 62
     3
 10
700.46666600000003
 20
873.89283399999988
 30
0.0
  0
VERTEX
  5
D1D
  8
LAYER01
  6
VERDECKT
 62
     3
 10
700.46666600000003
 20
873.88083400000005
 30
0.0
  0
VERTEX
  5
D1E
  8
LAYER01
  6
VERDECKT
 62
     3
 10
700.46666600000003
 20
873.86283399999991
 30
0.0
  0
VERTEX
  5
D1F
  8
LAYER01
  6
VERDECKT
 62
     3
 10
700.46666600000003
 20
873.85083399999985
 30
0.0
  0
VERTEX
  5
D20
  8
LAYER01
  6
VERDECKT
 62
     3
 10
700.46666600000003
 20
873.83883400000002
 30
0.0
  0
VERTEX
  5
D21
  8
LAYER01
  6
VERDECKT
 62
     3
 10
700.472666
 20
873.82083399999988
 30
0.0
  0
VERTEX
  5
D22
  8
LAYER01
  6
VERDECKT
 62
     3
 10
700.472666
 20
873.80883399999993
 30
0.0
  0
VERTEX
  5
D23
  8
LAYER01
  6
VERDECKT
 62
     3
 10
700.472666
 20
873.79683399999999
 30
0.0
  0
VERTEX
  5
D24
  8
LAYER01
  6
VERDECKT
 62
     3
 10
700.472666
 20
873.77883399999985
 30
0.0
  0
VERTEX
  5
D25
  8
LAYER01
  6
VERDECKT
 62
     3
 10
700.472666
 20
873.76683400000002
 30
0.0
  0
VERTEX
  5
D26
  8
LAYER01
  6
VERDECKT
 62
     3
 10
700.472666
 20
873.75483399999996
 30
0.0
  0
VERTEX
  5
D27
  8
LAYER01
  6
VERDECKT
 62
     3
 10
700.472666
 20
873.73683399999993
 30
0.0
  0
VERTEX
  5
D28
  8
LAYER01
  6
VERDECKT
 62
     3
 10
700.472666
 20
873.72483399999999
 30
0.0
  0
VERTEX
  5
D29
  8
LAYER01
  6
VERDECKT
 62
     3
 10
700.47866599999986
 20
873.71283399999993
 30
0.0
  0
VERTEX
  5
D2A
  8
LAYER01
  6
VERDECKT
 62
     3
 10
700.47866599999986
 20
873.6948339999999
 30
0.0
  0
VERTEX
  5
D2B
  8
LAYER01
  6
VERDECKT
 62
     3
 10
700.47866599999986
 20
873.68283399999996
 30
0.0
  0
VERTEX
  5
D2C
  8
LAYER01
  6
VERDECKT
 62
     3
 10
700.47866599999986
 20
873.6708339999999
 30
0.0
  0
VERTEX
  5
D2D
  8
LAYER01
  6
VERDECKT
 62
     3
 10
700.47866599999986
 20
873.65283399999987
 30
0.0
  0
VERTEX
  5
D2E
  8
LAYER01
  6
VERDECKT
 62
     3
 10
700.47866599999986
 20
873.64083400000004
 30
0.0
  0
VERTEX
  5
D2F
  8
LAYER01
  6
VERDECKT
 62
     3
 10
700.47866599999986
 20
873.62883399999987
 30
0.0
  0
VERTEX
  5
D30
  8
LAYER01
  6
VERDECKT
 62
     3
 10
700.47866599999986
 20
873.61683400000004
 30
0.0
  0
VERTEX
  5
D31
  8
LAYER01
  6
VERDECKT
 62
     3
 10
700.48466600000006
 20
873.59883400000001
 30
0.0
  0
VERTEX
  5
D32
  8
LAYER01
  6
VERDECKT
 62
     3
 10
700.48466600000006
 20
873.58683399999995
 30
0.0
  0
VERTEX
  5
D33
  8
LAYER01
  6
VERDECKT
 62
     3
 10
700.48466600000006
 20
873.57483400000001
 30
0.0
  0
VERTEX
  5
D34
  8
LAYER01
  6
VERDECKT
 62
     3
 10
700.48466600000006
 20
873.55683399999998
 30
0.0
  0
VERTEX
  5
D35
  8
LAYER01
  6
VERDECKT
 62
     3
 10
700.48466600000006
 20
873.54483400000015
 30
0.0
  0
VERTEX
  5
D36
  8
LAYER01
  6
VERDECKT
 62
     3
 10
700.48466600000006
 20
873.53283399999998
 30
0.0
  0
VERTEX
  5
D37
  8
LAYER01
  6
VERDECKT
 62
     3
 10
700.48466600000006
 20
873.52083399999992
 30
0.0
  0
VERTEX
  5
D38
  8
LAYER01
  6
VERDECKT
 62
     3
 10
700.48466600000006
 20
873.50283399999989
 30
0.0
  0
VERTEX
  5
D39
  8
LAYER01
  6
VERDECKT
 62
     3
 10
700.48466600000006
 20
873.49083399999995
 30
0.0
  0
VERTEX
  5
D3A
  8
LAYER01
  6
VERDECKT
 62
     3
 10
700.49066600000003
 20
873.47883399999989
 30
0.0
  0
VERTEX
  5
D3B
  8
LAYER01
  6
VERDECKT
 62
     3
 10
700.49066600000003
 20
873.46683399999984
 30
0.0
  0
VERTEX
  5
D3C
  8
LAYER01
  6
VERDECKT
 62
     3
 10
700.49066600000003
 20
873.45483399999989
 30
0.0
  0
VERTEX
  5
D3D
  8
LAYER01
  6
VERDECKT
 62
     3
 10
700.49066600000003
 20
873.43683399999986
 30
0.0
  0
VERTEX
  5
D3E
  8
LAYER01
  6
VERDECKT
 62
     3
 10
700.49066600000003
 20
873.42483400000003
 30
0.0
  0
VERTEX
  5
D3F
  8
LAYER01
  6
VERDECKT
 62
     3
 10
700.49066600000003
 20
873.41283399999986
 30
0.0
  0
VERTEX
  5
D40
  8
LAYER01
  6
VERDECKT
 62
     3
 10
700.49066600000003
 20
873.40083400000003
 30
0.0
  0
VERTEX
  5
D41
  8
LAYER01
  6
VERDECKT
 62
     3
 10
700.49066600000003
 20
873.38883399999997
 30
0.0
  0
VERTEX
  5
D42
  8
LAYER01
  6
VERDECKT
 62
     3
 10
700.49066600000003
 20
873.37083399999995
 30
0.0
  0
VERTEX
  5
D43
  8
LAYER01
  6
VERDECKT
 62
     3
 10
700.496666
 20
873.358834
 30
0.0
  0
VERTEX
  5
D44
  8
LAYER01
  6
VERDECKT
 62
     3
 10
700.496666
 20
873.34683399999994
 30
0.0
  0
VERTEX
  5
D45
  8
LAYER01
  6
VERDECKT
 62
     3
 10
700.496666
 20
873.334834
 30
0.0
  0
VERTEX
  5
D46
  8
LAYER01
  6
VERDECKT
 62
     3
 10
700.496666
 20
873.32283399999994
 30
0.0
  0
VERTEX
  5
D47
  8
LAYER01
  6
VERDECKT
 62
     3
 10
700.496666
 20
873.31083399999989
 30
0.0
  0
VERTEX
  5
D48
  8
LAYER01
  6
VERDECKT
 62
     3
 10
700.496666
 20
873.29883400000006
 30
0.0
  0
VERTEX
  5
D49
  8
LAYER01
  6
VERDECKT
 62
     3
 10
700.496666
 20
873.28083400000003
 30
0.0
  0
VERTEX
  5
D4A
  8
LAYER01
  6
VERDECKT
 62
     3
 10
700.496666
 20
873.26883399999986
 30
0.0
  0
VERTEX
  5
D4B
  8
LAYER01
  6
VERDECKT
 62
     3
 10
700.496666
 20
873.25683400000003
 30
0.0
  0
VERTEX
  5
D4C
  8
LAYER01
  6
VERDECKT
 62
     3
 10
700.50266599999986
 20
873.24483399999986
 30
0.0
  0
VERTEX
  5
D4D
  8
LAYER01
  6
VERDECKT
 62
     3
 10
700.50266599999986
 20
873.23283400000003
 30
0.0
  0
VERTEX
  5
D4E
  8
LAYER01
  6
VERDECKT
 62
     3
 10
700.50266599999986
 20
873.22083399999985
 30
0.0
  0
VERTEX
  5
D4F
  8
LAYER01
  6
VERDECKT
 62
     3
 10
700.50266599999986
 20
873.20883400000002
 30
0.0
  0
VERTEX
  5
D50
  8
LAYER01
  6
VERDECKT
 62
     3
 10
700.50266599999986
 20
873.19683399999985
 30
0.0
  0
VERTEX
  5
D51
  8
LAYER01
  6
VERDECKT
 62
     3
 10
700.50266599999986
 20
873.18483400000002
 30
0.0
  0
VERTEX
  5
D52
  8
LAYER01
  6
VERDECKT
 62
     3
 10
700.50266599999986
 20
873.17283399999997
 30
0.0
  0
VERTEX
  5
D53
  8
LAYER01
  6
VERDECKT
 62
     3
 10
700.50266599999986
 20
873.16083400000014
 30
0.0
  0
VERTEX
  5
D54
  8
LAYER01
  6
VERDECKT
 62
     3
 10
700.50266599999986
 20
873.14883399999997
 30
0.0
  0
VERTEX
  5
D55
  8
LAYER01
  6
VERDECKT
 62
     3
 10
700.50866599999995
 20
873.13683400000014
 30
0.0
  0
VERTEX
  5
D56
  8
LAYER01
  6
VERDECKT
 62
     3
 10
700.50866599999995
 20
873.12483399999996
 30
0.0
  0
VERTEX
  5
D57
  8
LAYER01
  6
VERDECKT
 62
     3
 10
700.50866599999995
 20
873.11283399999991
 30
0.0
  0
VERTEX
  5
D58
  8
LAYER01
  6
VERDECKT
 62
     3
 10
700.50866599999995
 20
873.10083399999996
 30
0.0
  0
VERTEX
  5
D59
  8
LAYER01
  6
VERDECKT
 62
     3
 10
700.50866599999995
 20
873.08883399999991
 30
0.0
  0
VERTEX
  5
D5A
  8
LAYER01
  6
VERDECKT
 62
     3
 10
700.50866599999995
 20
873.07683399999985
 30
0.0
  0
VERTEX
  5
D5B
  8
LAYER01
  6
VERDECKT
 62
     3
 10
700.50866599999995
 20
873.06483400000002
 30
0.0
  0
VERTEX
  5
D5C
  8
LAYER01
  6
VERDECKT
 62
     3
 10
700.50866599999995
 20
873.05283399999985
 30
0.0
  0
VERTEX
  5
D5D
  8
LAYER01
  6
VERDECKT
 62
     3
 10
700.50866599999995
 20
873.04083400000002
 30
0.0
  0
VERTEX
  5
D5E
  8
LAYER01
  6
VERDECKT
 62
     3
 10
700.51466600000003
 20
873.02883399999985
 30
0.0
  0
VERTEX
  5
D5F
  8
LAYER01
  6
VERDECKT
 62
     3
 10
700.51466600000003
 20
873.01683400000002
 30
0.0
  0
VERTEX
  5
D60
  8
LAYER01
  6
VERDECKT
 62
     3
 10
700.51466600000003
 20
873.00483399999985
 30
0.0
  0
VERTEX
  5
D61
  8
LAYER01
  6
VERDECKT
 62
     3
 10
700.51466600000003
 20
872.99283400000002
 30
0.0
  0
VERTEX
  5
D62
  8
LAYER01
  6
VERDECKT
 62
     3
 10
700.51466600000003
 20
872.98083399999985
 30
0.0
  0
VERTEX
  5
D63
  8
LAYER01
  6
VERDECKT
 62
     3
 10
700.51466600000003
 20
872.96883400000002
 30
0.0
  0
VERTEX
  5
D64
  8
LAYER01
  6
VERDECKT
 62
     3
 10
700.51466600000003
 20
872.96283399999993
 30
0.0
  0
VERTEX
  5
D65
  8
LAYER01
  6
VERDECKT
 62
     3
 10
700.51466600000003
 20
872.95083399999999
 30
0.0
  0
VERTEX
  5
D66
  8
LAYER01
  6
VERDECKT
 62
     3
 10
700.51466600000003
 20
872.93883399999993
 30
0.0
  0
VERTEX
  5
D67
  8
LAYER01
  6
VERDECKT
 62
     3
 10
700.51466600000003
 20
872.92683399999999
 30
0.0
  0
VERTEX
  5
D68
  8
LAYER01
  6
VERDECKT
 62
     3
 10
700.51466600000003
 20
872.91483400000004
 30
0.0
  0
VERTEX
  5
D69
  8
LAYER01
  6
VERDECKT
 62
     3
 10
700.52066599999989
 20
872.90283399999987
 30
0.0
  0
VERTEX
  5
D6A
  8
LAYER01
  6
VERDECKT
 62
     3
 10
700.52066599999989
 20
872.8968339999999
 30
0.0
  0
VERTEX
  5
D6B
  8
LAYER01
  6
VERDECKT
 62
     3
 10
700.52066599999989
 20
872.88483399999984
 30
0.0
  0
VERTEX
  5
D6C
  8
LAYER01
  6
VERDECKT
 62
     3
 10
700.52066599999989
 20
872.8728339999999
 30
0.0
  0
VERTEX
  5
D6D
  8
LAYER01
  6
VERDECKT
 62
     3
 10
700.52066599999989
 20
872.86083399999995
 30
0.0
  0
VERTEX
  5
D6E
  8
LAYER01
  6
VERDECKT
 62
     3
 10
700.52066599999989
 20
872.85483399999987
 30
0.0
  0
VERTEX
  5
D6F
  8
LAYER01
  6
VERDECKT
 62
     3
 10
700.52066599999989
 20
872.84283400000004
 30
0.0
  0
VERTEX
  5
D70
  8
LAYER01
  6
VERDECKT
 62
     3
 10
700.52066599999989
 20
872.83083399999987
 30
0.0
  0
VERTEX
  5
D71
  8
LAYER01
  6
VERDECKT
 62
     3
 10
700.52066599999989
 20
872.82483400000001
 30
0.0
  0
VERTEX
  5
D72
  8
LAYER01
  6
VERDECKT
 62
     3
 10
700.52066599999989
 20
872.81283399999995
 30
0.0
  0
VERTEX
  5
D73
  8
LAYER01
  6
VERDECKT
 62
     3
 10
700.52066599999989
 20
872.80083400000001
 30
0.0
  0
VERTEX
  5
D74
  8
LAYER01
  6
VERDECKT
 62
     3
 10
700.52666599999998
 20
872.79483400000015
 30
0.0
  0
VERTEX
  5
D75
  8
LAYER01
  6
VERDECKT
 62
     3
 10
700.52666599999998
 20
872.78283399999998
 30
0.0
  0
VERTEX
  5
D76
  8
LAYER01
  6
VERDECKT
 62
     3
 10
700.52666599999998
 20
872.77083400000015
 30
0.0
  0
VERTEX
  5
D77
  8
LAYER01
  6
VERDECKT
 62
     3
 10
700.52666599999998
 20
872.76483399999995
 30
0.0
  0
VERTEX
  5
D78
  8
LAYER01
  6
VERDECKT
 62
     3
 10
700.52666599999998
 20
872.75283400000001
 30
0.0
  0
VERTEX
  5
D79
  8
LAYER01
  6
VERDECKT
 62
     3
 10
700.52666599999998
 20
872.74683399999992
 30
0.0
  0
VERTEX
  5
D7A
  8
LAYER01
  6
VERDECKT
 62
     3
 10
700.52666599999998
 20
872.73483399999998
 30
0.0
  0
VERTEX
  5
D7B
  8
LAYER01
  6
VERDECKT
 62
     3
 10
700.52666599999998
 20
872.72883399999989
 30
0.0
  0
VERTEX
  5
D7C
  8
LAYER01
  6
VERDECKT
 62
     3
 10
700.52666599999998
 20
872.71683399999995
 30
0.0
  0
VERTEX
  5
D7D
  8
LAYER01
  6
VERDECKT
 62
     3
 10
700.52666599999998
 20
872.71083399999986
 30
0.0
  0
VERTEX
  5
D7E
  8
LAYER01
  6
VERDECKT
 62
     3
 10
700.52666599999998
 20
872.69883400000003
 30
0.0
  0
VERTEX
  5
D7F
  8
LAYER01
  6
VERDECKT
 62
     3
 10
700.52666599999998
 20
872.69283399999983
 30
0.0
  0
VERTEX
  5
D80
  8
LAYER01
  6
VERDECKT
 62
     3
 10
700.53266599999995
 20
872.68683399999986
 30
0.0
  0
VERTEX
  5
D81
  8
LAYER01
  6
VERDECKT
 62
     3
 10
700.53266599999995
 20
872.67483400000003
 30
0.0
  0
VERTEX
  5
D82
  8
LAYER01
  6
VERDECKT
 62
     3
 10
700.53266599999995
 20
872.66883399999995
 30
0.0
  0
VERTEX
  5
D83
  8
LAYER01
  6
VERDECKT
 62
     3
 10
700.53266599999995
 20
872.656834
 30
0.0
  0
VERTEX
  5
D84
  8
LAYER01
  6
VERDECKT
 62
     3
 10
700.53266599999995
 20
872.65083400000003
 30
0.0
  0
VERTEX
  5
D85
  8
LAYER01
  6
VERDECKT
 62
     3
 10
700.53266599999995
 20
872.64483399999995
 30
0.0
  0
VERTEX
  5
D86
  8
LAYER01
  6
VERDECKT
 62
     3
 10
700.53266599999995
 20
872.63883399999986
 30
0.0
  0
VERTEX
  5
D87
  8
LAYER01
  6
VERDECKT
 62
     3
 10
700.53266599999995
 20
872.62683400000003
 30
0.0
  0
VERTEX
  5
D88
  8
LAYER01
  6
VERDECKT
 62
     3
 10
700.53266599999995
 20
872.62083399999995
 30
0.0
  0
VERTEX
  5
D89
  8
LAYER01
  6
VERDECKT
 62
     3
 10
700.53266599999995
 20
872.61483399999986
 30
0.0
  0
VERTEX
  5
D8A
  8
LAYER01
  6
VERDECKT
 62
     3
 10
700.53266599999995
 20
872.608834
 30
0.0
  0
VERTEX
  5
D8B
  8
LAYER01
  6
VERDECKT
 62
     3
 10
700.53266599999995
 20
872.60283400000003
 30
0.0
  0
VERTEX
  5
D8C
  8
LAYER01
  6
VERDECKT
 62
     3
 10
700.53266599999995
 20
872.59683399999994
 30
0.0
  0
VERTEX
  5
D8D
  8
LAYER01
  6
VERDECKT
 62
     3
 10
700.53266599999995
 20
872.584834
 30
0.0
  0
VERTEX
  5
D8E
  8
LAYER01
  6
VERDECKT
 62
     3
 10
700.53266599999995
 20
872.57883400000014
 30
0.0
  0
VERTEX
  5
D8F
  8
LAYER01
  6
VERDECKT
 62
     3
 10
700.53266599999995
 20
872.57283399999994
 30
0.0
  0
VERTEX
  5
D90
  8
LAYER01
  6
VERDECKT
 62
     3
 10
700.53866600000003
 20
872.56683399999997
 30
0.0
  0
VERTEX
  5
D91
  8
LAYER01
  6
VERDECKT
 62
     3
 10
700.53866600000003
 20
872.560834
 30
0.0
  0
VERTEX
  5
D92
  8
LAYER01
  6
VERDECKT
 62
     3
 10
700.53866600000003
 20
872.55483400000014
 30
0.0
  0
VERTEX
  5
D93
  8
LAYER01
  6
VERDECKT
 62
     3
 10
700.53866600000003
 20
872.55483400000014
 30
0.0
  0
VERTEX
  5
D94
  8
LAYER01
  6
VERDECKT
 62
     3
 10
700.53866600000003
 20
872.54883400000006
 30
0.0
  0
VERTEX
  5
D95
  8
LAYER01
  6
VERDECKT
 62
     3
 10
700.53866600000003
 20
872.54283399999997
 30
0.0
  0
VERTEX
  5
D96
  8
LAYER01
  6
VERDECKT
 62
     3
 10
700.53866600000003
 20
872.53683400000011
 30
0.0
  0
VERTEX
  5
D97
  8
LAYER01
  6
VERDECKT
 62
     3
 10
700.53866600000003
 20
872.53083399999991
 30
0.0
  0
VERTEX
  5
D98
  8
LAYER01
  6
VERDECKT
 62
     3
 10
700.53866600000003
 20
872.52483400000006
 30
0.0
  0
VERTEX
  5
D99
  8
LAYER01
  6
VERDECKT
 62
     3
 10
700.53866600000003
 20
872.52483400000006
 30
0.0
  0
VERTEX
  5
D9A
  8
LAYER01
  6
VERDECKT
 62
     3
 10
700.53866600000003
 20
872.51883399999997
 30
0.0
  0
VERTEX
  5
D9B
  8
LAYER01
  6
VERDECKT
 62
     3
 10
700.53866600000003
 20
872.51283399999988
 30
0.0
  0
VERTEX
  5
D9C
  8
LAYER01
  6
VERDECKT
 62
     3
 10
700.53866600000003
 20
872.51283399999988
 30
0.0
  0
VERTEX
  5
D9D
  8
LAYER01
  6
VERDECKT
 62
     3
 10
700.53866600000003
 20
872.50683399999991
 30
0.0
  0
VERTEX
  5
D9E
  8
LAYER01
  6
VERDECKT
 62
     3
 10
700.53866600000003
 20
872.50083400000005
 30
0.0
  0
VERTEX
  5
D9F
  8
LAYER01
  6
VERDECKT
 62
     3
 10
700.53866600000003
 20
872.50083400000005
 30
0.0
  0
VERTEX
  5
DA0
  8
LAYER01
  6
VERDECKT
 62
     3
 10
700.53866600000003
 20
872.49483399999986
 30
0.0
  0
VERTEX
  5
DA1
  8
LAYER01
  6
VERDECKT
 62
     3
 10
700.53866600000003
 20
872.49483399999986
 30
0.0
  0
VERTEX
  5
DA2
  8
LAYER01
  6
VERDECKT
 62
     3
 10
700.53866600000003
 20
872.49483399999986
 30
0.0
  0
VERTEX
  5
DA3
  8
LAYER01
  6
VERDECKT
 62
     3
 10
700.53866600000003
 20
872.48883399999988
 30
0.0
  0
VERTEX
  5
DA4
  8
LAYER01
  6
VERDECKT
 62
     3
 10
700.53866600000003
 20
872.48883399999988
 30
0.0
  0
VERTEX
  5
DA5
  8
LAYER01
  6
VERDECKT
 62
     3
 10
700.53866600000003
 20
872.48283400000003
 30
0.0
  0
VERTEX
  5
DA6
  8
LAYER01
  6
VERDECKT
 62
     3
 10
700.53866600000003
 20
872.48283400000003
 30
0.0
  0
VERTEX
  5
DA7
  8
LAYER01
  6
VERDECKT
 62
     3
 10
700.53866600000003
 20
872.48283400000003
 30
0.0
  0
VERTEX
  5
DA8
  8
LAYER01
  6
VERDECKT
 62
     3
 10
700.53866600000003
 20
872.48283400000003
 30
0.0
  0
VERTEX
  5
DA9
  8
LAYER01
  6
VERDECKT
 62
     3
 10
700.53866600000003
 20
872.47683399999983
 30
0.0
  0
VERTEX
  5
DAA
  8
LAYER01
  6
VERDECKT
 62
     3
 10
700.53866600000003
 20
872.47683399999983
 30
0.0
  0
VERTEX
  5
DAB
  8
LAYER01
  6
VERDECKT
 62
     3
 10
700.53866600000003
 20
872.47683399999983
 30
0.0
  0
VERTEX
  5
DAC
  8
LAYER01
  6
VERDECKT
 62
     3
 10
700.53866600000003
 20
872.47683399999983
 30
0.0
  0
VERTEX
  5
DAD
  8
LAYER01
  6
VERDECKT
 62
     3
 10
700.53866600000003
 20
872.47683399999983
 30
0.0
  0
VERTEX
  5
DAE
  8
LAYER01
  6
VERDECKT
 62
     3
 10
700.53866600000003
 20
872.47683399999983
 30
0.0
  0
VERTEX
  5
DAF
  8
LAYER01
  6
VERDECKT
 62
     3
 10
700.53866600000003
 20
872.47683399999983
 30
0.0
  0
VERTEX
  5
DB0
  8
LAYER01
  6
VERDECKT
 62
     3
 10
700.53866600000003
 20
872.47683399999983
 30
0.0
  0
VERTEX
  5
DB1
  8
LAYER01
  6
VERDECKT
 62
     3
 10
700.53866600000003
 20
872.47683399999983
 30
0.0
  0
VERTEX
  5
DB2
  8
LAYER01
  6
VERDECKT
 62
     3
 10
700.53866600000003
 20
872.47683399999983
 30
0.0
  0
VERTEX
  5
DB3
  8
LAYER01
  6
VERDECKT
 62
     3
 10
700.53866600000003
 20
872.48283400000003
 30
0.0
  0
VERTEX
  5
DB4
  8
LAYER01
  6
VERDECKT
 62
     3
 10
700.53866600000003
 20
872.48283400000003
 30
0.0
  0
VERTEX
  5
DB5
  8
LAYER01
  6
VERDECKT
 62
     3
 10
700.53866600000003
 20
872.48283400000003
 30
0.0
  0
VERTEX
  5
DB6
  8
LAYER01
  6
VERDECKT
 62
     3
 10
700.53866600000003
 20
872.48283400000003
 30
0.0
  0
VERTEX
  5
DB7
  8
LAYER01
  6
VERDECKT
 62
     3
 10
700.53866600000003
 20
872.48883399999988
 30
0.0
  0
VERTEX
  5
DB8
  8
LAYER01
  6
VERDECKT
 62
     3
 10
700.53866600000003
 20
872.48883399999988
 30
0.0
  0
VERTEX
  5
DB9
  8
LAYER01
  6
VERDECKT
 62
     3
 10
700.53866600000003
 20
872.49483399999986
 30
0.0
  0
VERTEX
  5
DBA
  8
LAYER01
  6
VERDECKT
 62
     3
 10
700.53866600000003
 20
872.49483399999986
 30
0.0
  0
VERTEX
  5
DBB
  8
LAYER01
  6
VERDECKT
 62
     3
 10
700.53866600000003
 20
872.50083400000005
 30
0.0
  0
VERTEX
  5
DBC
  8
LAYER01
  6
VERDECKT
 62
     3
 10
700.53866600000003
 20
872.50083400000005
 30
0.0
  0
VERTEX
  5
DBD
  8
LAYER01
  6
VERDECKT
 62
     3
 10
700.53866600000003
 20
872.50683399999991
 30
0.0
  0
VERTEX
  5
DBE
  8
LAYER01
  6
VERDECKT
 62
     3
 10
700.53866600000003
 20
872.50683399999991
 30
0.0
  0
VERTEX
  5
DBF
  8
LAYER01
  6
VERDECKT
 62
     3
 10
700.53866600000003
 20
872.51283399999988
 30
0.0
  0
VERTEX
  5
DC0
  8
LAYER01
  6
VERDECKT
 62
     3
 10
700.53866600000003
 20
872.51883399999997
 30
0.0
  0
VERTEX
  5
DC1
  8
LAYER01
  6
VERDECKT
 62
     3
 10
700.53866600000003
 20
872.52483400000006
 30
0.0
  0
SEQEND
  5
DC2
  8
LAYER01
  6
VERDECKT
 62
     3
  0
POLYLINE
  5
646
  8
LAYER01
  6
VERDECKT
 62
     3
 66
     1
 10
0.0
 20
0.0
 30
0.0
  0
VERTEX
  5
DC3
  8
LAYER01
  6
VERDECKT
 62
     3
 10
689.030666
 20
862.84083399999997
 30
0.0
  0
VERTEX
  5
DC4
  8
LAYER01
  6
VERDECKT
 62
     3
 10
689.030666
 20
862.82883400000003
 30
0.0
  0
VERTEX
  5
DC5
  8
LAYER01
  6
VERDECKT
 62
     3
 10
689.030666
 20
862.810834
 30
0.0
  0
VERTEX
  5
DC6
  8
LAYER01
  6
VERDECKT
 62
     3
 10
689.030666
 20
862.79883399999994
 30
0.0
  0
VERTEX
  5
DC7
  8
LAYER01
  6
VERDECKT
 62
     3
 10
689.030666
 20
862.786834
 30
0.0
  0
VERTEX
  5
DC8
  8
LAYER01
  6
VERDECKT
 62
     3
 10
689.030666
 20
862.76883399999997
 30
0.0
  0
VERTEX
  5
DC9
  8
LAYER01
  6
VERDECKT
 62
     3
 10
689.030666
 20
862.75683399999991
 30
0.0
  0
VERTEX
  5
DCA
  8
LAYER01
  6
VERDECKT
 62
     3
 10
689.03666599999985
 20
862.73883399999988
 30
0.0
  0
VERTEX
  5
DCB
  8
LAYER01
  6
VERDECKT
 62
     3
 10
689.03666599999985
 20
862.72683399999983
 30
0.0
  0
VERTEX
  5
DCC
  8
LAYER01
  6
VERDECKT
 62
     3
 10
689.03666599999985
 20
862.70883400000002
 30
0.0
  0
VERTEX
  5
DCD
  8
LAYER01
  6
VERDECKT
 62
     3
 10
689.03666599999985
 20
862.69683399999985
 30
0.0
  0
VERTEX
  5
DCE
  8
LAYER01
  6
VERDECKT
 62
     3
 10
689.03666599999985
 20
862.67883399999994
 30
0.0
  0
VERTEX
  5
DCF
  8
LAYER01
  6
VERDECKT
 62
     3
 10
689.03666599999985
 20
862.66683399999999
 30
0.0
  0
VERTEX
  5
DD0
  8
LAYER01
  6
VERDECKT
 62
     3
 10
689.03666599999985
 20
862.65483399999994
 30
0.0
  0
VERTEX
  5
DD1
  8
LAYER01
  6
VERDECKT
 62
     3
 10
689.04266600000005
 20
862.63683400000002
 30
0.0
  0
VERTEX
  5
DD2
  8
LAYER01
  6
VERDECKT
 62
     3
 10
689.04266600000005
 20
862.62483399999996
 30
0.0
  0
VERTEX
  5
DD3
  8
LAYER01
  6
VERDECKT
 62
     3
 10
689.04266600000005
 20
862.60683399999994
 30
0.0
  0
VERTEX
  5
DD4
  8
LAYER01
  6
VERDECKT
 62
     3
 10
689.04266600000005
 20
862.59483399999999
 30
0.0
  0
VERTEX
  5
DD5
  8
LAYER01
  6
VERDECKT
 62
     3
 10
689.04266600000005
 20
862.57683399999996
 30
0.0
  0
VERTEX
  5
DD6
  8
LAYER01
  6
VERDECKT
 62
     3
 10
689.04266600000005
 20
862.56483399999991
 30
0.0
  0
VERTEX
  5
DD7
  8
LAYER01
  6
VERDECKT
 62
     3
 10
689.04266600000005
 20
862.54683399999988
 30
0.0
  0
VERTEX
  5
DD8
  8
LAYER01
  6
VERDECKT
 62
     3
 10
689.04266600000005
 20
862.53483400000005
 30
0.0
  0
VERTEX
  5
DD9
  8
LAYER01
  6
VERDECKT
 62
     3
 10
689.04866600000003
 20
862.52283399999988
 30
0.0
  0
VERTEX
  5
DDA
  8
LAYER01
  6
VERDECKT
 62
     3
 10
689.04866600000003
 20
862.50483399999985
 30
0.0
  0
VERTEX
  5
DDB
  8
LAYER01
  6
VERDECKT
 62
     3
 10
689.04866600000003
 20
862.49283400000002
 30
0.0
  0
VERTEX
  5
DDC
  8
LAYER01
  6
VERDECKT
 62
     3
 10
689.04866600000003
 20
862.47483399999999
 30
0.0
  0
VERTEX
  5
DDD
  8
LAYER01
  6
VERDECKT
 62
     3
 10
689.04866600000003
 20
862.46283399999993
 30
0.0
  0
VERTEX
  5
DDE
  8
LAYER01
  6
VERDECKT
 62
     3
 10
689.04866600000003
 20
862.45083399999999
 30
0.0
  0
VERTEX
  5
DDF
  8
LAYER01
  6
VERDECKT
 62
     3
 10
689.04866600000003
 20
862.43283399999984
 30
0.0
  0
VERTEX
  5
DE0
  8
LAYER01
  6
VERDECKT
 62
     3
 10
689.04866600000003
 20
862.42083400000001
 30
0.0
  0
VERTEX
  5
DE1
  8
LAYER01
  6
VERDECKT
 62
     3
 10
689.054666
 20
862.40283399999998
 30
0.0
  0
VERTEX
  5
DE2
  8
LAYER01
  6
VERDECKT
 62
     3
 10
689.054666
 20
862.39083399999993
 30
0.0
  0
VERTEX
  5
DE3
  8
LAYER01
  6
VERDECKT
 62
     3
 10
689.054666
 20
862.37883399999998
 30
0.0
  0
VERTEX
  5
DE4
  8
LAYER01
  6
VERDECKT
 62
     3
 10
689.054666
 20
862.36083399999995
 30
0.0
  0
VERTEX
  5
DE5
  8
LAYER01
  6
VERDECKT
 62
     3
 10
689.054666
 20
862.3488339999999
 30
0.0
  0
VERTEX
  5
DE6
  8
LAYER01
  6
VERDECKT
 62
     3
 10
689.054666
 20
862.33083399999987
 30
0.0
  0
VERTEX
  5
DE7
  8
LAYER01
  6
VERDECKT
 62
     3
 10
689.054666
 20
862.31883400000004
 30
0.0
  0
VERTEX
  5
DE8
  8
LAYER01
  6
VERDECKT
 62
     3
 10
689.054666
 20
862.30683399999987
 30
0.0
  0
VERTEX
  5
DE9
  8
LAYER01
  6
VERDECKT
 62
     3
 10
689.06066599999986
 20
862.28883399999995
 30
0.0
  0
VERTEX
  5
DEA
  8
LAYER01
  6
VERDECKT
 62
     3
 10
689.06066599999986
 20
862.27683400000001
 30
0.0
  0
VERTEX
  5
DEB
  8
LAYER01
  6
VERDECKT
 62
     3
 10
689.06066599999986
 20
862.26483399999995
 30
0.0
  0
VERTEX
  5
DEC
  8
LAYER01
  6
VERDECKT
 62
     3
 10
689.06066599999986
 20
862.24683400000015
 30
0.0
  0
VERTEX
  5
DED
  8
LAYER01
  6
VERDECKT
 62
     3
 10
689.06066599999986
 20
862.23483399999998
 30
0.0
  0
VERTEX
  5
DEE
  8
LAYER01
  6
VERDECKT
 62
     3
 10
689.06066599999986
 20
862.22283400000015
 30
0.0
  0
VERTEX
  5
DEF
  8
LAYER01
  6
VERDECKT
 62
     3
 10
689.06066599999986
 20
862.20483400000001
 30
0.0
  0
VERTEX
  5
DF0
  8
LAYER01
  6
VERDECKT
 62
     3
 10
689.06066599999986
 20
862.19283399999995
 30
0.0
  0
VERTEX
  5
DF1
  8
LAYER01
  6
VERDECKT
 62
     3
 10
689.06666600000005
 20
862.18083399999989
 30
0.0
  0
VERTEX
  5
DF2
  8
LAYER01
  6
VERDECKT
 62
     3
 10
689.06666600000005
 20
862.16283399999986
 30
0.0
  0
VERTEX
  5
DF3
  8
LAYER01
  6
VERDECKT
 62
     3
 10
689.06666600000005
 20
862.15083400000003
 30
0.0
  0
VERTEX
  5
DF4
  8
LAYER01
  6
VERDECKT
 62
     3
 10
689.06666600000005
 20
862.13883399999986
 30
0.0
  0
VERTEX
  5
DF5
  8
LAYER01
  6
VERDECKT
 62
     3
 10
689.06666600000005
 20
862.12683400000003
 30
0.0
  0
VERTEX
  5
DF6
  8
LAYER01
  6
VERDECKT
 62
     3
 10
689.06666600000005
 20
862.108834
 30
0.0
  0
VERTEX
  5
DF7
  8
LAYER01
  6
VERDECKT
 62
     3
 10
689.06666600000005
 20
862.09683399999994
 30
0.0
  0
VERTEX
  5
DF8
  8
LAYER01
  6
VERDECKT
 62
     3
 10
689.06666600000005
 20
862.084834
 30
0.0
  0
VERTEX
  5
DF9
  8
LAYER01
  6
VERDECKT
 62
     3
 10
689.06666600000005
 20
862.06683399999986
 30
0.0
  0
VERTEX
  5
DFA
  8
LAYER01
  6
VERDECKT
 62
     3
 10
689.07266600000003
 20
862.05483400000003
 30
0.0
  0
VERTEX
  5
DFB
  8
LAYER01
  6
VERDECKT
 62
     3
 10
689.07266600000003
 20
862.04283399999997
 30
0.0
  0
VERTEX
  5
DFC
  8
LAYER01
  6
VERDECKT
 62
     3
 10
689.07266600000003
 20
862.03083400000014
 30
0.0
  0
VERTEX
  5
DFD
  8
LAYER01
  6
VERDECKT
 62
     3
 10
689.07266600000003
 20
862.012834
 30
0.0
  0
VERTEX
  5
DFE
  8
LAYER01
  6
VERDECKT
 62
     3
 10
689.07266600000003
 20
862.00083400000005
 30
0.0
  0
VERTEX
  5
DFF
  8
LAYER01
  6
VERDECKT
 62
     3
 10
689.07266600000003
 20
861.98883400000011
 30
0.0
  0
VERTEX
  5
E00
  8
LAYER01
  6
VERDECKT
 62
     3
 10
689.07266600000003
 20
861.97683400000005
 30
0.0
  0
VERTEX
  5
E01
  8
LAYER01
  6
VERDECKT
 62
     3
 10
689.07266600000003
 20
861.96483399999988
 30
0.0
  0
VERTEX
  5
E02
  8
LAYER01
  6
VERDECKT
 62
     3
 10
689.07866599999988
 20
861.94683399999985
 30
0.0
  0
VERTEX
  5
E03
  8
LAYER01
  6
VERDECKT
 62
     3
 10
689.07866599999988
 20
861.93483400000002
 30
0.0
  0
VERTEX
  5
E04
  8
LAYER01
  6
VERDECKT
 62
     3
 10
689.07866599999988
 20
861.92283399999985
 30
0.0
  0
VERTEX
  5
E05
  8
LAYER01
  6
VERDECKT
 62
     3
 10
689.07866599999988
 20
861.91083400000002
 30
0.0
  0
VERTEX
  5
E06
  8
LAYER01
  6
VERDECKT
 62
     3
 10
689.07866599999988
 20
861.89883399999985
 30
0.0
  0
VERTEX
  5
E07
  8
LAYER01
  6
VERDECKT
 62
     3
 10
689.07866599999988
 20
861.88683400000002
 30
0.0
  0
VERTEX
  5
E08
  8
LAYER01
  6
VERDECKT
 62
     3
 10
689.07866599999988
 20
861.87483399999985
 30
0.0
  0
VERTEX
  5
E09
  8
LAYER01
  6
VERDECKT
 62
     3
 10
689.07866599999988
 20
861.85683399999994
 30
0.0
  0
VERTEX
  5
E0A
  8
LAYER01
  6
VERDECKT
 62
     3
 10
689.07866599999988
 20
861.84483399999999
 30
0.0
  0
VERTEX
  5
E0B
  8
LAYER01
  6
VERDECKT
 62
     3
 10
689.08466599999997
 20
861.83283399999993
 30
0.0
  0
VERTEX
  5
E0C
  8
LAYER01
  6
VERDECKT
 62
     3
 10
689.08466599999997
 20
861.82083399999999
 30
0.0
  0
VERTEX
  5
E0D
  8
LAYER01
  6
VERDECKT
 62
     3
 10
689.08466599999997
 20
861.80883399999993
 30
0.0
  0
VERTEX
  5
E0E
  8
LAYER01
  6
VERDECKT
 62
     3
 10
689.08466599999997
 20
861.79683399999999
 30
0.0
  0
VERTEX
  5
E0F
  8
LAYER01
  6
VERDECKT
 62
     3
 10
689.08466599999997
 20
861.78483400000005
 30
0.0
  0
VERTEX
  5
E10
  8
LAYER01
  6
VERDECKT
 62
     3
 10
689.08466599999997
 20
861.77283399999988
 30
0.0
  0
VERTEX
  5
E11
  8
LAYER01
  6
VERDECKT
 62
     3
 10
689.08466599999997
 20
861.76083400000005
 30
0.0
  0
VERTEX
  5
E12
  8
LAYER01
  6
VERDECKT
 62
     3
 10
689.08466599999997
 20
861.74883399999987
 30
0.0
  0
VERTEX
  5
E13
  8
LAYER01
  6
VERDECKT
 62
     3
 10
689.08466599999997
 20
861.73683399999982
 30
0.0
  0
VERTEX
  5
E14
  8
LAYER01
  6
VERDECKT
 62
     3
 10
689.09066600000006
 20
861.72483399999987
 30
0.0
  0
VERTEX
  5
E15
  8
LAYER01
  6
VERDECKT
 62
     3
 10
689.09066600000006
 20
861.71283399999982
 30
0.0
  0
VERTEX
  5
E16
  8
LAYER01
  6
VERDECKT
 62
     3
 10
689.09066600000006
 20
861.70083399999987
 30
0.0
  0
VERTEX
  5
E17
  8
LAYER01
  6
VERDECKT
 62
     3
 10
689.09066600000006
 20
861.68883399999993
 30
0.0
  0
VERTEX
  5
E18
  8
LAYER01
  6
VERDECKT
 62
     3
 10
689.09066600000006
 20
861.67683399999999
 30
0.0
  0
VERTEX
  5
E19
  8
LAYER01
  6
VERDECKT
 62
     3
 10
689.09066600000006
 20
861.66483400000016
 30
0.0
  0
VERTEX
  5
E1A
  8
LAYER01
  6
VERDECKT
 62
     3
 10
689.09066600000006
 20
861.65283399999998
 30
0.0
  0
VERTEX
  5
E1B
  8
LAYER01
  6
VERDECKT
 62
     3
 10
689.09066600000006
 20
861.64083400000015
 30
0.0
  0
VERTEX
  5
E1C
  8
LAYER01
  6
VERDECKT
 62
     3
 10
689.09066600000006
 20
861.62883399999998
 30
0.0
  0
VERTEX
  5
E1D
  8
LAYER01
  6
VERDECKT
 62
     3
 10
689.09066600000006
 20
861.61683399999993
 30
0.0
  0
VERTEX
  5
E1E
  8
LAYER01
  6
VERDECKT
 62
     3
 10
689.09666600000003
 20
861.60483399999998
 30
0.0
  0
VERTEX
  5
E1F
  8
LAYER01
  6
VERDECKT
 62
     3
 10
689.09666600000003
 20
861.5988339999999
 30
0.0
  0
VERTEX
  5
E20
  8
LAYER01
  6
VERDECKT
 62
     3
 10
689.09666600000003
 20
861.58683399999995
 30
0.0
  0
VERTEX
  5
E21
  8
LAYER01
  6
VERDECKT
 62
     3
 10
689.09666600000003
 20
861.5748339999999
 30
0.0
  0
VERTEX
  5
E22
  8
LAYER01
  6
VERDECKT
 62
     3
 10
689.09666600000003
 20
861.56283399999984
 30
0.0
  0
VERTEX
  5
E23
  8
LAYER01
  6
VERDECKT
 62
     3
 10
689.09666600000003
 20
861.5508339999999
 30
0.0
  0
VERTEX
  5
E24
  8
LAYER01
  6
VERDECKT
 62
     3
 10
689.09666600000003
 20
861.53883399999995
 30
0.0
  0
VERTEX
  5
E25
  8
LAYER01
  6
VERDECKT
 62
     3
 10
689.09666600000003
 20
861.53283399999987
 30
0.0
  0
VERTEX
  5
E26
  8
LAYER01
  6
VERDECKT
 62
     3
 10
689.09666600000003
 20
861.52083400000004
 30
0.0
  0
VERTEX
  5
E27
  8
LAYER01
  6
VERDECKT
 62
     3
 10
689.09666600000003
 20
861.50883399999987
 30
0.0
  0
VERTEX
  5
E28
  8
LAYER01
  6
VERDECKT
 62
     3
 10
689.09666600000003
 20
861.49683400000004
 30
0.0
  0
VERTEX
  5
E29
  8
LAYER01
  6
VERDECKT
 62
     3
 10
689.102666
 20
861.49083399999995
 30
0.0
  0
VERTEX
  5
E2A
  8
LAYER01
  6
VERDECKT
 62
     3
 10
689.102666
 20
861.47883400000001
 30
0.0
  0
VERTEX
  5
E2B
  8
LAYER01
  6
VERDECKT
 62
     3
 10
689.102666
 20
861.46683399999995
 30
0.0
  0
VERTEX
  5
E2C
  8
LAYER01
  6
VERDECKT
 62
     3
 10
689.102666
 20
861.45483400000001
 30
0.0
  0
VERTEX
  5
E2D
  8
LAYER01
  6
VERDECKT
 62
     3
 10
689.102666
 20
861.44883400000015
 30
0.0
  0
VERTEX
  5
E2E
  8
LAYER01
  6
VERDECKT
 62
     3
 10
689.102666
 20
861.43683399999998
 30
0.0
  0
VERTEX
  5
E2F
  8
LAYER01
  6
VERDECKT
 62
     3
 10
689.102666
 20
861.430834
 30
0.0
  0
VERTEX
  5
E30
  8
LAYER01
  6
VERDECKT
 62
     3
 10
689.102666
 20
861.41883399999995
 30
0.0
  0
VERTEX
  5
E31
  8
LAYER01
  6
VERDECKT
 62
     3
 10
689.102666
 20
861.40683400000012
 30
0.0
  0
VERTEX
  5
E32
  8
LAYER01
  6
VERDECKT
 62
     3
 10
689.102666
 20
861.40083399999992
 30
0.0
  0
VERTEX
  5
E33
  8
LAYER01
  6
VERDECKT
 62
     3
 10
689.102666
 20
861.38883399999997
 30
0.0
  0
VERTEX
  5
E34
  8
LAYER01
  6
VERDECKT
 62
     3
 10
689.102666
 20
861.38283399999989
 30
0.0
  0
VERTEX
  5
E35
  8
LAYER01
  6
VERDECKT
 62
     3
 10
689.10866599999997
 20
861.37083399999995
 30
0.0
  0
VERTEX
  5
E36
  8
LAYER01
  6
VERDECKT
 62
     3
 10
689.10866599999997
 20
861.36483399999986
 30
0.0
  0
VERTEX
  5
E37
  8
LAYER01
  6
VERDECKT
 62
     3
 10
689.10866599999997
 20
861.35283400000003
 30
0.0
  0
VERTEX
  5
E38
  8
LAYER01
  6
VERDECKT
 62
     3
 10
689.10866599999997
 20
861.34683399999983
 30
0.0
  0
VERTEX
  5
E39
  8
LAYER01
  6
VERDECKT
 62
     3
 10
689.10866599999997
 20
861.33483399999989
 30
0.0
  0
VERTEX
  5
E3A
  8
LAYER01
  6
VERDECKT
 62
     3
 10
689.10866599999997
 20
861.32883400000003
 30
0.0
  0
VERTEX
  5
E3B
  8
LAYER01
  6
VERDECKT
 62
     3
 10
689.10866599999997
 20
861.32283399999994
 30
0.0
  0
VERTEX
  5
E3C
  8
LAYER01
  6
VERDECKT
 62
     3
 10
689.10866599999997
 20
861.310834
 30
0.0
  0
VERTEX
  5
E3D
  8
LAYER01
  6
VERDECKT
 62
     3
 10
689.10866599999997
 20
861.30483400000003
 30
0.0
  0
VERTEX
  5
E3E
  8
LAYER01
  6
VERDECKT
 62
     3
 10
689.10866599999997
 20
861.29883399999994
 30
0.0
  0
VERTEX
  5
E3F
  8
LAYER01
  6
VERDECKT
 62
     3
 10
689.10866599999997
 20
861.286834
 30
0.0
  0
VERTEX
  5
E40
  8
LAYER01
  6
VERDECKT
 62
     3
 10
689.10866599999997
 20
861.28083400000003
 30
0.0
  0
VERTEX
  5
E41
  8
LAYER01
  6
VERDECKT
 62
     3
 10
689.10866599999997
 20
861.27483399999994
 30
0.0
  0
VERTEX
  5
E42
  8
LAYER01
  6
VERDECKT
 62
     3
 10
689.11466600000006
 20
861.262834
 30
0.0
  0
VERTEX
  5
E43
  8
LAYER01
  6
VERDECKT
 62
     3
 10
689.11466600000006
 20
861.25683400000014
 30
0.0
  0
VERTEX
  5
E44
  8
LAYER01
  6
VERDECKT
 62
     3
 10
689.11466600000006
 20
861.25083399999994
 30
0.0
  0
VERTEX
  5
E45
  8
LAYER01
  6
VERDECKT
 62
     3
 10
689.11466600000006
 20
861.24483399999997
 30
0.0
  0
VERTEX
  5
E46
  8
LAYER01
  6
VERDECKT
 62
     3
 10
689.11466600000006
 20
861.238834
 30
0.0
  0
VERTEX
  5
E47
  8
LAYER01
  6
VERDECKT
 62
     3
 10
689.11466600000006
 20
861.23283400000014
 30
0.0
  0
VERTEX
  5
E48
  8
LAYER01
  6
VERDECKT
 62
     3
 10
689.11466600000006
 20
861.22683399999994
 30
0.0
  0
VERTEX
  5
E49
  8
LAYER01
  6
VERDECKT
 62
     3
 10
689.11466600000006
 20
861.22083399999997
 30
0.0
  0
VERTEX
  5
E4A
  8
LAYER01
  6
VERDECKT
 62
     3
 10
689.11466600000006
 20
861.214834
 30
0.0
  0
VERTEX
  5
E4B
  8
LAYER01
  6
VERDECKT
 62
     3
 10
689.11466600000006
 20
861.20883399999991
 30
0.0
  0
VERTEX
  5
E4C
  8
LAYER01
  6
VERDECKT
 62
     3
 10
689.11466600000006
 20
861.20283400000005
 30
0.0
  0
VERTEX
  5
E4D
  8
LAYER01
  6
VERDECKT
 62
     3
 10
689.11466600000006
 20
861.19683399999997
 30
0.0
  0
VERTEX
  5
E4E
  8
LAYER01
  6
VERDECKT
 62
     3
 10
689.11466600000006
 20
861.19083399999988
 30
0.0
  0
VERTEX
  5
E4F
  8
LAYER01
  6
VERDECKT
 62
     3
 10
689.11466600000006
 20
861.18483399999991
 30
0.0
  0
VERTEX
  5
E50
  8
LAYER01
  6
VERDECKT
 62
     3
 10
689.11466600000006
 20
861.17883400000005
 30
0.0
  0
VERTEX
  5
E51
  8
LAYER01
  6
VERDECKT
 62
     3
 10
689.11466600000006
 20
861.17283399999985
 30
0.0
  0
VERTEX
  5
E52
  8
LAYER01
  6
VERDECKT
 62
     3
 10
689.11466600000006
 20
861.16683399999988
 30
0.0
  0
VERTEX
  5
E53
  8
LAYER01
  6
VERDECKT
 62
     3
 10
689.11466600000006
 20
861.16083400000002
 30
0.0
  0
VERTEX
  5
E54
  8
LAYER01
  6
VERDECKT
 62
     3
 10
689.11466600000006
 20
861.16083400000002
 30
0.0
  0
VERTEX
  5
E55
  8
LAYER01
  6
VERDECKT
 62
     3
 10
689.11466600000006
 20
861.15483399999982
 30
0.0
  0
VERTEX
  5
E56
  8
LAYER01
  6
VERDECKT
 62
     3
 10
689.12066600000003
 20
861.14883399999985
 30
0.0
  0
VERTEX
  5
E57
  8
LAYER01
  6
VERDECKT
 62
     3
 10
689.12066600000003
 20
861.14883399999985
 30
0.0
  0
VERTEX
  5
E58
  8
LAYER01
  6
VERDECKT
 62
     3
 10
689.12066600000003
 20
861.14283399999988
 30
0.0
  0
VERTEX
  5
E59
  8
LAYER01
  6
VERDECKT
 62
     3
 10
689.12066600000003
 20
861.13683400000002
 30
0.0
  0
VERTEX
  5
E5A
  8
LAYER01
  6
VERDECKT
 62
     3
 10
689.12066600000003
 20
861.13683400000002
 30
0.0
  0
VERTEX
  5
E5B
  8
LAYER01
  6
VERDECKT
 62
     3
 10
689.12066600000003
 20
861.13083399999994
 30
0.0
  0
VERTEX
  5
E5C
  8
LAYER01
  6
VERDECKT
 62
     3
 10
689.12066600000003
 20
861.13083399999994
 30
0.0
  0
VERTEX
  5
E5D
  8
LAYER01
  6
VERDECKT
 62
     3
 10
689.12066600000003
 20
861.12483399999985
 30
0.0
  0
VERTEX
  5
E5E
  8
LAYER01
  6
VERDECKT
 62
     3
 10
689.12066600000003
 20
861.12483399999985
 30
0.0
  0
VERTEX
  5
E5F
  8
LAYER01
  6
VERDECKT
 62
     3
 10
689.12066600000003
 20
861.11883399999988
 30
0.0
  0
VERTEX
  5
E60
  8
LAYER01
  6
VERDECKT
 62
     3
 10
689.12066600000003
 20
861.11883399999988
 30
0.0
  0
VERTEX
  5
E61
  8
LAYER01
  6
VERDECKT
 62
     3
 10
689.12066600000003
 20
861.11883399999988
 30
0.0
  0
VERTEX
  5
E62
  8
LAYER01
  6
VERDECKT
 62
     3
 10
689.12066600000003
 20
861.11283400000002
 30
0.0
  0
VERTEX
  5
E63
  8
LAYER01
  6
VERDECKT
 62
     3
 10
689.12066600000003
 20
861.11283400000002
 30
0.0
  0
VERTEX
  5
E64
  8
LAYER01
  6
VERDECKT
 62
     3
 10
689.12066600000003
 20
861.11283400000002
 30
0.0
  0
VERTEX
  5
E65
  8
LAYER01
  6
VERDECKT
 62
     3
 10
689.12066600000003
 20
861.11283400000002
 30
0.0
  0
VERTEX
  5
E66
  8
LAYER01
  6
VERDECKT
 62
     3
 10
689.12066600000003
 20
861.10683399999994
 30
0.0
  0
VERTEX
  5
E67
  8
LAYER01
  6
VERDECKT
 62
     3
 10
689.12066600000003
 20
861.10683399999994
 30
0.0
  0
VERTEX
  5
E68
  8
LAYER01
  6
VERDECKT
 62
     3
 10
689.12066600000003
 20
861.10683399999994
 30
0.0
  0
VERTEX
  5
E69
  8
LAYER01
  6
VERDECKT
 62
     3
 10
689.12066600000003
 20
861.10683399999994
 30
0.0
  0
VERTEX
  5
E6A
  8
LAYER01
  6
VERDECKT
 62
     3
 10
689.12066600000003
 20
861.10683399999994
 30
0.0
  0
VERTEX
  5
E6B
  8
LAYER01
  6
VERDECKT
 62
     3
 10
689.12066600000003
 20
861.10683399999994
 30
0.0
  0
VERTEX
  5
E6C
  8
LAYER01
  6
VERDECKT
 62
     3
 10
689.12066600000003
 20
861.10683399999994
 30
0.0
  0
VERTEX
  5
E6D
  8
LAYER01
  6
VERDECKT
 62
     3
 10
689.12066600000003
 20
861.10683399999994
 30
0.0
  0
VERTEX
  5
E6E
  8
LAYER01
  6
VERDECKT
 62
     3
 10
689.12066600000003
 20
861.10683399999994
 30
0.0
  0
VERTEX
  5
E6F
  8
LAYER01
  6
VERDECKT
 62
     3
 10
689.12066600000003
 20
861.10683399999994
 30
0.0
  0
VERTEX
  5
E70
  8
LAYER01
  6
VERDECKT
 62
     3
 10
689.12066600000003
 20
861.10683399999994
 30
0.0
  0
VERTEX
  5
E71
  8
LAYER01
  6
VERDECKT
 62
     3
 10
689.12066600000003
 20
861.11283400000002
 30
0.0
  0
VERTEX
  5
E72
  8
LAYER01
  6
VERDECKT
 62
     3
 10
689.12066600000003
 20
861.11283400000002
 30
0.0
  0
VERTEX
  5
E73
  8
LAYER01
  6
VERDECKT
 62
     3
 10
689.12066600000003
 20
861.11283400000002
 30
0.0
  0
VERTEX
  5
E74
  8
LAYER01
  6
VERDECKT
 62
     3
 10
689.12066600000003
 20
861.11283400000002
 30
0.0
  0
VERTEX
  5
E75
  8
LAYER01
  6
VERDECKT
 62
     3
 10
689.12066600000003
 20
861.11883399999988
 30
0.0
  0
VERTEX
  5
E76
  8
LAYER01
  6
VERDECKT
 62
     3
 10
689.12066600000003
 20
861.11883399999988
 30
0.0
  0
VERTEX
  5
E77
  8
LAYER01
  6
VERDECKT
 62
     3
 10
689.12066600000003
 20
861.12483399999985
 30
0.0
  0
VERTEX
  5
E78
  8
LAYER01
  6
VERDECKT
 62
     3
 10
689.12066600000003
 20
861.12483399999985
 30
0.0
  0
VERTEX
  5
E79
  8
LAYER01
  6
VERDECKT
 62
     3
 10
689.12066600000003
 20
861.13083399999994
 30
0.0
  0
VERTEX
  5
E7A
  8
LAYER01
  6
VERDECKT
 62
     3
 10
689.12066600000003
 20
861.13083399999994
 30
0.0
  0
VERTEX
  5
E7B
  8
LAYER01
  6
VERDECKT
 62
     3
 10
689.12066600000003
 20
861.13683400000002
 30
0.0
  0
VERTEX
  5
E7C
  8
LAYER01
  6
VERDECKT
 62
     3
 10
689.12066600000003
 20
861.13683400000002
 30
0.0
  0
VERTEX
  5
E7D
  8
LAYER01
  6
VERDECKT
 62
     3
 10
689.12066600000003
 20
861.14283399999988
 30
0.0
  0
VERTEX
  5
E7E
  8
LAYER01
  6
VERDECKT
 62
     3
 10
689.12066600000003
 20
861.14283399999988
 30
0.0
  0
VERTEX
  5
E7F
  8
LAYER01
  6
VERDECKT
 62
     3
 10
689.12066600000003
 20
861.14883399999985
 30
0.0
  0
VERTEX
  5
E80
  8
LAYER01
  6
VERDECKT
 62
     3
 10
689.12066600000003
 20
861.14883399999985
 30
0.0
  0
VERTEX
  5
E81
  8
LAYER01
  6
VERDECKT
 62
     3
 10
689.11466600000006
 20
861.15483399999982
 30
0.0
  0
VERTEX
  5
E82
  8
LAYER01
  6
VERDECKT
 62
     3
 10
689.11466600000006
 20
861.16083400000002
 30
0.0
  0
SEQEND
  5
E83
  8
LAYER01
  6
VERDECKT
 62
     3
  0
LINE
  5
708
  8
LAYER01
  6
VERDECKT
 62
     3
 10
689.02900599999987
 20
862.84329999999989
 30
0.0
 11
685.89063599999997
 21
922.72697200000005
 31
0.0
  0
LINE
  5
709
  8
0
  6
CONTINUOUS
 62
     7
 10
831.70673499999998
 20
853.63138599999991
 30
0.0
 11
832.27821100000006
 21
842.72697199999993
 31
0.0
  0
LINE
  5
70A
  8
0
  6
CONTINUOUS
 62
     7
 10
912.27821099999994
 20
842.72697199999993
 30
0.0
 11
912.8496869999999
 21
853.63138599999991
 31
0.0
  0
LINE
  5
70B
  8
0
  6
CONTINUOUS
 62
     7
 10
912.27821099999994
 20
842.72697199999993
 30
0.0
 11
832.27821100000006
 21
842.72697199999993
 31
0.0
  0
LINE
  5
70C
  8
0
  6
CONTINUOUS
 62
     7
 10
810.80170599999985
 20
854.72697200000005
 30
0.0
 11
831.70673499999998
 21
853.63138599999991
 31
0.0
  0
LINE
  5
70D
  8
0
  6
CONTINUOUS
 62
     7
 10
912.8496869999999
 20
853.63138599999991
 30
0.0
 11
933.75471500000003
 21
854.72697200000005
 31
0.0
  0
LINE
  5
70E
  8
LAYER01
  6
VERDECKT
 62
     3
 10
911.9631730000001
 20
865.60139399999991
 30
0.0
 11
832.5932489999999
 21
865.60139399999991
 31
0.0
  0
LINE
  5
70F
  8
LAYER01
  6
VERDECKT
 62
     3
 10
872.27821099999983
 20
856.77623199999994
 30
0.0
 11
839.0895999999999
 21
856.77623199999994
 31
0.0
  0
LINE
  5
710
  8
LAYER01
  6
VERDECKT
 62
     3
 10
905.46682099999998
 20
856.77623199999994
 30
0.0
 11
872.27821099999983
 21
856.77623199999994
 31
0.0
  0
LINE
  5
711
  8
LAYER01
  6
VERDECKT
 62
     3
 10
832.5932489999999
 20
865.60139399999991
 30
0.0
 11
832.7834519999999
 21
861.97211600000003
 31
0.0
  0
LINE
  5
712
  8
LAYER01
  6
VERDECKT
 62
     3
 10
911.77296999999976
 20
861.97211600000003
 30
0.0
 11
911.9631730000001
 21
865.60139399999991
 31
0.0
  0
ARC
  5
713
  8
LAYER01
  6
VERDECKT
 62
     3
 10
907.27913699999988
 20
862.20762799999989
 30
0.0
 40
4.5
 50
289.74171899999999
 51
357.0
  0
ARC
  5
714
  8
LAYER01
  6
VERDECKT
 62
     3
 10
837.27728500000001
 20
862.20762799999989
 30
0.0
 40
4.5
 50
183.0
 51
250.25828100000001
  0
LINE
  5
715
  8
LAYER01
  6
VERDECKT
 62
     3
 10
835.75727199999994
 20
857.97211600000003
 30
0.0
 11
839.0895999999999
 21
856.77623199999994
 31
0.0
  0
LINE
  5
716
  8
LAYER01
  6
VERDECKT
 62
     3
 10
905.46682099999998
 20
856.77623199999994
 30
0.0
 11
908.79915000000005
 21
857.97211600000003
 31
0.0
  0
LINE
  5
717
  8
LAYER01
  6
VERDECKT
 62
     3
 10
839.0895999999999
 20
856.77623199999994
 30
0.0
 11
849.27821100000006
 21
848.22697200000005
 31
0.0
  0
LINE
  5
718
  8
LAYER01
  6
VERDECKT
 62
     3
 10
895.27821099999994
 20
848.22697200000005
 30
0.0
 11
905.46682099999998
 21
856.77623199999994
 31
0.0
  0
LINE
  5
719
  8
LAYER01
  6
VERDECKT
 62
     3
 10
895.27821099999994
 20
842.72697199999993
 30
0.0
 11
895.27821099999994
 21
848.22697200000005
 31
0.0
  0
LINE
  5
71A
  8
LAYER01
  6
VERDECKT
 62
     3
 10
849.27821100000006
 20
848.22697200000005
 30
0.0
 11
849.27821100000006
 21
842.72697199999993
 31
0.0
  0
LINE
  5
71B
  8
LAYER01
  6
VERDECKT
 62
     3
 10
872.27821099999983
 20
848.22697200000005
 30
0.0
 11
895.27821099999994
 21
848.22697200000005
 31
0.0
  0
LINE
  5
71C
  8
LAYER01
  6
VERDECKT
 62
     3
 10
849.27821100000006
 20
848.22697200000005
 30
0.0
 11
872.27821099999983
 21
848.22697200000005
 31
0.0
  0
LINE
  5
71D
  8
0
  6
CONTINUOUS
 62
     7
 10
697.27821100000006
 20
1178.1502009999999
 30
0.0
 11
697.27821100000006
 21
1408.1502009999999
 31
0.0
  0
INSERT
  5
71E
  8
LAYER01
  2
CUADRA-G21
 10
0.0
 20
0.0
 30
0.0
  0
CIRCLE
  5
71F
  8
0
  6
CONTINUOUS
 62
     7
 10
872.27821099999983
 20
1293.1502009999999
 30
0.0
 40
33.188609999999997
  0
CIRCLE
  5
720
  8
0
  6
CONTINUOUS
 62
     7
 10
872.27821099999983
 20
1293.1502009999999
 30
0.0
 40
23.0
  0
LINE
  5
721
  8
LAYER01
  6
VERDECKT
 62
     3
 10
1047.2782110000001
 20
934.72697199999993
 30
0.0
 11
1044.10959
 21
874.26611899999989
 31
0.0
  0
POLYLINE
  5
722
  8
LAYER01
  6
VERDECKT
 62
     3
 66
     1
 10
0.0
 20
0.0
 30
0.0
  0
VERTEX
  5
E84
  8
LAYER01
  6
VERDECKT
 62
     3
 10
1044.110666
 20
874.26483399999995
 30
0.0
  0
VERTEX
  5
E85
  8
LAYER01
  6
VERDECKT
 62
     3
 10
1044.110666
 20
874.25283399999989
 30
0.0
  0
VERTEX
  5
E86
  8
LAYER01
  6
VERDECKT
 62
     3
 10
1044.110666
 20
874.23483399999986
 30
0.0
  0
VERTEX
  5
E87
  8
LAYER01
  6
VERDECKT
 62
     3
 10
1044.104666
 20
874.22283400000003
 30
0.0
  0
VERTEX
  5
E88
  8
LAYER01
  6
VERDECKT
 62
     3
 10
1044.104666
 20
874.21083399999986
 30
0.0
  0
VERTEX
  5
E89
  8
LAYER01
  6
VERDECKT
 62
     3
 10
1044.104666
 20
874.19283399999995
 30
0.0
  0
VERTEX
  5
E8A
  8
LAYER01
  6
VERDECKT
 62
     3
 10
1044.104666
 20
874.180834
 30
0.0
  0
VERTEX
  5
E8B
  8
LAYER01
  6
VERDECKT
 62
     3
 10
1044.104666
 20
874.16283399999998
 30
0.0
  0
VERTEX
  5
E8C
  8
LAYER01
  6
VERDECKT
 62
     3
 10
1044.104666
 20
874.15083400000015
 30
0.0
  0
VERTEX
  5
E8D
  8
LAYER01
  6
VERDECKT
 62
     3
 10
1044.104666
 20
874.13883399999997
 30
0.0
  0
VERTEX
  5
E8E
  8
LAYER01
  6
VERDECKT
 62
     3
 10
1044.104666
 20
874.12083399999995
 30
0.0
  0
VERTEX
  5
E8F
  8
LAYER01
  6
VERDECKT
 62
     3
 10
1044.0986660000001
 20
874.10883400000012
 30
0.0
  0
VERTEX
  5
E90
  8
LAYER01
  6
VERDECKT
 62
     3
 10
1044.0986660000001
 20
874.09083399999997
 30
0.0
  0
VERTEX
  5
E91
  8
LAYER01
  6
VERDECKT
 62
     3
 10
1044.0986660000001
 20
874.07883399999992
 30
0.0
  0
VERTEX
  5
E92
  8
LAYER01
  6
VERDECKT
 62
     3
 10
1044.0986660000001
 20
874.06683399999986
 30
0.0
  0
VERTEX
  5
E93
  8
LAYER01
  6
VERDECKT
 62
     3
 10
1044.0986660000001
 20
874.04883399999983
 30
0.0
  0
VERTEX
  5
E94
  8
LAYER01
  6
VERDECKT
 62
     3
 10
1044.0986660000001
 20
874.03683399999989
 30
0.0
  0
VERTEX
  5
E95
  8
LAYER01
  6
VERDECKT
 62
     3
 10
1044.0986660000001
 20
874.01883399999986
 30
0.0
  0
VERTEX
  5
E96
  8
LAYER01
  6
VERDECKT
 62
     3
 10
1044.0986660000001
 20
874.00683400000003
 30
0.0
  0
VERTEX
  5
E97
  8
LAYER01
  6
VERDECKT
 62
     3
 10
1044.092666
 20
873.99483399999986
 30
0.0
  0
VERTEX
  5
E98
  8
LAYER01
  6
VERDECKT
 62
     3
 10
1044.092666
 20
873.97683399999994
 30
0.0
  0
VERTEX
  5
E99
  8
LAYER01
  6
VERDECKT
 62
     3
 10
1044.092666
 20
873.964834
 30
0.0
  0
VERTEX
  5
E9A
  8
LAYER01
  6
VERDECKT
 62
     3
 10
1044.092666
 20
873.95283399999994
 30
0.0
  0
VERTEX
  5
E9B
  8
LAYER01
  6
VERDECKT
 62
     3
 10
1044.092666
 20
873.93483400000014
 30
0.0
  0
VERTEX
  5
E9C
  8
LAYER01
  6
VERDECKT
 62
     3
 10
1044.092666
 20
873.92283399999997
 30
0.0
  0
VERTEX
  5
E9D
  8
LAYER01
  6
VERDECKT
 62
     3
 10
1044.092666
 20
873.90483400000005
 30
0.0
  0
VERTEX
  5
E9E
  8
LAYER01
  6
VERDECKT
 62
     3
 10
1044.092666
 20
873.89283399999988
 30
0.0
  0
VERTEX
  5
E9F
  8
LAYER01
  6
VERDECKT
 62
     3
 10
1044.0866659999999
 20
873.88083400000005
 30
0.0
  0
VERTEX
  5
EA0
  8
LAYER01
  6
VERDECKT
 62
     3
 10
1044.0866659999999
 20
873.86283399999991
 30
0.0
  0
VERTEX
  5
EA1
  8
LAYER01
  6
VERDECKT
 62
     3
 10
1044.0866659999999
 20
873.85083399999985
 30
0.0
  0
VERTEX
  5
EA2
  8
LAYER01
  6
VERDECKT
 62
     3
 10
1044.0866659999999
 20
873.83883400000002
 30
0.0
  0
VERTEX
  5
EA3
  8
LAYER01
  6
VERDECKT
 62
     3
 10
1044.0866659999999
 20
873.82083399999988
 30
0.0
  0
VERTEX
  5
EA4
  8
LAYER01
  6
VERDECKT
 62
     3
 10
1044.0866659999999
 20
873.80883399999993
 30
0.0
  0
VERTEX
  5
EA5
  8
LAYER01
  6
VERDECKT
 62
     3
 10
1044.0866659999999
 20
873.79683399999999
 30
0.0
  0
VERTEX
  5
EA6
  8
LAYER01
  6
VERDECKT
 62
     3
 10
1044.0866659999999
 20
873.77883399999985
 30
0.0
  0
VERTEX
  5
EA7
  8
LAYER01
  6
VERDECKT
 62
     3
 10
1044.0806660000001
 20
873.76683400000002
 30
0.0
  0
VERTEX
  5
EA8
  8
LAYER01
  6
VERDECKT
 62
     3
 10
1044.0806660000001
 20
873.75483399999996
 30
0.0
  0
VERTEX
  5
EA9
  8
LAYER01
  6
VERDECKT
 62
     3
 10
1044.0806660000001
 20
873.73683399999993
 30
0.0
  0
VERTEX
  5
EAA
  8
LAYER01
  6
VERDECKT
 62
     3
 10
1044.0806660000001
 20
873.72483399999999
 30
0.0
  0
VERTEX
  5
EAB
  8
LAYER01
  6
VERDECKT
 62
     3
 10
1044.0806660000001
 20
873.71283399999993
 30
0.0
  0
VERTEX
  5
EAC
  8
LAYER01
  6
VERDECKT
 62
     3
 10
1044.0806660000001
 20
873.6948339999999
 30
0.0
  0
VERTEX
  5
EAD
  8
LAYER01
  6
VERDECKT
 62
     3
 10
1044.0806660000001
 20
873.68283399999996
 30
0.0
  0
VERTEX
  5
EAE
  8
LAYER01
  6
VERDECKT
 62
     3
 10
1044.0806660000001
 20
873.6708339999999
 30
0.0
  0
VERTEX
  5
EAF
  8
LAYER01
  6
VERDECKT
 62
     3
 10
1044.074666
 20
873.65283399999987
 30
0.0
  0
VERTEX
  5
EB0
  8
LAYER01
  6
VERDECKT
 62
     3
 10
1044.074666
 20
873.64083400000004
 30
0.0
  0
VERTEX
  5
EB1
  8
LAYER01
  6
VERDECKT
 62
     3
 10
1044.074666
 20
873.62883399999987
 30
0.0
  0
VERTEX
  5
EB2
  8
LAYER01
  6
VERDECKT
 62
     3
 10
1044.074666
 20
873.61683400000004
 30
0.0
  0
VERTEX
  5
EB3
  8
LAYER01
  6
VERDECKT
 62
     3
 10
1044.074666
 20
873.59883400000001
 30
0.0
  0
VERTEX
  5
EB4
  8
LAYER01
  6
VERDECKT
 62
     3
 10
1044.074666
 20
873.58683399999995
 30
0.0
  0
VERTEX
  5
EB5
  8
LAYER01
  6
VERDECKT
 62
     3
 10
1044.074666
 20
873.57483400000001
 30
0.0
  0
VERTEX
  5
EB6
  8
LAYER01
  6
VERDECKT
 62
     3
 10
1044.074666
 20
873.55683399999998
 30
0.0
  0
VERTEX
  5
EB7
  8
LAYER01
  6
VERDECKT
 62
     3
 10
1044.074666
 20
873.54483400000015
 30
0.0
  0
VERTEX
  5
EB8
  8
LAYER01
  6
VERDECKT
 62
     3
 10
1044.0686659999999
 20
873.53283399999998
 30
0.0
  0
VERTEX
  5
EB9
  8
LAYER01
  6
VERDECKT
 62
     3
 10
1044.0686659999999
 20
873.52083399999992
 30
0.0
  0
VERTEX
  5
EBA
  8
LAYER01
  6
VERDECKT
 62
     3
 10
1044.0686659999999
 20
873.50283399999989
 30
0.0
  0
VERTEX
  5
EBB
  8
LAYER01
  6
VERDECKT
 62
     3
 10
1044.0686659999999
 20
873.49083399999995
 30
0.0
  0
VERTEX
  5
EBC
  8
LAYER01
  6
VERDECKT
 62
     3
 10
1044.0686659999999
 20
873.47883399999989
 30
0.0
  0
VERTEX
  5
EBD
  8
LAYER01
  6
VERDECKT
 62
     3
 10
1044.0686659999999
 20
873.46683399999984
 30
0.0
  0
VERTEX
  5
EBE
  8
LAYER01
  6
VERDECKT
 62
     3
 10
1044.0686659999999
 20
873.45483399999989
 30
0.0
  0
VERTEX
  5
EBF
  8
LAYER01
  6
VERDECKT
 62
     3
 10
1044.0686659999999
 20
873.43683399999986
 30
0.0
  0
VERTEX
  5
EC0
  8
LAYER01
  6
VERDECKT
 62
     3
 10
1044.062666
 20
873.42483400000003
 30
0.0
  0
VERTEX
  5
EC1
  8
LAYER01
  6
VERDECKT
 62
     3
 10
1044.062666
 20
873.41283399999986
 30
0.0
  0
VERTEX
  5
EC2
  8
LAYER01
  6
VERDECKT
 62
     3
 10
1044.062666
 20
873.40083400000003
 30
0.0
  0
VERTEX
  5
EC3
  8
LAYER01
  6
VERDECKT
 62
     3
 10
1044.062666
 20
873.38883399999997
 30
0.0
  0
VERTEX
  5
EC4
  8
LAYER01
  6
VERDECKT
 62
     3
 10
1044.062666
 20
873.37083399999995
 30
0.0
  0
VERTEX
  5
EC5
  8
LAYER01
  6
VERDECKT
 62
     3
 10
1044.062666
 20
873.358834
 30
0.0
  0
VERTEX
  5
EC6
  8
LAYER01
  6
VERDECKT
 62
     3
 10
1044.062666
 20
873.34683399999994
 30
0.0
  0
VERTEX
  5
EC7
  8
LAYER01
  6
VERDECKT
 62
     3
 10
1044.062666
 20
873.334834
 30
0.0
  0
VERTEX
  5
EC8
  8
LAYER01
  6
VERDECKT
 62
     3
 10
1044.062666
 20
873.32283399999994
 30
0.0
  0
VERTEX
  5
EC9
  8
LAYER01
  6
VERDECKT
 62
     3
 10
1044.056666
 20
873.31083399999989
 30
0.0
  0
VERTEX
  5
ECA
  8
LAYER01
  6
VERDECKT
 62
     3
 10
1044.056666
 20
873.29883400000006
 30
0.0
  0
VERTEX
  5
ECB
  8
LAYER01
  6
VERDECKT
 62
     3
 10
1044.056666
 20
873.28083400000003
 30
0.0
  0
VERTEX
  5
ECC
  8
LAYER01
  6
VERDECKT
 62
     3
 10
1044.056666
 20
873.26883399999986
 30
0.0
  0
VERTEX
  5
ECD
  8
LAYER01
  6
VERDECKT
 62
     3
 10
1044.056666
 20
873.25683400000003
 30
0.0
  0
VERTEX
  5
ECE
  8
LAYER01
  6
VERDECKT
 62
     3
 10
1044.056666
 20
873.24483399999986
 30
0.0
  0
VERTEX
  5
ECF
  8
LAYER01
  6
VERDECKT
 62
     3
 10
1044.056666
 20
873.23283400000003
 30
0.0
  0
VERTEX
  5
ED0
  8
LAYER01
  6
VERDECKT
 62
     3
 10
1044.056666
 20
873.22083399999985
 30
0.0
  0
VERTEX
  5
ED1
  8
LAYER01
  6
VERDECKT
 62
     3
 10
1044.056666
 20
873.20883400000002
 30
0.0
  0
VERTEX
  5
ED2
  8
LAYER01
  6
VERDECKT
 62
     3
 10
1044.0506660000001
 20
873.19683399999985
 30
0.0
  0
VERTEX
  5
ED3
  8
LAYER01
  6
VERDECKT
 62
     3
 10
1044.0506660000001
 20
873.18483400000002
 30
0.0
  0
VERTEX
  5
ED4
  8
LAYER01
  6
VERDECKT
 62
     3
 10
1044.0506660000001
 20
873.17283399999997
 30
0.0
  0
VERTEX
  5
ED5
  8
LAYER01
  6
VERDECKT
 62
     3
 10
1044.0506660000001
 20
873.16083400000014
 30
0.0
  0
VERTEX
  5
ED6
  8
LAYER01
  6
VERDECKT
 62
     3
 10
1044.0506660000001
 20
873.14883399999997
 30
0.0
  0
VERTEX
  5
ED7
  8
LAYER01
  6
VERDECKT
 62
     3
 10
1044.0506660000001
 20
873.13683400000014
 30
0.0
  0
VERTEX
  5
ED8
  8
LAYER01
  6
VERDECKT
 62
     3
 10
1044.0506660000001
 20
873.12483399999996
 30
0.0
  0
VERTEX
  5
ED9
  8
LAYER01
  6
VERDECKT
 62
     3
 10
1044.0506660000001
 20
873.11283399999991
 30
0.0
  0
VERTEX
  5
EDA
  8
LAYER01
  6
VERDECKT
 62
     3
 10
1044.0506660000001
 20
873.10083399999996
 30
0.0
  0
VERTEX
  5
EDB
  8
LAYER01
  6
VERDECKT
 62
     3
 10
1044.0506660000001
 20
873.08883399999991
 30
0.0
  0
VERTEX
  5
EDC
  8
LAYER01
  6
VERDECKT
 62
     3
 10
1044.044666
 20
873.07683399999985
 30
0.0
  0
VERTEX
  5
EDD
  8
LAYER01
  6
VERDECKT
 62
     3
 10
1044.044666
 20
873.06483400000002
 30
0.0
  0
VERTEX
  5
EDE
  8
LAYER01
  6
VERDECKT
 62
     3
 10
1044.044666
 20
873.05283399999985
 30
0.0
  0
VERTEX
  5
EDF
  8
LAYER01
  6
VERDECKT
 62
     3
 10
1044.044666
 20
873.04083400000002
 30
0.0
  0
VERTEX
  5
EE0
  8
LAYER01
  6
VERDECKT
 62
     3
 10
1044.044666
 20
873.02883399999985
 30
0.0
  0
VERTEX
  5
EE1
  8
LAYER01
  6
VERDECKT
 62
     3
 10
1044.044666
 20
873.01683400000002
 30
0.0
  0
VERTEX
  5
EE2
  8
LAYER01
  6
VERDECKT
 62
     3
 10
1044.044666
 20
873.00483399999985
 30
0.0
  0
VERTEX
  5
EE3
  8
LAYER01
  6
VERDECKT
 62
     3
 10
1044.044666
 20
872.99283400000002
 30
0.0
  0
VERTEX
  5
EE4
  8
LAYER01
  6
VERDECKT
 62
     3
 10
1044.044666
 20
872.98083399999985
 30
0.0
  0
VERTEX
  5
EE5
  8
LAYER01
  6
VERDECKT
 62
     3
 10
1044.044666
 20
872.96883400000002
 30
0.0
  0
VERTEX
  5
EE6
  8
LAYER01
  6
VERDECKT
 62
     3
 10
1044.0386659999999
 20
872.96283399999993
 30
0.0
  0
VERTEX
  5
EE7
  8
LAYER01
  6
VERDECKT
 62
     3
 10
1044.0386659999999
 20
872.95083399999999
 30
0.0
  0
VERTEX
  5
EE8
  8
LAYER01
  6
VERDECKT
 62
     3
 10
1044.0386659999999
 20
872.93883399999993
 30
0.0
  0
VERTEX
  5
EE9
  8
LAYER01
  6
VERDECKT
 62
     3
 10
1044.0386659999999
 20
872.92683399999999
 30
0.0
  0
VERTEX
  5
EEA
  8
LAYER01
  6
VERDECKT
 62
     3
 10
1044.0386659999999
 20
872.91483400000004
 30
0.0
  0
VERTEX
  5
EEB
  8
LAYER01
  6
VERDECKT
 62
     3
 10
1044.0386659999999
 20
872.90283399999987
 30
0.0
  0
VERTEX
  5
EEC
  8
LAYER01
  6
VERDECKT
 62
     3
 10
1044.0386659999999
 20
872.8968339999999
 30
0.0
  0
VERTEX
  5
EED
  8
LAYER01
  6
VERDECKT
 62
     3
 10
1044.0386659999999
 20
872.88483399999984
 30
0.0
  0
VERTEX
  5
EEE
  8
LAYER01
  6
VERDECKT
 62
     3
 10
1044.0386659999999
 20
872.8728339999999
 30
0.0
  0
VERTEX
  5
EEF
  8
LAYER01
  6
VERDECKT
 62
     3
 10
1044.0386659999999
 20
872.86083399999995
 30
0.0
  0
VERTEX
  5
EF0
  8
LAYER01
  6
VERDECKT
 62
     3
 10
1044.0326660000001
 20
872.85483399999987
 30
0.0
  0
VERTEX
  5
EF1
  8
LAYER01
  6
VERDECKT
 62
     3
 10
1044.0326660000001
 20
872.84283400000004
 30
0.0
  0
VERTEX
  5
EF2
  8
LAYER01
  6
VERDECKT
 62
     3
 10
1044.0326660000001
 20
872.83083399999987
 30
0.0
  0
VERTEX
  5
EF3
  8
LAYER01
  6
VERDECKT
 62
     3
 10
1044.0326660000001
 20
872.82483400000001
 30
0.0
  0
VERTEX
  5
EF4
  8
LAYER01
  6
VERDECKT
 62
     3
 10
1044.0326660000001
 20
872.81283399999995
 30
0.0
  0
VERTEX
  5
EF5
  8
LAYER01
  6
VERDECKT
 62
     3
 10
1044.0326660000001
 20
872.80083400000001
 30
0.0
  0
VERTEX
  5
EF6
  8
LAYER01
  6
VERDECKT
 62
     3
 10
1044.0326660000001
 20
872.79483400000015
 30
0.0
  0
VERTEX
  5
EF7
  8
LAYER01
  6
VERDECKT
 62
     3
 10
1044.0326660000001
 20
872.78283399999998
 30
0.0
  0
VERTEX
  5
EF8
  8
LAYER01
  6
VERDECKT
 62
     3
 10
1044.0326660000001
 20
872.77083400000015
 30
0.0
  0
VERTEX
  5
EF9
  8
LAYER01
  6
VERDECKT
 62
     3
 10
1044.0326660000001
 20
872.76483399999995
 30
0.0
  0
VERTEX
  5
EFA
  8
LAYER01
  6
VERDECKT
 62
     3
 10
1044.0326660000001
 20
872.75283400000001
 30
0.0
  0
VERTEX
  5
EFB
  8
LAYER01
  6
VERDECKT
 62
     3
 10
1044.0326660000001
 20
872.74683399999992
 30
0.0
  0
VERTEX
  5
EFC
  8
LAYER01
  6
VERDECKT
 62
     3
 10
1044.026666
 20
872.73483399999998
 30
0.0
  0
VERTEX
  5
EFD
  8
LAYER01
  6
VERDECKT
 62
     3
 10
1044.026666
 20
872.72883399999989
 30
0.0
  0
VERTEX
  5
EFE
  8
LAYER01
  6
VERDECKT
 62
     3
 10
1044.026666
 20
872.71683399999995
 30
0.0
  0
VERTEX
  5
EFF
  8
LAYER01
  6
VERDECKT
 62
     3
 10
1044.026666
 20
872.71083399999986
 30
0.0
  0
VERTEX
  5
F00
  8
LAYER01
  6
VERDECKT
 62
     3
 10
1044.026666
 20
872.69883400000003
 30
0.0
  0
VERTEX
  5
F01
  8
LAYER01
  6
VERDECKT
 62
     3
 10
1044.026666
 20
872.69283399999983
 30
0.0
  0
VERTEX
  5
F02
  8
LAYER01
  6
VERDECKT
 62
     3
 10
1044.026666
 20
872.68683399999986
 30
0.0
  0
VERTEX
  5
F03
  8
LAYER01
  6
VERDECKT
 62
     3
 10
1044.026666
 20
872.67483400000003
 30
0.0
  0
VERTEX
  5
F04
  8
LAYER01
  6
VERDECKT
 62
     3
 10
1044.026666
 20
872.66883399999995
 30
0.0
  0
VERTEX
  5
F05
  8
LAYER01
  6
VERDECKT
 62
     3
 10
1044.026666
 20
872.656834
 30
0.0
  0
VERTEX
  5
F06
  8
LAYER01
  6
VERDECKT
 62
     3
 10
1044.026666
 20
872.65083400000003
 30
0.0
  0
VERTEX
  5
F07
  8
LAYER01
  6
VERDECKT
 62
     3
 10
1044.026666
 20
872.64483399999995
 30
0.0
  0
VERTEX
  5
F08
  8
LAYER01
  6
VERDECKT
 62
     3
 10
1044.026666
 20
872.63883399999986
 30
0.0
  0
VERTEX
  5
F09
  8
LAYER01
  6
VERDECKT
 62
     3
 10
1044.026666
 20
872.62683400000003
 30
0.0
  0
VERTEX
  5
F0A
  8
LAYER01
  6
VERDECKT
 62
     3
 10
1044.0206659999999
 20
872.62083399999995
 30
0.0
  0
VERTEX
  5
F0B
  8
LAYER01
  6
VERDECKT
 62
     3
 10
1044.0206659999999
 20
872.61483399999986
 30
0.0
  0
VERTEX
  5
F0C
  8
LAYER01
  6
VERDECKT
 62
     3
 10
1044.0206659999999
 20
872.608834
 30
0.0
  0
VERTEX
  5
F0D
  8
LAYER01
  6
VERDECKT
 62
     3
 10
1044.0206659999999
 20
872.60283400000003
 30
0.0
  0
VERTEX
  5
F0E
  8
LAYER01
  6
VERDECKT
 62
     3
 10
1044.0206659999999
 20
872.59683399999994
 30
0.0
  0
VERTEX
  5
F0F
  8
LAYER01
  6
VERDECKT
 62
     3
 10
1044.0206659999999
 20
872.584834
 30
0.0
  0
VERTEX
  5
F10
  8
LAYER01
  6
VERDECKT
 62
     3
 10
1044.0206659999999
 20
872.57883400000014
 30
0.0
  0
VERTEX
  5
F11
  8
LAYER01
  6
VERDECKT
 62
     3
 10
1044.0206659999999
 20
872.57283399999994
 30
0.0
  0
VERTEX
  5
F12
  8
LAYER01
  6
VERDECKT
 62
     3
 10
1044.0206659999999
 20
872.56683399999997
 30
0.0
  0
VERTEX
  5
F13
  8
LAYER01
  6
VERDECKT
 62
     3
 10
1044.0206659999999
 20
872.560834
 30
0.0
  0
VERTEX
  5
F14
  8
LAYER01
  6
VERDECKT
 62
     3
 10
1044.0206659999999
 20
872.55483400000014
 30
0.0
  0
VERTEX
  5
F15
  8
LAYER01
  6
VERDECKT
 62
     3
 10
1044.0206659999999
 20
872.55483400000014
 30
0.0
  0
VERTEX
  5
F16
  8
LAYER01
  6
VERDECKT
 62
     3
 10
1044.0206659999999
 20
872.54883400000006
 30
0.0
  0
VERTEX
  5
F17
  8
LAYER01
  6
VERDECKT
 62
     3
 10
1044.0206659999999
 20
872.54283399999997
 30
0.0
  0
VERTEX
  5
F18
  8
LAYER01
  6
VERDECKT
 62
     3
 10
1044.0206659999999
 20
872.53683400000011
 30
0.0
  0
VERTEX
  5
F19
  8
LAYER01
  6
VERDECKT
 62
     3
 10
1044.0206659999999
 20
872.53083399999991
 30
0.0
  0
VERTEX
  5
F1A
  8
LAYER01
  6
VERDECKT
 62
     3
 10
1044.0206659999999
 20
872.52483400000006
 30
0.0
  0
VERTEX
  5
F1B
  8
LAYER01
  6
VERDECKT
 62
     3
 10
1044.0206659999999
 20
872.52483400000006
 30
0.0
  0
VERTEX
  5
F1C
  8
LAYER01
  6
VERDECKT
 62
     3
 10
1044.0206659999999
 20
872.51883399999997
 30
0.0
  0
VERTEX
  5
F1D
  8
LAYER01
  6
VERDECKT
 62
     3
 10
1044.0206659999999
 20
872.51283399999988
 30
0.0
  0
VERTEX
  5
F1E
  8
LAYER01
  6
VERDECKT
 62
     3
 10
1044.014666
 20
872.51283399999988
 30
0.0
  0
VERTEX
  5
F1F
  8
LAYER01
  6
VERDECKT
 62
     3
 10
1044.014666
 20
872.50683399999991
 30
0.0
  0
VERTEX
  5
F20
  8
LAYER01
  6
VERDECKT
 62
     3
 10
1044.014666
 20
872.50083400000005
 30
0.0
  0
VERTEX
  5
F21
  8
LAYER01
  6
VERDECKT
 62
     3
 10
1044.014666
 20
872.50083400000005
 30
0.0
  0
VERTEX
  5
F22
  8
LAYER01
  6
VERDECKT
 62
     3
 10
1044.014666
 20
872.49483399999986
 30
0.0
  0
VERTEX
  5
F23
  8
LAYER01
  6
VERDECKT
 62
     3
 10
1044.014666
 20
872.49483399999986
 30
0.0
  0
VERTEX
  5
F24
  8
LAYER01
  6
VERDECKT
 62
     3
 10
1044.014666
 20
872.49483399999986
 30
0.0
  0
VERTEX
  5
F25
  8
LAYER01
  6
VERDECKT
 62
     3
 10
1044.014666
 20
872.48883399999988
 30
0.0
  0
VERTEX
  5
F26
  8
LAYER01
  6
VERDECKT
 62
     3
 10
1044.014666
 20
872.48883399999988
 30
0.0
  0
VERTEX
  5
F27
  8
LAYER01
  6
VERDECKT
 62
     3
 10
1044.014666
 20
872.48283400000003
 30
0.0
  0
VERTEX
  5
F28
  8
LAYER01
  6
VERDECKT
 62
     3
 10
1044.014666
 20
872.48283400000003
 30
0.0
  0
VERTEX
  5
F29
  8
LAYER01
  6
VERDECKT
 62
     3
 10
1044.014666
 20
872.48283400000003
 30
0.0
  0
VERTEX
  5
F2A
  8
LAYER01
  6
VERDECKT
 62
     3
 10
1044.014666
 20
872.48283400000003
 30
0.0
  0
VERTEX
  5
F2B
  8
LAYER01
  6
VERDECKT
 62
     3
 10
1044.014666
 20
872.47683399999983
 30
0.0
  0
VERTEX
  5
F2C
  8
LAYER01
  6
VERDECKT
 62
     3
 10
1044.014666
 20
872.47683399999983
 30
0.0
  0
VERTEX
  5
F2D
  8
LAYER01
  6
VERDECKT
 62
     3
 10
1044.014666
 20
872.47683399999983
 30
0.0
  0
VERTEX
  5
F2E
  8
LAYER01
  6
VERDECKT
 62
     3
 10
1044.014666
 20
872.47683399999983
 30
0.0
  0
VERTEX
  5
F2F
  8
LAYER01
  6
VERDECKT
 62
     3
 10
1044.014666
 20
872.47683399999983
 30
0.0
  0
VERTEX
  5
F30
  8
LAYER01
  6
VERDECKT
 62
     3
 10
1044.014666
 20
872.47683399999983
 30
0.0
  0
VERTEX
  5
F31
  8
LAYER01
  6
VERDECKT
 62
     3
 10
1044.014666
 20
872.47683399999983
 30
0.0
  0
VERTEX
  5
F32
  8
LAYER01
  6
VERDECKT
 62
     3
 10
1044.014666
 20
872.47683399999983
 30
0.0
  0
VERTEX
  5
F33
  8
LAYER01
  6
VERDECKT
 62
     3
 10
1044.014666
 20
872.47683399999983
 30
0.0
  0
VERTEX
  5
F34
  8
LAYER01
  6
VERDECKT
 62
     3
 10
1044.014666
 20
872.47683399999983
 30
0.0
  0
VERTEX
  5
F35
  8
LAYER01
  6
VERDECKT
 62
     3
 10
1044.014666
 20
872.48283400000003
 30
0.0
  0
VERTEX
  5
F36
  8
LAYER01
  6
VERDECKT
 62
     3
 10
1044.014666
 20
872.48283400000003
 30
0.0
  0
VERTEX
  5
F37
  8
LAYER01
  6
VERDECKT
 62
     3
 10
1044.014666
 20
872.48283400000003
 30
0.0
  0
VERTEX
  5
F38
  8
LAYER01
  6
VERDECKT
 62
     3
 10
1044.014666
 20
872.48283400000003
 30
0.0
  0
VERTEX
  5
F39
  8
LAYER01
  6
VERDECKT
 62
     3
 10
1044.014666
 20
872.48883399999988
 30
0.0
  0
VERTEX
  5
F3A
  8
LAYER01
  6
VERDECKT
 62
     3
 10
1044.014666
 20
872.48883399999988
 30
0.0
  0
VERTEX
  5
F3B
  8
LAYER01
  6
VERDECKT
 62
     3
 10
1044.014666
 20
872.49483399999986
 30
0.0
  0
VERTEX
  5
F3C
  8
LAYER01
  6
VERDECKT
 62
     3
 10
1044.014666
 20
872.49483399999986
 30
0.0
  0
VERTEX
  5
F3D
  8
LAYER01
  6
VERDECKT
 62
     3
 10
1044.014666
 20
872.50083400000005
 30
0.0
  0
VERTEX
  5
F3E
  8
LAYER01
  6
VERDECKT
 62
     3
 10
1044.014666
 20
872.50083400000005
 30
0.0
  0
VERTEX
  5
F3F
  8
LAYER01
  6
VERDECKT
 62
     3
 10
1044.014666
 20
872.50683399999991
 30
0.0
  0
VERTEX
  5
F40
  8
LAYER01
  6
VERDECKT
 62
     3
 10
1044.014666
 20
872.50683399999991
 30
0.0
  0
VERTEX
  5
F41
  8
LAYER01
  6
VERDECKT
 62
     3
 10
1044.0206659999999
 20
872.51283399999988
 30
0.0
  0
VERTEX
  5
F42
  8
LAYER01
  6
VERDECKT
 62
     3
 10
1044.0206659999999
 20
872.51883399999997
 30
0.0
  0
VERTEX
  5
F43
  8
LAYER01
  6
VERDECKT
 62
     3
 10
1044.0206659999999
 20
872.52483400000006
 30
0.0
  0
SEQEND
  5
F44
  8
LAYER01
  6
VERDECKT
 62
     3
  0
POLYLINE
  5
7E4
  8
LAYER01
  6
VERDECKT
 62
     3
 66
     1
 10
0.0
 20
0.0
 30
0.0
  0
VERTEX
  5
F45
  8
LAYER01
  6
VERDECKT
 62
     3
 10
1055.5286659999999
 20
862.84083399999997
 30
0.0
  0
VERTEX
  5
F46
  8
LAYER01
  6
VERDECKT
 62
     3
 10
1055.5286659999999
 20
862.82883400000003
 30
0.0
  0
VERTEX
  5
F47
  8
LAYER01
  6
VERDECKT
 62
     3
 10
1055.5286659999999
 20
862.810834
 30
0.0
  0
VERTEX
  5
F48
  8
LAYER01
  6
VERDECKT
 62
     3
 10
1055.5226660000001
 20
862.79883399999994
 30
0.0
  0
VERTEX
  5
F49
  8
LAYER01
  6
VERDECKT
 62
     3
 10
1055.5226660000001
 20
862.786834
 30
0.0
  0
VERTEX
  5
F4A
  8
LAYER01
  6
VERDECKT
 62
     3
 10
1055.5226660000001
 20
862.76883399999997
 30
0.0
  0
VERTEX
  5
F4B
  8
LAYER01
  6
VERDECKT
 62
     3
 10
1055.5226660000001
 20
862.75683399999991
 30
0.0
  0
VERTEX
  5
F4C
  8
LAYER01
  6
VERDECKT
 62
     3
 10
1055.5226660000001
 20
862.73883399999988
 30
0.0
  0
VERTEX
  5
F4D
  8
LAYER01
  6
VERDECKT
 62
     3
 10
1055.5226660000001
 20
862.72683399999983
 30
0.0
  0
VERTEX
  5
F4E
  8
LAYER01
  6
VERDECKT
 62
     3
 10
1055.5226660000001
 20
862.70883400000002
 30
0.0
  0
VERTEX
  5
F4F
  8
LAYER01
  6
VERDECKT
 62
     3
 10
1055.5226660000001
 20
862.69683399999985
 30
0.0
  0
VERTEX
  5
F50
  8
LAYER01
  6
VERDECKT
 62
     3
 10
1055.516666
 20
862.67883399999994
 30
0.0
  0
VERTEX
  5
F51
  8
LAYER01
  6
VERDECKT
 62
     3
 10
1055.516666
 20
862.66683399999999
 30
0.0
  0
VERTEX
  5
F52
  8
LAYER01
  6
VERDECKT
 62
     3
 10
1055.516666
 20
862.65483399999994
 30
0.0
  0
VERTEX
  5
F53
  8
LAYER01
  6
VERDECKT
 62
     3
 10
1055.516666
 20
862.63683400000002
 30
0.0
  0
VERTEX
  5
F54
  8
LAYER01
  6
VERDECKT
 62
     3
 10
1055.516666
 20
862.62483399999996
 30
0.0
  0
VERTEX
  5
F55
  8
LAYER01
  6
VERDECKT
 62
     3
 10
1055.516666
 20
862.60683399999994
 30
0.0
  0
VERTEX
  5
F56
  8
LAYER01
  6
VERDECKT
 62
     3
 10
1055.516666
 20
862.59483399999999
 30
0.0
  0
VERTEX
  5
F57
  8
LAYER01
  6
VERDECKT
 62
     3
 10
1055.5106659999999
 20
862.57683399999996
 30
0.0
  0
VERTEX
  5
F58
  8
LAYER01
  6
VERDECKT
 62
     3
 10
1055.5106659999999
 20
862.56483399999991
 30
0.0
  0
VERTEX
  5
F59
  8
LAYER01
  6
VERDECKT
 62
     3
 10
1055.5106659999999
 20
862.54683399999988
 30
0.0
  0
VERTEX
  5
F5A
  8
LAYER01
  6
VERDECKT
 62
     3
 10
1055.5106659999999
 20
862.53483400000005
 30
0.0
  0
VERTEX
  5
F5B
  8
LAYER01
  6
VERDECKT
 62
     3
 10
1055.5106659999999
 20
862.52283399999988
 30
0.0
  0
VERTEX
  5
F5C
  8
LAYER01
  6
VERDECKT
 62
     3
 10
1055.5106659999999
 20
862.50483399999985
 30
0.0
  0
VERTEX
  5
F5D
  8
LAYER01
  6
VERDECKT
 62
     3
 10
1055.5106659999999
 20
862.49283400000002
 30
0.0
  0
VERTEX
  5
F5E
  8
LAYER01
  6
VERDECKT
 62
     3
 10
1055.5106659999999
 20
862.47483399999999
 30
0.0
  0
VERTEX
  5
F5F
  8
LAYER01
  6
VERDECKT
 62
     3
 10
1055.504666
 20
862.46283399999993
 30
0.0
  0
VERTEX
  5
F60
  8
LAYER01
  6
VERDECKT
 62
     3
 10
1055.504666
 20
862.45083399999999
 30
0.0
  0
VERTEX
  5
F61
  8
LAYER01
  6
VERDECKT
 62
     3
 10
1055.504666
 20
862.43283399999984
 30
0.0
  0
VERTEX
  5
F62
  8
LAYER01
  6
VERDECKT
 62
     3
 10
1055.504666
 20
862.42083400000001
 30
0.0
  0
VERTEX
  5
F63
  8
LAYER01
  6
VERDECKT
 62
     3
 10
1055.504666
 20
862.40283399999998
 30
0.0
  0
VERTEX
  5
F64
  8
LAYER01
  6
VERDECKT
 62
     3
 10
1055.504666
 20
862.39083399999993
 30
0.0
  0
VERTEX
  5
F65
  8
LAYER01
  6
VERDECKT
 62
     3
 10
1055.504666
 20
862.37883399999998
 30
0.0
  0
VERTEX
  5
F66
  8
LAYER01
  6
VERDECKT
 62
     3
 10
1055.504666
 20
862.36083399999995
 30
0.0
  0
VERTEX
  5
F67
  8
LAYER01
  6
VERDECKT
 62
     3
 10
1055.498666
 20
862.3488339999999
 30
0.0
  0
VERTEX
  5
F68
  8
LAYER01
  6
VERDECKT
 62
     3
 10
1055.498666
 20
862.33083399999987
 30
0.0
  0
VERTEX
  5
F69
  8
LAYER01
  6
VERDECKT
 62
     3
 10
1055.498666
 20
862.31883400000004
 30
0.0
  0
VERTEX
  5
F6A
  8
LAYER01
  6
VERDECKT
 62
     3
 10
1055.498666
 20
862.30683399999987
 30
0.0
  0
VERTEX
  5
F6B
  8
LAYER01
  6
VERDECKT
 62
     3
 10
1055.498666
 20
862.28883399999995
 30
0.0
  0
VERTEX
  5
F6C
  8
LAYER01
  6
VERDECKT
 62
     3
 10
1055.498666
 20
862.27683400000001
 30
0.0
  0
VERTEX
  5
F6D
  8
LAYER01
  6
VERDECKT
 62
     3
 10
1055.498666
 20
862.26483399999995
 30
0.0
  0
VERTEX
  5
F6E
  8
LAYER01
  6
VERDECKT
 62
     3
 10
1055.498666
 20
862.24683400000015
 30
0.0
  0
VERTEX
  5
F6F
  8
LAYER01
  6
VERDECKT
 62
     3
 10
1055.4926660000001
 20
862.23483399999998
 30
0.0
  0
VERTEX
  5
F70
  8
LAYER01
  6
VERDECKT
 62
     3
 10
1055.4926660000001
 20
862.22283400000015
 30
0.0
  0
VERTEX
  5
F71
  8
LAYER01
  6
VERDECKT
 62
     3
 10
1055.4926660000001
 20
862.20483400000001
 30
0.0
  0
VERTEX
  5
F72
  8
LAYER01
  6
VERDECKT
 62
     3
 10
1055.4926660000001
 20
862.19283399999995
 30
0.0
  0
VERTEX
  5
F73
  8
LAYER01
  6
VERDECKT
 62
     3
 10
1055.4926660000001
 20
862.18083399999989
 30
0.0
  0
VERTEX
  5
F74
  8
LAYER01
  6
VERDECKT
 62
     3
 10
1055.4926660000001
 20
862.16283399999986
 30
0.0
  0
VERTEX
  5
F75
  8
LAYER01
  6
VERDECKT
 62
     3
 10
1055.4926660000001
 20
862.15083400000003
 30
0.0
  0
VERTEX
  5
F76
  8
LAYER01
  6
VERDECKT
 62
     3
 10
1055.4926660000001
 20
862.13883399999986
 30
0.0
  0
VERTEX
  5
F77
  8
LAYER01
  6
VERDECKT
 62
     3
 10
1055.4926660000001
 20
862.12683400000003
 30
0.0
  0
VERTEX
  5
F78
  8
LAYER01
  6
VERDECKT
 62
     3
 10
1055.486666
 20
862.108834
 30
0.0
  0
VERTEX
  5
F79
  8
LAYER01
  6
VERDECKT
 62
     3
 10
1055.486666
 20
862.09683399999994
 30
0.0
  0
VERTEX
  5
F7A
  8
LAYER01
  6
VERDECKT
 62
     3
 10
1055.486666
 20
862.084834
 30
0.0
  0
VERTEX
  5
F7B
  8
LAYER01
  6
VERDECKT
 62
     3
 10
1055.486666
 20
862.06683399999986
 30
0.0
  0
VERTEX
  5
F7C
  8
LAYER01
  6
VERDECKT
 62
     3
 10
1055.486666
 20
862.05483400000003
 30
0.0
  0
VERTEX
  5
F7D
  8
LAYER01
  6
VERDECKT
 62
     3
 10
1055.486666
 20
862.04283399999997
 30
0.0
  0
VERTEX
  5
F7E
  8
LAYER01
  6
VERDECKT
 62
     3
 10
1055.486666
 20
862.03083400000014
 30
0.0
  0
VERTEX
  5
F7F
  8
LAYER01
  6
VERDECKT
 62
     3
 10
1055.486666
 20
862.012834
 30
0.0
  0
VERTEX
  5
F80
  8
LAYER01
  6
VERDECKT
 62
     3
 10
1055.4806659999999
 20
862.00083400000005
 30
0.0
  0
VERTEX
  5
F81
  8
LAYER01
  6
VERDECKT
 62
     3
 10
1055.4806659999999
 20
861.98883400000011
 30
0.0
  0
VERTEX
  5
F82
  8
LAYER01
  6
VERDECKT
 62
     3
 10
1055.4806659999999
 20
861.97683400000005
 30
0.0
  0
VERTEX
  5
F83
  8
LAYER01
  6
VERDECKT
 62
     3
 10
1055.4806659999999
 20
861.96483399999988
 30
0.0
  0
VERTEX
  5
F84
  8
LAYER01
  6
VERDECKT
 62
     3
 10
1055.4806659999999
 20
861.94683399999985
 30
0.0
  0
VERTEX
  5
F85
  8
LAYER01
  6
VERDECKT
 62
     3
 10
1055.4806659999999
 20
861.93483400000002
 30
0.0
  0
VERTEX
  5
F86
  8
LAYER01
  6
VERDECKT
 62
     3
 10
1055.4806659999999
 20
861.92283399999985
 30
0.0
  0
VERTEX
  5
F87
  8
LAYER01
  6
VERDECKT
 62
     3
 10
1055.4806659999999
 20
861.91083400000002
 30
0.0
  0
VERTEX
  5
F88
  8
LAYER01
  6
VERDECKT
 62
     3
 10
1055.4806659999999
 20
861.89883399999985
 30
0.0
  0
VERTEX
  5
F89
  8
LAYER01
  6
VERDECKT
 62
     3
 10
1055.4746660000001
 20
861.88683400000002
 30
0.0
  0
VERTEX
  5
F8A
  8
LAYER01
  6
VERDECKT
 62
     3
 10
1055.4746660000001
 20
861.87483399999985
 30
0.0
  0
VERTEX
  5
F8B
  8
LAYER01
  6
VERDECKT
 62
     3
 10
1055.4746660000001
 20
861.85683399999994
 30
0.0
  0
VERTEX
  5
F8C
  8
LAYER01
  6
VERDECKT
 62
     3
 10
1055.4746660000001
 20
861.84483399999999
 30
0.0
  0
VERTEX
  5
F8D
  8
LAYER01
  6
VERDECKT
 62
     3
 10
1055.4746660000001
 20
861.83283399999993
 30
0.0
  0
VERTEX
  5
F8E
  8
LAYER01
  6
VERDECKT
 62
     3
 10
1055.4746660000001
 20
861.82083399999999
 30
0.0
  0
VERTEX
  5
F8F
  8
LAYER01
  6
VERDECKT
 62
     3
 10
1055.4746660000001
 20
861.80883399999993
 30
0.0
  0
VERTEX
  5
F90
  8
LAYER01
  6
VERDECKT
 62
     3
 10
1055.4746660000001
 20
861.79683399999999
 30
0.0
  0
VERTEX
  5
F91
  8
LAYER01
  6
VERDECKT
 62
     3
 10
1055.4746660000001
 20
861.78483400000005
 30
0.0
  0
VERTEX
  5
F92
  8
LAYER01
  6
VERDECKT
 62
     3
 10
1055.468666
 20
861.77283399999988
 30
0.0
  0
VERTEX
  5
F93
  8
LAYER01
  6
VERDECKT
 62
     3
 10
1055.468666
 20
861.76083400000005
 30
0.0
  0
VERTEX
  5
F94
  8
LAYER01
  6
VERDECKT
 62
     3
 10
1055.468666
 20
861.74883399999987
 30
0.0
  0
VERTEX
  5
F95
  8
LAYER01
  6
VERDECKT
 62
     3
 10
1055.468666
 20
861.73683399999982
 30
0.0
  0
VERTEX
  5
F96
  8
LAYER01
  6
VERDECKT
 62
     3
 10
1055.468666
 20
861.72483399999987
 30
0.0
  0
VERTEX
  5
F97
  8
LAYER01
  6
VERDECKT
 62
     3
 10
1055.468666
 20
861.71283399999982
 30
0.0
  0
VERTEX
  5
F98
  8
LAYER01
  6
VERDECKT
 62
     3
 10
1055.468666
 20
861.70083399999987
 30
0.0
  0
VERTEX
  5
F99
  8
LAYER01
  6
VERDECKT
 62
     3
 10
1055.468666
 20
861.68883399999993
 30
0.0
  0
VERTEX
  5
F9A
  8
LAYER01
  6
VERDECKT
 62
     3
 10
1055.468666
 20
861.67683399999999
 30
0.0
  0
VERTEX
  5
F9B
  8
LAYER01
  6
VERDECKT
 62
     3
 10
1055.4626659999999
 20
861.66483400000016
 30
0.0
  0
VERTEX
  5
F9C
  8
LAYER01
  6
VERDECKT
 62
     3
 10
1055.4626659999999
 20
861.65283399999998
 30
0.0
  0
VERTEX
  5
F9D
  8
LAYER01
  6
VERDECKT
 62
     3
 10
1055.4626659999999
 20
861.64083400000015
 30
0.0
  0
VERTEX
  5
F9E
  8
LAYER01
  6
VERDECKT
 62
     3
 10
1055.4626659999999
 20
861.62883399999998
 30
0.0
  0
VERTEX
  5
F9F
  8
LAYER01
  6
VERDECKT
 62
     3
 10
1055.4626659999999
 20
861.61683399999993
 30
0.0
  0
VERTEX
  5
FA0
  8
LAYER01
  6
VERDECKT
 62
     3
 10
1055.4626659999999
 20
861.60483399999998
 30
0.0
  0
VERTEX
  5
FA1
  8
LAYER01
  6
VERDECKT
 62
     3
 10
1055.4626659999999
 20
861.5988339999999
 30
0.0
  0
VERTEX
  5
FA2
  8
LAYER01
  6
VERDECKT
 62
     3
 10
1055.4626659999999
 20
861.58683399999995
 30
0.0
  0
VERTEX
  5
FA3
  8
LAYER01
  6
VERDECKT
 62
     3
 10
1055.4626659999999
 20
861.5748339999999
 30
0.0
  0
VERTEX
  5
FA4
  8
LAYER01
  6
VERDECKT
 62
     3
 10
1055.4626659999999
 20
861.56283399999984
 30
0.0
  0
VERTEX
  5
FA5
  8
LAYER01
  6
VERDECKT
 62
     3
 10
1055.4626659999999
 20
861.5508339999999
 30
0.0
  0
VERTEX
  5
FA6
  8
LAYER01
  6
VERDECKT
 62
     3
 10
1055.456666
 20
861.53883399999995
 30
0.0
  0
VERTEX
  5
FA7
  8
LAYER01
  6
VERDECKT
 62
     3
 10
1055.456666
 20
861.53283399999987
 30
0.0
  0
VERTEX
  5
FA8
  8
LAYER01
  6
VERDECKT
 62
     3
 10
1055.456666
 20
861.52083400000004
 30
0.0
  0
VERTEX
  5
FA9
  8
LAYER01
  6
VERDECKT
 62
     3
 10
1055.456666
 20
861.50883399999987
 30
0.0
  0
VERTEX
  5
FAA
  8
LAYER01
  6
VERDECKT
 62
     3
 10
1055.456666
 20
861.49683400000004
 30
0.0
  0
VERTEX
  5
FAB
  8
LAYER01
  6
VERDECKT
 62
     3
 10
1055.456666
 20
861.49083399999995
 30
0.0
  0
VERTEX
  5
FAC
  8
LAYER01
  6
VERDECKT
 62
     3
 10
1055.456666
 20
861.47883400000001
 30
0.0
  0
VERTEX
  5
FAD
  8
LAYER01
  6
VERDECKT
 62
     3
 10
1055.456666
 20
861.46683399999995
 30
0.0
  0
VERTEX
  5
FAE
  8
LAYER01
  6
VERDECKT
 62
     3
 10
1055.456666
 20
861.45483400000001
 30
0.0
  0
VERTEX
  5
FAF
  8
LAYER01
  6
VERDECKT
 62
     3
 10
1055.456666
 20
861.44883400000015
 30
0.0
  0
VERTEX
  5
FB0
  8
LAYER01
  6
VERDECKT
 62
     3
 10
1055.456666
 20
861.43683399999998
 30
0.0
  0
VERTEX
  5
FB1
  8
LAYER01
  6
VERDECKT
 62
     3
 10
1055.450666
 20
861.430834
 30
0.0
  0
VERTEX
  5
FB2
  8
LAYER01
  6
VERDECKT
 62
     3
 10
1055.450666
 20
861.41883399999995
 30
0.0
  0
VERTEX
  5
FB3
  8
LAYER01
  6
VERDECKT
 62
     3
 10
1055.450666
 20
861.40683400000012
 30
0.0
  0
VERTEX
  5
FB4
  8
LAYER01
  6
VERDECKT
 62
     3
 10
1055.450666
 20
861.40083399999992
 30
0.0
  0
VERTEX
  5
FB5
  8
LAYER01
  6
VERDECKT
 62
     3
 10
1055.450666
 20
861.38883399999997
 30
0.0
  0
VERTEX
  5
FB6
  8
LAYER01
  6
VERDECKT
 62
     3
 10
1055.450666
 20
861.38283399999989
 30
0.0
  0
VERTEX
  5
FB7
  8
LAYER01
  6
VERDECKT
 62
     3
 10
1055.450666
 20
861.37083399999995
 30
0.0
  0
VERTEX
  5
FB8
  8
LAYER01
  6
VERDECKT
 62
     3
 10
1055.450666
 20
861.36483399999986
 30
0.0
  0
VERTEX
  5
FB9
  8
LAYER01
  6
VERDECKT
 62
     3
 10
1055.450666
 20
861.35283400000003
 30
0.0
  0
VERTEX
  5
FBA
  8
LAYER01
  6
VERDECKT
 62
     3
 10
1055.450666
 20
861.34683399999983
 30
0.0
  0
VERTEX
  5
FBB
  8
LAYER01
  6
VERDECKT
 62
     3
 10
1055.450666
 20
861.33483399999989
 30
0.0
  0
VERTEX
  5
FBC
  8
LAYER01
  6
VERDECKT
 62
     3
 10
1055.450666
 20
861.32883400000003
 30
0.0
  0
VERTEX
  5
FBD
  8
LAYER01
  6
VERDECKT
 62
     3
 10
1055.4446660000001
 20
861.32283399999994
 30
0.0
  0
VERTEX
  5
FBE
  8
LAYER01
  6
VERDECKT
 62
     3
 10
1055.4446660000001
 20
861.310834
 30
0.0
  0
VERTEX
  5
FBF
  8
LAYER01
  6
VERDECKT
 62
     3
 10
1055.4446660000001
 20
861.30483400000003
 30
0.0
  0
VERTEX
  5
FC0
  8
LAYER01
  6
VERDECKT
 62
     3
 10
1055.4446660000001
 20
861.29883399999994
 30
0.0
  0
VERTEX
  5
FC1
  8
LAYER01
  6
VERDECKT
 62
     3
 10
1055.4446660000001
 20
861.286834
 30
0.0
  0
VERTEX
  5
FC2
  8
LAYER01
  6
VERDECKT
 62
     3
 10
1055.4446660000001
 20
861.28083400000003
 30
0.0
  0
VERTEX
  5
FC3
  8
LAYER01
  6
VERDECKT
 62
     3
 10
1055.4446660000001
 20
861.27483399999994
 30
0.0
  0
VERTEX
  5
FC4
  8
LAYER01
  6
VERDECKT
 62
     3
 10
1055.4446660000001
 20
861.262834
 30
0.0
  0
VERTEX
  5
FC5
  8
LAYER01
  6
VERDECKT
 62
     3
 10
1055.4446660000001
 20
861.25683400000014
 30
0.0
  0
VERTEX
  5
FC6
  8
LAYER01
  6
VERDECKT
 62
     3
 10
1055.4446660000001
 20
861.25083399999994
 30
0.0
  0
VERTEX
  5
FC7
  8
LAYER01
  6
VERDECKT
 62
     3
 10
1055.4446660000001
 20
861.24483399999997
 30
0.0
  0
VERTEX
  5
FC8
  8
LAYER01
  6
VERDECKT
 62
     3
 10
1055.4446660000001
 20
861.238834
 30
0.0
  0
VERTEX
  5
FC9
  8
LAYER01
  6
VERDECKT
 62
     3
 10
1055.4446660000001
 20
861.23283400000014
 30
0.0
  0
VERTEX
  5
FCA
  8
LAYER01
  6
VERDECKT
 62
     3
 10
1055.4446660000001
 20
861.22683399999994
 30
0.0
  0
VERTEX
  5
FCB
  8
LAYER01
  6
VERDECKT
 62
     3
 10
1055.4446660000001
 20
861.22083399999997
 30
0.0
  0
VERTEX
  5
FCC
  8
LAYER01
  6
VERDECKT
 62
     3
 10
1055.4446660000001
 20
861.214834
 30
0.0
  0
VERTEX
  5
FCD
  8
LAYER01
  6
VERDECKT
 62
     3
 10
1055.438666
 20
861.20883399999991
 30
0.0
  0
VERTEX
  5
FCE
  8
LAYER01
  6
VERDECKT
 62
     3
 10
1055.438666
 20
861.20283400000005
 30
0.0
  0
VERTEX
  5
FCF
  8
LAYER01
  6
VERDECKT
 62
     3
 10
1055.438666
 20
861.19683399999997
 30
0.0
  0
VERTEX
  5
FD0
  8
LAYER01
  6
VERDECKT
 62
     3
 10
1055.438666
 20
861.19083399999988
 30
0.0
  0
VERTEX
  5
FD1
  8
LAYER01
  6
VERDECKT
 62
     3
 10
1055.438666
 20
861.18483399999991
 30
0.0
  0
VERTEX
  5
FD2
  8
LAYER01
  6
VERDECKT
 62
     3
 10
1055.438666
 20
861.17883400000005
 30
0.0
  0
VERTEX
  5
FD3
  8
LAYER01
  6
VERDECKT
 62
     3
 10
1055.438666
 20
861.17283399999985
 30
0.0
  0
VERTEX
  5
FD4
  8
LAYER01
  6
VERDECKT
 62
     3
 10
1055.438666
 20
861.16683399999988
 30
0.0
  0
VERTEX
  5
FD5
  8
LAYER01
  6
VERDECKT
 62
     3
 10
1055.438666
 20
861.16083400000002
 30
0.0
  0
VERTEX
  5
FD6
  8
LAYER01
  6
VERDECKT
 62
     3
 10
1055.438666
 20
861.16083400000002
 30
0.0
  0
VERTEX
  5
FD7
  8
LAYER01
  6
VERDECKT
 62
     3
 10
1055.438666
 20
861.15483399999982
 30
0.0
  0
VERTEX
  5
FD8
  8
LAYER01
  6
VERDECKT
 62
     3
 10
1055.438666
 20
861.14883399999985
 30
0.0
  0
VERTEX
  5
FD9
  8
LAYER01
  6
VERDECKT
 62
     3
 10
1055.438666
 20
861.14883399999985
 30
0.0
  0
VERTEX
  5
FDA
  8
LAYER01
  6
VERDECKT
 62
     3
 10
1055.438666
 20
861.14283399999988
 30
0.0
  0
VERTEX
  5
FDB
  8
LAYER01
  6
VERDECKT
 62
     3
 10
1055.438666
 20
861.13683400000002
 30
0.0
  0
VERTEX
  5
FDC
  8
LAYER01
  6
VERDECKT
 62
     3
 10
1055.438666
 20
861.13683400000002
 30
0.0
  0
VERTEX
  5
FDD
  8
LAYER01
  6
VERDECKT
 62
     3
 10
1055.438666
 20
861.13083399999994
 30
0.0
  0
VERTEX
  5
FDE
  8
LAYER01
  6
VERDECKT
 62
     3
 10
1055.438666
 20
861.13083399999994
 30
0.0
  0
VERTEX
  5
FDF
  8
LAYER01
  6
VERDECKT
 62
     3
 10
1055.438666
 20
861.12483399999985
 30
0.0
  0
VERTEX
  5
FE0
  8
LAYER01
  6
VERDECKT
 62
     3
 10
1055.438666
 20
861.12483399999985
 30
0.0
  0
VERTEX
  5
FE1
  8
LAYER01
  6
VERDECKT
 62
     3
 10
1055.438666
 20
861.11883399999988
 30
0.0
  0
VERTEX
  5
FE2
  8
LAYER01
  6
VERDECKT
 62
     3
 10
1055.438666
 20
861.11883399999988
 30
0.0
  0
VERTEX
  5
FE3
  8
LAYER01
  6
VERDECKT
 62
     3
 10
1055.438666
 20
861.11883399999988
 30
0.0
  0
VERTEX
  5
FE4
  8
LAYER01
  6
VERDECKT
 62
     3
 10
1055.438666
 20
861.11283400000002
 30
0.0
  0
VERTEX
  5
FE5
  8
LAYER01
  6
VERDECKT
 62
     3
 10
1055.438666
 20
861.11283400000002
 30
0.0
  0
VERTEX
  5
FE6
  8
LAYER01
  6
VERDECKT
 62
     3
 10
1055.438666
 20
861.11283400000002
 30
0.0
  0
VERTEX
  5
FE7
  8
LAYER01
  6
VERDECKT
 62
     3
 10
1055.438666
 20
861.11283400000002
 30
0.0
  0
VERTEX
  5
FE8
  8
LAYER01
  6
VERDECKT
 62
     3
 10
1055.438666
 20
861.10683399999994
 30
0.0
  0
VERTEX
  5
FE9
  8
LAYER01
  6
VERDECKT
 62
     3
 10
1055.438666
 20
861.10683399999994
 30
0.0
  0
VERTEX
  5
FEA
  8
LAYER01
  6
VERDECKT
 62
     3
 10
1055.438666
 20
861.10683399999994
 30
0.0
  0
VERTEX
  5
FEB
  8
LAYER01
  6
VERDECKT
 62
     3
 10
1055.438666
 20
861.10683399999994
 30
0.0
  0
VERTEX
  5
FEC
  8
LAYER01
  6
VERDECKT
 62
     3
 10
1055.438666
 20
861.10683399999994
 30
0.0
  0
VERTEX
  5
FED
  8
LAYER01
  6
VERDECKT
 62
     3
 10
1055.438666
 20
861.10683399999994
 30
0.0
  0
VERTEX
  5
FEE
  8
LAYER01
  6
VERDECKT
 62
     3
 10
1055.438666
 20
861.10683399999994
 30
0.0
  0
VERTEX
  5
FEF
  8
LAYER01
  6
VERDECKT
 62
     3
 10
1055.438666
 20
861.10683399999994
 30
0.0
  0
VERTEX
  5
FF0
  8
LAYER01
  6
VERDECKT
 62
     3
 10
1055.438666
 20
861.10683399999994
 30
0.0
  0
VERTEX
  5
FF1
  8
LAYER01
  6
VERDECKT
 62
     3
 10
1055.438666
 20
861.10683399999994
 30
0.0
  0
VERTEX
  5
FF2
  8
LAYER01
  6
VERDECKT
 62
     3
 10
1055.438666
 20
861.10683399999994
 30
0.0
  0
VERTEX
  5
FF3
  8
LAYER01
  6
VERDECKT
 62
     3
 10
1055.438666
 20
861.11283400000002
 30
0.0
  0
VERTEX
  5
FF4
  8
LAYER01
  6
VERDECKT
 62
     3
 10
1055.438666
 20
861.11283400000002
 30
0.0
  0
VERTEX
  5
FF5
  8
LAYER01
  6
VERDECKT
 62
     3
 10
1055.438666
 20
861.11283400000002
 30
0.0
  0
VERTEX
  5
FF6
  8
LAYER01
  6
VERDECKT
 62
     3
 10
1055.438666
 20
861.11283400000002
 30
0.0
  0
VERTEX
  5
FF7
  8
LAYER01
  6
VERDECKT
 62
     3
 10
1055.438666
 20
861.11883399999988
 30
0.0
  0
VERTEX
  5
FF8
  8
LAYER01
  6
VERDECKT
 62
     3
 10
1055.438666
 20
861.11883399999988
 30
0.0
  0
VERTEX
  5
FF9
  8
LAYER01
  6
VERDECKT
 62
     3
 10
1055.438666
 20
861.12483399999985
 30
0.0
  0
VERTEX
  5
FFA
  8
LAYER01
  6
VERDECKT
 62
     3
 10
1055.438666
 20
861.12483399999985
 30
0.0
  0
VERTEX
  5
FFB
  8
LAYER01
  6
VERDECKT
 62
     3
 10
1055.438666
 20
861.13083399999994
 30
0.0
  0
VERTEX
  5
FFC
  8
LAYER01
  6
VERDECKT
 62
     3
 10
1055.438666
 20
861.13083399999994
 30
0.0
  0
VERTEX
  5
FFD
  8
LAYER01
  6
VERDECKT
 62
     3
 10
1055.438666
 20
861.13683400000002
 30
0.0
  0
VERTEX
  5
FFE
  8
LAYER01
  6
VERDECKT
 62
     3
 10
1055.438666
 20
861.13683400000002
 30
0.0
  0
VERTEX
  5
FFF
  8
LAYER01
  6
VERDECKT
 62
     3
 10
1055.438666
 20
861.14283399999988
 30
0.0
  0
VERTEX
  5
1000
  8
LAYER01
  6
VERDECKT
 62
     3
 10
1055.438666
 20
861.14283399999988
 30
0.0
  0
VERTEX
  5
1001
  8
LAYER01
  6
VERDECKT
 62
     3
 10
1055.438666
 20
861.14883399999985
 30
0.0
  0
VERTEX
  5
1002
  8
LAYER01
  6
VERDECKT
 62
     3
 10
1055.438666
 20
861.14883399999985
 30
0.0
  0
VERTEX
  5
1003
  8
LAYER01
  6
VERDECKT
 62
     3
 10
1055.438666
 20
861.15483399999982
 30
0.0
  0
VERTEX
  5
1004
  8
LAYER01
  6
VERDECKT
 62
     3
 10
1055.438666
 20
861.16083400000002
 30
0.0
  0
SEQEND
  5
1005
  8
LAYER01
  6
VERDECKT
 62
     3
  0
LINE
  5
8A6
  8
LAYER01
  6
VERDECKT
 62
     3
 10
1055.527415
 20
862.84329999999989
 30
0.0
 11
1058.665786
 21
922.72697200000005
 31
0.0
  0
LINE
  5
8A7
  8
0
  6
CONTINUOUS
 62
     7
 10
1047.2782110000001
 20
1178.1502009999999
 30
0.0
 11
1047.2782110000001
 21
1408.1502009999999
 31
0.0
  0
DIMENSION
  5
8A8
  8
LAYER01
 62
     7
  2
*D21
 10
2091.5569209999999
 20
691.71695299999988
 30
0.0
 11
2156.699329
 21
721.71695299999988
 31
0.0
 13
2218.5569209999999
 23
742.05798400000003
 33
0.0
 14
2091.5569209999999
 24
742.05798400000003
 34
0.0
  0
INSERT
  5
8A9
  8
LAYER01
  2
CUADRA-G23
 10
0.0
 20
0.0
 30
0.0
  0
TEXT
  5
8AA
  8
LAYER01
  6
STRICHPUNKTIERT
 62
     7
 10
2463.7534913867421
 20
-215.6332556766572
 30
0.0
 40
34.290334350000002
  1
http://www.mineralwerkstoff.de
  0
INSERT
  5
8AB
  8
LAYER01
  2
CUADRA-G24
 10
0.0
 20
0.0
 30
0.0
  0
TEXT
  5
8AC
  8
LAYER01
  6
CONTINUOUS
 62
     7
 10
2498.5577320000002
 20
379.13138600000002
 30
0.0
 40
11.085760000000001
  1
--------------------------------------
  7
SIMPLEX
  0
TEXT
  5
8AD
  8
LAYER01
  6
CONTINUOUS
 62
     7
 10
2498.5577320000002
 20
360.12722600000001
 30
0.0
 40
11.085760000000001
  1
Ausführung geprüft und freigegeben (Datum u. Unterschrift)
  7
SIMPLEX
  0
INSERT
  5
8AE
  8
LAYER01
  2
CUADRA-G26
 10
0.0
 20
0.0
 30
0.0
  0
LINE
  5
8AF
  8
0
  6
CONTINUOUS
 62
     7
 10
1968.5253949999999
 20
225.629088
 30
0.0
 11
2132.2782109999998
 21
225.629088
 31
0.0
  0
LINE
  5
8B0
  8
0
  6
CONTINUOUS
 62
     7
 10
1968.5253949999999
 20
231.629088
 30
0.0
 11
2132.2782109999998
 21
231.629088
 31
0.0
  0
LINE
  5
8B1
  8
0
  6
CONTINUOUS
 62
     7
 10
1944.759513
 20
-22.370912000000001
 30
0.0
 11
2132.2782109999998
 21
-22.370912000000001
 31
0.0
  0
LINE
  5
8B2
  8
LAYER01
  6
VERDECKT
 62
     7
 10
1942.360512
 20
-10.370912000000001
 30
0.0
 11
2132.2782109999998
 21
-10.370912000000001
 31
0.0
  0
LINE
  5
8B3
  8
0
  6
CONTINUOUS
 62
     7
 10
1622.2782110000001
 20
225.629088
 30
0.0
 11
1622.2782110000001
 21
231.629088
 31
0.0
  0
LINE
  5
8B4
  8
0
  6
CONTINUOUS
 62
     7
 10
1637.2782110000001
 20
-10.370912000000001
 30
0.0
 11
1637.2782110000001
 21
219.629088
 31
0.0
  0
LINE
  5
8B5
  8
LAYER01
  6
VERDECKT
 62
     7
 10
1637.2782110000001
 20
-10.370912000000001
 30
0.0
 11
1922.360512
 21
-10.370912000000001
 31
0.0
  0
LINE
  5
8B6
  8
LAYER01
  6
CONTINUOUS
 62
     7
 10
2132.2782109999998
 20
-22.370912000000001
 30
0.0
 11
2132.2782109999998
 21
231.629088
 31
0.0
  0
TEXT
  5
8B7
  8
LAYER01
  6
VERDECKT
 62
     1
 10
3033.7588420000011
 20
-462.057795
 30
0.0
 40
24.745000000000001
  1
A. Sprenger GmbH
  7
SIMPLEX
  0
TEXT
  5
8B8
  8
LAYER01
  6
CONTINUOUS
 62
     7
 10
3025.731409
 20
-308.81530700000002
 30
0.0
 40
7.4234999999999989
  1
Diese Zeichnung ist geistiges Eigentum der A. Sprenger GmbH
  7
SIMPLEX
  0
TEXT
  5
8B9
  8
LAYER01
  6
CONTINUOUS
 62
     7
 10
3025.731409
 20
-321.54130700000002
 30
0.0
 40
7.4234999999999989
  1
und urheberrechtlich geschützt. Ohne unsere Zustimmung darf 
  7
SIMPLEX
  0
TEXT
  5
8BA
  8
LAYER01
  6
CONTINUOUS
 62
     7
 10
3025.731409
 20
-334.26730700000002
 30
0.0
 40
7.4234999999999989
  1
sie in keiner Form verwendet oder Dritten zugänglich gemacht
  7
SIMPLEX
  0
TEXT
  5
8BB
  8
LAYER01
  6
CONTINUOUS
 62
     7
 10
3025.731409
 20
-346.99330700000002
 30
0.0
 40
7.4234999999999989
  1
werden. (§106 Urheberrecht)
  7
SIMPLEX
  0
TEXT
  5
8BC
  8
LAYER01
  6
VERDECKT
 62
     1
 10
3033.7588420000011
 20
-559.23921299999995
 30
0.0
 40
34.643000000000001
  1
Cuadra
  7
SIMPLEX
  0
TEXT
  5
8BD
  8
LAYER01
  6
VERDECKT
 62
     1
 10
3099.0299440000008
 20
-398.23716200000001
 30
0.0
 40
9.8979999999999997
  1
1 : 10 (DIN A3)
  7
SIMPLEX
  0
TEXT
  5
8BE
  8
LAYER01
  6
CONTINUOUS
 62
     1
 10
2776.0101279999999
 20
-660.83774600000004
 30
0.0
 40
34.643000000000001
  1
61xxx
  7
SIMPLEX
  0
TEXT
  5
8BF
  8
LAYER01
  6
VERDECKT
 62
     1
 10
2899.632126
 20
-519.38833199999999
 30
0.0
 40
9.8979999999999997
  1
b.s.
  7
SIMPLEX
  0
TEXT
  5
8C0
  8
LAYER01
  6
VERDECKT
 62
     1
 10
2804.4557719999998
 20
-519.35216799999989
 30
0.0
 40
9.8979999999999997
  1
15.7.2022
  7
SIMPLEX
  0
TEXT
  5
8C1
  8
LAYER01
  6
VERDECKT
 62
     1
 10
3354.1297060000002
 20
-398.23716200000001
 30
0.0
 40
9.8979999999999997
  1
cuadra.skd
  7
SIMPLEX
  0
LINE
  5
8C2
  8
0
  6
CONTINUOUS
 62
     7
 10
2114.359101
 20
846.50160099999994
 30
0.0
 11
2068.7547410000011
 21
846.50160099999994
 31
0.0
  0
LINE
  5
8C3
  8
0
  6
CONTINUOUS
 62
     7
 10
2114.5569209999999
 20
842.72697199999993
 30
0.0
 11
2068.5569209999999
 21
842.72697199999993
 31
0.0
  0
LINE
  5
8C4
  8
0
  6
CONTINUOUS
 62
     7
 10
2050.0736189999998
 20
865.69564100000014
 30
0.0
 11
2133.040223
 21
865.69564100000014
 31
0.0
  0
DIMENSION
  5
8C5
  8
LAYER01
 62
     7
  2
*D26
 10
2114.5569209999999
 20
748.62420599999984
 30
0.0
 11
2193.6082529999999
 21
778.62420599999996
 31
0.0
 13
2068.5569209999999
 23
842.72697199999993
 33
0.0
 14
2114.5569209999999
 24
842.72697199999993
 34
0.0
  0
LINE
  5
8C6
  8
0
  6
CONTINUOUS
 62
     7
 10
1981.6493989999999
 20
934.72697199999993
 30
0.0
 11
2201.4644429999998
 21
934.72697199999993
 31
0.0
  0
DIMENSION
  5
8C7
  8
LAYER01
 62
     7
  2
*D27
 10
2206.4575909999999
 20
979.17153900000005
 30
0.0
 11
2093.199329
 21
1009.1715390000001
 31
0.0
 13
1976.6562510000001
 23
949.25875199999984
 33
0.0
 14
2206.4575909999999
 24
949.25875199999984
 34
0.0
  0
DIMENSION
  5
8C8
  8
LAYER01
 62
     7
  2
*D28
 10
1964.5569210000001
 20
1086.0550330000001
 30
0.0
 11
2093.199329
 21
1116.0550330000001
 31
0.0
 13
2218.5569209999999
 23
949.25875199999984
 33
0.0
 14
1964.5569210000001
 24
949.25875199999984
 34
0.0
  0
DIMENSION
  5
8C9
  8
LAYER01
 62
     7
  2
*D29
 10
1964.5569210000001
 20
1030.9717310000001
 30
0.0
 11
2055.7075829999999
 21
1060.9717310000001
 31
0.0
 13
1976.6562510000001
 23
949.25875199999984
 33
0.0
 14
1964.5569210000001
 24
949.25875199999984
 34
0.0
  0
LINE
  5
8CA
  8
0
  6
CONTINUOUS
 62
     7
 10
1622.2782110000001
 20
854.72697200000005
 30
0.0
 11
1622.2782110000001
 21
934.72697199999993
 31
0.0
  0
LINE
  5
8CB
  8
0
  6
CONTINUOUS
 62
     7
 10
1622.2782110000001
 20
939.72697200000005
 30
0.0
 11
1622.2782110000001
 21
934.72697199999993
 31
0.0
  0
INSERT
  5
8CC
  8
LAYER01
  2
CUADRA-G31
 10
0.0
 20
0.0
 30
0.0
  0
LINE
  5
8CD
  8
0
  6
CONTINUOUS
 62
     7
 10
1976.6562510000001
 20
932.83164399999998
 30
0.0
 11
1979.7465709999999
 21
873.86482799999987
 31
0.0
  0
LINE
  5
8CE
  8
0
  6
CONTINUOUS
 62
     7
 10
1964.5569210000001
 20
854.72697200000005
 30
0.0
 11
1964.5569210000001
 21
932.72697200000005
 31
0.0
  0
LINE
  5
8CF
  8
0
  6
CONTINUOUS
 62
     7
 10
2068.5569209999999
 20
842.72697199999993
 30
0.0
 11
2051.5569209999999
 21
842.72697199999993
 31
0.0
  0
LINE
  5
8D0
  8
0
  6
CONTINUOUS
 62
     7
 10
2068.7547410000011
 20
846.50160099999994
 30
0.0
 11
2068.5569209999999
 21
842.72697199999993
 31
0.0
  0
ARC
  5
8D1
  8
0
  6
CONTINUOUS
 62
     7
 10
2065.7588519999999
 20
846.65860899999996
 30
0.0
 40
3.0
 50
357.0
 51
50.0
  0
LINE
  5
8D2
  8
0
  6
CONTINUOUS
 62
     7
 10
2058.7788770000002
 20
856.43172600000014
 30
0.0
 11
2067.6872149999999
 21
848.95674199999996
 31
0.0
  0
LINE
  5
8D3
  8
0
  6
CONTINUOUS
 62
     7
 10
2051.5569209999999
 20
842.72697199999993
 30
0.0
 11
2051.3624329999998
 21
846.43802599999981
 31
0.0
  0
ARC
  5
8D4
  8
0
  6
CONTINUOUS
 62
     7
 10
2043.3733970000001
 20
846.01933800000006
 30
0.0
 40
8.0
 50
3.0
 51
87.0
  0
ARC
  5
8D5
  8
0
  6
CONTINUOUS
 62
     7
 10
1975.0520550000001
 20
857.72697200000005
 30
0.0
 40
3.0
 50
270.0
 51
317.24613700000009
  0
LINE
  5
8D6
  8
0
  6
CONTINUOUS
 62
     7
 10
1975.0520550000001
 20
854.72697200000005
 30
0.0
 11
1964.5569210000001
 21
854.72697200000005
 31
0.0
  0
ARC
  5
8D7
  8
0
  6
CONTINUOUS
 62
     7
 10
1980.926269
 20
852.29616999999985
 30
0.0
 40
5.0
 50
87.0
 51
137.246137
  0
ARC
  5
8D8
  8
0
  6
CONTINUOUS
 62
     7
 10
1984.7397189999999
 20
874.12650699999995
 30
0.0
 40
5.0
 50
183.0
 51
267.0
  0
ARC
  5
8D9
  8
0
  6
CONTINUOUS
 62
     7
 10
2056.8505140000002
 20
854.13359199999991
 30
0.0
 40
3.0
 50
50.0
 51
70.258281000000011
  0
LINE
  5
8DA
  8
0
  6
CONTINUOUS
 62
     7
 10
2057.8638559999999
 20
856.95726699999989
 30
0.0
 11
2055.0359819999999
 21
857.97211600000003
 31
0.0
  0
ARC
  5
8DB
  8
0
  6
CONTINUOUS
 62
     7
 10
2056.5559950000002
 20
862.20762799999989
 30
0.0
 40
4.5
 50
183.0
 51
250.25828100000001
  0
LINE
  5
8DC
  8
0
  6
CONTINUOUS
 62
     7
 10
2052.0621620000002
 20
861.97211600000003
 30
0.0
 11
2051.9662060000001
 21
863.80305399999986
 31
0.0
  0
ARC
  5
8DD
  8
0
  6
CONTINUOUS
 62
     7
 10
2049.9689469999998
 20
863.69838200000015
 30
0.0
 40
2.0
 50
3.0
 51
87.0
  0
LINE
  5
8DE
  8
0
  6
CONTINUOUS
 62
     7
 10
2050.0736189999998
 20
865.69564100000014
 30
0.0
 11
1984.4780390000001
 21
869.13336000000004
 31
0.0
  0
LINE
  5
8DF
  8
0
  6
CONTINUOUS
 62
     7
 10
2043.7920839999999
 20
854.008374
 30
0.0
 11
1981.1879489999999
 21
857.28931799999987
 31
0.0
  0
LINE
  5
8E0
  8
0
  6
CONTINUOUS
 62
     7
 10
1974.6589919999999
 20
934.72697199999993
 30
0.0
 11
1981.6493989999999
 21
934.72697199999993
 31
0.0
  0
LINE
  5
8E1
  8
0
  6
CONTINUOUS
 62
     7
 10
1974.6589919999999
 20
934.72697199999993
 30
0.0
 11
1966.5569210000001
 21
934.72697199999993
 31
0.0
  0
ARC
  5
8E2
  8
0
  6
CONTINUOUS
 62
     7
 10
1974.6589919999999
 20
932.72697200000005
 30
0.0
 40
2.0
 50
3.0
 51
90.0
  0
ARC
  5
8E3
  8
0
  6
CONTINUOUS
 62
     7
 10
1966.5569210000001
 20
932.72697200000005
 30
0.0
 40
2.0
 50
90.0
 51
180.0
  0
DIMENSION
  5
8E4
  8
LAYER01
 62
     7
  2
*D31
 10
1923.501117
 20
864.72697200000005
 30
0.0
 11
1893.501117
 21
900.82191099999977
 31
0.0
 53
90.0
 13
1958.8857559999999
 23
934.72697199999993
 33
0.0
 14
1958.8857559999999
 24
864.72697200000005
 34
0.0
 50
90.0
  0
DIMENSION
  5
8E5
  8
LAYER01
 62
     7
  2
*D32
 10
1866.2290740000001
 20
854.72697200000005
 30
0.0
 11
1836.2290740000001
 21
895.82191099999989
 31
0.0
 53
90.0
 13
1958.8857559999999
 23
934.72697199999993
 33
0.0
 14
1958.8857559999999
 24
854.72697200000005
 34
0.0
 50
90.0
  0
DIMENSION
  5
8E6
  8
LAYER01
 62
     7
  2
*D33
 10
1814.793672
 20
842.72697199999993
 30
0.0
 11
1784.793672
 21
889.82191099999989
 31
0.0
 53
90.0
 13
1958.8857559999999
 23
934.72697199999993
 33
0.0
 14
1958.8857559999999
 24
842.72697199999993
 34
0.0
 50
90.0
  0
LINE
  5
8E7
  8
0
  6
CONTINUOUS
 62
     7
 10
2091.5569209999999
 20
836.72697199999993
 30
0.0
 11
2091.5569209999999
 21
852.50160099999994
 31
0.0
  0
LINE
  5
8E8
  8
0
  6
CONTINUOUS
 62
     7
 10
1622.2782110000001
 20
1166.1502009999999
 30
0.0
 11
1622.2782110000001
 21
1414.1502009999999
 31
0.0
  0
LINE
  5
8E9
  8
0
  6
CONTINUOUS
 62
     7
 10
1622.2782110000001
 20
1414.1502009999999
 30
0.0
 11
1622.2782110000001
 21
1420.1502009999999
 31
0.0
  0
DIMENSION
  5
8EA
  8
LAYER01
 62
     7
  2
*D34
 10
2218.5569209999999
 20
1030.9717310000001
 30
0.0
 11
2297.6082529999999
 21
1060.9717310000001
 31
0.0
 13
2206.4575909999999
 23
949.25875199999984
 33
0.0
 14
2218.5569209999999
 24
949.25875199999984
 34
0.0
  0
INSERT
  5
8EB
  8
LAYER01
  2
CUADRA-G36
 10
0.0
 20
0.0
 30
0.0
  0
LINE
  5
8EC
  8
0
  6
CONTINUOUS
 62
     7
 10
2206.4575909999999
 20
932.83164399999998
 30
0.0
 11
2203.3672710000001
 21
873.86482799999987
 31
0.0
  0
LINE
  5
8ED
  8
0
  6
CONTINUOUS
 62
     7
 10
2218.5569209999999
 20
939.72697200000005
 30
0.0
 11
2218.5569209999999
 21
922.72697200000005
 31
0.0
  0
LINE
  5
8EE
  8
0
  6
CONTINUOUS
 62
     7
 10
2115.4266269999998
 20
848.95674199999996
 30
0.0
 11
2124.3349659999999
 21
856.43172600000014
 31
0.0
  0
ARC
  5
8EF
  8
0
  6
CONTINUOUS
 62
     7
 10
2117.3549899999998
 20
846.65860899999996
 30
0.0
 40
3.0
 50
130.0
 51
183.0
  0
LINE
  5
8F0
  8
0
  6
CONTINUOUS
 62
     7
 10
2114.5569209999999
 20
842.72697199999993
 30
0.0
 11
2114.359101
 21
846.50160099999994
 31
0.0
  0
LINE
  5
8F1
  8
0
  6
CONTINUOUS
 62
     7
 10
2131.5569209999999
 20
842.72697199999993
 30
0.0
 11
2114.5569209999999
 21
842.72697199999993
 31
0.0
  0
LINE
  5
8F2
  8
0
  6
CONTINUOUS
 62
     7
 10
2131.751409
 20
846.43802599999981
 30
0.0
 11
2131.5569209999999
 21
842.72697199999993
 31
0.0
  0
ARC
  5
8F3
  8
0
  6
CONTINUOUS
 62
     7
 10
2139.7404449999999
 20
846.01933800000006
 30
0.0
 40
8.0
 50
93.0
 51
177.0
  0
LINE
  5
8F4
  8
0
  6
CONTINUOUS
 62
     7
 10
2217.8207649999999
 20
920.36605399999985
 30
0.0
 11
2214.9267140000002
 21
865.14426600000002
 31
0.0
  0
ARC
  5
8F5
  8
0
  6
CONTINUOUS
 62
     7
 10
2198.3741239999999
 20
874.12650699999995
 30
0.0
 40
5.0
 50
273.0
 51
357.0
  0
LINE
  5
8F6
  8
0
  6
CONTINUOUS
 62
     7
 10
2198.6358030000001
 20
869.13336000000004
 30
0.0
 11
2133.040223
 21
865.69564100000014
 31
0.0
  0
ARC
  5
8F7
  8
0
  6
CONTINUOUS
 62
     7
 10
2133.1448949999999
 20
863.69838200000015
 30
0.0
 40
2.0
 50
93.0
 51
177.0
  0
LINE
  5
8F8
  8
0
  6
CONTINUOUS
 62
     7
 10
2131.1476360000001
 20
863.80305399999986
 30
0.0
 11
2131.05168
 21
861.97211600000003
 31
0.0
  0
ARC
  5
8F9
  8
0
  6
CONTINUOUS
 62
     7
 10
2126.557847
 20
862.20762799999989
 30
0.0
 40
4.5
 50
289.74171899999999
 51
357.0
  0
LINE
  5
8FA
  8
0
  6
CONTINUOUS
 62
     7
 10
2128.0778600000008
 20
857.97211600000003
 30
0.0
 11
2125.2499859999998
 21
856.95726699999989
 31
0.0
  0
ARC
  5
8FB
  8
0
  6
CONTINUOUS
 62
     7
 10
2126.263328
 20
854.13359199999991
 30
0.0
 40
3.0
 50
109.741719
 51
130.0
  0
LINE
  5
8FC
  8
0
  6
CONTINUOUS
 62
     7
 10
2207.3563650000001
 20
857.57391700000005
 30
0.0
 11
2139.321758
 21
854.008374
 31
0.0
  0
ARC
  5
8FD
  8
0
  6
CONTINUOUS
 62
     7
 10
2206.9376779999998
 20
865.56295299999977
 30
0.0
 40
8.0
 50
273.0
 51
357.0
  0
ARC
  5
8FE
  8
0
  6
CONTINUOUS
 62
     7
 10
2222.813913
 20
920.104375
 30
0.0
 40
5.0
 50
148.36409499999999
 51
177.0
  0
LINE
  5
8FF
  8
0
  6
CONTINUOUS
 62
     7
 10
2201.4644429999998
 20
934.72697199999993
 30
0.0
 11
2208.4548500000001
 21
934.72697199999993
 31
0.0
  0
LINE
  5
900
  8
0
  6
CONTINUOUS
 62
     7
 10
2214.5569209999999
 20
939.72697200000005
 30
0.0
 11
2218.5569209999999
 21
939.72697200000005
 31
0.0
  0
ARC
  5
901
  8
0
  6
CONTINUOUS
 62
     7
 10
2214.5569209999999
 20
937.72697200000005
 30
0.0
 40
2.0
 50
90.0
 51
180.0
  0
ARC
  5
902
  8
0
  6
CONTINUOUS
 62
     7
 10
2209.5569209999999
 20
937.72697200000005
 30
0.0
 40
3.0
 50
270.0
 51
0.0
  0
LINE
  5
903
  8
0
  6
CONTINUOUS
 62
     7
 10
2209.5569209999999
 20
934.72697199999993
 30
0.0
 11
2208.4548500000001
 21
934.72697199999993
 31
0.0
  0
ARC
  5
904
  8
0
  6
CONTINUOUS
 62
     7
 10
2208.4548500000001
 20
932.72697200000005
 30
0.0
 40
2.0
 50
90.0
 51
177.0
  0
DIMENSION
  5
905
  8
LAYER01
 62
     7
  2
*D36
 10
2212.5569209999999
 20
958.37850399999979
 30
0.0
 11
2289.5825869999999
 21
988.37850399999991
 31
0.0
 13
2218.5569209999999
 23
939.72697200000005
 33
0.0
 14
2212.5569209999999
 24
939.72697200000005
 34
0.0
  0
ENDSEC
  0
EOF
