  0
SECTION
  2
HEADER
  9
$ACADVER
  1
AC1009
  9
$INSBASE
 10
0.0
 20
0.0
 30
0.0
  9
$EXTMIN
 10
-1035.6449909999999
 20
-472.21176799999989
 30
0.0
  9
$EXTMAX
 10
1943.446246
 20
1385.3107680000001
 30
0.0
  9
$LIMMIN
 10
-1340.9246889999999
 20
-851.67921599999988
  9
$LIMMAX
 10
2859.0753110000001
 20
2118.320784
  9
$ORTHOMODE
 70
     0
  9
$REGENMODE
 70
     1
  9
$FILLMODE
 70
     1
  9
$QTEXTMODE
 70
     0
  9
$MIRRTEXT
 70
     0
  9
$DRAGMODE
 70
     2
  9
$LTSCALE
 40
50.0
  9
$OSMODE
 70
    39
  9
$ATTMODE
 70
     1
  9
$TEXTSIZE
 40
0.0
  9
$TRACEWID
 40
0.05
  9
$TEXTSTYLE
  7
STANDARD
  9
$CLAYER
  8
LAYER01
  9
$CELTYPE
  6
CONTINUOUS
  9
$CECOLOR
 62
     7
  9
$DIMSCALE
 40
1.0
  9
$DIMASZ
 40
0.18
  9
$DIMEXO
 40
0.0625
  9
$DIMDLI
 40
0.38
  9
$DIMRND
 40
0.0
  9
$DIMDLE
 40
0.0
  9
$DIMEXE
 40
0.18
  9
$DIMTP
 40
0.0
  9
$DIMTM
 40
0.0
  9
$DIMTXT
 40
0.18
  9
$DIMCEN
 40
0.09
  9
$DIMTSZ
 40
0.0
  9
$DIMTOL
 70
     0
  9
$DIMLIM
 70
     0
  9
$DIMTIH
 70
     1
  9
$DIMTOH
 70
     1
  9
$DIMSE1
 70
     0
  9
$DIMSE2
 70
     0
  9
$DIMTAD
 70
     0
  9
$DIMZIN
 70
     0
  9
$DIMBLK
  1

  9
$DIMASO
 70
     1
  9
$DIMSHO
 70
     1
  9
$DIMPOST
  1

  9
$DIMAPOST
  1

  9
$DIMALT
 70
     0
  9
$DIMALTD
 70
     2
  9
$DIMALTF
 40
25.399999999999999
  9
$DIMLFAC
 40
1.0
  9
$DIMTOFL
 70
     0
  9
$DIMTVP
 40
0.0
  9
$DIMTIX
 70
     0
  9
$DIMSOXD
 70
     0
  9
$DIMSAH
 70
     0
  9
$DIMBLK1
  1

  9
$DIMBLK2
  1

  9
$DIMSTYLE
  2
STANDARD
  9
$DIMCLRD
 70
     0
  9
$DIMCLRE
 70
     0
  9
$DIMCLRT
 70
     0
  9
$DIMTFAC
 40
1.0
  9
$DIMGAP
 40
0.09
  9
$LUNITS
 70
     2
  9
$LUPREC
 70
     4
  9
$SKETCHINC
 40
0.1
  9
$FILLETRAD
 40
10.0
  9
$AUNITS
 70
     0
  9
$AUPREC
 70
     0
  9
$MENU
  1
acad
  9
$ELEVATION
 40
0.0
  9
$PELEVATION
 40
0.0
  9
$THICKNESS
 40
0.0
  9
$LIMCHECK
 70
     0
  9
$BLIPMODE
 70
     0
  9
$CHAMFERA
 40
10.0
  9
$CHAMFERB
 40
10.0
  9
$SKPOLY
 70
     0
  9
$TDCREATE
 40
2305814.041858993
  9
$TDUPDATE
 40
2457070.4853454051
  9
$TDINDWG
 40
0.0012053935
  9
$TDUSRTIMER
 40
0.0012051968
  9
$USRTIMER
 70
     1
  9
$ANGBASE
 50
0.0
  9
$ANGDIR
 70
     0
  9
$PDMODE
 70
     0
  9
$PDSIZE
 40
0.0
  9
$PLINEWID
 40
0.0
  9
$COORDS
 70
     1
  9
$SPLFRAME
 70
     0
  9
$SPLINETYPE
 70
     6
  9
$SPLINESEGS
 70
    10
  9
$ATTDIA
 70
     0
  9
$ATTREQ
 70
     1
  9
$HANDLING
 70
     1
  9
$HANDSEED
  5
99C
  9
$SURFTAB1
 70
     6
  9
$SURFTAB2
 70
     6
  9
$SURFTYPE
 70
     6
  9
$SURFU
 70
     6
  9
$SURFV
 70
     6
  9
$UCSNAME
  2

  9
$UCSORG
 10
0.0
 20
0.0
 30
0.0
  9
$UCSXDIR
 10
1.0
 20
0.0
 30
0.0
  9
$UCSYDIR
 10
0.0
 20
1.0
 30
0.0
  9
$PUCSNAME
  2

  9
$PUCSORG
 10
0.0
 20
0.0
 30
0.0
  9
$PUCSXDIR
 10
1.0
 20
0.0
 30
0.0
  9
$PUCSYDIR
 10
0.0
 20
1.0
 30
0.0
  9
$USERI1
 70
     0
  9
$USERI2
 70
     0
  9
$USERI3
 70
     0
  9
$USERI4
 70
     0
  9
$USERI5
 70
     0
  9
$USERR1
 40
0.0
  9
$USERR2
 40
0.0
  9
$USERR3
 40
0.0
  9
$USERR4
 40
0.0
  9
$USERR5
 40
0.0
  9
$WORLDVIEW
 70
     1
  9
$SHADEDGE
 70
     3
  9
$SHADEDIF
 70
    70
  9
$TILEMODE
 70
     1
  9
$MAXACTVP
 70
    64
  9
$PLIMCHECK
 70
     0
  9
$PEXTMIN
 10
1.0000000000000000E+020
 20
1.0000000000000000E+020
 30
1.0000000000000000E+020
  9
$PEXTMAX
 10
-1.0000000000000000E+020
 20
-1.0000000000000000E+020
 30
-1.0000000000000000E+020
  9
$PLIMMIN
 10
0.0
 20
0.0
  9
$PLIMMAX
 10
12.0
 20
9.0
  9
$UNITMODE
 70
     0
  9
$VISRETAIN
 70
     1
  9
$PLINEGEN
 70
     0
  9
$PSLTSCALE
 70
     1
  0
ENDSEC
  0
SECTION
  2
TABLES
  0
TABLE
  2
VPORT
 70
     1
  0
VPORT
  2
*ACTIVE
 70
     0
 10
0.0
 20
0.0
 11
1.0
 21
1.0
 12
759.07531099999915
 22
837.80247300633778
 13
0.0
 23
0.0
 14
1.0
 24
1.0
 15
0.0
 25
0.0
 16
0.0
 26
0.0
 36
1.0
 17
0.0
 27
0.0
 37
0.0
 40
2989.7177810378698
 41
1.4364820846905531
 42
50.0
 43
0.0
 44
0.0
 50
0.0
 51
0.0
 71
     0
 72
   100
 73
     1
 74
     1
 75
     0
 76
     0
 77
     0
 78
     0
  0
ENDTAB
  0
TABLE
  2
LTYPE
 70
    11
  0
LTYPE
  2
CONTINUOUS
 70
     0
  3
Solid line
 72
    65
 73
     0
 40
0.0
  0
LTYPE
  2
GESTRICHELT
 70
     0
  3
__ __ __ __ __ __ __ __ __ __ __ __ __ __ __
 72
    65
 73
     2
 40
0.75
 49
0.5
 49
-0.25
  0
LTYPE
  2
VERDECKT
 70
     0
  3
_ _ _ _ _ _ _ _ _ _ _ _ _ _ _ _ _ _ _ _ _ _ 
 72
    65
 73
     2
 40
0.25
 49
0.125
 49
-0.125
  0
LTYPE
  2
MITTELLINIE
 70
     0
  3
____ _ ____ _ ____ _ ____ _ ____ _ ____ _ __
 72
    65
 73
     4
 40
2.0
 49
1.25
 49
-0.25
 49
0.25
 49
-0.25
  0
LTYPE
  2
PHANTOM
 70
     0
  3
_____ _ _ _____ _ _ _____ _ _ _____ _ _ ____
 72
    65
 73
     6
 40
2.5
 49
1.25
 49
-0.25
 49
0.25
 49
-0.25
 49
0.25
 49
-0.25
  0
LTYPE
  2
PUNKTIERT
 70
     0
  3
............................................
 72
    65
 73
     2
 40
0.25
 49
0.0
 49
-0.25
  0
LTYPE
  2
STRICHPUNKTIERT
 70
     0
  3
__ . __ . __ . __ . __ . __ . __ . __ . __ .
 72
    65
 73
     4
 40
1.0
 49
0.5
 49
-0.25
 49
0.0
 49
-0.25
  0
LTYPE
  2
RAND
 70
     0
  3
__ __ . __ __ . __ __ . __ __ . __ __ . __ _
 72
    65
 73
     6
 40
1.75
 49
0.5
 49
-0.25
 49
0.5
 49
-0.25
 49
0.0
 49
-0.25
  0
LTYPE
  2
TRENNLINIE
 70
     0
  3
__ . . __ . . __ . . __ . . __ . . __ . . __
 72
    65
 73
     6
 40
1.25
 49
0.5
 49
-0.25
 49
0.0
 49
-0.25
 49
0.0
 49
-0.25
  0
LTYPE
  2
ENG_PUNKTIERT
 70
     0
  3
Schließen                                   
 72
    65
 73
     2
 40
0.1
 49
0.05
 49
-0.05
  0
LTYPE
  2
CLOSE
 70
     0
  3
                                            
 72
    65
 73
     0
 40
0.0
  0
ENDTAB
  0
TABLE
  2
LAYER
 70
   254
  0
LAYER
  2
0
 70
     0
 62
     7
  6
CONTINUOUS
  0
LAYER
  2
LAYER01
 70
     0
 62
     7
  6
CONTINUOUS
  0
LAYER
  2
LAYER02
 70
     0
 62
     7
  6
CONTINUOUS
  0
LAYER
  2
LAYER03
 70
     0
 62
     7
  6
CONTINUOUS
  0
LAYER
  2
LAYER04
 70
     0
 62
     7
  6
CONTINUOUS
  0
LAYER
  2
LAYER05
 70
     0
 62
     7
  6
CONTINUOUS
  0
LAYER
  2
LAYER06
 70
     0
 62
     7
  6
CONTINUOUS
  0
LAYER
  2
LAYER07
 70
     0
 62
     7
  6
CONTINUOUS
  0
LAYER
  2
LAYER08
 70
     0
 62
     7
  6
CONTINUOUS
  0
LAYER
  2
LAYER09
 70
     0
 62
     7
  6
CONTINUOUS
  0
LAYER
  2
LAYER10
 70
     0
 62
     7
  6
CONTINUOUS
  0
LAYER
  2
KERA4
 70
     0
 62
     7
  6
CONTINUOUS
  0
LAYER
  2
2
 70
     0
 62
     7
  6
CONTINUOUS
  0
LAYER
  2
5
 70
     0
 62
     7
  6
CONTINUOUS
  0
LAYER
  2
RAUMAUFM
 70
     0
 62
     7
  6
CONTINUOUS
  0
LAYER
  2
EINRICHT
 70
     0
 62
     7
  6
CONTINUOUS
  0
LAYER
  2
HILFE
 70
     0
 62
     7
  6
CONTINUOUS
  0
LAYER
  2
SCHNITTE
 70
     0
 62
     7
  6
CONTINUOUS
  0
LAYER
  2
SCHRAFF1
 70
     0
 62
     7
  6
CONTINUOUS
  0
LAYER
  2
SCHRAFF2
 70
     0
 62
     7
  6
CONTINUOUS
  0
LAYER
  2
BEMASS-1
 70
     0
 62
     7
  6
CONTINUOUS
  0
LAYER
  2
BEMASS-2
 70
     0
 62
     7
  6
CONTINUOUS
  0
LAYER
  2
TEXT
 70
     0
 62
     7
  6
CONTINUOUS
  0
LAYER
  2
SYMBOLE
 70
     0
 62
     7
  6
CONTINUOUS
  0
LAYER
  2
RAHMEN
 70
     0
 62
     7
  6
CONTINUOUS
  0
LAYER
  2
SCHRIFTF
 70
     0
 62
     7
  6
CONTINUOUS
  0
LAYER
  2
ACHSEN
 70
     0
 62
     7
  6
CONTINUOUS
  0
LAYER
  2
ZEICHN
 70
     0
 62
     7
  6
CONTINUOUS
  0
LAYER
  2
7
 70
     0
 62
     7
  6
CONTINUOUS
  0
LAYER
  2
1
 70
     0
 62
     7
  6
CONTINUOUS
  0
LAYER
  2
6
 70
     0
 62
     7
  6
CONTINUOUS
  0
LAYER
  2
4
 70
     0
 62
     7
  6
CONTINUOUS
  0
LAYER
  2
GRUNDEBENE
 70
     0
 62
     7
  6
CONTINUOUS
  0
LAYER
  2
GRUNDRISS
 70
     0
 62
     7
  6
CONTINUOUS
  0
LAYER
  2
BEMASSUNGGRUNDRISS
 70
     0
 62
     7
  6
CONTINUOUS
  0
LAYER
  2
WANDELEMENTE
 70
     0
 62
     7
  6
CONTINUOUS
  0
LAYER
  2
KUECHE
 70
     0
 62
     7
  6
CONTINUOUS
  0
LAYER
  2
THEKEBROETCHEN
 70
     0
 62
     7
  6
CONTINUOUS
  0
LAYER
  2
CENTERLINIE
 70
     0
 62
     7
  6
CONTINUOUS
  0
LAYER
  2
UMRISSE
 70
     0
 62
     7
  6
CONTINUOUS
  0
LAYER
  2
MAUER
 70
     0
 62
     7
  6
CONTINUOUS
  0
LAYER
  2
SCHRAFFUR
 70
     0
 62
     7
  6
CONTINUOUS
  0
LAYER
  2
MASSLINIE
 70
     0
 62
     7
  6
CONTINUOUS
  0
LAYER
  2
PV
 70
     0
 62
     7
  6
CONTINUOUS
  0
LAYER
  2
BESCHRIFTUNG
 70
     0
 62
     7
  6
CONTINUOUS
  0
LAYER
  2
AS
 70
     0
 62
     7
  6
CONTINUOUS
  0
LAYER
  2
PL
 70
     0
 62
     7
  6
CONTINUOUS
  0
LAYER
  2
UK
 70
     0
 62
     7
  6
CONTINUOUS
  0
LAYER
  2
TEXT3
 70
     0
 62
     7
  6
CONTINUOUS
  0
LAYER
  2
TEXT7
 70
     0
 62
     7
  6
CONTINUOUS
  0
LAYER
  2
BEPL1
 70
     0
 62
     7
  6
CONTINUOUS
  0
LAYER
  2
BEPL2
 70
     0
 62
     7
  6
CONTINUOUS
  0
LAYER
  2
BEPL2V
 70
     0
 62
     7
  6
CONTINUOUS
  0
LAYER
  2
BEPL4
 70
     0
 62
     7
  6
CONTINUOUS
  0
LAYER
  2
BEPL
 70
     0
 62
     7
  6
CONTINUOUS
  0
LAYER
  2
UK1
 70
     0
 62
     7
  6
CONTINUOUS
  0
LAYER
  2
UK2
 70
     0
 62
     7
  6
CONTINUOUS
  0
LAYER
  2
UK2V
 70
     0
 62
     7
  6
CONTINUOUS
  0
LAYER
  2
UK3
 70
     0
 62
     7
  6
CONTINUOUS
  0
LAYER
  2
TEXT2
 70
     0
 62
     7
  6
CONTINUOUS
  0
LAYER
  2
HILF2S
 70
     0
 62
     7
  6
CONTINUOUS
  0
LAYER
  2
UK1V
 70
     0
 62
     7
  6
CONTINUOUS
  0
LAYER
  2
GAIN_ZRA
 70
     0
 62
     7
  6
CONTINUOUS
  0
LAYER
  2
GAIN_ZSF
 70
     0
 62
     7
  6
CONTINUOUS
  0
LAYER
  2
RAHM4
 70
     0
 62
     7
  6
CONTINUOUS
  0
LAYER
  2
KORPUSBAND
 70
     0
 62
     7
  6
CONTINUOUS
  0
LAYER
  2
E---LGPL--------
 70
     0
 62
     7
  6
CONTINUOUS
  0
LAYER
  2
E---NPFL--------
 70
     0
 62
     7
  6
CONTINUOUS
  0
LAYER
  2
E---PLNKTXT-----
 70
     0
 62
     7
  6
CONTINUOUS
  0
LAYER
  2
E---PLNK--------
 70
     0
 62
     7
  6
CONTINUOUS
  0
LAYER
  2
E---PLNR--------
 70
     0
 62
     7
  6
CONTINUOUS
  0
LAYER
  2
D547_ARCHICAD
 70
     0
 62
     7
  6
CONTINUOUS
  0
LAYER
  2
D547_E---TEXT--------
 70
     0
 62
     7
  6
CONTINUOUS
  0
LAYER
  2
E---LEGD--------
 70
     0
 62
     7
  6
CONTINUOUS
  0
LAYER
  2
D43_ARCHICAD
 70
     0
 62
     7
  6
CONTINUOUS
  0
LAYER
  2
D43_FENSTER_VON_B---FASS--
 70
     0
 62
     7
  6
CONTINUOUS
  0
LAYER
  2
D43_E---SCHN--------
 70
     0
 62
     7
  6
CONTINUOUS
  0
LAYER
  2
D43_B---MW-N--------
 70
     0
 62
     7
  6
CONTINUOUS
  0
LAYER
  2
D43_B---DECK--------
 70
     0
 62
     7
  6
CONTINUOUS
  0
LAYER
  2
D43_B---MW-S--------
 70
     0
 62
     7
  6
CONTINUOUS
  0
LAYER
  2
D43_B---MW----------
 70
     0
 62
     7
  6
CONTINUOUS
  0
LAYER
  2
D43_B---FASS--------
 70
     0
 62
     7
  6
CONTINUOUS
  0
LAYER
  2
D43_E---RASG--------
 70
     0
 62
     7
  6
CONTINUOUS
  0
LAYER
  2
D40_ARCHICAD
 70
     0
 62
     7
  6
CONTINUOUS
  0
LAYER
  2
D40_E---MW--------
 70
     0
 62
     7
  6
CONTINUOUS
  0
LAYER
  2
D40_E---FASSKON-----
 70
     0
 62
     7
  6
CONTINUOUS
  0
LAYER
  2
D40_TÜREN_VON_B---MW-N----
 70
     0
 62
     7
  6
CONTINUOUS
  0
LAYER
  2
D40_E---MW-L------
 70
     0
 62
     7
  6
CONTINUOUS
  0
LAYER
  2
D40_TÜREN_VON_B---MW------
 70
     0
 62
     7
  6
CONTINUOUS
  0
LAYER
  2
D40_E---VERM--------
 70
     0
 62
     7
  6
CONTINUOUS
  0
LAYER
  2
D40_FENSTER_VON_E---MW-L--
 70
     0
 62
     7
  6
CONTINUOUS
  0
LAYER
  2
D40_FENSTER_VON_B---MW-N--
 70
     0
 62
     7
  6
CONTINUOUS
  0
LAYER
  2
D40_E---SCHN--------
 70
     0
 62
     7
  6
CONTINUOUS
  0
LAYER
  2
D40_E---AUFZ--------
 70
     0
 62
     7
  6
CONTINUOUS
  0
LAYER
  2
D40_E---DECK--------
 70
     0
 62
     7
  6
CONTINUOUS
  0
LAYER
  2
D40_E---RAUMINF-----
 70
     0
 62
     7
  6
CONTINUOUS
  0
LAYER
  2
D40_E---TEXT--------
 70
     0
 62
     7
  6
CONTINUOUS
  0
LAYER
  2
D40_B---TEXT--------
 70
     0
 62
     7
  6
CONTINUOUS
  0
LAYER
  2
D40_B---MW-N--------
 70
     0
 62
     7
  6
CONTINUOUS
  0
LAYER
  2
D40_B---DECK--------
 70
     0
 62
     7
  6
CONTINUOUS
  0
LAYER
  2
D40_B---AUFZ--------
 70
     0
 62
     7
  6
CONTINUOUS
  0
LAYER
  2
D40_B---MW-S--------
 70
     0
 62
     7
  6
CONTINUOUS
  0
LAYER
  2
D40_B---MW----------
 70
     0
 62
     7
  6
CONTINUOUS
  0
LAYER
  2
D40_E---MOEB--------
 70
     0
 62
     7
  6
CONTINUOUS
  0
LAYER
  2
D40_B---UMGB--------
 70
     0
 62
     7
  6
CONTINUOUS
  0
LAYER
  2
D40_B---FASS--------
 70
     0
 62
     7
  6
CONTINUOUS
  0
LAYER
  2
D40_E---DACH--------
 70
     0
 62
     7
  6
CONTINUOUS
  0
LAYER
  2
D40_E---BODE--------
 70
     0
 62
     7
  6
CONTINUOUS
  0
LAYER
  2
D40_E---TREP--------
 70
     0
 62
     7
  6
CONTINUOUS
  0
LAYER
  2
D40_E---RASG--------
 70
     0
 62
     7
  6
CONTINUOUS
  0
LAYER
  2
D40_B---MW-K--------
 70
     0
 62
     7
  6
CONTINUOUS
  0
LAYER
  2
D40_E---FASSGLA-----
 70
     0
 62
     7
  6
CONTINUOUS
  0
LAYER
  2
D40_B---VERM--------
 70
     0
 62
     7
  6
CONTINUOUS
  0
LAYER
  2
D40_E---UMGBGSG-----
 70
     0
 62
     7
  6
CONTINUOUS
  0
LAYER
  2
D40_E---RASF--------
 70
     0
 62
     7
  6
CONTINUOUS
  0
LAYER
  2
D40_E---PFLA--------
 70
     0
 62
     7
  6
CONTINUOUS
  0
LAYER
  2
D40_E---KONS-ST-----
 70
     0
 62
     7
  6
CONTINUOUS
  0
LAYER
  2
D40_E---WERB--------
 70
     0
 62
     7
  6
CONTINUOUS
  0
LAYER
  2
D40_E---TUERINF-----
 70
     0
 62
     7
  6
CONTINUOUS
  0
LAYER
  2
D40_E---WOLK--------
 70
     0
 62
     7
  6
CONTINUOUS
  0
LAYER
  2
D40_B---MW-L--------
 70
     0
 62
     7
  6
CONTINUOUS
  0
LAYER
  2
D40_B---SANI--------
 70
     0
 62
     7
  6
CONTINUOUS
  0
LAYER
  2
D40_E---SANI--------
 70
     0
 62
     7
  6
CONTINUOUS
  0
LAYER
  2
D40_E---MW-K------
 70
     0
 62
     7
  6
CONTINUOUS
  0
LAYER
  2
D40_E---OBJE--------
 70
     0
 62
     7
  6
CONTINUOUS
  0
LAYER
  2
D40_E---ASPR--------
 70
     0
 62
     7
  6
CONTINUOUS
  0
LAYER
  2
D40_E---VERMTGA-----
 70
     0
 62
     7
  6
CONTINUOUS
  0
LAYER
  2
D40_E---PARK--------
 70
     0
 62
     7
  6
CONTINUOUS
  0
LAYER
  2
D40_E---ISOL--------
 70
     0
 62
     7
  6
CONTINUOUS
  0
LAYER
  2
D40_E---TUER--------
 70
     0
 62
     7
  6
CONTINUOUS
  0
LAYER
  2
D40_E---MW--BRA---
 70
     0
 62
     7
  6
CONTINUOUS
  0
LAYER
  2
D41_ARCHICAD
 70
     0
 62
     7
  6
CONTINUOUS
  0
LAYER
  2
D41_E---MW--------
 70
     0
 62
     7
  6
CONTINUOUS
  0
LAYER
  2
D41_E---FASSKON-----
 70
     0
 62
     7
  6
CONTINUOUS
  0
LAYER
  2
D41_TÜREN_VON_B---MW-N----
 70
     0
 62
     7
  6
CONTINUOUS
  0
LAYER
  2
D41_E---MW-L------
 70
     0
 62
     7
  6
CONTINUOUS
  0
LAYER
  2
D41_TÜREN_VON_B---MW------
 70
     0
 62
     7
  6
CONTINUOUS
  0
LAYER
  2
D41_E---VERM--------
 70
     0
 62
     7
  6
CONTINUOUS
  0
LAYER
  2
D41_FENSTER_VON_E---MW-L--
 70
     0
 62
     7
  6
CONTINUOUS
  0
LAYER
  2
D41_FENSTER_VON_B---MW-N--
 70
     0
 62
     7
  6
CONTINUOUS
  0
LAYER
  2
D41_E---SCHN--------
 70
     0
 62
     7
  6
CONTINUOUS
  0
LAYER
  2
D41_E---AUFZ--------
 70
     0
 62
     7
  6
CONTINUOUS
  0
LAYER
  2
D41_E---DECK--------
 70
     0
 62
     7
  6
CONTINUOUS
  0
LAYER
  2
D41_E---RAUMINF-----
 70
     0
 62
     7
  6
CONTINUOUS
  0
LAYER
  2
D41_E---TEXT--------
 70
     0
 62
     7
  6
CONTINUOUS
  0
LAYER
  2
D41_B---TEXT--------
 70
     0
 62
     7
  6
CONTINUOUS
  0
LAYER
  2
D41_B---MW-N--------
 70
     0
 62
     7
  6
CONTINUOUS
  0
LAYER
  2
D41_B---DECK--------
 70
     0
 62
     7
  6
CONTINUOUS
  0
LAYER
  2
D41_B---AUFZ--------
 70
     0
 62
     7
  6
CONTINUOUS
  0
LAYER
  2
D41_B---MW-S--------
 70
     0
 62
     7
  6
CONTINUOUS
  0
LAYER
  2
D41_B---MW----------
 70
     0
 62
     7
  6
CONTINUOUS
  0
LAYER
  2
D41_E---MOEB--------
 70
     0
 62
     7
  6
CONTINUOUS
  0
LAYER
  2
D41_B---UMGB--------
 70
     0
 62
     7
  6
CONTINUOUS
  0
LAYER
  2
D41_B---FASS--------
 70
     0
 62
     7
  6
CONTINUOUS
  0
LAYER
  2
D41_E---DACH--------
 70
     0
 62
     7
  6
CONTINUOUS
  0
LAYER
  2
D41_E---BODE--------
 70
     0
 62
     7
  6
CONTINUOUS
  0
LAYER
  2
D41_E---TREP--------
 70
     0
 62
     7
  6
CONTINUOUS
  0
LAYER
  2
D41_E---RASG--------
 70
     0
 62
     7
  6
CONTINUOUS
  0
LAYER
  2
D41_B---MW-K--------
 70
     0
 62
     7
  6
CONTINUOUS
  0
LAYER
  2
D41_E---FASSGLA-----
 70
     0
 62
     7
  6
CONTINUOUS
  0
LAYER
  2
D41_B---VERM--------
 70
     0
 62
     7
  6
CONTINUOUS
  0
LAYER
  2
D41_E---UMGBGSG-----
 70
     0
 62
     7
  6
CONTINUOUS
  0
LAYER
  2
D41_E---RASF--------
 70
     0
 62
     7
  6
CONTINUOUS
  0
LAYER
  2
D41_E---PFLA--------
 70
     0
 62
     7
  6
CONTINUOUS
  0
LAYER
  2
D41_E---KONS-ST-----
 70
     0
 62
     7
  6
CONTINUOUS
  0
LAYER
  2
D41_E---WERB--------
 70
     0
 62
     7
  6
CONTINUOUS
  0
LAYER
  2
D41_E---TUERINF-----
 70
     0
 62
     7
  6
CONTINUOUS
  0
LAYER
  2
D41_E---WOLK--------
 70
     0
 62
     7
  6
CONTINUOUS
  0
LAYER
  2
D41_B---MW-L--------
 70
     0
 62
     7
  6
CONTINUOUS
  0
LAYER
  2
D41_B---SANI--------
 70
     0
 62
     7
  6
CONTINUOUS
  0
LAYER
  2
D41_E---SANI--------
 70
     0
 62
     7
  6
CONTINUOUS
  0
LAYER
  2
D41_E---MW-K------
 70
     0
 62
     7
  6
CONTINUOUS
  0
LAYER
  2
D41_E---OBJE--------
 70
     0
 62
     7
  6
CONTINUOUS
  0
LAYER
  2
D41_E---ASPR--------
 70
     0
 62
     7
  6
CONTINUOUS
  0
LAYER
  2
D41_E---VERMTGA-----
 70
     0
 62
     7
  6
CONTINUOUS
  0
LAYER
  2
D41_E---PARK--------
 70
     0
 62
     7
  6
CONTINUOUS
  0
LAYER
  2
D41_E---ISOL--------
 70
     0
 62
     7
  6
CONTINUOUS
  0
LAYER
  2
D41_E---TUER--------
 70
     0
 62
     7
  6
CONTINUOUS
  0
LAYER
  2
D41_E---MW--BRA---
 70
     0
 62
     7
  6
CONTINUOUS
  0
LAYER
  2
D42_ARCHICAD
 70
     0
 62
     7
  6
CONTINUOUS
  0
LAYER
  2
D42_FENSTER_VON_B---FASS--
 70
     0
 62
     7
  6
CONTINUOUS
  0
LAYER
  2
D42_E---SCHN--------
 70
     0
 62
     7
  6
CONTINUOUS
  0
LAYER
  2
D42_B---MW-N--------
 70
     0
 62
     7
  6
CONTINUOUS
  0
LAYER
  2
D42_B---DECK--------
 70
     0
 62
     7
  6
CONTINUOUS
  0
LAYER
  2
D42_B---MW-S--------
 70
     0
 62
     7
  6
CONTINUOUS
  0
LAYER
  2
D42_B---MW----------
 70
     0
 62
     7
  6
CONTINUOUS
  0
LAYER
  2
D42_B---FASS--------
 70
     0
 62
     7
  6
CONTINUOUS
  0
LAYER
  2
D42_E---RASG--------
 70
     0
 62
     7
  6
CONTINUOUS
  0
LAYER
  2
CONSTRUCTION_CLASS
 70
     0
 62
     7
  6
CONTINUOUS
  0
LAYER
  2
PATTERN_CLASS
 70
     0
 62
     7
  6
CONTINUOUS
  0
LAYER
  2
KONSTRUKTION
 70
     0
 62
     7
  6
CONTINUOUS
  0
LAYER
  2
BEMAßUNG
 70
     0
 62
     7
  6
CONTINUOUS
  0
LAYER
  2
HILFSGEOMETRIE
 70
     0
 62
     7
  6
CONTINUOUS
  0
LAYER
  2
UNSICHTBAR
 70
     0
 62
     7
  6
CONTINUOUS
  0
LAYER
  2
LOGO
 70
     0
 62
     7
  6
CONTINUOUS
  0
LAYER
  2
VERWALTUNG
 70
     0
 62
     7
  6
CONTINUOUS
  0
LAYER
  2
UNSICHTBARE_GEWINDE
 70
     0
 62
     7
  6
CONTINUOUS
  0
LAYER
  2
SICHTBARE_GEWINDE
 70
     0
 62
     7
  6
CONTINUOUS
  0
LAYER
  2
DEFPOINTS
 70
     0
 62
     7
  6
CONTINUOUS
  0
LAYER
  2
THICK
 70
     0
 62
     7
  6
CONTINUOUS
  0
LAYER
  2
HIDDEN
 70
     0
 62
     7
  6
CONTINUOUS
  0
LAYER
  2
SCHRAFFURGRUNDRISS
 70
     0
 62
     7
  6
CONTINUOUS
  0
LAYER
  2
BEMASSUNG_GRUNDRISS
 70
     0
 62
     7
  6
CONTINUOUS
  0
LAYER
  2
STATIK
 70
     0
 62
     7
  6
CONTINUOUS
  0
LAYER
  2
TÜREN
 70
     0
 62
     7
  6
CONTINUOUS
  0
LAYER
  2
SANITÄR
 70
     0
 62
     7
  6
CONTINUOUS
  0
LAYER
  2
BEMASSUNG_GIPSKARTON
 70
     0
 62
     7
  6
CONTINUOUS
  0
LAYER
  2
EINRICHTUNGEN
 70
     0
 62
     7
  6
CONTINUOUS
  0
LAYER
  2
BECKEN
 70
     0
 62
     7
  6
CONTINUOUS
  0
LAYER
  2
BELEUCHTUNG
 70
     0
 62
     7
  6
CONTINUOUS
  0
LAYER
  2
BESCHRIFTUNGEN
 70
     0
 62
     7
  6
CONTINUOUS
  0
LAYER
  2
ELEKTRO_1__DOSEN_SCHALTER
 70
     0
 62
     7
  6
CONTINUOUS
  0
LAYER
  2
DEFAULT_1
 70
     0
 62
     7
  6
CONTINUOUS
  0
LAYER
  2
AM_0
 70
     0
 62
     7
  6
CONTINUOUS
  0
LAYER
  2
FRAME0_7
 70
     0
 62
     7
  6
CONTINUOUS
  0
LAYER
  2
AM_BOR
 70
     0
 62
     7
  6
CONTINUOUS
  0
LAYER
  2
RAHM2
 70
     0
 62
     7
  6
CONTINUOUS
  0
LAYER
  2
RAHM3
 70
     0
 62
     7
  6
CONTINUOUS
  0
LAYER
  2
FRAME0_5
 70
     0
 62
     7
  6
CONTINUOUS
  0
LAYER
  2
8
 70
     0
 62
     7
  6
CONTINUOUS
  0
LAYER
  2
AM_5
 70
     0
 62
     7
  6
CONTINUOUS
  0
LAYER
  2
AM_7
 70
     0
 62
     7
  6
CONTINUOUS
  0
LAYER
  2
HILFSLINIEN
 70
     0
 62
     7
  6
CONTINUOUS
  0
LAYER
  2
DRAWING_TEMPLATE
 70
     0
 62
     7
  6
CONTINUOUS
  0
LAYER
  2
TECHNOBOX_EXTERNALREFSYMBO
 70
     0
 62
     7
  6
CONTINUOUS
  0
LAYER
  2
TECHNOBOX_POLYCLIPSYMBOL_L
 70
     0
 62
     7
  6
CONTINUOUS
  0
LAYER
  2
100
 70
     0
 62
     7
  6
CONTINUOUS
  0
LAYER
  2
101
 70
     0
 62
     7
  6
CONTINUOUS
  0
LAYER
  2
KONTUR
 70
     0
 62
     7
  6
CONTINUOUS
  0
LAYER
  2
MITTELLINIE
 70
     0
 62
     7
  6
CONTINUOUS
  0
LAYER
  2
GESTRICHELT
 70
     0
 62
     7
  6
CONTINUOUS
  0
LAYER
  2
HILFSLINIE
 70
     0
 62
     7
  6
CONTINUOUS
  0
LAYER
  2
TEXT-25
 70
     0
 62
     7
  6
CONTINUOUS
  0
LAYER
  2
TEXT35
 70
     0
 62
     7
  6
CONTINUOUS
  0
LAYER
  2
TEXT-50
 70
     0
 62
     7
  6
CONTINUOUS
  0
LAYER
  2
TEXT-70
 70
     0
 62
     7
  6
CONTINUOUS
  0
LAYER
  2
ANSICHTSFENSTER
 70
     0
 62
     7
  6
CONTINUOUS
  0
LAYER
  2
KERA0
 70
     0
 62
     7
  6
CONTINUOUS
  0
LAYER
  2
KERA1
 70
     0
 62
     7
  6
CONTINUOUS
  0
LAYER
  2
KERA2
 70
     0
 62
     7
  6
CONTINUOUS
  0
LAYER
  2
KERA3
 70
     0
 62
     7
  6
CONTINUOUS
  0
LAYER
  2
KERA5
 70
     0
 62
     7
  6
CONTINUOUS
  0
LAYER
  2
KERA6
 70
     0
 62
     7
  6
CONTINUOUS
  0
LAYER
  2
KERA7
 70
     0
 62
     7
  6
CONTINUOUS
  0
LAYER
  2
20
 70
     0
 62
     7
  6
CONTINUOUS
  0
LAYER
  2
50
 70
     0
 62
     7
  6
CONTINUOUS
  0
LAYER
  2
EBENE_1
 70
     0
 62
     7
  6
CONTINUOUS
  0
LAYER
  2
EBENE_2
 70
     0
 62
     7
  6
CONTINUOUS
  0
LAYER
  2
EBENE_5
 70
     0
 62
     7
  6
CONTINUOUS
  0
LAYER
  2
3
 70
     0
 62
     7
  6
CONTINUOUS
  0
LAYER
  2
GEB-KONTUR-A
 70
     0
 62
     7
  6
CONTINUOUS
  0
LAYER
  2
GEB-SYMETRIE
 70
     0
 62
     7
  6
CONTINUOUS
  0
LAYER
  2
GEB-ART-NR
 70
     0
 62
     7
  6
CONTINUOUS
  0
LAYER
  2
PROJECTION
 70
     0
 62
     7
  6
CONTINUOUS
  0
ENDTAB
  0
TABLE
  2
STYLE
 70
     3
  0
STYLE
  2
STANDARD
 70
     0
 40
0.0
 41
1.0
 50
0.0
 71
     0
 42
0.0
  3
txt
  4

  0
STYLE
  2
ANNOTATIVE
 70
     0
 40
0.0
 41
1.0
 50
0.0
 71
     0
 42
0.2
  3
txt
  4

  0
STYLE
  2
SIMPLEX
 70
     0
 40
0.0
 41
1.0
 50
0.0
 71
     0
 42
0.0
  3
simplex
  4

  0
ENDTAB
  0
TABLE
  2
VIEW
 70
     0
  0
ENDTAB
  0
TABLE
  2
UCS
 70
     0
  0
ENDTAB
  0
TABLE
  2
APPID
 70
     3
  0
APPID
  2
ACAD
 70
     0
  0
APPID
  2
ACADANNOTATIVE
 70
     0
  0
APPID
  2
ACAD_MLEADERVER
 70
     0
  0
ENDTAB
  0
TABLE
  2
DIMSTYLE
 70
     2
  0
DIMSTYLE
  2
STANDARD
 70
     0
  3

  4

  5

  6

  7

 40
1.0
 41
0.18
 42
0.0625
 43
0.38
 44
0.18
 45
0.0
 46
0.0
 47
0.0
 48
0.0
140
0.18
141
0.09
142
0.0
143
25.399999999999999
144
1.0
145
0.0
146
1.0
147
0.09
 71
     0
 72
     0
 73
     1
 74
     1
 75
     0
 76
     0
 77
     0
 78
     0
170
     0
171
     2
172
     0
173
     0
174
     0
175
     0
176
     0
177
     0
178
     0
  0
DIMSTYLE
  2
ANNOTATIVE
 70
     0
  3

  4

  5

  6

  7

 40
1.0
 41
0.18
 42
0.0625
 43
0.38
 44
0.18
 45
0.0
 46
0.0
 47
0.0
 48
0.0
140
0.18
141
0.09
142
0.0
143
25.399999999999999
144
1.0
145
0.0
146
1.0
147
0.09
 71
     0
 72
     0
 73
     1
 74
     1
 75
     0
 76
     0
 77
     0
 78
     0
170
     0
171
     2
172
     0
173
     0
174
     0
175
     0
176
     0
177
     0
178
     0
  0
ENDTAB
  0
ENDSEC
  0
SECTION
  2
BLOCKS
  0
BLOCK
  8
0
  2
$MODEL_SPACE
 70
     0
 10
0.0
 20
0.0
 30
0.0
  3
$MODEL_SPACE
  1

  0
ENDBLK
  5
76
  8
0
  0
BLOCK
 67
     1
  8
0
  2
$PAPER_SPACE
 70
     0
 10
0.0
 20
0.0
 30
0.0
  3
$PAPER_SPACE
  1

  0
ENDBLK
  5
72
 67
     1
  8
0
  0
BLOCK
  8
0
  2
*D0
 70
     1
 10
0.0
 20
0.0
 30
0.0
  3
*D0
  1

  0
LINE
  5
185
  8
LAYER01
 62
     7
 10
614.52945699999987
 20
1068.848786
 30
0.0
 11
-385.47054300000002
 21
1068.848786
 31
0.0
  0
LINE
  5
186
  8
LAYER01
 62
     7
 10
614.52945699999987
 20
880.66837100000009
 30
0.0
 11
614.52945699999987
 21
1083.848786
 31
0.0
  0
LINE
  5
187
  8
LAYER01
 62
     7
 10
-385.47054300000002
 20
880.66837100000009
 30
0.0
 11
-385.47054300000002
 21
1083.848786
 31
0.0
  0
SOLID
  5
188
  8
LAYER01
 62
     7
 10
590.52945699999987
 20
1072.848626
 30
0.0
 11
614.52945699999987
 21
1068.848786
 31
0.0
 12
590.52945699999987
 22
1064.8489460000001
 32
0.0
 13
590.52945699999987
 23
1064.8489460000001
 33
0.0
  0
SOLID
  5
189
  8
LAYER01
 62
     7
 10
-361.47054300000002
 20
1072.848626
 30
0.0
 11
-385.47054300000002
 21
1068.848786
 31
0.0
 12
-361.47054300000002
 22
1064.8489460000001
 32
0.0
 13
-361.47054300000002
 23
1064.8489460000001
 33
0.0
  0
TEXT
  5
18A
  8
LAYER01
  6
CONTINUOUS
 62
     7
 10
81.733520999999996
 20
1083.848786
 30
0.0
 40
30.0
  1
600-2000
  0
POINT
  5
18B
  8
LAYER01
 62
     7
 10
614.52945699999987
 20
868.66837099999998
 30
0.0
  0
POINT
  5
18C
  8
LAYER01
 62
     7
 10
-385.47054300000002
 20
868.66837099999998
 30
0.0
  0
POINT
  5
18D
  8
LAYER01
 62
     7
 10
-385.47054300000002
 20
1068.848786
 30
0.0
  0
ENDBLK
  5
18E
  8
0
  0
BLOCK
  8
0
  2
*D1
 70
     1
 10
0.0
 20
0.0
 30
0.0
  3
*D1
  1

  0
LINE
  5
191
  8
LAYER01
 62
     7
 10
101.60676100000001
 20
969.09447899999986
 30
0.0
 11
614.52945699999987
 21
969.09447899999986
 31
0.0
  0
LINE
  5
192
  8
LAYER01
 62
     7
 10
101.60676100000001
 20
880.66837100000009
 30
0.0
 11
101.60676100000001
 21
984.09447899999975
 31
0.0
  0
LINE
  5
193
  8
LAYER01
 62
     7
 10
614.52945699999987
 20
880.66837100000009
 30
0.0
 11
614.52945699999987
 21
984.09447899999975
 31
0.0
  0
SOLID
  5
194
  8
LAYER01
 62
     7
 10
125.60676100000001
 20
965.09463899999992
 30
0.0
 11
101.60676100000001
 21
969.09447899999986
 31
0.0
 12
125.60676100000001
 22
973.09431899999993
 32
0.0
 13
125.60676100000001
 23
973.09431899999993
 33
0.0
  0
SOLID
  5
195
  8
LAYER01
 62
     7
 10
590.52945699999987
 20
965.09463899999992
 30
0.0
 11
614.52945699999987
 21
969.09447899999986
 31
0.0
 12
590.52945699999987
 22
973.09431899999993
 32
0.0
 13
590.52945699999987
 23
973.09431899999993
 33
0.0
  0
TEXT
  5
196
  8
LAYER01
  6
CONTINUOUS
 62
     7
 10
333.47115700000001
 20
984.09447899999975
 30
0.0
 40
30.0
  1
300-1700
  0
POINT
  5
197
  8
LAYER01
 62
     7
 10
101.60676100000001
 20
868.66837099999998
 30
0.0
  0
POINT
  5
198
  8
LAYER01
 62
     7
 10
614.52945699999987
 20
868.66837099999998
 30
0.0
  0
POINT
  5
199
  8
LAYER01
 62
     7
 10
614.52945699999987
 20
969.09447899999986
 30
0.0
  0
ENDBLK
  5
19A
  8
0
  0
BLOCK
  8
0
  2
*D2
 70
     1
 10
0.0
 20
0.0
 30
0.0
  3
*D2
  1

  0
LINE
  5
19D
  8
LAYER01
 62
     7
 10
479.94447899999989
 20
98.973561000000004
 30
0.0
 11
479.94447899999989
 21
-48.662185000000001
 31
0.0
  0
LINE
  5
19E
  8
LAYER01
 62
     7
 10
340.40286299999991
 20
98.973561000000004
 30
0.0
 11
494.944479
 21
98.973561000000004
 31
0.0
  0
LINE
  5
19F
  8
LAYER01
 62
     7
 10
340.40286299999991
 20
-48.662185000000001
 30
0.0
 11
494.944479
 21
-48.662185000000001
 31
0.0
  0
SOLID
  5
1A0
  8
LAYER01
 62
     7
 10
475.94463899999988
 20
74.973561000000004
 30
0.0
 11
479.94447899999989
 21
98.973561000000004
 31
0.0
 12
483.94431900000001
 22
74.973561000000004
 32
0.0
 13
483.94431900000001
 23
74.973561000000004
 33
0.0
  0
SOLID
  5
1A1
  8
LAYER01
 62
     7
 10
475.94463899999988
 20
-24.662185000000001
 30
0.0
 11
479.94447899999989
 21
-48.662185000000001
 31
0.0
 12
483.94431900000001
 22
-24.662185000000001
 32
0.0
 13
483.94431900000001
 23
-24.662185000000001
 33
0.0
  0
TEXT
  5
1A2
  8
LAYER01
  6
CONTINUOUS
 62
     7
 10
464.944479
 20
2.5556890000000001
 30
0.0
 40
30.0
  1
150
 50
90.0
  0
POINT
  5
1A3
  8
LAYER01
 62
     7
 10
328.40286300000002
 20
98.973561000000004
 30
0.0
  0
POINT
  5
1A4
  8
LAYER01
 62
     7
 10
328.40286300000002
 20
-48.662185000000001
 30
0.0
  0
POINT
  5
1A5
  8
LAYER01
 62
     7
 10
479.94447899999989
 20
-48.662185000000001
 30
0.0
  0
ENDBLK
  5
1A6
  8
0
  0
BLOCK
  8
0
  2
*D3
 70
     1
 10
0.0
 20
0.0
 30
0.0
  3
*D3
  1

  0
LINE
  5
1A9
  8
LAYER01
 62
     7
 10
414.3207789999999
 20
71.796936000000002
 30
0.0
 11
414.3207789999999
 21
-26.539341
 31
0.0
  0
LINE
  5
1AA
  8
LAYER01
 62
     7
 10
340.40286299999991
 20
71.796936000000002
 30
0.0
 11
429.32077900000002
 21
71.796936000000002
 31
0.0
  0
LINE
  5
1AB
  8
LAYER01
 62
     7
 10
340.40286299999991
 20
-26.539341
 30
0.0
 11
429.32077900000002
 21
-26.539341
 31
0.0
  0
SOLID
  5
1AC
  8
LAYER01
 62
     7
 10
410.3209389999999
 20
47.796935999999988
 30
0.0
 11
414.3207789999999
 21
71.796936000000002
 31
0.0
 12
418.32061899999991
 22
47.796935999999988
 32
0.0
 13
418.32061899999991
 23
47.796935999999988
 33
0.0
  0
SOLID
  5
1AD
  8
LAYER01
 62
     7
 10
410.3209389999999
 20
-2.539340999999999
 30
0.0
 11
414.3207789999999
 21
-26.539341
 31
0.0
 12
418.32061899999991
 22
-2.539340999999999
 32
0.0
 13
418.32061899999991
 23
-2.539340999999999
 33
0.0
  0
TEXT
  5
1AE
  8
LAYER01
  6
CONTINUOUS
 62
     7
 10
399.32077900000002
 20
7.562130999999999
 30
0.0
 40
30.0
  1
97
 50
90.0
  0
POINT
  5
1AF
  8
LAYER01
 62
     7
 10
328.40286300000002
 20
71.796936000000002
 30
0.0
  0
POINT
  5
1B0
  8
LAYER01
 62
     7
 10
328.40286300000002
 20
-26.539341
 30
0.0
  0
POINT
  5
1B1
  8
LAYER01
 62
     7
 10
414.3207789999999
 20
-26.539341
 30
0.0
  0
ENDBLK
  5
1B2
  8
0
  0
BLOCK
  8
0
  2
*D4
 70
     1
 10
0.0
 20
0.0
 30
0.0
  3
*D4
  1

  0
LINE
  5
1B5
  8
LAYER01
 62
     7
 10
-130.4229
 20
-41.570551999999999
 30
0.0
 11
-130.4229
 21
71.127561
 31
0.0
  0
LINE
  5
1B6
  8
LAYER01
 62
     7
 10
-83.721034999999986
 20
-41.570551999999999
 30
0.0
 11
-145.4229
 21
-41.570551999999999
 31
0.0
  0
LINE
  5
1B7
  8
LAYER01
 62
     7
 10
-83.721034999999986
 20
71.127561
 30
0.0
 11
-145.4229
 21
71.127561
 31
0.0
  0
SOLID
  5
1B8
  8
LAYER01
 62
     7
 10
-126.42306000000001
 20
-17.570551999999999
 30
0.0
 11
-130.4229
 21
-41.570551999999999
 31
0.0
 12
-134.42274
 22
-17.570551999999999
 32
0.0
 13
-134.42274
 23
-17.570551999999999
 33
0.0
  0
SOLID
  5
1B9
  8
LAYER01
 62
     7
 10
-126.42306000000001
 20
47.127561
 30
0.0
 11
-130.4229
 21
71.127561
 31
0.0
 12
-134.42274
 22
47.127561
 32
0.0
 13
-134.42274
 23
47.127561
 33
0.0
  0
TEXT
  5
1BA
  8
LAYER01
  6
CONTINUOUS
 62
     7
 10
-145.4229
 20
-7.8214949999999988
 30
0.0
 40
30.0
  1
100
 50
90.0
  0
POINT
  5
1BB
  8
LAYER01
 62
     7
 10
-71.721035000000001
 20
-41.570551999999999
 30
0.0
  0
POINT
  5
1BC
  8
LAYER01
 62
     7
 10
-71.721035000000001
 20
71.127561
 30
0.0
  0
POINT
  5
1BD
  8
LAYER01
 62
     7
 10
-130.4229
 20
71.127561
 30
0.0
  0
ENDBLK
  5
1BE
  8
0
  0
BLOCK
  8
0
  2
*D5
 70
     1
 10
0.0
 20
0.0
 30
0.0
  3
*D5
  1

  0
LINE
  5
1C1
  8
LAYER01
 62
     7
 10
229.17976300000001
 20
-94.55613000000001
 30
0.0
 11
181.17976300000001
 21
-94.55613000000001
 31
0.0
  0
LINE
  5
1C2
  8
LAYER01
 62
     7
 10
275.17976299999998
 20
-94.55613000000001
 30
0.0
 11
323.17976299999998
 21
-94.55613000000001
 31
0.0
  0
LINE
  5
1C3
  8
LAYER01
 62
     7
 10
229.17976300000001
 20
-63.999209999999991
 30
0.0
 11
229.17976300000001
 21
-109.55613
 31
0.0
  0
LINE
  5
1C4
  8
LAYER01
 62
     7
 10
275.17976299999998
 20
-63.999209999999991
 30
0.0
 11
275.17976299999998
 21
-109.55613
 31
0.0
  0
SOLID
  5
1C5
  8
LAYER01
 62
     7
 10
205.17976300000001
 20
-98.555970000000016
 30
0.0
 11
229.17976300000001
 21
-94.55613000000001
 31
0.0
 12
205.17976300000001
 22
-90.556290000000004
 32
0.0
 13
205.17976300000001
 23
-90.556290000000004
 33
0.0
  0
SOLID
  5
1C6
  8
LAYER01
 62
     7
 10
299.17976299999998
 20
-98.555970000000016
 30
0.0
 11
275.17976299999998
 21
-94.55613000000001
 31
0.0
 12
299.17976299999998
 22
-90.556290000000004
 32
0.0
 13
299.17976299999998
 23
-90.556290000000004
 33
0.0
  0
TEXT
  5
1C7
  8
LAYER01
  6
CONTINUOUS
 62
     7
 10
309.95777600000002
 20
-79.55613000000001
 30
0.0
 40
30.0
  1
46
  0
POINT
  5
1C8
  8
LAYER01
 62
     7
 10
229.17976300000001
 20
-51.999209999999991
 30
0.0
  0
POINT
  5
1C9
  8
LAYER01
 62
     7
 10
275.17976299999998
 20
-51.999209999999991
 30
0.0
  0
POINT
  5
1CA
  8
LAYER01
 62
     7
 10
275.17976299999998
 20
-94.55613000000001
 30
0.0
  0
ENDBLK
  5
1CB
  8
0
  0
BLOCK
  8
0
  2
*D6
 70
     1
 10
0.0
 20
0.0
 30
0.0
  3
*D6
  1

  0
LINE
  5
1CE
  8
LAYER01
 62
     7
 10
252.17976300000001
 20
-185.83705800000001
 30
0.0
 11
328.40286300000002
 21
-185.83705800000001
 31
0.0
  0
LINE
  5
1CF
  8
LAYER01
 62
     7
 10
252.17976300000001
 20
-137.03642400000001
 30
0.0
 11
252.17976300000001
 21
-200.83705800000001
 31
0.0
  0
LINE
  5
1D0
  8
LAYER01
 62
     7
 10
328.40286300000002
 20
-137.03642400000001
 30
0.0
 11
328.40286300000002
 21
-200.83705800000001
 31
0.0
  0
SOLID
  5
1D1
  8
LAYER01
 62
     7
 10
276.17976299999998
 20
-189.83689799999999
 30
0.0
 11
252.17976300000001
 21
-185.83705800000001
 31
0.0
 12
276.17976299999998
 22
-181.83721800000001
 32
0.0
 13
276.17976299999998
 23
-181.83721800000001
 33
0.0
  0
SOLID
  5
1D2
  8
LAYER01
 62
     7
 10
304.40286300000002
 20
-189.83689799999999
 30
0.0
 11
328.40286300000002
 21
-185.83705800000001
 31
0.0
 12
304.40286300000002
 22
-181.83721800000001
 32
0.0
 13
304.40286300000002
 23
-181.83721800000001
 33
0.0
  0
TEXT
  5
1D3
  8
LAYER01
  6
CONTINUOUS
 62
     7
 10
275.26402200000001
 20
-170.83705800000001
 30
0.0
 40
30.0
  1
75
  0
POINT
  5
1D4
  8
LAYER01
 62
     7
 10
252.17976300000001
 20
-125.036424
 30
0.0
  0
POINT
  5
1D5
  8
LAYER01
 62
     7
 10
328.40286300000002
 20
-125.036424
 30
0.0
  0
POINT
  5
1D6
  8
LAYER01
 62
     7
 10
328.40286300000002
 20
-185.83705800000001
 30
0.0
  0
ENDBLK
  5
1D7
  8
0
  0
BLOCK
  8
0
  2
*D7
 70
     1
 10
0.0
 20
0.0
 30
0.0
  3
*D7
  1

  0
LINE
  5
1DA
  8
LAYER01
 62
     7
 10
316.40286300000002
 20
190.63046700000001
 30
0.0
 11
-43.453591999999993
 21
190.63046700000001
 31
0.0
  0
LINE
  5
1DB
  8
LAYER01
 62
     7
 10
316.40286300000002
 20
121.60198
 30
0.0
 11
316.40286300000002
 21
205.63046700000001
 31
0.0
  0
LINE
  5
1DC
  8
LAYER01
 62
     7
 10
-43.453591999999993
 20
121.60198
 30
0.0
 11
-43.453591999999993
 21
205.63046700000001
 31
0.0
  0
SOLID
  5
1DD
  8
LAYER01
 62
     7
 10
292.40286300000002
 20
194.63030699999999
 30
0.0
 11
316.40286300000002
 21
190.63046700000001
 31
0.0
 12
292.40286300000002
 22
186.630627
 32
0.0
 13
292.40286300000002
 23
186.630627
 33
0.0
  0
SOLID
  5
1DE
  8
LAYER01
 62
     7
 10
-19.453592
 20
194.63030699999999
 30
0.0
 11
-43.453591999999993
 21
190.63046700000001
 31
0.0
 12
-19.453592
 22
186.630627
 32
0.0
 13
-19.453592
 23
186.630627
 33
0.0
  0
TEXT
  5
1DF
  8
LAYER01
  6
CONTINUOUS
 62
     7
 10
113.786659
 20
205.63046700000001
 30
0.0
 40
30.0
  1
360
  0
POINT
  5
1E0
  8
LAYER01
 62
     7
 10
316.40286300000002
 20
109.60198
 30
0.0
  0
POINT
  5
1E1
  8
LAYER01
 62
     7
 10
-43.453591999999993
 20
109.60198
 30
0.0
  0
POINT
  5
1E2
  8
LAYER01
 62
     7
 10
-43.453591999999993
 20
190.63046700000001
 30
0.0
  0
ENDBLK
  5
1E3
  8
0
  0
BLOCK
  8
0
  2
*D8
 70
     1
 10
0.0
 20
0.0
 30
0.0
  3
*D8
  1

  0
LINE
  5
1E6
  8
LAYER01
 62
     7
 10
328.40286300000002
 20
238.13992999999999
 30
0.0
 11
-71.721035000000001
 21
238.13992999999999
 31
0.0
  0
LINE
  5
1E7
  8
LAYER01
 62
     7
 10
328.40286300000002
 20
121.60198
 30
0.0
 11
328.40286300000002
 21
253.13992999999999
 31
0.0
  0
LINE
  5
1E8
  8
LAYER01
 62
     7
 10
-71.721035000000001
 20
121.60198
 30
0.0
 11
-71.721035000000001
 21
253.13992999999999
 31
0.0
  0
SOLID
  5
1E9
  8
LAYER01
 62
     7
 10
304.40286300000002
 20
242.13977
 30
0.0
 11
328.40286300000002
 21
238.13992999999999
 31
0.0
 12
304.40286300000002
 22
234.14008999999999
 32
0.0
 13
304.40286300000002
 23
234.14008999999999
 33
0.0
  0
SOLID
  5
1EA
  8
LAYER01
 62
     7
 10
-47.721035000000001
 20
242.13977
 30
0.0
 11
-71.721035000000001
 21
238.13992999999999
 31
0.0
 12
-47.721035000000001
 22
234.14008999999999
 32
0.0
 13
-47.721035000000001
 23
234.14008999999999
 33
0.0
  0
TEXT
  5
1EB
  8
LAYER01
  6
CONTINUOUS
 62
     7
 10
103.73975299999999
 20
253.13992999999999
 30
0.0
 40
30.0
  1
400
  0
POINT
  5
1EC
  8
LAYER01
 62
     7
 10
328.40286300000002
 20
109.60198
 30
0.0
  0
POINT
  5
1ED
  8
LAYER01
 62
     7
 10
-71.721035000000001
 20
109.60198
 30
0.0
  0
POINT
  5
1EE
  8
LAYER01
 62
     7
 10
-71.721035000000001
 20
238.13992999999999
 30
0.0
  0
ENDBLK
  5
1EF
  8
0
  0
BLOCK
  8
0
  2
*D9
 70
     1
 10
0.0
 20
0.0
 30
0.0
  3
*D9
  1

  0
LINE
  5
1F2
  8
LAYER01
 62
     7
 10
-43.453591999999993
 20
139.31242499999999
 30
0.0
 11
4.5464079999999996
 21
139.31242499999999
 31
0.0
  0
LINE
  5
1F3
  8
LAYER01
 62
     7
 10
-71.721035000000001
 20
139.31242499999999
 30
0.0
 11
-119.721035
 21
139.31242499999999
 31
0.0
  0
LINE
  5
1F4
  8
LAYER01
 62
     7
 10
-43.453591999999993
 20
121.60198
 30
0.0
 11
-43.453591999999993
 21
154.31242499999999
 31
0.0
  0
LINE
  5
1F5
  8
LAYER01
 62
     7
 10
-71.721035000000001
 20
121.60198
 30
0.0
 11
-71.721035000000001
 21
154.31242499999999
 31
0.0
  0
SOLID
  5
1F6
  8
LAYER01
 62
     7
 10
-19.453592
 20
143.312265
 30
0.0
 11
-43.453591999999993
 21
139.31242499999999
 31
0.0
 12
-19.453592
 22
135.31258500000001
 32
0.0
 13
-19.453592
 23
135.31258500000001
 33
0.0
  0
SOLID
  5
1F7
  8
LAYER01
 62
     7
 10
-95.721035000000001
 20
143.312265
 30
0.0
 11
-71.721035000000001
 21
139.31242499999999
 31
0.0
 12
-95.721035000000001
 22
135.31258500000001
 32
0.0
 13
-95.721035000000001
 23
135.31258500000001
 33
0.0
  0
TEXT
  5
1F8
  8
LAYER01
  6
CONTINUOUS
 62
     7
 10
19.546408
 20
154.31242499999999
 30
0.0
 40
30.0
  1
28
  0
POINT
  5
1F9
  8
LAYER01
 62
     7
 10
-43.453591999999993
 20
109.60198
 30
0.0
  0
POINT
  5
1FA
  8
LAYER01
 62
     7
 10
-71.721035000000001
 20
109.60198
 30
0.0
  0
POINT
  5
1FB
  8
LAYER01
 62
     7
 10
-71.721035000000001
 20
139.31242499999999
 30
0.0
  0
ENDBLK
  5
1FC
  8
0
  0
BLOCK
  8
0
  2
*D10
 70
     1
 10
0.0
 20
0.0
 30
0.0
  3
*D10
  1

  0
LINE
  5
1FF
  8
LAYER01
 62
     7
 10
-385.47054300000002
 20
969.09447899999986
 30
0.0
 11
101.60676100000001
 21
969.09447899999986
 31
0.0
  0
LINE
  5
200
  8
LAYER01
 62
     7
 10
-385.47054300000002
 20
880.66837100000009
 30
0.0
 11
-385.47054300000002
 21
984.09447899999975
 31
0.0
  0
LINE
  5
201
  8
LAYER01
 62
     7
 10
101.60676100000001
 20
880.66837100000009
 30
0.0
 11
101.60676100000001
 21
984.09447899999975
 31
0.0
  0
SOLID
  5
202
  8
LAYER01
 62
     7
 10
-361.47054300000002
 20
965.09463899999992
 30
0.0
 11
-385.47054300000002
 21
969.09447899999986
 31
0.0
 12
-361.47054300000002
 22
973.09431899999993
 32
0.0
 13
-361.47054300000002
 23
973.09431899999993
 33
0.0
  0
SOLID
  5
203
  8
LAYER01
 62
     7
 10
77.606760999999992
 20
965.09463899999992
 30
0.0
 11
101.60676100000001
 21
969.09447899999986
 31
0.0
 12
77.606760999999992
 22
973.09431899999993
 32
0.0
 13
77.606760999999992
 23
973.09431899999993
 33
0.0
  0
TEXT
  5
204
  8
LAYER01
  6
CONTINUOUS
 62
     7
 10
-166.52884299999999
 20
984.09447899999975
 30
0.0
 40
30.0
  1
300-1700
  0
POINT
  5
205
  8
LAYER01
 62
     7
 10
-385.47054300000002
 20
868.66837099999998
 30
0.0
  0
POINT
  5
206
  8
LAYER01
 62
     7
 10
101.60676100000001
 20
868.66837099999998
 30
0.0
  0
POINT
  5
207
  8
LAYER01
 62
     7
 10
101.60676100000001
 20
969.09447899999986
 30
0.0
  0
ENDBLK
  5
208
  8
0
  0
BLOCK
  8
0
  2
*D11
 70
     1
 10
0.0
 20
0.0
 30
0.0
  3
*D11
  1

  0
LINE
  5
20B
  8
LAYER01
 62
     7
 10
-490.80127999999991
 20
468.66837099999992
 30
0.0
 11
-490.80127999999991
 21
868.66837099999998
 31
0.0
  0
LINE
  5
20C
  8
LAYER01
 62
     7
 10
-397.47054300000002
 20
468.66837099999992
 30
0.0
 11
-505.80127999999991
 21
468.66837099999992
 31
0.0
  0
LINE
  5
20D
  8
LAYER01
 62
     7
 10
-397.47054300000002
 20
868.66837099999998
 30
0.0
 11
-505.80127999999991
 21
868.66837099999998
 31
0.0
  0
SOLID
  5
20E
  8
LAYER01
 62
     7
 10
-486.8014399999999
 20
492.66837099999992
 30
0.0
 11
-490.80127999999991
 21
468.66837099999992
 31
0.0
 12
-494.80112000000003
 22
492.66837099999992
 32
0.0
 13
-494.80112000000003
 23
492.66837099999992
 33
0.0
  0
SOLID
  5
20F
  8
LAYER01
 62
     7
 10
-486.8014399999999
 20
844.66837099999998
 30
0.0
 11
-490.80127999999991
 21
868.66837099999998
 31
0.0
 12
-494.80112000000003
 22
844.66837099999998
 32
0.0
 13
-494.80112000000003
 23
844.66837099999998
 33
0.0
  0
TEXT
  5
210
  8
LAYER01
  6
CONTINUOUS
 62
     7
 10
-505.80127999999991
 20
644.07141899999999
 30
0.0
 40
30.0
  1
400
 50
90.0
  0
POINT
  5
211
  8
LAYER01
 62
     7
 10
-385.47054300000002
 20
468.66837099999992
 30
0.0
  0
POINT
  5
212
  8
LAYER01
 62
     7
 10
-385.47054300000002
 20
868.66837099999998
 30
0.0
  0
POINT
  5
213
  8
LAYER01
 62
     7
 10
-490.80127999999991
 20
868.66837099999998
 30
0.0
  0
ENDBLK
  5
214
  8
0
  0
BLOCK
  8
0
  2
*D12
 70
     1
 10
0.0
 20
0.0
 30
0.0
  3
*D12
  1

  0
LINE
  5
217
  8
LAYER01
 62
     7
 10
101.60676100000001
 20
901.00455299999987
 30
0.0
 11
286.43018699999999
 21
901.00455299999987
 31
0.0
  0
LINE
  5
218
  8
LAYER01
 62
     7
 10
101.60676100000001
 20
880.66837100000009
 30
0.0
 11
101.60676100000001
 21
916.00455299999987
 31
0.0
  0
LINE
  5
219
  8
LAYER01
 62
     7
 10
286.43018699999999
 20
880.66837100000009
 30
0.0
 11
286.43018699999999
 21
916.00455299999987
 31
0.0
  0
SOLID
  5
21A
  8
LAYER01
 62
     7
 10
125.60676100000001
 20
897.00471300000015
 30
0.0
 11
101.60676100000001
 21
901.00455299999987
 31
0.0
 12
125.60676100000001
 22
905.00439299999994
 32
0.0
 13
125.60676100000001
 23
905.00439299999994
 33
0.0
  0
SOLID
  5
21B
  8
LAYER01
 62
     7
 10
262.43018699999999
 20
897.00471300000015
 30
0.0
 11
286.43018699999999
 21
901.00455299999987
 31
0.0
 12
262.43018699999999
 22
905.00439299999994
 32
0.0
 13
262.43018699999999
 23
905.00439299999994
 33
0.0
  0
TEXT
  5
21C
  8
LAYER01
  6
CONTINUOUS
 62
     7
 10
169.41731300000001
 20
916.00455299999987
 30
0.0
 40
30.0
  1
185
  0
POINT
  5
21D
  8
LAYER01
 62
     7
 10
101.60676100000001
 20
868.66837099999998
 30
0.0
  0
POINT
  5
21E
  8
LAYER01
 62
     7
 10
286.43018699999999
 20
868.66837099999998
 30
0.0
  0
POINT
  5
21F
  8
LAYER01
 62
     7
 10
286.43018699999999
 20
901.00455299999987
 30
0.0
  0
ENDBLK
  5
220
  8
0
  0
BLOCK
  8
0
  2
PICO400-G15
 70
     0
 10
0.0
 20
0.0
 30
0.0
  3
PICO400-G15
  1

  0
TEXT
  5
223
  8
LAYER01
  6
VERDECKT
 62
     1
 10
1006.158744
 20
-203.34441000000001
 30
0.0
 40
8.4000000000000004
  1
A. Sprenger GmbH
  7
SIMPLEX
  0
TEXT
  5
224
  8
LAYER01
  6
VERDECKT
 62
     1
 10
1006.158744
 20
-217.74440999999999
 30
0.0
 40
8.4000000000000004
  1
Berner Str. 10
  7
SIMPLEX
  0
TEXT
  5
225
  8
LAYER01
  6
VERDECKT
 62
     1
 10
1006.158744
 20
-232.14440999999999
 30
0.0
 40
8.4000000000000004
  1
60437 Frankfurt
  7
SIMPLEX
  0
TEXT
  5
226
  8
LAYER01
  6
VERDECKT
 62
     1
 10
1006.158744
 20
-246.54441
 30
0.0
 40
8.4000000000000004
  1
Tel.: 069 - 507 27 41
  7
SIMPLEX
  0
TEXT
  5
227
  8
LAYER01
  6
VERDECKT
 62
     1
 10
1006.158744
 20
-260.94441
 30
0.0
 40
8.4000000000000004
  1
Fax: 069 - 507 72 91
  7
SIMPLEX
  0
TEXT
  5
228
  8
LAYER01
  6
VERDECKT
 62
     1
 10
1006.158744
 20
-275.34440999999998
 30
0.0
 40
8.4000000000000004
  1
info@varicor.org
  7
SIMPLEX
  0
ENDBLK
  5
229
  8
0
  0
BLOCK
  8
0
  2
PICO400-G14
 70
     0
 10
0.0
 20
0.0
 30
0.0
  3
PICO400-G14
  1

  0
TEXT
  5
22C
  8
LAYER01
  6
CONTINUOUS
 62
     1
 10
1888.8462460000001
 20
-400.81176799999997
 30
0.0
 40
8.4000000000000004
  1
Blatt
  7
SIMPLEX
  0
LINE
  5
22D
  8
LAYER01
  6
CONTINUOUS
 62
     1
 10
994.24624599999993
 20
-342.01176800000002
 30
0.0
 11
1498.2462459999999
 21
-342.01176800000002
 31
0.0
  0
LINE
  5
22E
  8
LAYER01
  6
CONTINUOUS
 62
     1
 10
994.24624599999993
 20
-363.01176800000002
 30
0.0
 11
1498.2462459999999
 21
-363.01176800000002
 31
0.0
  0
LINE
  5
22F
  8
LAYER01
  6
CONTINUOUS
 62
     1
 10
994.24624599999993
 20
-384.01176800000002
 30
0.0
 11
1943.446246
 21
-384.01176800000002
 31
0.0
  0
LINE
  5
230
  8
LAYER01
  6
CONTINUOUS
 62
     1
 10
994.24624599999993
 20
-447.0117679999999
 30
0.0
 11
1943.446246
 21
-447.0117679999999
 31
0.0
  0
LINE
  5
231
  8
LAYER01
  6
CONTINUOUS
 62
     1
 10
994.24624599999993
 20
-279.01176800000002
 30
0.0
 11
1943.446246
 21
-279.01176800000002
 31
0.0
  0
POLYLINE
  5
232
  8
LAYER01
  6
CONTINUOUS
 62
     1
 66
     1
 10
0.0
 20
0.0
 30
0.0
 70
     1
  0
VERTEX
  5
72F
  8
LAYER01
  6
CONTINUOUS
 62
     1
 10
994.24624599999993
 20
-472.21176799999989
 30
0.0
  0
VERTEX
  5
730
  8
LAYER01
  6
CONTINUOUS
 62
     1
 10
994.24624599999993
 20
-190.811768
 30
0.0
  0
VERTEX
  5
731
  8
LAYER01
  6
CONTINUOUS
 62
     1
 10
1943.446246
 20
-190.811768
 30
0.0
  0
VERTEX
  5
732
  8
LAYER01
  6
CONTINUOUS
 62
     1
 10
1943.446246
 20
-472.21176799999989
 30
0.0
  0
SEQEND
  5
733
  8
LAYER01
  6
CONTINUOUS
 62
     1
  0
LINE
  5
238
  8
LAYER01
  6
CONTINUOUS
 62
     1
 10
994.24624599999993
 20
-300.01176800000002
 30
0.0
 11
1498.2462459999999
 21
-300.01176800000002
 31
0.0
  0
LINE
  5
239
  8
LAYER01
  6
CONTINUOUS
 62
     1
 10
994.24624599999993
 20
-321.01176800000002
 30
0.0
 11
1498.2462459999999
 21
-321.01176800000002
 31
0.0
  0
LINE
  5
23A
  8
LAYER01
  6
CONTINUOUS
 62
     1
 10
1267.2462459999999
 20
-190.811768
 30
0.0
 11
1267.2462459999999
 21
-472.21176799999989
 31
0.0
  0
INSERT
  5
23B
  8
LAYER01
  2
PICO400-G15
 10
0.0
 20
0.0
 30
0.0
  0
LINE
  5
23C
  8
LAYER01
  6
CONTINUOUS
 62
     1
 10
994.24624599999993
 20
-426.0117679999999
 30
0.0
 11
1267.2462459999999
 21
-426.0117679999999
 31
0.0
  0
LINE
  5
23D
  8
LAYER01
  6
CONTINUOUS
 62
     1
 10
994.24624599999993
 20
-405.01176800000002
 30
0.0
 11
1267.2462459999999
 21
-405.01176800000002
 31
0.0
  0
LINE
  5
23E
  8
LAYER01
  6
CONTINUOUS
 62
     1
 10
1032.0462460000001
 20
-279.01176800000002
 30
0.0
 11
1032.0462460000001
 21
-472.21176799999989
 31
0.0
  0
TEXT
  5
23F
  8
LAYER01
  6
CONTINUOUS
 62
     1
 10
1001.301629
 20
-463.81176799999992
 30
0.0
 40
7.9800000000000004
  1
Zust
  7
SIMPLEX
  0
LINE
  5
240
  8
LAYER01
  6
CONTINUOUS
 62
     1
 10
1164.585323
 20
-472.21176799999989
 30
0.0
 11
1164.585323
 21
-279.01176800000002
 31
0.0
  0
LINE
  5
241
  8
LAYER01
  6
CONTINUOUS
 62
     1
 10
1229.446246
 20
-279.01176800000002
 30
0.0
 11
1229.446246
 21
-472.21176799999989
 31
0.0
  0
TEXT
  5
242
  8
LAYER01
  6
CONTINUOUS
 62
     1
 10
1069.114221
 20
-463.81176799999992
 30
0.0
 40
7.9800000000000004
  1
Änderung
  7
SIMPLEX
  0
TEXT
  5
243
  8
LAYER01
  6
CONTINUOUS
 62
     1
 10
1176.403728
 20
-463.81176799999992
 30
0.0
 40
7.9800000000000004
  1
Datum
  7
SIMPLEX
  0
TEXT
  5
244
  8
LAYER01
  6
CONTINUOUS
 62
     1
 10
1232.607925
 20
-463.81176799999992
 30
0.0
 40
7.9800000000000004
  1
Name
  7
SIMPLEX
  0
LINE
  5
245
  8
LAYER01
  6
CONTINUOUS
 62
     1
 10
1943.446246
 20
-224.411768
 30
0.0
 11
1498.2462459999999
 21
-224.411768
 31
0.0
  0
LINE
  5
246
  8
LAYER01
  6
CONTINUOUS
 62
     1
 10
1321.8462460000001
 20
-363.01176800000002
 30
0.0
 11
1321.8462460000001
 21
-279.01176800000002
 31
0.0
  0
TEXT
  5
247
  8
LAYER01
  6
CONTINUOUS
 62
     1
 10
1275.646246
 20
-316.81176799999997
 30
0.0
 40
8.4000000000000004
  1
Bearb.
  7
SIMPLEX
  0
TEXT
  5
248
  8
LAYER01
  6
CONTINUOUS
 62
     1
 10
1275.646246
 20
-358.81176799999997
 30
0.0
 40
8.4000000000000004
  1
Norm
  7
SIMPLEX
  0
TEXT
  5
249
  8
LAYER01
  6
CONTINUOUS
 62
     1
 10
1275.646246
 20
-337.81176799999997
 30
0.0
 40
8.4000000000000004
  1
Gepr.
  7
SIMPLEX
  0
TEXT
  5
24A
  8
LAYER01
  6
CONTINUOUS
 62
     1
 10
1342.8462460000001
 20
-295.81176799999997
 30
0.0
 40
8.4000000000000004
  1
Datum
  7
SIMPLEX
  0
TEXT
  5
24B
  8
LAYER01
  6
CONTINUOUS
 62
     1
 10
1426.8462460000001
 20
-295.81176799999997
 30
0.0
 40
8.4000000000000004
  1
Name
  7
SIMPLEX
  0
TEXT
  5
24C
  8
LAYER01
  6
CONTINUOUS
 62
     1
 10
1922.446246
 20
-442.81176799999992
 30
0.0
 40
8.4000000000000004
  1
Bl.
  7
SIMPLEX
  0
LINE
  5
24D
  8
LAYER01
  6
CONTINUOUS
 62
     1
 10
1498.2462459999999
 20
-472.21176799999989
 30
0.0
 11
1498.2462459999999
 21
-190.811768
 31
0.0
  0
LINE
  5
24E
  8
LAYER01
  6
CONTINUOUS
 62
     1
 10
1401.646246
 20
-384.01176800000002
 30
0.0
 11
1401.646246
 21
-190.811768
 31
0.0
  0
LINE
  5
24F
  8
LAYER01
  6
CONTINUOUS
 62
     1
 10
1762.8462460000001
 20
-190.811768
 30
0.0
 11
1762.8462460000001
 21
-224.411768
 31
0.0
  0
TEXT
  5
250
  8
LAYER01
  6
CONTINUOUS
 62
     1
 10
1507.3972060000001
 20
-212.256969
 30
0.0
 40
8.4000000000000004
  1
Maßstab
  7
SIMPLEX
  0
LINE
  5
251
  8
LAYER01
  6
CONTINUOUS
 62
     1
 10
1880.446246
 20
-384.01176800000002
 30
0.0
 11
1880.446246
 21
-447.0117679999999
 31
0.0
  0
LINE
  5
252
  8
LAYER01
  6
CONTINUOUS
 62
     1
 10
1880.446246
 20
-426.0117679999999
 30
0.0
 11
1943.446246
 21
-426.0117679999999
 31
0.0
  0
ENDBLK
  5
253
  8
0
  0
BLOCK
  8
0
  2
PICO400-G16
 70
     0
 10
0.0
 20
0.0
 30
0.0
  3
PICO400-G16
  1

  0
POLYLINE
  5
256
  8
LAYER01
  6
CONTINUOUS
 62
     7
 66
     1
 10
0.0
 20
0.0
 30
0.0
 70
     1
  0
VERTEX
  5
734
  8
LAYER01
  6
CONTINUOUS
 62
     7
 10
1152.821224
 20
212.541887
 30
0.0
  0
VERTEX
  5
735
  8
LAYER01
  6
CONTINUOUS
 62
     7
 10
1178.3951050000001
 20
212.541887
 30
0.0
  0
VERTEX
  5
736
  8
LAYER01
  6
CONTINUOUS
 62
     7
 10
1210.511141
 20
139.38869299999999
 30
0.0
  0
VERTEX
  5
737
  8
LAYER01
  6
CONTINUOUS
 62
     7
 10
1242.627178
 20
212.541887
 30
0.0
  0
VERTEX
  5
738
  8
LAYER01
  6
CONTINUOUS
 62
     7
 10
1269.390541
 20
212.541887
 30
0.0
  0
VERTEX
  5
739
  8
LAYER01
  6
CONTINUOUS
 62
     7
 10
1210.511141
 20
81.698775999999995
 30
0.0
  0
VERTEX
  5
73A
  8
LAYER01
  6
CONTINUOUS
 62
     7
 10
1152.821224
 20
212.541887
 30
0.0
  0
VERTEX
  5
73B
  8
LAYER01
  6
CONTINUOUS
 62
     7
 10
1152.821224
 20
212.541887
 30
0.0
  0
SEQEND
  5
73C
  8
LAYER01
  6
CONTINUOUS
 62
     7
  0
POLYLINE
  5
260
  8
LAYER01
  6
CONTINUOUS
 62
     7
 66
     1
 10
0.0
 20
0.0
 30
0.0
 70
     1
  0
VERTEX
  5
73D
  8
LAYER01
  6
CONTINUOUS
 62
     7
 10
1240.248212
 20
123.330675
 30
0.0
  0
VERTEX
  5
73E
  8
LAYER01
  6
CONTINUOUS
 62
     7
 10
1249.1693330000001
 20
144.146624
 30
0.0
  0
VERTEX
  5
73F
  8
LAYER01
  6
CONTINUOUS
 62
     7
 10
1287.8275249999999
 20
144.146624
 30
0.0
  0
VERTEX
  5
740
  8
LAYER01
  6
CONTINUOUS
 62
     7
 10
1268.2010580000001
 20
186.968006
 30
0.0
  0
VERTEX
  5
741
  8
LAYER01
  6
CONTINUOUS
 62
     7
 10
1279.501145
 20
214.326111
 30
0.0
  0
VERTEX
  5
742
  8
LAYER01
  6
CONTINUOUS
 62
     7
 10
1332.433131
 20
102.514725
 30
0.0
  0
VERTEX
  5
743
  8
LAYER01
  6
CONTINUOUS
 62
     7
 10
1332.433131
 20
212.541887
 30
0.0
  0
VERTEX
  5
744
  8
LAYER01
  6
CONTINUOUS
 62
     7
 10
1403.207359
 20
212.541887
 30
0.0
  0
VERTEX
  5
745
  8
LAYER01
  6
CONTINUOUS
 62
     7
 10
1403.207359
 20
212.541887
 30
0.0
  0
VERTEX
  5
746
  8
LAYER01
  6
CONTINUOUS
 62
     7
 10
1409.749515
 20
211.35240400000001
 30
0.0
  0
VERTEX
  5
747
  8
LAYER01
  6
CONTINUOUS
 62
     7
 10
1415.696929
 20
208.97343799999999
 30
0.0
  0
VERTEX
  5
748
  8
LAYER01
  6
CONTINUOUS
 62
     7
 10
1421.0496009999999
 20
204.810248
 30
0.0
  0
VERTEX
  5
749
  8
LAYER01
  6
CONTINUOUS
 62
     7
 10
1425.8075329999999
 20
200.64705799999999
 30
0.0
  0
VERTEX
  5
74A
  8
LAYER01
  6
CONTINUOUS
 62
     7
 10
1429.9707229999999
 20
195.294386
 30
0.0
  0
VERTEX
  5
74B
  8
LAYER01
  6
CONTINUOUS
 62
     7
 10
1432.94443
 20
189.34697199999999
 30
0.0
  0
VERTEX
  5
74C
  8
LAYER01
  6
CONTINUOUS
 62
     7
 10
1435.3233949999999
 20
182.21007499999999
 30
0.0
  0
VERTEX
  5
74D
  8
LAYER01
  6
CONTINUOUS
 62
     7
 10
1435.9181369999999
 20
175.66791900000001
 30
0.0
  0
VERTEX
  5
74E
  8
LAYER01
  6
CONTINUOUS
 62
     7
 10
1435.9181369999999
 20
175.66791900000001
 30
0.0
  0
VERTEX
  5
74F
  8
LAYER01
  6
CONTINUOUS
 62
     7
 10
1435.9181369999999
 20
168.53102200000001
 30
0.0
  0
VERTEX
  5
750
  8
LAYER01
  6
CONTINUOUS
 62
     7
 10
1434.728654
 20
162.583608
 30
0.0
  0
VERTEX
  5
751
  8
LAYER01
  6
CONTINUOUS
 62
     7
 10
1432.349688
 20
156.63619399999999
 30
0.0
  0
VERTEX
  5
752
  8
LAYER01
  6
CONTINUOUS
 62
     7
 10
1429.3759809999999
 20
151.28352100000001
 30
0.0
  0
VERTEX
  5
753
  8
LAYER01
  6
CONTINUOUS
 62
     7
 10
1425.2127909999999
 20
146.52558999999999
 30
0.0
  0
VERTEX
  5
754
  8
LAYER01
  6
CONTINUOUS
 62
     7
 10
1420.4548600000001
 20
142.36240000000001
 30
0.0
  0
VERTEX
  5
755
  8
LAYER01
  6
CONTINUOUS
 62
     7
 10
1415.102187
 20
139.38869299999999
 30
0.0
  0
VERTEX
  5
756
  8
LAYER01
  6
CONTINUOUS
 62
     7
 10
1408.5600320000001
 20
137.009727
 30
0.0
  0
VERTEX
  5
757
  8
LAYER01
  6
CONTINUOUS
 62
     7
 10
1446.623482
 20
86.456706999999994
 30
0.0
  0
VERTEX
  5
758
  8
LAYER01
  6
CONTINUOUS
 62
     7
 10
1446.623482
 20
212.541887
 30
0.0
  0
VERTEX
  5
759
  8
LAYER01
  6
CONTINUOUS
 62
     7
 10
1471.602621
 20
212.541887
 30
0.0
  0
VERTEX
  5
75A
  8
LAYER01
  6
CONTINUOUS
 62
     7
 10
1471.602621
 20
85.267223999999999
 30
0.0
  0
VERTEX
  5
75B
  8
LAYER01
  6
CONTINUOUS
 62
     7
 10
1418.0758940000001
 20
85.267223999999999
 30
0.0
  0
VERTEX
  5
75C
  8
LAYER01
  6
CONTINUOUS
 62
     7
 10
1366.3333909999999
 20
151.28352100000001
 30
0.0
  0
VERTEX
  5
75D
  8
LAYER01
  6
CONTINUOUS
 62
     7
 10
1392.5020139999999
 20
151.28352100000001
 30
0.0
  0
VERTEX
  5
75E
  8
LAYER01
  6
CONTINUOUS
 62
     7
 10
1392.5020139999999
 20
151.28352100000001
 30
0.0
  0
VERTEX
  5
75F
  8
LAYER01
  6
CONTINUOUS
 62
     7
 10
1396.0704619999999
 20
151.878263
 30
0.0
  0
VERTEX
  5
760
  8
LAYER01
  6
CONTINUOUS
 62
     7
 10
1399.638911
 20
153.067745
 30
0.0
  0
VERTEX
  5
761
  8
LAYER01
  6
CONTINUOUS
 62
     7
 10
1402.6126180000001
 20
154.85196999999999
 30
0.0
  0
VERTEX
  5
762
  8
LAYER01
  6
CONTINUOUS
 62
     7
 10
1405.586325
 20
157.23093499999999
 30
0.0
  0
VERTEX
  5
763
  8
LAYER01
  6
CONTINUOUS
 62
     7
 10
1407.370549
 20
160.20464199999989
 30
0.0
  0
VERTEX
  5
764
  8
LAYER01
  6
CONTINUOUS
 62
     7
 10
1409.154773
 20
163.77309099999999
 30
0.0
  0
VERTEX
  5
765
  8
LAYER01
  6
CONTINUOUS
 62
     7
 10
1410.3442560000001
 20
167.34153900000001
 30
0.0
  0
VERTEX
  5
766
  8
LAYER01
  6
CONTINUOUS
 62
     7
 10
1410.3442560000001
 20
171.504729
 30
0.0
  0
VERTEX
  5
767
  8
LAYER01
  6
CONTINUOUS
 62
     7
 10
1410.3442560000001
 20
171.504729
 30
0.0
  0
VERTEX
  5
768
  8
LAYER01
  6
CONTINUOUS
 62
     7
 10
1410.3442560000001
 20
175.07317800000001
 30
0.0
  0
VERTEX
  5
769
  8
LAYER01
  6
CONTINUOUS
 62
     7
 10
1409.154773
 20
178.641626
 30
0.0
  0
VERTEX
  5
76A
  8
LAYER01
  6
CONTINUOUS
 62
     7
 10
1407.9652900000001
 20
182.21007499999999
 30
0.0
  0
VERTEX
  5
76B
  8
LAYER01
  6
CONTINUOUS
 62
     7
 10
1405.586325
 20
185.18378200000001
 30
0.0
  0
VERTEX
  5
76C
  8
LAYER01
  6
CONTINUOUS
 62
     7
 10
1403.207359
 20
187.562747
 30
0.0
  0
VERTEX
  5
76D
  8
LAYER01
  6
CONTINUOUS
 62
     7
 10
1399.638911
 20
189.34697199999999
 30
0.0
  0
VERTEX
  5
76E
  8
LAYER01
  6
CONTINUOUS
 62
     7
 10
1396.0704619999999
 20
190.53645399999999
 30
0.0
  0
VERTEX
  5
76F
  8
LAYER01
  6
CONTINUOUS
 62
     7
 10
1392.5020139999999
 20
191.13119599999999
 30
0.0
  0
VERTEX
  5
770
  8
LAYER01
  6
CONTINUOUS
 62
     7
 10
1359.1964949999999
 20
191.13119599999999
 30
0.0
  0
VERTEX
  5
771
  8
LAYER01
  6
CONTINUOUS
 62
     7
 10
1359.1964949999999
 20
85.267223999999999
 30
0.0
  0
VERTEX
  5
772
  8
LAYER01
  6
CONTINUOUS
 62
     7
 10
1316.3751130000001
 20
85.267223999999999
 30
0.0
  0
VERTEX
  5
773
  8
LAYER01
  6
CONTINUOUS
 62
     7
 10
1298.53287
 20
123.330675
 30
0.0
  0
VERTEX
  5
774
  8
LAYER01
  6
CONTINUOUS
 62
     7
 10
1240.248212
 20
123.330675
 30
0.0
  0
VERTEX
  5
775
  8
LAYER01
  6
CONTINUOUS
 62
     7
 10
1240.248212
 20
123.330675
 30
0.0
  0
SEQEND
  5
776
  8
LAYER01
  6
CONTINUOUS
 62
     7
  0
POLYLINE
  5
29B
  8
LAYER01
  6
CONTINUOUS
 62
     7
 66
     1
 10
0.0
 20
0.0
 30
0.0
 70
     1
  0
VERTEX
  5
777
  8
LAYER01
  6
CONTINUOUS
 62
     7
 10
1586.9824550000001
 20
204.215507
 30
0.0
  0
VERTEX
  5
778
  8
LAYER01
  6
CONTINUOUS
 62
     7
 10
1570.9244369999999
 20
183.99429900000001
 30
0.0
  0
VERTEX
  5
779
  8
LAYER01
  6
CONTINUOUS
 62
     7
 10
1570.9244369999999
 20
183.99429900000001
 30
0.0
  0
VERTEX
  5
77A
  8
LAYER01
  6
CONTINUOUS
 62
     7
 10
1565.5717649999999
 20
187.562747
 30
0.0
  0
VERTEX
  5
77B
  8
LAYER01
  6
CONTINUOUS
 62
     7
 10
1560.219092
 20
190.53645399999999
 30
0.0
  0
VERTEX
  5
77C
  8
LAYER01
  6
CONTINUOUS
 62
     7
 10
1554.2716780000001
 20
192.32067900000001
 30
0.0
  0
VERTEX
  5
77D
  8
LAYER01
  6
CONTINUOUS
 62
     7
 10
1547.7295220000001
 20
192.32067900000001
 30
0.0
  0
VERTEX
  5
77E
  8
LAYER01
  6
CONTINUOUS
 62
     7
 10
1547.7295220000001
 20
192.32067900000001
 30
0.0
  0
VERTEX
  5
77F
  8
LAYER01
  6
CONTINUOUS
 62
     7
 10
1543.5663320000001
 20
192.32067900000001
 30
0.0
  0
VERTEX
  5
780
  8
LAYER01
  6
CONTINUOUS
 62
     7
 10
1539.4031419999999
 20
191.72593699999999
 30
0.0
  0
VERTEX
  5
781
  8
LAYER01
  6
CONTINUOUS
 62
     7
 10
1535.239953
 20
190.53645399999999
 30
0.0
  0
VERTEX
  5
782
  8
LAYER01
  6
CONTINUOUS
 62
     7
 10
1531.076763
 20
188.75223
 30
0.0
  0
VERTEX
  5
783
  8
LAYER01
  6
CONTINUOUS
 62
     7
 10
1527.5083139999999
 20
186.968006
 30
0.0
  0
VERTEX
  5
784
  8
LAYER01
  6
CONTINUOUS
 62
     7
 10
1524.5346070000001
 20
184.58904000000001
 30
0.0
  0
VERTEX
  5
785
  8
LAYER01
  6
CONTINUOUS
 62
     7
 10
1520.9661590000001
 20
182.21007499999999
 30
0.0
  0
VERTEX
  5
786
  8
LAYER01
  6
CONTINUOUS
 62
     7
 10
1518.5871930000001
 20
179.236368
 30
0.0
  0
VERTEX
  5
787
  8
LAYER01
  6
CONTINUOUS
 62
     7
 10
1515.613486
 20
175.66791900000001
 30
0.0
  0
VERTEX
  5
788
  8
LAYER01
  6
CONTINUOUS
 62
     7
 10
1513.829262
 20
172.09947099999999
 30
0.0
  0
VERTEX
  5
789
  8
LAYER01
  6
CONTINUOUS
 62
     7
 10
1511.450296
 20
168.53102200000001
 30
0.0
  0
VERTEX
  5
78A
  8
LAYER01
  6
CONTINUOUS
 62
     7
 10
1509.666072
 20
164.96257399999999
 30
0.0
  0
VERTEX
  5
78B
  8
LAYER01
  6
CONTINUOUS
 62
     7
 10
1508.4765890000001
 20
160.799384
 30
0.0
  0
VERTEX
  5
78C
  8
LAYER01
  6
CONTINUOUS
 62
     7
 10
1507.881848
 20
156.63619399999999
 30
0.0
  0
VERTEX
  5
78D
  8
LAYER01
  6
CONTINUOUS
 62
     7
 10
1507.287106
 20
152.473004
 30
0.0
  0
VERTEX
  5
78E
  8
LAYER01
  6
CONTINUOUS
 62
     7
 10
1506.6923650000001
 20
147.71507299999999
 30
0.0
  0
VERTEX
  5
78F
  8
LAYER01
  6
CONTINUOUS
 62
     7
 10
1506.6923650000001
 20
147.71507299999999
 30
0.0
  0
VERTEX
  5
790
  8
LAYER01
  6
CONTINUOUS
 62
     7
 10
1507.287106
 20
143.551883
 30
0.0
  0
VERTEX
  5
791
  8
LAYER01
  6
CONTINUOUS
 62
     7
 10
1507.881848
 20
139.38869299999999
 30
0.0
  0
VERTEX
  5
792
  8
LAYER01
  6
CONTINUOUS
 62
     7
 10
1508.4765890000001
 20
135.225503
 30
0.0
  0
VERTEX
  5
793
  8
LAYER01
  6
CONTINUOUS
 62
     7
 10
1510.2608130000001
 20
131.65705500000001
 30
0.0
  0
VERTEX
  5
794
  8
LAYER01
  6
CONTINUOUS
 62
     7
 10
1511.450296
 20
128.088606
 30
0.0
  0
VERTEX
  5
795
  8
LAYER01
  6
CONTINUOUS
 62
     7
 10
1513.829262
 20
124.520158
 30
0.0
  0
VERTEX
  5
796
  8
LAYER01
  6
CONTINUOUS
 62
     7
 10
1516.2082270000001
 20
120.95170899999999
 30
0.0
  0
VERTEX
  5
797
  8
LAYER01
  6
CONTINUOUS
 62
     7
 10
1518.5871930000001
 20
117.978002
 30
0.0
  0
VERTEX
  5
798
  8
LAYER01
  6
CONTINUOUS
 62
     7
 10
1521.5608999999999
 20
115.004295
 30
0.0
  0
VERTEX
  5
799
  8
LAYER01
  6
CONTINUOUS
 62
     7
 10
1524.5346070000001
 20
112.62532899999999
 30
0.0
  0
VERTEX
  5
79A
  8
LAYER01
  6
CONTINUOUS
 62
     7
 10
1528.1030559999999
 20
110.841105
 30
0.0
  0
VERTEX
  5
79B
  8
LAYER01
  6
CONTINUOUS
 62
     7
 10
1531.6715039999999
 20
109.056881
 30
0.0
  0
VERTEX
  5
79C
  8
LAYER01
  6
CONTINUOUS
 62
     7
 10
1535.8346939999999
 20
107.272657
 30
0.0
  0
VERTEX
  5
79D
  8
LAYER01
  6
CONTINUOUS
 62
     7
 10
1539.4031419999999
 20
106.083174
 30
0.0
  0
VERTEX
  5
79E
  8
LAYER01
  6
CONTINUOUS
 62
     7
 10
1543.5663320000001
 20
105.488432
 30
0.0
  0
VERTEX
  5
79F
  8
LAYER01
  6
CONTINUOUS
 62
     7
 10
1548.3242640000001
 20
105.488432
 30
0.0
  0
VERTEX
  5
7A0
  8
LAYER01
  6
CONTINUOUS
 62
     7
 10
1548.3242640000001
 20
105.488432
 30
0.0
  0
VERTEX
  5
7A1
  8
LAYER01
  6
CONTINUOUS
 62
     7
 10
1554.866419
 20
106.083174
 30
0.0
  0
VERTEX
  5
7A2
  8
LAYER01
  6
CONTINUOUS
 62
     7
 10
1560.219092
 20
107.272657
 30
0.0
  0
VERTEX
  5
7A3
  8
LAYER01
  6
CONTINUOUS
 62
     7
 10
1565.5717649999999
 20
110.246364
 30
0.0
  0
VERTEX
  5
7A4
  8
LAYER01
  6
CONTINUOUS
 62
     7
 10
1570.9244369999999
 20
113.814812
 30
0.0
  0
VERTEX
  5
7A5
  8
LAYER01
  6
CONTINUOUS
 62
     7
 10
1586.387714
 20
92.998863
 30
0.0
  0
VERTEX
  5
7A6
  8
LAYER01
  6
CONTINUOUS
 62
     7
 10
1586.387714
 20
92.998863
 30
0.0
  0
VERTEX
  5
7A7
  8
LAYER01
  6
CONTINUOUS
 62
     7
 10
1577.4665930000001
 20
87.646190000000004
 30
0.0
  0
VERTEX
  5
7A8
  8
LAYER01
  6
CONTINUOUS
 62
     7
 10
1572.708662
 20
85.861965999999995
 30
0.0
  0
VERTEX
  5
7A9
  8
LAYER01
  6
CONTINUOUS
 62
     7
 10
1568.545472
 20
84.077742000000001
 30
0.0
  0
VERTEX
  5
7AA
  8
LAYER01
  6
CONTINUOUS
 62
     7
 10
1563.78754
 20
82.888258999999991
 30
0.0
  0
VERTEX
  5
7AB
  8
LAYER01
  6
CONTINUOUS
 62
     7
 10
1559.0296089999999
 20
82.293516999999994
 30
0.0
  0
VERTEX
  5
7AC
  8
LAYER01
  6
CONTINUOUS
 62
     7
 10
1548.3242640000001
 20
81.698775999999995
 30
0.0
  0
VERTEX
  5
7AD
  8
LAYER01
  6
CONTINUOUS
 62
     7
 10
1548.3242640000001
 20
81.698775999999995
 30
0.0
  0
VERTEX
  5
7AE
  8
LAYER01
  6
CONTINUOUS
 62
     7
 10
1541.187367
 20
82.293516999999994
 30
0.0
  0
VERTEX
  5
7AF
  8
LAYER01
  6
CONTINUOUS
 62
     7
 10
1534.645211
 20
83.483000000000004
 30
0.0
  0
VERTEX
  5
7B0
  8
LAYER01
  6
CONTINUOUS
 62
     7
 10
1528.1030559999999
 20
84.672482999999986
 30
0.0
  0
VERTEX
  5
7B1
  8
LAYER01
  6
CONTINUOUS
 62
     7
 10
1522.1556419999999
 20
87.051449000000005
 30
0.0
  0
VERTEX
  5
7B2
  8
LAYER01
  6
CONTINUOUS
 62
     7
 10
1516.2082270000001
 20
90.025155999999996
 30
0.0
  0
VERTEX
  5
7B3
  8
LAYER01
  6
CONTINUOUS
 62
     7
 10
1510.8555550000001
 20
92.998863
 30
0.0
  0
VERTEX
  5
7B4
  8
LAYER01
  6
CONTINUOUS
 62
     7
 10
1505.502882
 20
97.162053
 30
0.0
  0
VERTEX
  5
7B5
  8
LAYER01
  6
CONTINUOUS
 62
     7
 10
1500.7449509999999
 20
101.325243
 30
0.0
  0
VERTEX
  5
7B6
  8
LAYER01
  6
CONTINUOUS
 62
     7
 10
1495.9870189999999
 20
106.083174
 30
0.0
  0
VERTEX
  5
7B7
  8
LAYER01
  6
CONTINUOUS
 62
     7
 10
1492.4185709999999
 20
111.435847
 30
0.0
  0
VERTEX
  5
7B8
  8
LAYER01
  6
CONTINUOUS
 62
     7
 10
1488.8501220000001
 20
116.78851899999999
 30
0.0
  0
VERTEX
  5
7B9
  8
LAYER01
  6
CONTINUOUS
 62
     7
 10
1485.876415
 20
122.735933
 30
0.0
  0
VERTEX
  5
7BA
  8
LAYER01
  6
CONTINUOUS
 62
     7
 10
1484.092191
 20
128.683348
 30
0.0
  0
VERTEX
  5
7BB
  8
LAYER01
  6
CONTINUOUS
 62
     7
 10
1482.307967
 20
135.225503
 30
0.0
  0
VERTEX
  5
7BC
  8
LAYER01
  6
CONTINUOUS
 62
     7
 10
1481.1184840000001
 20
141.76765900000001
 30
0.0
  0
VERTEX
  5
7BD
  8
LAYER01
  6
CONTINUOUS
 62
     7
 10
1480.523743
 20
148.90455600000001
 30
0.0
  0
VERTEX
  5
7BE
  8
LAYER01
  6
CONTINUOUS
 62
     7
 10
1480.523743
 20
148.90455600000001
 30
0.0
  0
VERTEX
  5
7BF
  8
LAYER01
  6
CONTINUOUS
 62
     7
 10
1481.1184840000001
 20
155.44671099999999
 30
0.0
  0
VERTEX
  5
7C0
  8
LAYER01
  6
CONTINUOUS
 62
     7
 10
1482.307967
 20
162.583608
 30
0.0
  0
VERTEX
  5
7C1
  8
LAYER01
  6
CONTINUOUS
 62
     7
 10
1483.4974500000001
 20
168.53102200000001
 30
0.0
  0
VERTEX
  5
7C2
  8
LAYER01
  6
CONTINUOUS
 62
     7
 10
1485.876415
 20
175.07317800000001
 30
0.0
  0
VERTEX
  5
7C3
  8
LAYER01
  6
CONTINUOUS
 62
     7
 10
1488.8501220000001
 20
181.02059199999999
 30
0.0
  0
VERTEX
  5
7C4
  8
LAYER01
  6
CONTINUOUS
 62
     7
 10
1491.8238289999999
 20
186.373265
 30
0.0
  0
VERTEX
  5
7C5
  8
LAYER01
  6
CONTINUOUS
 62
     7
 10
1495.9870189999999
 20
191.72593699999999
 30
0.0
  0
VERTEX
  5
7C6
  8
LAYER01
  6
CONTINUOUS
 62
     7
 10
1500.1502089999999
 20
196.483869
 30
0.0
  0
VERTEX
  5
7C7
  8
LAYER01
  6
CONTINUOUS
 62
     7
 10
1504.9081409999999
 20
200.64705799999999
 30
0.0
  0
VERTEX
  5
7C8
  8
LAYER01
  6
CONTINUOUS
 62
     7
 10
1510.2608130000001
 20
204.810248
 30
0.0
  0
VERTEX
  5
7C9
  8
LAYER01
  6
CONTINUOUS
 62
     7
 10
1515.613486
 20
207.78395499999999
 30
0.0
  0
VERTEX
  5
7CA
  8
LAYER01
  6
CONTINUOUS
 62
     7
 10
1521.5608999999999
 20
210.75766200000001
 30
0.0
  0
VERTEX
  5
7CB
  8
LAYER01
  6
CONTINUOUS
 62
     7
 10
1527.5083139999999
 20
213.136628
 30
0.0
  0
VERTEX
  5
7CC
  8
LAYER01
  6
CONTINUOUS
 62
     7
 10
1534.0504699999999
 20
214.920852
 30
0.0
  0
VERTEX
  5
7CD
  8
LAYER01
  6
CONTINUOUS
 62
     7
 10
1541.187367
 20
215.51559399999999
 30
0.0
  0
VERTEX
  5
7CE
  8
LAYER01
  6
CONTINUOUS
 62
     7
 10
1547.7295220000001
 20
216.11033499999999
 30
0.0
  0
VERTEX
  5
7CF
  8
LAYER01
  6
CONTINUOUS
 62
     7
 10
1547.7295220000001
 20
216.11033499999999
 30
0.0
  0
VERTEX
  5
7D0
  8
LAYER01
  6
CONTINUOUS
 62
     7
 10
1558.4348680000001
 20
215.51559399999999
 30
0.0
  0
VERTEX
  5
7D1
  8
LAYER01
  6
CONTINUOUS
 62
     7
 10
1563.78754
 20
214.920852
 30
0.0
  0
VERTEX
  5
7D2
  8
LAYER01
  6
CONTINUOUS
 62
     7
 10
1568.545472
 20
213.73137
 30
0.0
  0
VERTEX
  5
7D3
  8
LAYER01
  6
CONTINUOUS
 62
     7
 10
1572.708662
 20
211.94714500000001
 30
0.0
  0
VERTEX
  5
7D4
  8
LAYER01
  6
CONTINUOUS
 62
     7
 10
1577.4665930000001
 20
210.16292100000001
 30
0.0
  0
VERTEX
  5
7D5
  8
LAYER01
  6
CONTINUOUS
 62
     7
 10
1582.224524
 20
207.18921399999999
 30
0.0
  0
VERTEX
  5
7D6
  8
LAYER01
  6
CONTINUOUS
 62
     7
 10
1586.9824550000001
 20
204.215507
 30
0.0
  0
VERTEX
  5
7D7
  8
LAYER01
  6
CONTINUOUS
 62
     7
 10
1586.9824550000001
 20
204.215507
 30
0.0
  0
SEQEND
  5
7D8
  8
LAYER01
  6
CONTINUOUS
 62
     7
  0
POLYLINE
  5
2FE
  8
LAYER01
  6
CONTINUOUS
 62
     7
 66
     1
 10
0.0
 20
0.0
 30
0.0
 70
     1
  0
VERTEX
  5
7D9
  8
LAYER01
  6
CONTINUOUS
 62
     7
 10
1644.672372
 20
215.51559399999999
 30
0.0
  0
VERTEX
  5
7DA
  8
LAYER01
  6
CONTINUOUS
 62
     7
 10
1644.672372
 20
215.51559399999999
 30
0.0
  0
VERTEX
  5
7DB
  8
LAYER01
  6
CONTINUOUS
 62
     7
 10
1638.1302169999999
 20
214.920852
 30
0.0
  0
VERTEX
  5
7DC
  8
LAYER01
  6
CONTINUOUS
 62
     7
 10
1630.99332
 20
214.326111
 30
0.0
  0
VERTEX
  5
7DD
  8
LAYER01
  6
CONTINUOUS
 62
     7
 10
1625.0459060000001
 20
212.541887
 30
0.0
  0
VERTEX
  5
7DE
  8
LAYER01
  6
CONTINUOUS
 62
     7
 10
1618.5037500000001
 20
210.16292100000001
 30
0.0
  0
VERTEX
  5
7DF
  8
LAYER01
  6
CONTINUOUS
 62
     7
 10
1612.5563360000001
 20
207.78395499999999
 30
0.0
  0
VERTEX
  5
7E0
  8
LAYER01
  6
CONTINUOUS
 62
     7
 10
1607.203663
 20
204.215507
 30
0.0
  0
VERTEX
  5
7E1
  8
LAYER01
  6
CONTINUOUS
 62
     7
 10
1601.850991
 20
200.64705799999999
 30
0.0
  0
VERTEX
  5
7E2
  8
LAYER01
  6
CONTINUOUS
 62
     7
 10
1597.093059
 20
195.889127
 30
0.0
  0
VERTEX
  5
7E3
  8
LAYER01
  6
CONTINUOUS
 62
     7
 10
1592.9298699999999
 20
191.13119599999999
 30
0.0
  0
VERTEX
  5
7E4
  8
LAYER01
  6
CONTINUOUS
 62
     7
 10
1588.76668
 20
186.373265
 30
0.0
  0
VERTEX
  5
7E5
  8
LAYER01
  6
CONTINUOUS
 62
     7
 10
1585.1982310000001
 20
181.02059199999999
 30
0.0
  0
VERTEX
  5
7E6
  8
LAYER01
  6
CONTINUOUS
 62
     7
 10
1582.224524
 20
175.07317800000001
 30
0.0
  0
VERTEX
  5
7E7
  8
LAYER01
  6
CONTINUOUS
 62
     7
 10
1580.4403
 20
168.53102200000001
 30
0.0
  0
VERTEX
  5
7E8
  8
LAYER01
  6
CONTINUOUS
 62
     7
 10
1578.656076
 20
162.583608
 30
0.0
  0
VERTEX
  5
7E9
  8
LAYER01
  6
CONTINUOUS
 62
     7
 10
1577.4665930000001
 20
155.44671099999999
 30
0.0
  0
VERTEX
  5
7EA
  8
LAYER01
  6
CONTINUOUS
 62
     7
 10
1576.8718510000001
 20
148.90455600000001
 30
0.0
  0
VERTEX
  5
7EB
  8
LAYER01
  6
CONTINUOUS
 62
     7
 10
1576.8718510000001
 20
148.90455600000001
 30
0.0
  0
VERTEX
  5
7EC
  8
LAYER01
  6
CONTINUOUS
 62
     7
 10
1577.4665930000001
 20
141.76765900000001
 30
0.0
  0
VERTEX
  5
7ED
  8
LAYER01
  6
CONTINUOUS
 62
     7
 10
1578.061334
 20
135.225503
 30
0.0
  0
VERTEX
  5
7EE
  8
LAYER01
  6
CONTINUOUS
 62
     7
 10
1579.8455590000001
 20
128.683348
 30
0.0
  0
VERTEX
  5
7EF
  8
LAYER01
  6
CONTINUOUS
 62
     7
 10
1582.224524
 20
122.735933
 30
0.0
  0
VERTEX
  5
7F0
  8
LAYER01
  6
CONTINUOUS
 62
     7
 10
1584.60349
 20
116.78851899999999
 30
0.0
  0
VERTEX
  5
7F1
  8
LAYER01
  6
CONTINUOUS
 62
     7
 10
1588.171938
 20
111.435847
 30
0.0
  0
VERTEX
  5
7F2
  8
LAYER01
  6
CONTINUOUS
 62
     7
 10
1591.7403870000001
 20
106.083174
 30
0.0
  0
VERTEX
  5
7F3
  8
LAYER01
  6
CONTINUOUS
 62
     7
 10
1595.903577
 20
101.325243
 30
0.0
  0
VERTEX
  5
7F4
  8
LAYER01
  6
CONTINUOUS
 62
     7
 10
1600.6615079999999
 20
96.567311000000004
 30
0.0
  0
VERTEX
  5
7F5
  8
LAYER01
  6
CONTINUOUS
 62
     7
 10
1606.014181
 20
92.998863
 30
0.0
  0
VERTEX
  5
7F6
  8
LAYER01
  6
CONTINUOUS
 62
     7
 10
1611.366853
 20
89.430413999999999
 30
0.0
  0
VERTEX
  5
7F7
  8
LAYER01
  6
CONTINUOUS
 62
     7
 10
1617.3142680000001
 20
86.456706999999994
 30
0.0
  0
VERTEX
  5
7F8
  8
LAYER01
  6
CONTINUOUS
 62
     7
 10
1623.2616820000001
 20
84.077742000000001
 30
0.0
  0
VERTEX
  5
7F9
  8
LAYER01
  6
CONTINUOUS
 62
     7
 10
1629.8038369999999
 20
82.888258999999991
 30
0.0
  0
VERTEX
  5
7FA
  8
LAYER01
  6
CONTINUOUS
 62
     7
 10
1636.3459929999999
 20
81.698775999999995
 30
0.0
  0
VERTEX
  5
7FB
  8
LAYER01
  6
CONTINUOUS
 62
     7
 10
1642.888148
 20
81.104034999999996
 30
0.0
  0
VERTEX
  5
7FC
  8
LAYER01
  6
CONTINUOUS
 62
     7
 10
1642.888148
 20
81.104034999999996
 30
0.0
  0
VERTEX
  5
7FD
  8
LAYER01
  6
CONTINUOUS
 62
     7
 10
1650.0250450000001
 20
81.698775999999995
 30
0.0
  0
VERTEX
  5
7FE
  8
LAYER01
  6
CONTINUOUS
 62
     7
 10
1656.5672010000001
 20
82.888258999999991
 30
0.0
  0
VERTEX
  5
7FF
  8
LAYER01
  6
CONTINUOUS
 62
     7
 10
1663.1093559999999
 20
84.672482999999986
 30
0.0
  0
VERTEX
  5
800
  8
LAYER01
  6
CONTINUOUS
 62
     7
 10
1669.0567699999999
 20
87.051449000000005
 30
0.0
  0
VERTEX
  5
801
  8
LAYER01
  6
CONTINUOUS
 62
     7
 10
1675.004185
 20
90.025155999999996
 30
0.0
  0
VERTEX
  5
802
  8
LAYER01
  6
CONTINUOUS
 62
     7
 10
1680.356857
 20
93.593603999999985
 30
0.0
  0
VERTEX
  5
803
  8
LAYER01
  6
CONTINUOUS
 62
     7
 10
1685.7095300000001
 20
97.162053
 30
0.0
  0
VERTEX
  5
804
  8
LAYER01
  6
CONTINUOUS
 62
     7
 10
1690.467461
 20
101.919984
 30
0.0
  0
VERTEX
  5
805
  8
LAYER01
  6
CONTINUOUS
 62
     7
 10
1694.6306509999999
 20
106.677915
 30
0.0
  0
VERTEX
  5
806
  8
LAYER01
  6
CONTINUOUS
 62
     7
 10
1698.1991
 20
112.03058799999999
 30
0.0
  0
VERTEX
  5
807
  8
LAYER01
  6
CONTINUOUS
 62
     7
 10
1701.1728069999999
 20
117.383261
 30
0.0
  0
VERTEX
  5
808
  8
LAYER01
  6
CONTINUOUS
 62
     7
 10
1704.146514
 20
123.330675
 30
0.0
  0
VERTEX
  5
809
  8
LAYER01
  6
CONTINUOUS
 62
     7
 10
1706.5254789999999
 20
129.87282999999999
 30
0.0
  0
VERTEX
  5
80A
  8
LAYER01
  6
CONTINUOUS
 62
     7
 10
1707.714962
 20
136.414986
 30
0.0
  0
VERTEX
  5
80B
  8
LAYER01
  6
CONTINUOUS
 62
     7
 10
1708.309704
 20
142.95714100000001
 30
0.0
  0
VERTEX
  5
80C
  8
LAYER01
  6
CONTINUOUS
 62
     7
 10
1708.9044449999999
 20
150.09403800000001
 30
0.0
  0
VERTEX
  5
80D
  8
LAYER01
  6
CONTINUOUS
 62
     7
 10
1708.9044449999999
 20
150.09403800000001
 30
0.0
  0
VERTEX
  5
80E
  8
LAYER01
  6
CONTINUOUS
 62
     7
 10
1708.309704
 20
156.63619399999999
 30
0.0
  0
VERTEX
  5
80F
  8
LAYER01
  6
CONTINUOUS
 62
     7
 10
1707.1202209999999
 20
163.178349
 30
0.0
  0
VERTEX
  5
810
  8
LAYER01
  6
CONTINUOUS
 62
     7
 10
1705.3359969999999
 20
169.125764
 30
0.0
  0
VERTEX
  5
811
  8
LAYER01
  6
CONTINUOUS
 62
     7
 10
1703.551772
 20
175.07317800000001
 30
0.0
  0
VERTEX
  5
812
  8
LAYER01
  6
CONTINUOUS
 62
     7
 10
1700.5780649999999
 20
180.42585
 30
0.0
  0
VERTEX
  5
813
  8
LAYER01
  6
CONTINUOUS
 62
     7
 10
1697.604358
 20
185.77852300000001
 30
0.0
  0
VERTEX
  5
814
  8
LAYER01
  6
CONTINUOUS
 62
     7
 10
1694.0359100000001
 20
191.13119599999999
 30
0.0
  0
VERTEX
  5
815
  8
LAYER01
  6
CONTINUOUS
 62
     7
 10
1689.8727200000001
 20
195.294386
 30
0.0
  0
VERTEX
  5
816
  8
LAYER01
  6
CONTINUOUS
 62
     7
 10
1685.114789
 20
199.45757599999999
 30
0.0
  0
VERTEX
  5
817
  8
LAYER01
  6
CONTINUOUS
 62
     7
 10
1680.356857
 20
203.62076500000001
 30
0.0
  0
VERTEX
  5
818
  8
LAYER01
  6
CONTINUOUS
 62
     7
 10
1675.004185
 20
206.59447299999999
 30
0.0
  0
VERTEX
  5
819
  8
LAYER01
  6
CONTINUOUS
 62
     7
 10
1669.6515119999999
 20
209.56818000000001
 30
0.0
  0
VERTEX
  5
81A
  8
LAYER01
  6
CONTINUOUS
 62
     7
 10
1663.7040979999999
 20
211.94714500000001
 30
0.0
  0
VERTEX
  5
81B
  8
LAYER01
  6
CONTINUOUS
 62
     7
 10
1657.756684
 20
213.73137
 30
0.0
  0
VERTEX
  5
81C
  8
LAYER01
  6
CONTINUOUS
 62
     7
 10
1651.214528
 20
214.920852
 30
0.0
  0
VERTEX
  5
81D
  8
LAYER01
  6
CONTINUOUS
 62
     7
 10
1644.672372
 20
215.51559399999999
 30
0.0
  0
VERTEX
  5
81E
  8
LAYER01
  6
CONTINUOUS
 62
     7
 10
1644.672372
 20
215.51559399999999
 30
0.0
  0
SEQEND
  5
81F
  8
LAYER01
  6
CONTINUOUS
 62
     7
  0
POLYLINE
  5
346
  8
LAYER01
  6
CONTINUOUS
 62
     7
 66
     1
 10
0.0
 20
0.0
 30
0.0
 70
     1
  0
VERTEX
  5
820
  8
LAYER01
  6
CONTINUOUS
 62
     7
 10
1642.888148
 20
105.488432
 30
0.0
  0
VERTEX
  5
821
  8
LAYER01
  6
CONTINUOUS
 62
     7
 10
1642.888148
 20
105.488432
 30
0.0
  0
VERTEX
  5
822
  8
LAYER01
  6
CONTINUOUS
 62
     7
 10
1638.724958
 20
106.083174
 30
0.0
  0
VERTEX
  5
823
  8
LAYER01
  6
CONTINUOUS
 62
     7
 10
1634.561768
 20
106.677915
 30
0.0
  0
VERTEX
  5
824
  8
LAYER01
  6
CONTINUOUS
 62
     7
 10
1630.3985789999999
 20
107.272657
 30
0.0
  0
VERTEX
  5
825
  8
LAYER01
  6
CONTINUOUS
 62
     7
 10
1626.2353889999999
 20
109.056881
 30
0.0
  0
VERTEX
  5
826
  8
LAYER01
  6
CONTINUOUS
 62
     7
 10
1622.6669400000001
 20
110.841105
 30
0.0
  0
VERTEX
  5
827
  8
LAYER01
  6
CONTINUOUS
 62
     7
 10
1619.0984920000001
 20
113.220071
 30
0.0
  0
VERTEX
  5
828
  8
LAYER01
  6
CONTINUOUS
 62
     7
 10
1616.124785
 20
115.599036
 30
0.0
  0
VERTEX
  5
829
  8
LAYER01
  6
CONTINUOUS
 62
     7
 10
1613.1510780000001
 20
118.572744
 30
0.0
  0
VERTEX
  5
82A
  8
LAYER01
  6
CONTINUOUS
 62
     7
 10
1610.177371
 20
121.546451
 30
0.0
  0
VERTEX
  5
82B
  8
LAYER01
  6
CONTINUOUS
 62
     7
 10
1607.798405
 20
124.520158
 30
0.0
  0
VERTEX
  5
82C
  8
LAYER01
  6
CONTINUOUS
 62
     7
 10
1606.014181
 20
128.088606
 30
0.0
  0
VERTEX
  5
82D
  8
LAYER01
  6
CONTINUOUS
 62
     7
 10
1604.2299559999999
 20
132.25179600000001
 30
0.0
  0
VERTEX
  5
82E
  8
LAYER01
  6
CONTINUOUS
 62
     7
 10
1602.4457319999999
 20
135.820244
 30
0.0
  0
VERTEX
  5
82F
  8
LAYER01
  6
CONTINUOUS
 62
     7
 10
1601.850991
 20
139.98343399999999
 30
0.0
  0
VERTEX
  5
830
  8
LAYER01
  6
CONTINUOUS
 62
     7
 10
1600.6615079999999
 20
144.146624
 30
0.0
  0
VERTEX
  5
831
  8
LAYER01
  6
CONTINUOUS
 62
     7
 10
1600.6615079999999
 20
148.90455600000001
 30
0.0
  0
VERTEX
  5
832
  8
LAYER01
  6
CONTINUOUS
 62
     7
 10
1600.6615079999999
 20
148.90455600000001
 30
0.0
  0
VERTEX
  5
833
  8
LAYER01
  6
CONTINUOUS
 62
     7
 10
1601.256249
 20
153.067745
 30
0.0
  0
VERTEX
  5
834
  8
LAYER01
  6
CONTINUOUS
 62
     7
 10
1601.850991
 20
157.23093499999999
 30
0.0
  0
VERTEX
  5
835
  8
LAYER01
  6
CONTINUOUS
 62
     7
 10
1603.0404739999999
 20
161.394125
 30
0.0
  0
VERTEX
  5
836
  8
LAYER01
  6
CONTINUOUS
 62
     7
 10
1604.2299559999999
 20
165.55731499999999
 30
0.0
  0
VERTEX
  5
837
  8
LAYER01
  6
CONTINUOUS
 62
     7
 10
1606.014181
 20
169.125764
 30
0.0
  0
VERTEX
  5
838
  8
LAYER01
  6
CONTINUOUS
 62
     7
 10
1608.3931459999999
 20
172.69421199999999
 30
0.0
  0
VERTEX
  5
839
  8
LAYER01
  6
CONTINUOUS
 62
     7
 10
1610.7721120000001
 20
175.66791900000001
 30
0.0
  0
VERTEX
  5
83A
  8
LAYER01
  6
CONTINUOUS
 62
     7
 10
1613.745819
 20
178.641626
 30
0.0
  0
VERTEX
  5
83B
  8
LAYER01
  6
CONTINUOUS
 62
     7
 10
1616.7195260000001
 20
181.61533299999999
 30
0.0
  0
VERTEX
  5
83C
  8
LAYER01
  6
CONTINUOUS
 62
     7
 10
1619.693233
 20
183.99429900000001
 30
0.0
  0
VERTEX
  5
83D
  8
LAYER01
  6
CONTINUOUS
 62
     7
 10
1623.2616820000001
 20
186.373265
 30
0.0
  0
VERTEX
  5
83E
  8
LAYER01
  6
CONTINUOUS
 62
     7
 10
1627.4248720000001
 20
188.157489
 30
0.0
  0
VERTEX
  5
83F
  8
LAYER01
  6
CONTINUOUS
 62
     7
 10
1630.99332
 20
189.34697199999999
 30
0.0
  0
VERTEX
  5
840
  8
LAYER01
  6
CONTINUOUS
 62
     7
 10
1635.15651
 20
190.53645399999999
 30
0.0
  0
VERTEX
  5
841
  8
LAYER01
  6
CONTINUOUS
 62
     7
 10
1639.3197
 20
191.13119599999999
 30
0.0
  0
VERTEX
  5
842
  8
LAYER01
  6
CONTINUOUS
 62
     7
 10
1644.0776310000001
 20
191.13119599999999
 30
0.0
  0
VERTEX
  5
843
  8
LAYER01
  6
CONTINUOUS
 62
     7
 10
1644.0776310000001
 20
191.13119599999999
 30
0.0
  0
VERTEX
  5
844
  8
LAYER01
  6
CONTINUOUS
 62
     7
 10
1648.2408210000001
 20
190.53645399999999
 30
0.0
  0
VERTEX
  5
845
  8
LAYER01
  6
CONTINUOUS
 62
     7
 10
1652.4040109999989
 20
189.94171299999999
 30
0.0
  0
VERTEX
  5
846
  8
LAYER01
  6
CONTINUOUS
 62
     7
 10
1655.9724590000001
 20
188.75223
 30
0.0
  0
VERTEX
  5
847
  8
LAYER01
  6
CONTINUOUS
 62
     7
 10
1660.1356490000001
 20
187.562747
 30
0.0
  0
VERTEX
  5
848
  8
LAYER01
  6
CONTINUOUS
 62
     7
 10
1663.1093559999999
 20
185.77852300000001
 30
0.0
  0
VERTEX
  5
849
  8
LAYER01
  6
CONTINUOUS
 62
     7
 10
1666.677805
 20
183.39955699999999
 30
0.0
  0
VERTEX
  5
84A
  8
LAYER01
  6
CONTINUOUS
 62
     7
 10
1669.6515119999999
 20
181.02059199999999
 30
0.0
  0
VERTEX
  5
84B
  8
LAYER01
  6
CONTINUOUS
 62
     7
 10
1672.625219
 20
178.641626
 30
0.0
  0
VERTEX
  5
84C
  8
LAYER01
  6
CONTINUOUS
 62
     7
 10
1675.004185
 20
175.66791900000001
 30
0.0
  0
VERTEX
  5
84D
  8
LAYER01
  6
CONTINUOUS
 62
     7
 10
1677.3831499999999
 20
172.09947099999999
 30
0.0
  0
VERTEX
  5
84E
  8
LAYER01
  6
CONTINUOUS
 62
     7
 10
1679.7621160000001
 20
169.125764
 30
0.0
  0
VERTEX
  5
84F
  8
LAYER01
  6
CONTINUOUS
 62
     7
 10
1681.5463400000001
 20
165.55731499999999
 30
0.0
  0
VERTEX
  5
850
  8
LAYER01
  6
CONTINUOUS
 62
     7
 10
1682.735823
 20
161.394125
 30
0.0
  0
VERTEX
  5
851
  8
LAYER01
  6
CONTINUOUS
 62
     7
 10
1683.9253060000001
 20
157.82567700000001
 30
0.0
  0
VERTEX
  5
852
  8
LAYER01
  6
CONTINUOUS
 62
     7
 10
1684.520047
 20
153.662487
 30
0.0
  0
VERTEX
  5
853
  8
LAYER01
  6
CONTINUOUS
 62
     7
 10
1684.520047
 20
149.49929700000001
 30
0.0
  0
VERTEX
  5
854
  8
LAYER01
  6
CONTINUOUS
 62
     7
 10
1684.520047
 20
149.49929700000001
 30
0.0
  0
VERTEX
  5
855
  8
LAYER01
  6
CONTINUOUS
 62
     7
 10
1684.520047
 20
144.741366
 30
0.0
  0
VERTEX
  5
856
  8
LAYER01
  6
CONTINUOUS
 62
     7
 10
1683.9253060000001
 20
140.57817600000001
 30
0.0
  0
VERTEX
  5
857
  8
LAYER01
  6
CONTINUOUS
 62
     7
 10
1683.3305640000001
 20
136.414986
 30
0.0
  0
VERTEX
  5
858
  8
LAYER01
  6
CONTINUOUS
 62
     7
 10
1681.5463400000001
 20
132.84653700000001
 30
0.0
  0
VERTEX
  5
859
  8
LAYER01
  6
CONTINUOUS
 62
     7
 10
1680.356857
 20
128.683348
 30
0.0
  0
VERTEX
  5
85A
  8
LAYER01
  6
CONTINUOUS
 62
     7
 10
1677.9778920000001
 20
125.11489899999999
 30
0.0
  0
VERTEX
  5
85B
  8
LAYER01
  6
CONTINUOUS
 62
     7
 10
1675.5989259999999
 20
121.546451
 30
0.0
  0
VERTEX
  5
85C
  8
LAYER01
  6
CONTINUOUS
 62
     7
 10
1672.625219
 20
118.572744
 30
0.0
  0
VERTEX
  5
85D
  8
LAYER01
  6
CONTINUOUS
 62
     7
 10
1669.6515119999999
 20
115.599036
 30
0.0
  0
VERTEX
  5
85E
  8
LAYER01
  6
CONTINUOUS
 62
     7
 10
1666.677805
 20
113.220071
 30
0.0
  0
VERTEX
  5
85F
  8
LAYER01
  6
CONTINUOUS
 62
     7
 10
1663.1093559999999
 20
110.841105
 30
0.0
  0
VERTEX
  5
860
  8
LAYER01
  6
CONTINUOUS
 62
     7
 10
1659.5409079999999
 20
109.056881
 30
0.0
  0
VERTEX
  5
861
  8
LAYER01
  6
CONTINUOUS
 62
     7
 10
1655.377718
 20
107.86739799999999
 30
0.0
  0
VERTEX
  5
862
  8
LAYER01
  6
CONTINUOUS
 62
     7
 10
1651.214528
 20
106.677915
 30
0.0
  0
VERTEX
  5
863
  8
LAYER01
  6
CONTINUOUS
 62
     7
 10
1647.051338
 20
106.083174
 30
0.0
  0
VERTEX
  5
864
  8
LAYER01
  6
CONTINUOUS
 62
     7
 10
1642.888148
 20
105.488432
 30
0.0
  0
VERTEX
  5
865
  8
LAYER01
  6
CONTINUOUS
 62
     7
 10
1642.888148
 20
105.488432
 30
0.0
  0
SEQEND
  5
866
  8
LAYER01
  6
CONTINUOUS
 62
     7
  0
POLYLINE
  5
38E
  8
LAYER01
  6
CONTINUOUS
 62
     7
 66
     1
 10
0.0
 20
0.0
 30
0.0
 70
     1
  0
VERTEX
  5
867
  8
LAYER01
  6
CONTINUOUS
 62
     7
 10
1690.467461
 20
212.541887
 30
0.0
  0
VERTEX
  5
868
  8
LAYER01
  6
CONTINUOUS
 62
     7
 10
1753.510051
 20
212.541887
 30
0.0
  0
VERTEX
  5
869
  8
LAYER01
  6
CONTINUOUS
 62
     7
 10
1753.510051
 20
212.541887
 30
0.0
  0
VERTEX
  5
86A
  8
LAYER01
  6
CONTINUOUS
 62
     7
 10
1760.6469480000001
 20
211.35240400000001
 30
0.0
  0
VERTEX
  5
86B
  8
LAYER01
  6
CONTINUOUS
 62
     7
 10
1767.1891029999999
 20
208.37869699999999
 30
0.0
  0
VERTEX
  5
86C
  8
LAYER01
  6
CONTINUOUS
 62
     7
 10
1772.541776
 20
204.810248
 30
0.0
  0
VERTEX
  5
86D
  8
LAYER01
  6
CONTINUOUS
 62
     7
 10
1777.2997069999999
 20
200.05231699999999
 30
0.0
  0
VERTEX
  5
86E
  8
LAYER01
  6
CONTINUOUS
 62
     7
 10
1781.4628970000001
 20
195.294386
 30
0.0
  0
VERTEX
  5
86F
  8
LAYER01
  6
CONTINUOUS
 62
     7
 10
1784.436604
 20
189.34697199999999
 30
0.0
  0
VERTEX
  5
870
  8
LAYER01
  6
CONTINUOUS
 62
     7
 10
1786.2208290000001
 20
182.21007499999999
 30
0.0
  0
VERTEX
  5
871
  8
LAYER01
  6
CONTINUOUS
 62
     7
 10
1786.81557
 20
175.66791900000001
 30
0.0
  0
VERTEX
  5
872
  8
LAYER01
  6
CONTINUOUS
 62
     7
 10
1786.81557
 20
175.66791900000001
 30
0.0
  0
VERTEX
  5
873
  8
LAYER01
  6
CONTINUOUS
 62
     7
 10
1786.2208290000001
 20
168.53102200000001
 30
0.0
  0
VERTEX
  5
874
  8
LAYER01
  6
CONTINUOUS
 62
     7
 10
1785.031346
 20
162.583608
 30
0.0
  0
VERTEX
  5
875
  8
LAYER01
  6
CONTINUOUS
 62
     7
 10
1782.65238
 20
156.63619399999999
 30
0.0
  0
VERTEX
  5
876
  8
LAYER01
  6
CONTINUOUS
 62
     7
 10
1779.6786729999999
 20
151.28352100000001
 30
0.0
  0
VERTEX
  5
877
  8
LAYER01
  6
CONTINUOUS
 62
     7
 10
1775.5154829999999
 20
146.52558999999999
 30
0.0
  0
VERTEX
  5
878
  8
LAYER01
  6
CONTINUOUS
 62
     7
 10
1771.3522929999999
 20
142.95714100000001
 30
0.0
  0
VERTEX
  5
879
  8
LAYER01
  6
CONTINUOUS
 62
     7
 10
1765.4048789999999
 20
139.38869299999999
 30
0.0
  0
VERTEX
  5
87A
  8
LAYER01
  6
CONTINUOUS
 62
     7
 10
1759.457465
 20
137.009727
 30
0.0
  0
VERTEX
  5
87B
  8
LAYER01
  6
CONTINUOUS
 62
     7
 10
1798.1156570000001
 20
85.267223999999999
 30
0.0
  0
VERTEX
  5
87C
  8
LAYER01
  6
CONTINUOUS
 62
     7
 10
1768.378586
 20
85.267223999999999
 30
0.0
  0
VERTEX
  5
87D
  8
LAYER01
  6
CONTINUOUS
 62
     7
 10
1716.6360830000001
 20
151.28352100000001
 30
0.0
  0
VERTEX
  5
87E
  8
LAYER01
  6
CONTINUOUS
 62
     7
 10
1745.778413
 20
151.28352100000001
 30
0.0
  0
VERTEX
  5
87F
  8
LAYER01
  6
CONTINUOUS
 62
     7
 10
1745.778413
 20
151.28352100000001
 30
0.0
  0
VERTEX
  5
880
  8
LAYER01
  6
CONTINUOUS
 62
     7
 10
1749.346861
 20
152.473004
 30
0.0
  0
VERTEX
  5
881
  8
LAYER01
  6
CONTINUOUS
 62
     7
 10
1752.3205680000001
 20
153.662487
 30
0.0
  0
VERTEX
  5
882
  8
LAYER01
  6
CONTINUOUS
 62
     7
 10
1754.6995340000001
 20
156.04145299999999
 30
0.0
  0
VERTEX
  5
883
  8
LAYER01
  6
CONTINUOUS
 62
     7
 10
1757.0784989999991
 20
158.42041800000001
 30
0.0
  0
VERTEX
  5
884
  8
LAYER01
  6
CONTINUOUS
 62
     7
 10
1758.8627240000001
 20
161.394125
 30
0.0
  0
VERTEX
  5
885
  8
LAYER01
  6
CONTINUOUS
 62
     7
 10
1760.6469480000001
 20
164.36783199999999
 30
0.0
  0
VERTEX
  5
886
  8
LAYER01
  6
CONTINUOUS
 62
     7
 10
1761.241689
 20
167.93628100000001
 30
0.0
  0
VERTEX
  5
887
  8
LAYER01
  6
CONTINUOUS
 62
     7
 10
1761.241689
 20
171.504729
 30
0.0
  0
VERTEX
  5
888
  8
LAYER01
  6
CONTINUOUS
 62
     7
 10
1761.241689
 20
171.504729
 30
0.0
  0
VERTEX
  5
889
  8
LAYER01
  6
CONTINUOUS
 62
     7
 10
1761.241689
 20
175.07317800000001
 30
0.0
  0
VERTEX
  5
88A
  8
LAYER01
  6
CONTINUOUS
 62
     7
 10
1760.0522060000001
 20
178.046885
 30
0.0
  0
VERTEX
  5
88B
  8
LAYER01
  6
CONTINUOUS
 62
     7
 10
1758.8627240000001
 20
181.02059199999999
 30
0.0
  0
VERTEX
  5
88C
  8
LAYER01
  6
CONTINUOUS
 62
     7
 10
1757.0784989999991
 20
183.99429900000001
 30
0.0
  0
VERTEX
  5
88D
  8
LAYER01
  6
CONTINUOUS
 62
     7
 10
1754.6995340000001
 20
186.373265
 30
0.0
  0
VERTEX
  5
88E
  8
LAYER01
  6
CONTINUOUS
 62
     7
 10
1752.3205680000001
 20
188.157489
 30
0.0
  0
VERTEX
  5
88F
  8
LAYER01
  6
CONTINUOUS
 62
     7
 10
1748.7521200000001
 20
189.94171299999999
 30
0.0
  0
VERTEX
  5
890
  8
LAYER01
  6
CONTINUOUS
 62
     7
 10
1745.778413
 20
191.13119599999999
 30
0.0
  0
VERTEX
  5
891
  8
LAYER01
  6
CONTINUOUS
 62
     7
 10
1711.878152
 20
191.13119599999999
 30
0.0
  0
VERTEX
  5
892
  8
LAYER01
  6
CONTINUOUS
 62
     7
 10
1690.467461
 20
212.541887
 30
0.0
  0
VERTEX
  5
893
  8
LAYER01
  6
CONTINUOUS
 62
     7
 10
1690.467461
 20
212.541887
 30
0.0
  0
SEQEND
  5
894
  8
LAYER01
  6
CONTINUOUS
 62
     7
  0
POLYLINE
  5
3BD
  8
LAYER01
  6
CONTINUOUS
 62
     7
 66
     1
 10
0.0
 20
0.0
 30
0.0
 70
     1
  0
VERTEX
  5
895
  8
LAYER01
  6
CONTINUOUS
 62
     7
 10
1814.173675
 20
181.02059199999999
 30
0.0
  0
VERTEX
  5
896
  8
LAYER01
  6
CONTINUOUS
 62
     7
 10
1814.173675
 20
181.02059199999999
 30
0.0
  0
VERTEX
  5
897
  8
LAYER01
  6
CONTINUOUS
 62
     7
 10
1817.1473820000001
 20
181.61533299999999
 30
0.0
  0
VERTEX
  5
898
  8
LAYER01
  6
CONTINUOUS
 62
     7
 10
1820.121089
 20
182.21007499999999
 30
0.0
  0
VERTEX
  5
899
  8
LAYER01
  6
CONTINUOUS
 62
     7
 10
1823.0947960000001
 20
183.99429900000001
 30
0.0
  0
VERTEX
  5
89A
  8
LAYER01
  6
CONTINUOUS
 62
     7
 10
1825.4737620000001
 20
185.77852300000001
 30
0.0
  0
VERTEX
  5
89B
  8
LAYER01
  6
CONTINUOUS
 62
     7
 10
1827.2579860000001
 20
188.157489
 30
0.0
  0
VERTEX
  5
89C
  8
LAYER01
  6
CONTINUOUS
 62
     7
 10
1828.447469
 20
190.53645399999999
 30
0.0
  0
VERTEX
  5
89D
  8
LAYER01
  6
CONTINUOUS
 62
     7
 10
1829.6369520000001
 20
193.51016100000001
 30
0.0
  0
VERTEX
  5
89E
  8
LAYER01
  6
CONTINUOUS
 62
     7
 10
1829.6369520000001
 20
197.07861
 30
0.0
  0
VERTEX
  5
89F
  8
LAYER01
  6
CONTINUOUS
 62
     7
 10
1829.6369520000001
 20
197.07861
 30
0.0
  0
VERTEX
  5
8A0
  8
LAYER01
  6
CONTINUOUS
 62
     7
 10
1829.6369520000001
 20
200.05231699999999
 30
0.0
  0
VERTEX
  5
8A1
  8
LAYER01
  6
CONTINUOUS
 62
     7
 10
1828.447469
 20
203.02602400000001
 30
0.0
  0
VERTEX
  5
8A2
  8
LAYER01
  6
CONTINUOUS
 62
     7
 10
1827.2579860000001
 20
205.40499
 30
0.0
  0
VERTEX
  5
8A3
  8
LAYER01
  6
CONTINUOUS
 62
     7
 10
1825.4737620000001
 20
207.78395499999999
 30
0.0
  0
VERTEX
  5
8A4
  8
LAYER01
  6
CONTINUOUS
 62
     7
 10
1823.0947960000001
 20
209.56818000000001
 30
0.0
  0
VERTEX
  5
8A5
  8
LAYER01
  6
CONTINUOUS
 62
     7
 10
1820.121089
 20
211.35240400000001
 30
0.0
  0
VERTEX
  5
8A6
  8
LAYER01
  6
CONTINUOUS
 62
     7
 10
1817.1473820000001
 20
211.94714500000001
 30
0.0
  0
VERTEX
  5
8A7
  8
LAYER01
  6
CONTINUOUS
 62
     7
 10
1814.173675
 20
212.541887
 30
0.0
  0
VERTEX
  5
8A8
  8
LAYER01
  6
CONTINUOUS
 62
     7
 10
1814.173675
 20
212.541887
 30
0.0
  0
VERTEX
  5
8A9
  8
LAYER01
  6
CONTINUOUS
 62
     7
 10
1811.1999679999999
 20
211.94714500000001
 30
0.0
  0
VERTEX
  5
8AA
  8
LAYER01
  6
CONTINUOUS
 62
     7
 10
1808.226261
 20
211.35240400000001
 30
0.0
  0
VERTEX
  5
8AB
  8
LAYER01
  6
CONTINUOUS
 62
     7
 10
1805.2525539999999
 20
209.56818000000001
 30
0.0
  0
VERTEX
  5
8AC
  8
LAYER01
  6
CONTINUOUS
 62
     7
 10
1802.8735879999999
 20
207.78395499999999
 30
0.0
  0
VERTEX
  5
8AD
  8
LAYER01
  6
CONTINUOUS
 62
     7
 10
1801.0893639999999
 20
205.40499
 30
0.0
  0
VERTEX
  5
8AE
  8
LAYER01
  6
CONTINUOUS
 62
     7
 10
1799.8998810000001
 20
203.02602400000001
 30
0.0
  0
VERTEX
  5
8AF
  8
LAYER01
  6
CONTINUOUS
 62
     7
 10
1798.7103979999999
 20
200.05231699999999
 30
0.0
  0
VERTEX
  5
8B0
  8
LAYER01
  6
CONTINUOUS
 62
     7
 10
1798.7103979999999
 20
197.07861
 30
0.0
  0
VERTEX
  5
8B1
  8
LAYER01
  6
CONTINUOUS
 62
     7
 10
1798.7103979999999
 20
197.07861
 30
0.0
  0
VERTEX
  5
8B2
  8
LAYER01
  6
CONTINUOUS
 62
     7
 10
1798.7103979999999
 20
193.51016100000001
 30
0.0
  0
VERTEX
  5
8B3
  8
LAYER01
  6
CONTINUOUS
 62
     7
 10
1799.8998810000001
 20
190.53645399999999
 30
0.0
  0
VERTEX
  5
8B4
  8
LAYER01
  6
CONTINUOUS
 62
     7
 10
1801.0893639999999
 20
188.157489
 30
0.0
  0
VERTEX
  5
8B5
  8
LAYER01
  6
CONTINUOUS
 62
     7
 10
1802.8735879999999
 20
185.77852300000001
 30
0.0
  0
VERTEX
  5
8B6
  8
LAYER01
  6
CONTINUOUS
 62
     7
 10
1805.2525539999999
 20
183.99429900000001
 30
0.0
  0
VERTEX
  5
8B7
  8
LAYER01
  6
CONTINUOUS
 62
     7
 10
1808.226261
 20
182.21007499999999
 30
0.0
  0
VERTEX
  5
8B8
  8
LAYER01
  6
CONTINUOUS
 62
     7
 10
1811.1999679999999
 20
181.61533299999999
 30
0.0
  0
VERTEX
  5
8B9
  8
LAYER01
  6
CONTINUOUS
 62
     7
 10
1814.173675
 20
181.02059199999999
 30
0.0
  0
VERTEX
  5
8BA
  8
LAYER01
  6
CONTINUOUS
 62
     7
 10
1814.173675
 20
181.02059199999999
 30
0.0
  0
SEQEND
  5
8BB
  8
LAYER01
  6
CONTINUOUS
 62
     7
  0
POLYLINE
  5
3E5
  8
LAYER01
  6
CONTINUOUS
 62
     7
 66
     1
 10
0.0
 20
0.0
 30
0.0
 70
     1
  0
VERTEX
  5
8BC
  8
LAYER01
  6
CONTINUOUS
 62
     7
 10
1814.173675
 20
210.16292100000001
 30
0.0
  0
VERTEX
  5
8BD
  8
LAYER01
  6
CONTINUOUS
 62
     7
 10
1814.173675
 20
210.16292100000001
 30
0.0
  0
VERTEX
  5
8BE
  8
LAYER01
  6
CONTINUOUS
 62
     7
 10
1816.552641
 20
209.56818000000001
 30
0.0
  0
VERTEX
  5
8BF
  8
LAYER01
  6
CONTINUOUS
 62
     7
 10
1818.9316060000001
 20
208.97343799999999
 30
0.0
  0
VERTEX
  5
8C0
  8
LAYER01
  6
CONTINUOUS
 62
     7
 10
1821.310571999999
 20
207.78395499999999
 30
0.0
  0
VERTEX
  5
8C1
  8
LAYER01
  6
CONTINUOUS
 62
     7
 10
1823.0947960000001
 20
205.999731
 30
0.0
  0
VERTEX
  5
8C2
  8
LAYER01
  6
CONTINUOUS
 62
     7
 10
1824.8790200000001
 20
204.215507
 30
0.0
  0
VERTEX
  5
8C3
  8
LAYER01
  6
CONTINUOUS
 62
     7
 10
1826.068503
 20
201.83654100000001
 30
0.0
  0
VERTEX
  5
8C4
  8
LAYER01
  6
CONTINUOUS
 62
     7
 10
1827.2579860000001
 20
199.45757599999999
 30
0.0
  0
VERTEX
  5
8C5
  8
LAYER01
  6
CONTINUOUS
 62
     7
 10
1827.2579860000001
 20
197.07861
 30
0.0
  0
VERTEX
  5
8C6
  8
LAYER01
  6
CONTINUOUS
 62
     7
 10
1827.2579860000001
 20
197.07861
 30
0.0
  0
VERTEX
  5
8C7
  8
LAYER01
  6
CONTINUOUS
 62
     7
 10
1827.2579860000001
 20
194.10490300000001
 30
0.0
  0
VERTEX
  5
8C8
  8
LAYER01
  6
CONTINUOUS
 62
     7
 10
1826.068503
 20
191.72593699999999
 30
0.0
  0
VERTEX
  5
8C9
  8
LAYER01
  6
CONTINUOUS
 62
     7
 10
1824.8790200000001
 20
189.34697199999999
 30
0.0
  0
VERTEX
  5
8CA
  8
LAYER01
  6
CONTINUOUS
 62
     7
 10
1823.0947960000001
 20
187.562747
 30
0.0
  0
VERTEX
  5
8CB
  8
LAYER01
  6
CONTINUOUS
 62
     7
 10
1821.310571999999
 20
185.77852300000001
 30
0.0
  0
VERTEX
  5
8CC
  8
LAYER01
  6
CONTINUOUS
 62
     7
 10
1818.9316060000001
 20
184.58904000000001
 30
0.0
  0
VERTEX
  5
8CD
  8
LAYER01
  6
CONTINUOUS
 62
     7
 10
1816.552641
 20
183.99429900000001
 30
0.0
  0
VERTEX
  5
8CE
  8
LAYER01
  6
CONTINUOUS
 62
     7
 10
1814.173675
 20
183.99429900000001
 30
0.0
  0
VERTEX
  5
8CF
  8
LAYER01
  6
CONTINUOUS
 62
     7
 10
1814.173675
 20
183.99429900000001
 30
0.0
  0
VERTEX
  5
8D0
  8
LAYER01
  6
CONTINUOUS
 62
     7
 10
1811.794709
 20
183.99429900000001
 30
0.0
  0
VERTEX
  5
8D1
  8
LAYER01
  6
CONTINUOUS
 62
     7
 10
1808.8210019999999
 20
184.58904000000001
 30
0.0
  0
VERTEX
  5
8D2
  8
LAYER01
  6
CONTINUOUS
 62
     7
 10
1807.0367779999999
 20
185.77852300000001
 30
0.0
  0
VERTEX
  5
8D3
  8
LAYER01
  6
CONTINUOUS
 62
     7
 10
1804.6578119999999
 20
187.562747
 30
0.0
  0
VERTEX
  5
8D4
  8
LAYER01
  6
CONTINUOUS
 62
     7
 10
1803.4683299999999
 20
189.34697199999999
 30
0.0
  0
VERTEX
  5
8D5
  8
LAYER01
  6
CONTINUOUS
 62
     7
 10
1802.278847
 20
191.72593699999999
 30
0.0
  0
VERTEX
  5
8D6
  8
LAYER01
  6
CONTINUOUS
 62
     7
 10
1801.0893639999999
 20
194.10490300000001
 30
0.0
  0
VERTEX
  5
8D7
  8
LAYER01
  6
CONTINUOUS
 62
     7
 10
1801.0893639999999
 20
197.07861
 30
0.0
  0
VERTEX
  5
8D8
  8
LAYER01
  6
CONTINUOUS
 62
     7
 10
1801.0893639999999
 20
197.07861
 30
0.0
  0
VERTEX
  5
8D9
  8
LAYER01
  6
CONTINUOUS
 62
     7
 10
1801.0893639999999
 20
199.45757599999999
 30
0.0
  0
VERTEX
  5
8DA
  8
LAYER01
  6
CONTINUOUS
 62
     7
 10
1802.278847
 20
201.83654100000001
 30
0.0
  0
VERTEX
  5
8DB
  8
LAYER01
  6
CONTINUOUS
 62
     7
 10
1803.4683299999999
 20
204.215507
 30
0.0
  0
VERTEX
  5
8DC
  8
LAYER01
  6
CONTINUOUS
 62
     7
 10
1804.6578119999999
 20
205.999731
 30
0.0
  0
VERTEX
  5
8DD
  8
LAYER01
  6
CONTINUOUS
 62
     7
 10
1807.0367779999999
 20
207.78395499999999
 30
0.0
  0
VERTEX
  5
8DE
  8
LAYER01
  6
CONTINUOUS
 62
     7
 10
1808.8210019999999
 20
208.97343799999999
 30
0.0
  0
VERTEX
  5
8DF
  8
LAYER01
  6
CONTINUOUS
 62
     7
 10
1811.794709
 20
209.56818000000001
 30
0.0
  0
VERTEX
  5
8E0
  8
LAYER01
  6
CONTINUOUS
 62
     7
 10
1814.173675
 20
210.16292100000001
 30
0.0
  0
VERTEX
  5
8E1
  8
LAYER01
  6
CONTINUOUS
 62
     7
 10
1814.173675
 20
210.16292100000001
 30
0.0
  0
SEQEND
  5
8E2
  8
LAYER01
  6
CONTINUOUS
 62
     7
  0
POLYLINE
  5
40D
  8
LAYER01
  6
CONTINUOUS
 62
     7
 66
     1
 10
0.0
 20
0.0
 30
0.0
 70
     1
  0
VERTEX
  5
8E3
  8
LAYER01
  6
CONTINUOUS
 62
     7
 10
1816.552641
 20
195.889127
 30
0.0
  0
VERTEX
  5
8E4
  8
LAYER01
  6
CONTINUOUS
 62
     7
 10
1816.552641
 20
195.889127
 30
0.0
  0
VERTEX
  5
8E5
  8
LAYER01
  6
CONTINUOUS
 62
     7
 10
1818.336865
 20
196.483869
 30
0.0
  0
VERTEX
  5
8E6
  8
LAYER01
  6
CONTINUOUS
 62
     7
 10
1820.121089
 20
197.07861
 30
0.0
  0
VERTEX
  5
8E7
  8
LAYER01
  6
CONTINUOUS
 62
     7
 10
1821.310571999999
 20
198.86283399999999
 30
0.0
  0
VERTEX
  5
8E8
  8
LAYER01
  6
CONTINUOUS
 62
     7
 10
1821.310571999999
 20
200.64705799999999
 30
0.0
  0
VERTEX
  5
8E9
  8
LAYER01
  6
CONTINUOUS
 62
     7
 10
1821.310571999999
 20
200.64705799999999
 30
0.0
  0
VERTEX
  5
8EA
  8
LAYER01
  6
CONTINUOUS
 62
     7
 10
1821.310571999999
 20
203.02602400000001
 30
0.0
  0
VERTEX
  5
8EB
  8
LAYER01
  6
CONTINUOUS
 62
     7
 10
1819.5263480000001
 20
204.810248
 30
0.0
  0
VERTEX
  5
8EC
  8
LAYER01
  6
CONTINUOUS
 62
     7
 10
1817.742123
 20
205.40499
 30
0.0
  0
VERTEX
  5
8ED
  8
LAYER01
  6
CONTINUOUS
 62
     7
 10
1815.3631580000001
 20
205.40499
 30
0.0
  0
VERTEX
  5
8EE
  8
LAYER01
  6
CONTINUOUS
 62
     7
 10
1808.226261
 20
205.40499
 30
0.0
  0
VERTEX
  5
8EF
  8
LAYER01
  6
CONTINUOUS
 62
     7
 10
1808.226261
 20
188.157489
 30
0.0
  0
VERTEX
  5
8F0
  8
LAYER01
  6
CONTINUOUS
 62
     7
 10
1810.605227
 20
188.157489
 30
0.0
  0
VERTEX
  5
8F1
  8
LAYER01
  6
CONTINUOUS
 62
     7
 10
1810.605227
 20
195.889127
 30
0.0
  0
VERTEX
  5
8F2
  8
LAYER01
  6
CONTINUOUS
 62
     7
 10
1814.173675
 20
195.889127
 30
0.0
  0
VERTEX
  5
8F3
  8
LAYER01
  6
CONTINUOUS
 62
     7
 10
1818.336865
 20
188.157489
 30
0.0
  0
VERTEX
  5
8F4
  8
LAYER01
  6
CONTINUOUS
 62
     7
 10
1821.310571999999
 20
188.157489
 30
0.0
  0
VERTEX
  5
8F5
  8
LAYER01
  6
CONTINUOUS
 62
     7
 10
1816.552641
 20
195.889127
 30
0.0
  0
VERTEX
  5
8F6
  8
LAYER01
  6
CONTINUOUS
 62
     7
 10
1816.552641
 20
195.889127
 30
0.0
  0
SEQEND
  5
8F7
  8
LAYER01
  6
CONTINUOUS
 62
     7
  0
POLYLINE
  5
423
  8
LAYER01
  6
CONTINUOUS
 62
     7
 66
     1
 10
0.0
 20
0.0
 30
0.0
 70
     1
  0
VERTEX
  5
8F8
  8
LAYER01
  6
CONTINUOUS
 62
     7
 10
1814.7684159999999
 20
203.02602400000001
 30
0.0
  0
VERTEX
  5
8F9
  8
LAYER01
  6
CONTINUOUS
 62
     7
 10
1814.7684159999999
 20
203.02602400000001
 30
0.0
  0
VERTEX
  5
8FA
  8
LAYER01
  6
CONTINUOUS
 62
     7
 10
1817.742123
 20
202.43128300000001
 30
0.0
  0
VERTEX
  5
8FB
  8
LAYER01
  6
CONTINUOUS
 62
     7
 10
1818.9316060000001
 20
201.83654100000001
 30
0.0
  0
VERTEX
  5
8FC
  8
LAYER01
  6
CONTINUOUS
 62
     7
 10
1818.9316060000001
 20
200.64705799999999
 30
0.0
  0
VERTEX
  5
8FD
  8
LAYER01
  6
CONTINUOUS
 62
     7
 10
1818.9316060000001
 20
200.64705799999999
 30
0.0
  0
VERTEX
  5
8FE
  8
LAYER01
  6
CONTINUOUS
 62
     7
 10
1818.336865
 20
199.45757599999999
 30
0.0
  0
VERTEX
  5
8FF
  8
LAYER01
  6
CONTINUOUS
 62
     7
 10
1817.1473820000001
 20
198.86283399999999
 30
0.0
  0
VERTEX
  5
900
  8
LAYER01
  6
CONTINUOUS
 62
     7
 10
1813.5789339999999
 20
198.26809299999999
 30
0.0
  0
VERTEX
  5
901
  8
LAYER01
  6
CONTINUOUS
 62
     7
 10
1810.605227
 20
198.26809299999999
 30
0.0
  0
VERTEX
  5
902
  8
LAYER01
  6
CONTINUOUS
 62
     7
 10
1810.605227
 20
203.02602400000001
 30
0.0
  0
VERTEX
  5
903
  8
LAYER01
  6
CONTINUOUS
 62
     7
 10
1814.7684159999999
 20
203.02602400000001
 30
0.0
  0
VERTEX
  5
904
  8
LAYER01
  6
CONTINUOUS
 62
     7
 10
1814.7684159999999
 20
203.02602400000001
 30
0.0
  0
SEQEND
  5
905
  8
LAYER01
  6
CONTINUOUS
 62
     7
  0
ENDBLK
  5
432
  8
0
  0
BLOCK
  8
0
  2
*D16
 70
     1
 10
0.0
 20
0.0
 30
0.0
  3
*D16
  1

  0
LINE
  5
435
  8
LAYER01
 62
     7
 10
688.18300499999987
 20
783.66837099999987
 30
0.0
 11
688.18300499999987
 21
868.66837099999998
 31
0.0
  0
LINE
  5
436
  8
LAYER01
 62
     7
 10
626.52945699999998
 20
783.66837099999987
 30
0.0
 11
703.18300499999987
 21
783.66837099999987
 31
0.0
  0
LINE
  5
437
  8
LAYER01
 62
     7
 10
626.52945699999998
 20
868.66837099999998
 30
0.0
 11
703.18300499999987
 21
868.66837099999998
 31
0.0
  0
SOLID
  5
438
  8
LAYER01
 62
     7
 10
692.18284500000004
 20
807.66837099999987
 30
0.0
 11
688.18300499999987
 21
783.66837099999987
 31
0.0
 12
684.18316500000003
 22
807.66837099999987
 32
0.0
 13
684.18316500000003
 23
807.66837099999987
 33
0.0
  0
SOLID
  5
439
  8
LAYER01
 62
     7
 10
692.18284500000004
 20
844.66837099999998
 30
0.0
 11
688.18300499999987
 21
868.66837099999998
 31
0.0
 12
684.18316500000003
 22
844.66837099999998
 32
0.0
 13
684.18316500000003
 23
844.66837099999998
 33
0.0
  0
TEXT
  5
43A
  8
LAYER01
  6
CONTINUOUS
 62
     7
 10
673.18300499999998
 20
809.77040299999987
 30
0.0
 40
30.0
  1
85
 50
90.0
  0
POINT
  5
43B
  8
LAYER01
 62
     7
 10
614.52945699999987
 20
783.66837099999987
 30
0.0
  0
POINT
  5
43C
  8
LAYER01
 62
     7
 10
614.52945699999987
 20
868.66837099999998
 30
0.0
  0
POINT
  5
43D
  8
LAYER01
 62
     7
 10
688.18300499999987
 20
868.66837099999998
 30
0.0
  0
ENDBLK
  5
43E
  8
0
  0
ENDSEC
  0
SECTION
  2
ENTITIES
  0
POLYLINE
  5
43F
  8
LAYER01
  6
CONTINUOUS
 62
     7
 66
     1
 10
0.0
 20
0.0
 30
0.0
 70
     1
  0
VERTEX
  5
906
  8
LAYER01
  6
CONTINUOUS
 62
     7
 10
-1035.6449909999999
 20
-472.21176799999989
 30
0.0
  0
VERTEX
  5
907
  8
LAYER01
  6
CONTINUOUS
 62
     7
 10
-1035.6449909999999
 20
1385.3107680000001
 30
0.0
  0
VERTEX
  5
908
  8
LAYER01
  6
CONTINUOUS
 62
     7
 10
1943.446246
 20
1385.3107680000001
 30
0.0
  0
VERTEX
  5
909
  8
LAYER01
  6
CONTINUOUS
 62
     7
 10
1943.446246
 20
-472.21176799999989
 30
0.0
  0
SEQEND
  5
90A
  8
LAYER01
  6
CONTINUOUS
 62
     7
  0
LINE
  5
445
  8
LAYER01
  6
CONTINUOUS
 62
     7
 10
614.52945699999987
 20
468.66837099999992
 30
0.0
 11
-385.47054300000002
 21
468.66837099999992
 31
0.0
  0
LINE
  5
446
  8
LAYER01
  6
VERDECKT
 62
     7
 10
614.52945699999987
 20
480.66837099999992
 30
0.0
 11
-385.47054300000002
 21
480.66837099999992
 31
0.0
  0
LINE
  5
447
  8
LAYER01
  6
CONTINUOUS
 62
     7
 10
-385.47054300000002
 20
868.66837099999998
 30
0.0
 11
614.52945699999987
 21
868.66837099999998
 31
0.0
  0
LINE
  5
448
  8
LAYER01
  6
CONTINUOUS
 62
     7
 10
-385.47054300000002
 20
856.66837100000009
 30
0.0
 11
614.52945699999987
 21
856.66837100000009
 31
0.0
  0
DIMENSION
  5
449
  8
LAYER01
 62
     7
  2
*D0
 10
-385.47054300000002
 20
1068.848786
 30
0.0
 11
134.5708939999999
 21
1098.848786
 31
0.0
 13
614.52945699999987
 23
868.66837099999998
 33
0.0
 14
-385.47054300000002
 24
868.66837099999998
 34
0.0
  0
DIMENSION
  5
44A
  8
LAYER01
 62
     7
  2
*D1
 10
614.52945699999987
 20
969.09447899999986
 30
0.0
 11
386.30853000000002
 21
999.09447899999975
 31
0.0
 13
101.60676100000001
 23
868.66837099999998
 33
0.0
 14
614.52945699999987
 24
868.66837099999998
 34
0.0
  0
POLYLINE
  5
44B
  8
0
  6
CONTINUOUS
 62
     7
 66
     1
 10
0.0
 20
0.0
 30
0.0
  0
VERTEX
  5
90B
  8
0
  6
CONTINUOUS
 62
     7
 10
289.63668200000001
 20
-26.539341
 30
0.0
  0
VERTEX
  5
90C
  8
0
  6
CONTINUOUS
 62
     7
 10
303.39127400000001
 20
-25.335971000000001
 30
0.0
 42
0.373885
  0
VERTEX
  5
90D
  8
0
  6
CONTINUOUS
 62
     7
 10
312.506012
 20
-15.897383
 30
0.0
  0
VERTEX
  5
90E
  8
0
  6
CONTINUOUS
 62
     7
 10
316.40286300000002
 20
58.458962
 30
0.0
  0
SEQEND
  5
90F
  8
0
  6
CONTINUOUS
 62
     7
  0
POLYLINE
  5
451
  8
0
  6
CONTINUOUS
 62
     7
 66
     1
 10
0.0
 20
0.0
 30
0.0
  0
VERTEX
  5
910
  8
0
  6
CONTINUOUS
 62
     7
 10
290.17976299999998
 20
-48.662185000000001
 30
0.0
  0
VERTEX
  5
911
  8
0
  6
CONTINUOUS
 62
     7
 10
290.17976299999998
 20
-43.195171000000002
 30
0.0
 42
-0.385821
  0
VERTEX
  5
912
  8
0
  6
CONTINUOUS
 62
     7
 10
294.69104299999998
 20
-38.219113
 30
0.0
  0
VERTEX
  5
913
  8
0
  6
CONTINUOUS
 62
     7
 10
323.89158300000003
 20
-35.351203000000012
 30
0.0
 42
0.385821
  0
VERTEX
  5
914
  8
0
  6
CONTINUOUS
 62
     7
 10
328.40286300000002
 20
-30.375145
 30
0.0
  0
VERTEX
  5
915
  8
0
  6
CONTINUOUS
 62
     7
 10
328.40286300000002
 20
73.458962
 30
0.0
  0
SEQEND
  5
916
  8
0
  6
CONTINUOUS
 62
     7
  0
POLYLINE
  5
459
  8
0
  6
CONTINUOUS
 62
     7
 66
     1
 10
0.0
 20
0.0
 30
0.0
  0
VERTEX
  5
917
  8
0
  6
CONTINUOUS
 62
     7
 10
215.33849900000001
 20
-26.615295
 30
0.0
  0
VERTEX
  5
918
  8
0
  6
CONTINUOUS
 62
     7
 10
-30.623456999999998
 20
-14.158346
 30
0.0
 42
-0.350438
  0
VERTEX
  5
919
  8
0
  6
CONTINUOUS
 62
     7
 10
-40.230986999999999
 20
-3.4895860000000001
 30
0.0
  0
VERTEX
  5
91A
  8
0
  6
CONTINUOUS
 62
     7
 10
-43.453591999999993
 20
65.789139000000006
 30
0.0
 42
0.361075
  0
VERTEX
  5
91B
  8
0
  6
CONTINUOUS
 62
     7
 10
-48.446740000000013
 20
71.127561
 30
0.0
  0
VERTEX
  5
91C
  8
0
  6
CONTINUOUS
 62
     7
 10
-66.721035000000001
 20
71.127561
 30
0.0
 42
0.379783
  0
VERTEX
  5
91D
  8
0
  6
CONTINUOUS
 62
     7
 10
-71.721035000000001
 20
65.494318000000007
 30
0.0
  0
VERTEX
  5
91E
  8
0
  6
CONTINUOUS
 62
     7
 10
-71.721035000000001
 20
-41.570551999999999
 30
0.0
  0
SEQEND
  5
91F
  8
0
  6
CONTINUOUS
 62
     7
  0
POLYLINE
  5
463
  8
0
  6
CONTINUOUS
 62
     7
 66
     1
 10
0.0
 20
0.0
 30
0.0
 70
     1
  0
VERTEX
  5
920
  8
0
  6
CONTINUOUS
 62
     7
 10
-71.721035000000001
 20
-41.570551999999999
 30
0.0
  0
VERTEX
  5
921
  8
0
  6
CONTINUOUS
 62
     7
 10
-71.721035000000001
 20
65.494318000000007
 30
0.0
  0
VERTEX
  5
922
  8
0
  6
CONTINUOUS
 62
     7
 10
-71.70609300000001
 20
65.905793000000003
 30
0.0
  0
VERTEX
  5
923
  8
0
  6
CONTINUOUS
 62
     7
 10
-71.661348000000004
 20
66.315100999999984
 30
0.0
  0
VERTEX
  5
924
  8
0
  6
CONTINUOUS
 62
     7
 10
-71.587034000000003
 20
66.720084999999997
 30
0.0
  0
VERTEX
  5
925
  8
0
  6
CONTINUOUS
 62
     7
 10
-71.483543000000012
 20
67.118612999999996
 30
0.0
  0
VERTEX
  5
926
  8
0
  6
CONTINUOUS
 62
     7
 10
-71.351421000000002
 20
67.508585999999994
 30
0.0
  0
VERTEX
  5
927
  8
0
  6
CONTINUOUS
 62
     7
 10
-71.191362999999996
 20
67.887949000000006
 30
0.0
  0
VERTEX
  5
928
  8
0
  6
CONTINUOUS
 62
     7
 10
-71.004211999999995
 20
68.254704000000004
 30
0.0
  0
VERTEX
  5
929
  8
0
  6
CONTINUOUS
 62
     7
 10
-70.790953000000002
 20
68.606920000000002
 30
0.0
  0
VERTEX
  5
92A
  8
0
  6
CONTINUOUS
 62
     7
 10
-70.552711000000002
 20
68.942740999999998
 30
0.0
  0
VERTEX
  5
92B
  8
0
  6
CONTINUOUS
 62
     7
 10
-70.29074
 20
69.260397999999995
 30
0.0
  0
VERTEX
  5
92C
  8
0
  6
CONTINUOUS
 62
     7
 10
-70.006419999999991
 20
69.558218999999994
 30
0.0
  0
VERTEX
  5
92D
  8
0
  6
CONTINUOUS
 62
     7
 10
-69.701249000000004
 20
69.834633999999994
 30
0.0
  0
VERTEX
  5
92E
  8
0
  6
CONTINUOUS
 62
     7
 10
-69.376832999999991
 20
70.088187000000005
 30
0.0
  0
VERTEX
  5
92F
  8
0
  6
CONTINUOUS
 62
     7
 10
-69.034882999999994
 20
70.317543999999998
 30
0.0
  0
VERTEX
  5
930
  8
0
  6
CONTINUOUS
 62
     7
 10
-68.677198000000004
 20
70.521495999999985
 30
0.0
  0
VERTEX
  5
931
  8
0
  6
CONTINUOUS
 62
     7
 10
-68.305661999999984
 20
70.698968999999991
 30
0.0
  0
VERTEX
  5
932
  8
0
  6
CONTINUOUS
 62
     7
 10
-67.922234000000003
 20
70.849027000000007
 30
0.0
  0
VERTEX
  5
933
  8
0
  6
CONTINUOUS
 62
     7
 10
-67.528931999999983
 20
70.970881999999989
 30
0.0
  0
VERTEX
  5
934
  8
0
  6
CONTINUOUS
 62
     7
 10
-67.127828000000008
 20
71.063889000000003
 30
0.0
  0
VERTEX
  5
935
  8
0
  6
CONTINUOUS
 62
     7
 10
-66.721035000000001
 20
71.127561
 30
0.0
  0
VERTEX
  5
936
  8
0
  6
CONTINUOUS
 62
     7
 10
-48.446740000000013
 20
71.127561
 30
0.0
  0
VERTEX
  5
937
  8
0
  6
CONTINUOUS
 62
     7
 10
-48.055449000000003
 20
71.064238000000003
 30
0.0
  0
VERTEX
  5
938
  8
0
  6
CONTINUOUS
 62
     7
 10
-47.669482000000002
 20
70.973970999999992
 30
0.0
  0
VERTEX
  5
939
  8
0
  6
CONTINUOUS
 62
     7
 10
-47.290692
 20
70.857193999999993
 30
0.0
  0
VERTEX
  5
93A
  8
0
  6
CONTINUOUS
 62
     7
 10
-46.920896999999989
 20
70.714468000000011
 30
0.0
  0
VERTEX
  5
93B
  8
0
  6
CONTINUOUS
 62
     7
 10
-46.561873999999989
 20
70.546476999999996
 30
0.0
  0
VERTEX
  5
93C
  8
0
  6
CONTINUOUS
 62
     7
 10
-46.215344000000002
 20
70.354028999999997
 30
0.0
  0
VERTEX
  5
93D
  8
0
  6
CONTINUOUS
 62
     7
 10
-45.882972999999993
 20
70.138047
 30
0.0
  0
VERTEX
  5
93E
  8
0
  6
CONTINUOUS
 62
     7
 10
-45.566355999999992
 20
69.899568000000002
 30
0.0
  0
VERTEX
  5
93F
  8
0
  6
CONTINUOUS
 62
     7
 10
-45.267012000000001
 20
69.639736999999997
 30
0.0
  0
VERTEX
  5
940
  8
0
  6
CONTINUOUS
 62
     7
 10
-44.98637999999999
 20
69.359802000000002
 30
0.0
  0
VERTEX
  5
941
  8
0
  6
CONTINUOUS
 62
     7
 10
-44.725805000000001
 20
69.061104999999998
 30
0.0
  0
VERTEX
  5
942
  8
0
  6
CONTINUOUS
 62
     7
 10
-44.486539
 20
68.745081999999996
 30
0.0
  0
VERTEX
  5
943
  8
0
  6
CONTINUOUS
 62
     7
 10
-44.269731
 20
68.413250000000005
 30
0.0
  0
VERTEX
  5
944
  8
0
  6
CONTINUOUS
 62
     7
 10
-44.076421000000003
 20
68.0672
 30
0.0
  0
VERTEX
  5
945
  8
0
  6
CONTINUOUS
 62
     7
 10
-43.907538000000002
 20
67.708596
 30
0.0
  0
VERTEX
  5
946
  8
0
  6
CONTINUOUS
 62
     7
 10
-43.763892999999989
 20
67.339157999999998
 30
0.0
  0
VERTEX
  5
947
  8
0
  6
CONTINUOUS
 62
     7
 10
-43.646174000000002
 20
66.960658999999993
 30
0.0
  0
VERTEX
  5
948
  8
0
  6
CONTINUOUS
 62
     7
 10
-43.554946999999999
 20
66.574918000000011
 30
0.0
  0
VERTEX
  5
949
  8
0
  6
CONTINUOUS
 62
     7
 10
-43.490650000000002
 20
66.183785
 30
0.0
  0
VERTEX
  5
94A
  8
0
  6
CONTINUOUS
 62
     7
 10
-43.453591999999993
 20
65.789139000000006
 30
0.0
  0
VERTEX
  5
94B
  8
0
  6
CONTINUOUS
 62
     7
 10
-40.230986999999999
 20
-3.4895860000000001
 30
0.0
  0
VERTEX
  5
94C
  8
0
  6
CONTINUOUS
 62
     7
 10
-40.15925
 20
-4.2613690000000002
 30
0.0
  0
VERTEX
  5
94D
  8
0
  6
CONTINUOUS
 62
     7
 10
-40.035687000000003
 20
-5.0265659999999999
 30
0.0
  0
VERTEX
  5
94E
  8
0
  6
CONTINUOUS
 62
     7
 10
-39.860860000000002
 20
-5.7817009999999991
 30
0.0
  0
VERTEX
  5
94F
  8
0
  6
CONTINUOUS
 62
     7
 10
-39.635562
 20
-6.5233439999999989
 30
0.0
  0
VERTEX
  5
950
  8
0
  6
CONTINUOUS
 62
     7
 10
-39.360818000000002
 20
-7.2481270000000002
 30
0.0
  0
VERTEX
  5
951
  8
0
  6
CONTINUOUS
 62
     7
 10
-39.037875
 20
-7.952755999999999
 30
0.0
  0
VERTEX
  5
952
  8
0
  6
CONTINUOUS
 62
     7
 10
-38.668199999999999
 20
-8.6340299999999992
 30
0.0
  0
VERTEX
  5
953
  8
0
  6
CONTINUOUS
 62
     7
 10
-38.253473
 20
-9.2888539999999988
 30
0.0
  0
VERTEX
  5
954
  8
0
  6
CONTINUOUS
 62
     7
 10
-37.795577000000002
 20
-9.9142550000000007
 30
0.0
  0
VERTEX
  5
955
  8
0
  6
CONTINUOUS
 62
     7
 10
-37.296593000000001
 20
-10.507389999999999
 30
0.0
  0
VERTEX
  5
956
  8
0
  6
CONTINUOUS
 62
     7
 10
-36.758788000000003
 20
-11.065564999999999
 30
0.0
  0
VERTEX
  5
957
  8
0
  6
CONTINUOUS
 62
     7
 10
-36.184604999999998
 20
-11.586245
 30
0.0
  0
VERTEX
  5
958
  8
0
  6
CONTINUOUS
 62
     7
 10
-35.57665200000001
 20
-12.067064
 30
0.0
  0
VERTEX
  5
959
  8
0
  6
CONTINUOUS
 62
     7
 10
-34.937691000000001
 20
-12.505838000000001
 30
0.0
  0
VERTEX
  5
95A
  8
0
  6
CONTINUOUS
 62
     7
 10
-34.270623999999998
 20
-12.900574000000001
 30
0.0
  0
VERTEX
  5
95B
  8
0
  6
CONTINUOUS
 62
     7
 10
-33.578482000000001
 20
-13.249478
 30
0.0
  0
VERTEX
  5
95C
  8
0
  6
CONTINUOUS
 62
     7
 10
-32.864409999999999
 20
-13.550965
 30
0.0
  0
VERTEX
  5
95D
  8
0
  6
CONTINUOUS
 62
     7
 10
-32.131650999999998
 20
-13.803667000000001
 30
0.0
  0
VERTEX
  5
95E
  8
0
  6
CONTINUOUS
 62
     7
 10
-31.383533
 20
-14.006434
 30
0.0
  0
VERTEX
  5
95F
  8
0
  6
CONTINUOUS
 62
     7
 10
-30.623456999999998
 20
-14.158346
 30
0.0
  0
VERTEX
  5
960
  8
0
  6
CONTINUOUS
 62
     7
 10
214.79177100000001
 20
-26.587606000000001
 30
0.0
  0
VERTEX
  5
961
  8
0
  6
CONTINUOUS
 62
     7
 10
229.17976300000001
 20
-36.662185000000001
 30
0.0
  0
VERTEX
  5
962
  8
0
  6
CONTINUOUS
 62
     7
 10
229.17976300000001
 20
-48.662185000000001
 30
0.0
  0
VERTEX
  5
963
  8
0
  6
CONTINUOUS
 62
     7
 10
214.17976300000001
 20
-48.662185000000001
 30
0.0
  0
VERTEX
  5
964
  8
0
  6
CONTINUOUS
 62
     7
 10
214.17976300000001
 20
-43.442129000000001
 30
0.0
  0
VERTEX
  5
965
  8
0
  6
CONTINUOUS
 62
     7
 10
214.16521900000001
 20
-43.061047999999992
 30
0.0
  0
VERTEX
  5
966
  8
0
  6
CONTINUOUS
 62
     7
 10
214.12167400000001
 20
-42.682183999999999
 30
0.0
  0
VERTEX
  5
967
  8
0
  6
CONTINUOUS
 62
     7
 10
214.04937899999999
 20
-42.30774199999999
 30
0.0
  0
VERTEX
  5
968
  8
0
  6
CONTINUOUS
 62
     7
 10
213.948756
 20
-41.939897999999992
 30
0.0
  0
VERTEX
  5
969
  8
0
  6
CONTINUOUS
 62
     7
 10
213.820391
 20
-41.580792999999993
 30
0.0
  0
VERTEX
  5
96A
  8
0
  6
CONTINUOUS
 62
     7
 10
213.665029
 20
-41.23251599999999
 30
0.0
  0
VERTEX
  5
96B
  8
0
  6
CONTINUOUS
 62
     7
 10
213.483574
 20
-40.897094000000003
 30
0.0
  0
VERTEX
  5
96C
  8
0
  6
CONTINUOUS
 62
     7
 10
213.277083
 20
-40.576476999999997
 30
0.0
  0
VERTEX
  5
96D
  8
0
  6
CONTINUOUS
 62
     7
 10
213.04675700000001
 20
-40.272529999999989
 30
0.0
  0
VERTEX
  5
96E
  8
0
  6
CONTINUOUS
 62
     7
 10
212.79393400000001
 20
-39.987022000000003
 30
0.0
  0
VERTEX
  5
96F
  8
0
  6
CONTINUOUS
 62
     7
 10
212.52008699999999
 20
-39.721614000000002
 30
0.0
  0
VERTEX
  5
970
  8
0
  6
CONTINUOUS
 62
     7
 10
212.22680700000001
 20
-39.477848999999999
 30
0.0
  0
VERTEX
  5
971
  8
0
  6
CONTINUOUS
 62
     7
 10
211.91580200000001
 20
-39.257145999999999
 30
0.0
  0
VERTEX
  5
972
  8
0
  6
CONTINUOUS
 62
     7
 10
211.58888099999999
 20
-39.060788000000002
 30
0.0
  0
VERTEX
  5
973
  8
0
  6
CONTINUOUS
 62
     7
 10
211.24794499999999
 20
-38.889918000000002
 30
0.0
  0
VERTEX
  5
974
  8
0
  6
CONTINUOUS
 62
     7
 10
210.89497700000001
 20
-38.745530000000002
 30
0.0
  0
VERTEX
  5
975
  8
0
  6
CONTINUOUS
 62
     7
 10
210.53203199999999
 20
-38.628464000000001
 30
0.0
  0
VERTEX
  5
976
  8
0
  6
CONTINUOUS
 62
     7
 10
210.16121899999999
 20
-38.539400999999998
 30
0.0
  0
VERTEX
  5
977
  8
0
  6
CONTINUOUS
 62
     7
 10
209.78469799999999
 20
-38.478858000000002
 30
0.0
  0
VERTEX
  5
978
  8
0
  6
CONTINUOUS
 62
     7
 10
209.40465699999999
 20
-38.447189000000002
 30
0.0
  0
VERTEX
  5
979
  8
0
  6
CONTINUOUS
 62
     7
 10
-53.965906999999987
 20
-26.589089999999999
 30
0.0
  0
VERTEX
  5
97A
  8
0
  6
CONTINUOUS
 62
     7
 10
-54.356657999999989
 20
-26.586780999999998
 30
0.0
  0
VERTEX
  5
97B
  8
0
  6
CONTINUOUS
 62
     7
 10
-54.746396999999988
 20
-26.614993999999999
 30
0.0
  0
VERTEX
  5
97C
  8
0
  6
CONTINUOUS
 62
     7
 10
-55.132742000000007
 20
-26.673556000000001
 30
0.0
  0
VERTEX
  5
97D
  8
0
  6
CONTINUOUS
 62
     7
 10
-55.513332999999989
 20
-26.76211
 30
0.0
  0
VERTEX
  5
97E
  8
0
  6
CONTINUOUS
 62
     7
 10
-55.885847999999989
 20
-26.88011400000001
 30
0.0
  0
VERTEX
  5
97F
  8
0
  6
CONTINUOUS
 62
     7
 10
-56.248009000000003
 20
-27.026848999999999
 30
0.0
  0
VERTEX
  5
980
  8
0
  6
CONTINUOUS
 62
     7
 10
-56.597606000000013
 20
-27.201416999999999
 30
0.0
  0
VERTEX
  5
981
  8
0
  6
CONTINUOUS
 62
     7
 10
-56.932501999999999
 20
-27.402753000000001
 30
0.0
  0
VERTEX
  5
982
  8
0
  6
CONTINUOUS
 62
     7
 10
-57.250653999999997
 20
-27.629625999999998
 30
0.0
  0
VERTEX
  5
983
  8
0
  6
CONTINUOUS
 62
     7
 10
-57.550116000000003
 20
-27.880652000000001
 30
0.0
  0
VERTEX
  5
984
  8
0
  6
CONTINUOUS
 62
     7
 10
-57.829060999999989
 20
-28.154297
 30
0.0
  0
VERTEX
  5
985
  8
0
  6
CONTINUOUS
 62
     7
 10
-58.085784999999987
 20
-28.448889999999999
 30
0.0
  0
VERTEX
  5
986
  8
0
  6
CONTINUOUS
 62
     7
 10
-58.318719999999992
 20
-28.762630999999999
 30
0.0
  0
VERTEX
  5
987
  8
0
  6
CONTINUOUS
 62
     7
 10
-58.526442000000003
 20
-29.093603999999999
 30
0.0
  0
VERTEX
  5
988
  8
0
  6
CONTINUOUS
 62
     7
 10
-58.707683999999993
 20
-29.439788
 30
0.0
  0
VERTEX
  5
989
  8
0
  6
CONTINUOUS
 62
     7
 10
-58.861338000000003
 20
-29.799067999999998
 30
0.0
  0
VERTEX
  5
98A
  8
0
  6
CONTINUOUS
 62
     7
 10
-58.986466
 20
-30.169250000000002
 30
0.0
  0
VERTEX
  5
98B
  8
0
  6
CONTINUOUS
 62
     7
 10
-59.082304000000001
 20
-30.548074
 30
0.0
  0
VERTEX
  5
98C
  8
0
  6
CONTINUOUS
 62
     7
 10
-59.148266000000007
 20
-30.933223999999999
 30
0.0
  0
VERTEX
  5
98D
  8
0
  6
CONTINUOUS
 62
     7
 10
-59.183948999999998
 20
-31.32235
 30
0.0
  0
VERTEX
  5
98E
  8
0
  6
CONTINUOUS
 62
     7
 10
-59.721035000000001
 20
-41.570551999999999
 30
0.0
  0
SEQEND
  5
98F
  8
0
  6
CONTINUOUS
 62
     7
  0
LINE
  5
4D4
  8
LAYER01
  6
STRICHPUNKTIERT
 62
     6
 10
252.17976300000001
 20
-13.542071999999999
 30
0.0
 11
252.17976300000001
 21
-63.094662
 31
0.0
  0
DIMENSION
  5
4D5
  8
LAYER01
 62
     7
  2
*D2
 10
479.94447899999989
 20
-48.662185000000001
 30
0.0
 11
449.944479
 21
23.915478
 31
0.0
 53
90.0
 13
328.40286300000002
 23
98.973561000000004
 33
0.0
 14
328.40286300000002
 24
-48.662185000000001
 34
0.0
 50
90.0
  0
DIMENSION
  5
4D6
  8
LAYER01
 62
     7
  2
*D3
 10
414.3207789999999
 20
-26.539341
 30
0.0
 11
384.32077900000002
 21
22.176724
 31
0.0
 53
90.0
 13
328.40286300000002
 23
71.796936000000002
 33
0.0
 14
328.40286300000002
 24
-26.539341
 34
0.0
 50
90.0
  0
DIMENSION
  5
4D7
  8
LAYER01
 62
     7
  2
*D4
 10
-130.4229
 20
71.127561
 30
0.0
 11
-160.4229
 21
13.538295
 31
0.0
 53
90.0
 13
-71.721035000000001
 23
-41.570551999999999
 33
0.0
 14
-71.721035000000001
 24
71.127561
 34
0.0
 50
90.0
  0
POLYLINE
  5
4D8
  8
0
  6
CONTINUOUS
 62
     7
 66
     1
 10
0.0
 20
0.0
 30
0.0
  0
VERTEX
  5
990
  8
0
  6
CONTINUOUS
 62
     7
 10
214.17976300000001
 20
-48.662185000000001
 30
0.0
  0
VERTEX
  5
991
  8
0
  6
CONTINUOUS
 62
     7
 10
214.17976300000001
 20
-43.442129000000001
 30
0.0
 42
0.401096
  0
VERTEX
  5
992
  8
0
  6
CONTINUOUS
 62
     7
 10
209.40465699999999
 20
-38.447189000000002
 30
0.0
  0
VERTEX
  5
993
  8
0
  6
CONTINUOUS
 62
     7
 10
-53.965906999999987
 20
-26.589089999999999
 30
0.0
 42
0.412058
  0
VERTEX
  5
994
  8
0
  6
CONTINUOUS
 62
     7
 10
-59.183948999999998
 20
-31.32235
 30
0.0
  0
VERTEX
  5
995
  8
0
  6
CONTINUOUS
 62
     7
 10
-59.721035000000001
 20
-41.570551999999999
 30
0.0
  0
SEQEND
  5
996
  8
0
  6
CONTINUOUS
 62
     7
  0
LINE
  5
4E0
  8
0
  6
CONTINUOUS
 62
     7
 10
-71.721035000000001
 20
-41.570551999999999
 30
0.0
 11
-59.721035000000001
 21
-41.570551999999999
 31
0.0
  0
LINE
  5
4E1
  8
0
  6
CONTINUOUS
 62
     7
 10
229.17976300000001
 20
-48.662185000000001
 30
0.0
 11
275.17976299999998
 21
-48.662185000000001
 31
0.0
  0
LINE
  5
4E2
  8
0
  6
CONTINUOUS
 62
     7
 10
229.17976300000001
 20
-48.662185000000001
 30
0.0
 11
229.17976300000001
 21
-36.662185000000001
 31
0.0
  0
LINE
  5
4E3
  8
0
  6
CONTINUOUS
 62
     7
 10
275.17976299999998
 20
-48.662185000000001
 30
0.0
 11
275.17976299999998
 21
-36.662185000000001
 31
0.0
  0
LINE
  5
4E4
  8
0
  6
CONTINUOUS
 62
     7
 10
229.17976300000001
 20
-36.662185000000001
 30
0.0
 11
275.17976299999998
 21
-36.662185000000001
 31
0.0
  0
LINE
  5
4E5
  8
0
  6
CONTINUOUS
 62
     7
 10
229.17976300000001
 20
-36.662185000000001
 30
0.0
 11
214.72284300000001
 21
-26.539341
 31
0.0
  0
LINE
  5
4E6
  8
0
  6
CONTINUOUS
 62
     7
 10
275.17976299999998
 20
-36.662185000000001
 30
0.0
 11
289.63668200000001
 21
-26.539341
 31
0.0
  0
LINE
  5
4E7
  8
0
  6
CONTINUOUS
 62
     7
 10
214.72284300000001
 20
-26.539341
 30
0.0
 11
289.63668200000001
 21
-26.539341
 31
0.0
  0
LINE
  5
4E8
  8
0
  6
CONTINUOUS
 62
     7
 10
275.17976299999998
 20
-48.662185000000001
 30
0.0
 11
290.17976299999998
 21
-48.662185000000001
 31
0.0
  0
LINE
  5
4E9
  8
0
  6
CONTINUOUS
 62
     7
 10
229.17976300000001
 20
-48.662185000000001
 30
0.0
 11
214.17976300000001
 21
-48.662185000000001
 31
0.0
  0
DIMENSION
  5
4EA
  8
LAYER01
 62
     7
  2
*D5
 10
275.17976299999998
 20
-94.55613000000001
 30
0.0
 11
325.69656800000001
 21
-64.55613000000001
 31
0.0
 13
229.17976300000001
 23
-51.999209999999991
 33
0.0
 14
275.17976299999998
 24
-51.999209999999991
 34
0.0
  0
DIMENSION
  5
4EB
  8
LAYER01
 62
     7
  2
*D6
 10
328.40286300000002
 20
-185.83705800000001
 30
0.0
 11
289.87861400000003
 21
-155.83705800000001
 31
0.0
 13
252.17976300000001
 23
-125.036424
 33
0.0
 14
328.40286300000002
 24
-125.036424
 34
0.0
  0
LINE
  5
4EC
  8
0
  6
CONTINUOUS
 62
     7
 10
288.56503300000003
 20
71.796936000000002
 30
0.0
 11
-47.185434999999998
 21
71.796936000000002
 31
0.0
  0
LINE
  5
4ED
  8
0
  6
CONTINUOUS
 62
     7
 10
288.56503300000003
 20
71.796936000000002
 30
0.0
 11
-47.185434999999998
 21
71.796936000000002
 31
0.0
  0
DIMENSION
  5
4EE
  8
LAYER01
 62
     7
  2
*D7
 10
-43.453591999999993
 20
190.63046700000001
 30
0.0
 11
137.394847
 21
220.63046700000001
 31
0.0
 13
316.40286300000002
 23
109.60198
 33
0.0
 14
-43.453591999999993
 24
109.60198
 34
0.0
  0
DIMENSION
  5
4EF
  8
LAYER01
 62
     7
  2
*D8
 10
-71.721035000000001
 20
238.13992999999999
 30
0.0
 11
127.34794100000001
 21
268.13992999999999
 31
0.0
 13
328.40286300000002
 23
109.60198
 33
0.0
 14
-71.721035000000001
 24
109.60198
 34
0.0
  0
DIMENSION
  5
4F0
  8
LAYER01
 62
     7
  2
*D9
 10
-71.721035000000001
 20
139.31242499999999
 30
0.0
 11
35.285200000000003
 21
169.31242499999999
 31
0.0
 13
-43.453591999999993
 23
109.60198
 33
0.0
 14
-71.721035000000001
 24
109.60198
 34
0.0
  0
LINE
  5
4F1
  8
0
  6
CONTINUOUS
 62
     7
 10
288.572677
 20
71.796936000000002
 30
0.0
 11
315.87592100000001
 21
71.796936000000002
 31
0.0
  0
POLYLINE
  5
4F2
  8
0
  6
CONTINUOUS
 62
     7
 66
     1
 10
0.0
 20
0.0
 30
0.0
  0
VERTEX
  5
997
  8
0
  6
CONTINUOUS
 62
     7
 10
316.40286300000002
 20
58.458962
 30
0.0
  0
VERTEX
  5
998
  8
0
  6
CONTINUOUS
 62
     7
 10
316.40286300000002
 20
85.468694999999997
 30
0.0
 42
-0.179175
  0
VERTEX
  5
999
  8
0
  6
CONTINUOUS
 62
     7
 10
321.40286300000002
 20
98.973561000000004
 30
0.0
  0
VERTEX
  5
99A
  8
0
  6
CONTINUOUS
 62
     7
 10
328.40286300000002
 20
98.973561000000004
 30
0.0
  0
SEQEND
  5
99B
  8
0
  6
CONTINUOUS
 62
     7
  0
LINE
  5
4F8
  8
0
  6
CONTINUOUS
 62
     7
 10
328.40286300000002
 20
73.458962
 30
0.0
 11
328.40286300000002
 21
98.973561000000004
 31
0.0
  0
DIMENSION
  5
4F9
  8
LAYER01
 62
     7
  2
*D10
 10
101.60676100000001
 20
969.09447899999986
 30
0.0
 11
-113.69147
 21
999.09447899999975
 31
0.0
 13
-385.47054300000002
 23
868.66837099999998
 33
0.0
 14
101.60676100000001
 24
868.66837099999998
 34
0.0
  0
LINE
  5
4FA
  8
LAYER01
  6
CONTINUOUS
 62
     7
 10
-385.47054300000002
 20
468.66837099999992
 30
0.0
 11
-385.47054300000002
 21
868.66837099999998
 31
0.0
  0
DIMENSION
  5
4FB
  8
LAYER01
 62
     7
  2
*D11
 10
-490.80127999999991
 20
868.66837099999998
 30
0.0
 11
-520.80128000000002
 21
667.67960700000003
 31
0.0
 53
90.0
 13
-385.47054300000002
 23
468.66837099999992
 33
0.0
 14
-385.47054300000002
 24
868.66837099999998
 34
0.0
 50
90.0
  0
CIRCLE
  5
4FC
  8
LAYER01
  6
CONTINUOUS
 62
     7
 10
101.60676100000001
 20
676.66837099999987
 30
0.0
 40
180.0
  0
CIRCLE
  5
4FD
  8
0
  6
CONTINUOUS
 62
     7
 10
102.012145
 20
805.27562699999987
 30
0.0
 40
23.0
  0
CIRCLE
  5
4FE
  8
0
  6
CONTINUOUS
 62
     7
 10
102.012145
 20
805.27562699999987
 30
0.0
 40
35.0
  0
LINE
  5
4FF
  8
LAYER01
  6
STRICHPUNKTIERT
 62
     6
 10
328.79420199999998
 20
676.66837099999987
 30
0.0
 11
-130.34890799999999
 21
676.66837099999987
 31
0.0
  0
LINE
  5
500
  8
LAYER01
  6
STRICHPUNKTIERT
 62
     6
 10
56.602579000000013
 20
805.27562699999987
 30
0.0
 11
148.184304
 21
805.27562699999987
 31
0.0
  0
LINE
  5
501
  8
LAYER01
  6
STRICHPUNKTIERT
 62
     6
 10
101.60676100000001
 20
481.25492500000001
 30
0.0
 11
101.60676100000001
 21
868.66837099999998
 31
0.0
  0
CIRCLE
  5
502
  8
0
  6
CONTINUOUS
 62
     7
 10
286.43018699999999
 20
784.04746900000009
 30
0.0
 40
15.0
  0
LINE
  5
503
  8
LAYER01
  6
STRICHPUNKTIERT
 62
     6
 10
286.43018699999999
 20
755.88541399999997
 30
0.0
 11
286.43018699999999
 21
808.69584399999997
 31
0.0
  0
DIMENSION
  5
504
  8
LAYER01
 62
     7
  2
*D12
 10
286.43018699999999
 20
901.00455299999987
 30
0.0
 11
193.02550099999999
 21
931.00455299999999
 31
0.0
 13
101.60676100000001
 23
868.66837099999998
 33
0.0
 14
286.43018699999999
 24
868.66837099999998
 34
0.0
  0
LINE
  5
505
  8
LAYER01
  6
STRICHPUNKTIERT
 62
     6
 10
259.66618299999999
 20
783.66837099999987
 30
0.0
 11
313.72643699999998
 21
783.66837099999987
 31
0.0
  0
INSERT
  5
506
  8
LAYER01
  2
PICO400-G14
 10
0.0
 20
0.0
 30
0.0
  0
INSERT
  5
507
  8
LAYER01
  2
PICO400-G16
 10
0.0
 20
0.0
 30
0.0
  0
TEXT
  5
508
  8
LAYER01
  6
STRICHPUNKTIERT
 62
     7
 10
1175.6178080039031
 20
-17.63097280918662
 30
0.0
 40
36.953279999999999
  1
http://www.varicor.org
  0
TEXT
  5
509
  8
LAYER01
  6
VERDECKT
 62
     1
 10
1523.84015
 20
-266.81551899999999
 30
0.0
 40
21.0
  1
A. Sprenger GmbH
  7
SIMPLEX
  0
TEXT
  5
50A
  8
LAYER01
  6
CONTINUOUS
 62
     7
 10
1517.027619
 20
-136.76531700000001
 30
0.0
 40
6.2999999999999989
  1
Diese Zeichnung ist geistiges Eigentum der A. Sprenger GmbH
  7
SIMPLEX
  0
TEXT
  5
50B
  8
LAYER01
  6
CONTINUOUS
 62
     7
 10
1517.027619
 20
-147.56531699999999
 30
0.0
 40
6.2999999999999989
  1
und urheberrechtlich geschützt. Ohne unsere Zustimmung darf 
  7
SIMPLEX
  0
TEXT
  5
50C
  8
LAYER01
  6
CONTINUOUS
 62
     7
 10
1517.027619
 20
-158.365317
 30
0.0
 40
6.2999999999999989
  1
sie in keiner Form verwendet oder Dritten zugänglich gemacht
  7
SIMPLEX
  0
TEXT
  5
50D
  8
LAYER01
  6
VERDECKT
 62
     1
 10
1523.84015
 20
-349.28914200000003
 30
0.0
 40
29.399999999999999
  1
Pico400
  7
SIMPLEX
  0
TEXT
  5
50E
  8
LAYER01
  6
VERDECKT
 62
     1
 10
1329.2406570000001
 20
-315.43875000000003
 30
0.0
 40
8.4000000000000004
  1
16.2.2015
  7
SIMPLEX
  0
TEXT
  5
50F
  8
LAYER01
  6
VERDECKT
 62
     1
 10
1409.040657
 20
-315.43875000000003
 30
0.0
 40
8.4000000000000004
  1
b.s.
  7
SIMPLEX
  0
TEXT
  5
510
  8
LAYER01
  6
CONTINUOUS
 62
     7
 10
1517.027619
 20
-169.16531699999999
 30
0.0
 40
6.2999999999999989
  1
werden. (§106 Urheberrecht)
  7
SIMPLEX
  0
TEXT
  5
511
  8
LAYER01
  6
VERDECKT
 62
     1
 10
1795.7248999999999
 20
-212.65373700000001
 30
0.0
 40
8.4000000000000004
  1
pico400.skd
  7
SIMPLEX
  0
LINE
  5
512
  8
LAYER01
  6
CONTINUOUS
 62
     7
 10
614.52945699999987
 20
868.66837099999998
 30
0.0
 11
614.52945699999987
 21
468.66837099999992
 31
0.0
  0
DIMENSION
  5
513
  8
LAYER01
 62
     7
  2
*D16
 10
688.18300499999987
 20
868.66837099999998
 30
0.0
 11
658.18300499999987
 21
825.50919499999998
 31
0.0
 53
90.0
 13
614.52945699999987
 23
783.66837099999987
 33
0.0
 14
614.52945699999987
 24
868.66837099999998
 34
0.0
 50
90.0
  0
ENDSEC
  0
EOF
