  0
SECTION
  2
HEADER
  9
$ACADVER
  1
AC1009
  9
$INSBASE
 10
0.0
 20
0.0
 30
0.0
  9
$EXTMIN
 10
-1644.393838
 20
-525.61944299999993
 30
-0.00000001
  9
$EXTMAX
 10
2325.447381
 20
2232.0565179999999
 30
0.00000001
  9
$LIMMIN
 10
-1759.348553
 20
-637.01982899999985
  9
$LIMMAX
 10
2440.6514470000002
 20
2332.9801710000002
  9
$ORTHOMODE
 70
     1
  9
$REGENMODE
 70
     1
  9
$FILLMODE
 70
     1
  9
$QTEXTMODE
 70
     0
  9
$MIRRTEXT
 70
     0
  9
$DRAGMODE
 70
     2
  9
$LTSCALE
 40
5.0
  9
$OSMODE
 70
    43
  9
$ATTMODE
 70
     1
  9
$TEXTSIZE
 40
0.0
  9
$TRACEWID
 40
0.05
  9
$TEXTSTYLE
  7
STANDARD
  9
$CLAYER
  8
LAYER01
  9
$CELTYPE
  6
CONTINUOUS
  9
$CECOLOR
 62
     7
  9
$DIMSCALE
 40
1.0
  9
$DIMASZ
 40
0.18
  9
$DIMEXO
 40
0.0625
  9
$DIMDLI
 40
0.38
  9
$DIMRND
 40
0.0
  9
$DIMDLE
 40
0.0
  9
$DIMEXE
 40
0.18
  9
$DIMTP
 40
0.0
  9
$DIMTM
 40
0.0
  9
$DIMTXT
 40
0.18
  9
$DIMCEN
 40
0.09
  9
$DIMTSZ
 40
0.0
  9
$DIMTOL
 70
     0
  9
$DIMLIM
 70
     0
  9
$DIMTIH
 70
     1
  9
$DIMTOH
 70
     1
  9
$DIMSE1
 70
     0
  9
$DIMSE2
 70
     0
  9
$DIMTAD
 70
     0
  9
$DIMZIN
 70
     0
  9
$DIMBLK
  1

  9
$DIMASO
 70
     1
  9
$DIMSHO
 70
     1
  9
$DIMPOST
  1

  9
$DIMAPOST
  1

  9
$DIMALT
 70
     0
  9
$DIMALTD
 70
     2
  9
$DIMALTF
 40
25.399999999999999
  9
$DIMLFAC
 40
1.0
  9
$DIMTOFL
 70
     0
  9
$DIMTVP
 40
0.0
  9
$DIMTIX
 70
     0
  9
$DIMSOXD
 70
     0
  9
$DIMSAH
 70
     0
  9
$DIMBLK1
  1

  9
$DIMBLK2
  1

  9
$DIMSTYLE
  2
STANDARD
  9
$DIMCLRD
 70
     0
  9
$DIMCLRE
 70
     0
  9
$DIMCLRT
 70
     0
  9
$DIMTFAC
 40
1.0
  9
$DIMGAP
 40
0.09
  9
$LUNITS
 70
     2
  9
$LUPREC
 70
     4
  9
$SKETCHINC
 40
0.1
  9
$FILLETRAD
 40
10.0
  9
$AUNITS
 70
     0
  9
$AUPREC
 70
     0
  9
$MENU
  1
acad
  9
$ELEVATION
 40
0.0
  9
$PELEVATION
 40
0.0
  9
$THICKNESS
 40
0.0
  9
$LIMCHECK
 70
     0
  9
$BLIPMODE
 70
     0
  9
$CHAMFERA
 40
0.0
  9
$CHAMFERB
 40
0.0
  9
$SKPOLY
 70
     0
  9
$TDCREATE
 40
2305814.0418253131
  9
$TDUPDATE
 40
2457837.5210296991
  9
$TDINDWG
 40
0.0009185069
  9
$TDUSRTIMER
 40
0.0009184375
  9
$USRTIMER
 70
     1
  9
$ANGBASE
 50
0.0
  9
$ANGDIR
 70
     0
  9
$PDMODE
 70
     0
  9
$PDSIZE
 40
0.0
  9
$PLINEWID
 40
0.0
  9
$COORDS
 70
     1
  9
$SPLFRAME
 70
     0
  9
$SPLINETYPE
 70
     6
  9
$SPLINESEGS
 70
    10
  9
$ATTDIA
 70
     0
  9
$ATTREQ
 70
     1
  9
$HANDLING
 70
     1
  9
$HANDSEED
  5
D12
  9
$SURFTAB1
 70
     6
  9
$SURFTAB2
 70
     6
  9
$SURFTYPE
 70
     6
  9
$SURFU
 70
     6
  9
$SURFV
 70
     6
  9
$UCSNAME
  2

  9
$UCSORG
 10
0.0
 20
0.0
 30
0.0
  9
$UCSXDIR
 10
1.0
 20
0.0
 30
0.0
  9
$UCSYDIR
 10
0.0
 20
1.0
 30
0.0
  9
$PUCSNAME
  2

  9
$PUCSORG
 10
0.0
 20
0.0
 30
0.0
  9
$PUCSXDIR
 10
1.0
 20
0.0
 30
0.0
  9
$PUCSYDIR
 10
0.0
 20
1.0
 30
0.0
  9
$USERI1
 70
     0
  9
$USERI2
 70
     0
  9
$USERI3
 70
     0
  9
$USERI4
 70
     0
  9
$USERI5
 70
     0
  9
$USERR1
 40
0.0
  9
$USERR2
 40
0.0
  9
$USERR3
 40
0.0
  9
$USERR4
 40
0.0
  9
$USERR5
 40
0.0
  9
$WORLDVIEW
 70
     1
  9
$SHADEDGE
 70
     3
  9
$SHADEDIF
 70
    70
  9
$TILEMODE
 70
     1
  9
$MAXACTVP
 70
    64
  9
$PLIMCHECK
 70
     0
  9
$PEXTMIN
 10
1.0000000000000000E+020
 20
1.0000000000000000E+020
 30
1.0000000000000000E+020
  9
$PEXTMAX
 10
-1.0000000000000000E+020
 20
-1.0000000000000000E+020
 30
-1.0000000000000000E+020
  9
$PLIMMIN
 10
0.0
 20
0.0
  9
$PLIMMAX
 10
12.0
 20
9.0
  9
$UNITMODE
 70
     0
  9
$VISRETAIN
 70
     1
  9
$PLINEGEN
 70
     0
  9
$PSLTSCALE
 70
     1
  0
ENDSEC
  0
SECTION
  2
TABLES
  0
TABLE
  2
VPORT
 70
     1
  0
VPORT
  2
*ACTIVE
 70
     0
 10
0.0
 20
0.0
 11
1.0
 21
1.0
 12
334.65144699999979
 22
842.70069501746696
 13
0.0
 23
0.0
 14
1.0
 24
1.0
 15
0.0
 25
0.0
 16
0.0
 26
0.0
 36
18.000681368345582
 17
6.0
 27
5.27947598253275
 37
0.0
 40
3039.402389473069
 41
1.387878787878787
 42
50.0
 43
0.0
 44
0.0
 50
0.0
 51
0.0
 71
     0
 72
   100
 73
     1
 74
     1
 75
     0
 76
     0
 77
     0
 78
     0
  0
ENDTAB
  0
TABLE
  2
LTYPE
 70
    11
  0
LTYPE
  2
CONTINUOUS
 70
     0
  3
Solid line
 72
    65
 73
     0
 40
0.0
  0
LTYPE
  2
GESTRICHELT
 70
     0
  3
__ __ __ __ __ __ __ __ __ __ __ __ __ __ __
 72
    65
 73
     2
 40
0.75
 49
0.5
 49
-0.25
  0
LTYPE
  2
VERDECKT
 70
     0
  3
_ _ _ _ _ _ _ _ _ _ _ _ _ _ _ _ _ _ _ _ _ _ 
 72
    65
 73
     2
 40
0.25
 49
0.125
 49
-0.125
  0
LTYPE
  2
MITTELLINIE
 70
     0
  3
____ _ ____ _ ____ _ ____ _ ____ _ ____ _ __
 72
    65
 73
     4
 40
2.0
 49
1.25
 49
-0.25
 49
0.25
 49
-0.25
  0
LTYPE
  2
PHANTOM
 70
     0
  3
_____ _ _ _____ _ _ _____ _ _ _____ _ _ ____
 72
    65
 73
     6
 40
2.5
 49
1.25
 49
-0.25
 49
0.25
 49
-0.25
 49
0.25
 49
-0.25
  0
LTYPE
  2
PUNKTIERT
 70
     0
  3
............................................
 72
    65
 73
     2
 40
0.25
 49
0.0
 49
-0.25
  0
LTYPE
  2
STRICHPUNKTIERT
 70
     0
  3
__ . __ . __ . __ . __ . __ . __ . __ . __ .
 72
    65
 73
     4
 40
1.0
 49
0.5
 49
-0.25
 49
0.0
 49
-0.25
  0
LTYPE
  2
RAND
 70
     0
  3
__ __ . __ __ . __ __ . __ __ . __ __ . __ _
 72
    65
 73
     6
 40
1.75
 49
0.5
 49
-0.25
 49
0.5
 49
-0.25
 49
0.0
 49
-0.25
  0
LTYPE
  2
TRENNLINIE
 70
     0
  3
__ . . __ . . __ . . __ . . __ . . __ . . __
 72
    65
 73
     6
 40
1.25
 49
0.5
 49
-0.25
 49
0.0
 49
-0.25
 49
0.0
 49
-0.25
  0
LTYPE
  2
ENG_PUNKTIERT
 70
     0
  3
Schließen                                   
 72
    65
 73
     2
 40
0.1
 49
0.05
 49
-0.05
  0
LTYPE
  2
CLOSE
 70
     0
  3
                                            
 72
    65
 73
     0
 40
0.0
  0
ENDTAB
  0
TABLE
  2
LAYER
 70
   254
  0
LAYER
  2
0
 70
     0
 62
     7
  6
CONTINUOUS
  0
LAYER
  2
LAYER01
 70
     0
 62
     7
  6
CONTINUOUS
  0
LAYER
  2
LAYER02
 70
     0
 62
     7
  6
CONTINUOUS
  0
LAYER
  2
LAYER03
 70
     0
 62
     7
  6
CONTINUOUS
  0
LAYER
  2
LAYER04
 70
     0
 62
     7
  6
CONTINUOUS
  0
LAYER
  2
LAYER05
 70
     0
 62
     7
  6
CONTINUOUS
  0
LAYER
  2
LAYER06
 70
     0
 62
     7
  6
CONTINUOUS
  0
LAYER
  2
LAYER07
 70
     0
 62
     7
  6
CONTINUOUS
  0
LAYER
  2
LAYER08
 70
     0
 62
     7
  6
CONTINUOUS
  0
LAYER
  2
LAYER09
 70
     0
 62
     7
  6
CONTINUOUS
  0
LAYER
  2
LAYER10
 70
     0
 62
     7
  6
CONTINUOUS
  0
LAYER
  2
KERA4
 70
     0
 62
     7
  6
CONTINUOUS
  0
LAYER
  2
2
 70
     0
 62
     7
  6
CONTINUOUS
  0
LAYER
  2
5
 70
     0
 62
     7
  6
CONTINUOUS
  0
LAYER
  2
RAUMAUFM
 70
     0
 62
     7
  6
CONTINUOUS
  0
LAYER
  2
EINRICHT
 70
     0
 62
     7
  6
CONTINUOUS
  0
LAYER
  2
HILFE
 70
     0
 62
     7
  6
CONTINUOUS
  0
LAYER
  2
SCHNITTE
 70
     0
 62
     7
  6
CONTINUOUS
  0
LAYER
  2
SCHRAFF1
 70
     0
 62
     7
  6
CONTINUOUS
  0
LAYER
  2
SCHRAFF2
 70
     0
 62
     7
  6
CONTINUOUS
  0
LAYER
  2
BEMASS-1
 70
     0
 62
     7
  6
CONTINUOUS
  0
LAYER
  2
BEMASS-2
 70
     0
 62
     7
  6
CONTINUOUS
  0
LAYER
  2
TEXT
 70
     0
 62
     7
  6
CONTINUOUS
  0
LAYER
  2
SYMBOLE
 70
     0
 62
     7
  6
CONTINUOUS
  0
LAYER
  2
RAHMEN
 70
     0
 62
     7
  6
CONTINUOUS
  0
LAYER
  2
SCHRIFTF
 70
     0
 62
     7
  6
CONTINUOUS
  0
LAYER
  2
ACHSEN
 70
     0
 62
     7
  6
CONTINUOUS
  0
LAYER
  2
ZEICHN
 70
     0
 62
     7
  6
CONTINUOUS
  0
LAYER
  2
7
 70
     0
 62
     7
  6
CONTINUOUS
  0
LAYER
  2
1
 70
     0
 62
     7
  6
CONTINUOUS
  0
LAYER
  2
6
 70
     0
 62
     7
  6
CONTINUOUS
  0
LAYER
  2
4
 70
     0
 62
     7
  6
CONTINUOUS
  0
LAYER
  2
GRUNDEBENE
 70
     0
 62
     7
  6
CONTINUOUS
  0
LAYER
  2
GRUNDRISS
 70
     0
 62
     7
  6
CONTINUOUS
  0
LAYER
  2
BEMASSUNGGRUNDRISS
 70
     0
 62
     7
  6
CONTINUOUS
  0
LAYER
  2
WANDELEMENTE
 70
     0
 62
     7
  6
CONTINUOUS
  0
LAYER
  2
KUECHE
 70
     0
 62
     7
  6
CONTINUOUS
  0
LAYER
  2
THEKEBROETCHEN
 70
     0
 62
     7
  6
CONTINUOUS
  0
LAYER
  2
CENTERLINIE
 70
     0
 62
     7
  6
CONTINUOUS
  0
LAYER
  2
UMRISSE
 70
     0
 62
     7
  6
CONTINUOUS
  0
LAYER
  2
MAUER
 70
     0
 62
     7
  6
CONTINUOUS
  0
LAYER
  2
SCHRAFFUR
 70
     0
 62
     7
  6
CONTINUOUS
  0
LAYER
  2
MASSLINIE
 70
     0
 62
     7
  6
CONTINUOUS
  0
LAYER
  2
PV
 70
     0
 62
     7
  6
CONTINUOUS
  0
LAYER
  2
BESCHRIFTUNG
 70
     0
 62
     7
  6
CONTINUOUS
  0
LAYER
  2
AS
 70
     0
 62
     7
  6
CONTINUOUS
  0
LAYER
  2
PL
 70
     0
 62
     7
  6
CONTINUOUS
  0
LAYER
  2
UK
 70
     0
 62
     7
  6
CONTINUOUS
  0
LAYER
  2
TEXT3
 70
     0
 62
     7
  6
CONTINUOUS
  0
LAYER
  2
TEXT7
 70
     0
 62
     7
  6
CONTINUOUS
  0
LAYER
  2
BEPL1
 70
     0
 62
     7
  6
CONTINUOUS
  0
LAYER
  2
BEPL2
 70
     0
 62
     7
  6
CONTINUOUS
  0
LAYER
  2
BEPL2V
 70
     0
 62
     7
  6
CONTINUOUS
  0
LAYER
  2
BEPL4
 70
     0
 62
     7
  6
CONTINUOUS
  0
LAYER
  2
BEPL
 70
     0
 62
     7
  6
CONTINUOUS
  0
LAYER
  2
UK1
 70
     0
 62
     7
  6
CONTINUOUS
  0
LAYER
  2
UK2
 70
     0
 62
     7
  6
CONTINUOUS
  0
LAYER
  2
UK2V
 70
     0
 62
     7
  6
CONTINUOUS
  0
LAYER
  2
UK3
 70
     0
 62
     7
  6
CONTINUOUS
  0
LAYER
  2
TEXT2
 70
     0
 62
     7
  6
CONTINUOUS
  0
LAYER
  2
HILF2S
 70
     0
 62
     7
  6
CONTINUOUS
  0
LAYER
  2
UK1V
 70
     0
 62
     7
  6
CONTINUOUS
  0
LAYER
  2
GAIN_ZRA
 70
     0
 62
     7
  6
CONTINUOUS
  0
LAYER
  2
GAIN_ZSF
 70
     0
 62
     7
  6
CONTINUOUS
  0
LAYER
  2
RAHM4
 70
     0
 62
     7
  6
CONTINUOUS
  0
LAYER
  2
KORPUSBAND
 70
     0
 62
     7
  6
CONTINUOUS
  0
LAYER
  2
E---LGPL--------
 70
     0
 62
     7
  6
CONTINUOUS
  0
LAYER
  2
E---NPFL--------
 70
     0
 62
     7
  6
CONTINUOUS
  0
LAYER
  2
E---PLNKTXT-----
 70
     0
 62
     7
  6
CONTINUOUS
  0
LAYER
  2
E---PLNK--------
 70
     0
 62
     7
  6
CONTINUOUS
  0
LAYER
  2
E---PLNR--------
 70
     0
 62
     7
  6
CONTINUOUS
  0
LAYER
  2
D547_ARCHICAD
 70
     0
 62
     7
  6
CONTINUOUS
  0
LAYER
  2
D547_E---TEXT--------
 70
     0
 62
     7
  6
CONTINUOUS
  0
LAYER
  2
E---LEGD--------
 70
     0
 62
     7
  6
CONTINUOUS
  0
LAYER
  2
D43_ARCHICAD
 70
     0
 62
     7
  6
CONTINUOUS
  0
LAYER
  2
D43_FENSTER_VON_B---FASS--
 70
     0
 62
     7
  6
CONTINUOUS
  0
LAYER
  2
D43_E---SCHN--------
 70
     0
 62
     7
  6
CONTINUOUS
  0
LAYER
  2
D43_B---MW-N--------
 70
     0
 62
     7
  6
CONTINUOUS
  0
LAYER
  2
D43_B---DECK--------
 70
     0
 62
     7
  6
CONTINUOUS
  0
LAYER
  2
D43_B---MW-S--------
 70
     0
 62
     7
  6
CONTINUOUS
  0
LAYER
  2
D43_B---MW----------
 70
     0
 62
     7
  6
CONTINUOUS
  0
LAYER
  2
D43_B---FASS--------
 70
     0
 62
     7
  6
CONTINUOUS
  0
LAYER
  2
D43_E---RASG--------
 70
     0
 62
     7
  6
CONTINUOUS
  0
LAYER
  2
D40_ARCHICAD
 70
     0
 62
     7
  6
CONTINUOUS
  0
LAYER
  2
D40_E---MW--------
 70
     0
 62
     7
  6
CONTINUOUS
  0
LAYER
  2
D40_E---FASSKON-----
 70
     0
 62
     7
  6
CONTINUOUS
  0
LAYER
  2
D40_TÜREN_VON_B---MW-N----
 70
     0
 62
     7
  6
CONTINUOUS
  0
LAYER
  2
D40_E---MW-L------
 70
     0
 62
     7
  6
CONTINUOUS
  0
LAYER
  2
D40_TÜREN_VON_B---MW------
 70
     0
 62
     7
  6
CONTINUOUS
  0
LAYER
  2
D40_E---VERM--------
 70
     0
 62
     7
  6
CONTINUOUS
  0
LAYER
  2
D40_FENSTER_VON_E---MW-L--
 70
     0
 62
     7
  6
CONTINUOUS
  0
LAYER
  2
D40_FENSTER_VON_B---MW-N--
 70
     0
 62
     7
  6
CONTINUOUS
  0
LAYER
  2
D40_E---SCHN--------
 70
     0
 62
     7
  6
CONTINUOUS
  0
LAYER
  2
D40_E---AUFZ--------
 70
     0
 62
     7
  6
CONTINUOUS
  0
LAYER
  2
D40_E---DECK--------
 70
     0
 62
     7
  6
CONTINUOUS
  0
LAYER
  2
D40_E---RAUMINF-----
 70
     0
 62
     7
  6
CONTINUOUS
  0
LAYER
  2
D40_E---TEXT--------
 70
     0
 62
     7
  6
CONTINUOUS
  0
LAYER
  2
D40_B---TEXT--------
 70
     0
 62
     7
  6
CONTINUOUS
  0
LAYER
  2
D40_B---MW-N--------
 70
     0
 62
     7
  6
CONTINUOUS
  0
LAYER
  2
D40_B---DECK--------
 70
     0
 62
     7
  6
CONTINUOUS
  0
LAYER
  2
D40_B---AUFZ--------
 70
     0
 62
     7
  6
CONTINUOUS
  0
LAYER
  2
D40_B---MW-S--------
 70
     0
 62
     7
  6
CONTINUOUS
  0
LAYER
  2
D40_B---MW----------
 70
     0
 62
     7
  6
CONTINUOUS
  0
LAYER
  2
D40_E---MOEB--------
 70
     0
 62
     7
  6
CONTINUOUS
  0
LAYER
  2
D40_B---UMGB--------
 70
     0
 62
     7
  6
CONTINUOUS
  0
LAYER
  2
D40_B---FASS--------
 70
     0
 62
     7
  6
CONTINUOUS
  0
LAYER
  2
D40_E---DACH--------
 70
     0
 62
     7
  6
CONTINUOUS
  0
LAYER
  2
D40_E---BODE--------
 70
     0
 62
     7
  6
CONTINUOUS
  0
LAYER
  2
D40_E---TREP--------
 70
     0
 62
     7
  6
CONTINUOUS
  0
LAYER
  2
D40_E---RASG--------
 70
     0
 62
     7
  6
CONTINUOUS
  0
LAYER
  2
D40_B---MW-K--------
 70
     0
 62
     7
  6
CONTINUOUS
  0
LAYER
  2
D40_E---FASSGLA-----
 70
     0
 62
     7
  6
CONTINUOUS
  0
LAYER
  2
D40_B---VERM--------
 70
     0
 62
     7
  6
CONTINUOUS
  0
LAYER
  2
D40_E---UMGBGSG-----
 70
     0
 62
     7
  6
CONTINUOUS
  0
LAYER
  2
D40_E---RASF--------
 70
     0
 62
     7
  6
CONTINUOUS
  0
LAYER
  2
D40_E---PFLA--------
 70
     0
 62
     7
  6
CONTINUOUS
  0
LAYER
  2
D40_E---KONS-ST-----
 70
     0
 62
     7
  6
CONTINUOUS
  0
LAYER
  2
D40_E---WERB--------
 70
     0
 62
     7
  6
CONTINUOUS
  0
LAYER
  2
D40_E---TUERINF-----
 70
     0
 62
     7
  6
CONTINUOUS
  0
LAYER
  2
D40_E---WOLK--------
 70
     0
 62
     7
  6
CONTINUOUS
  0
LAYER
  2
D40_B---MW-L--------
 70
     0
 62
     7
  6
CONTINUOUS
  0
LAYER
  2
D40_B---SANI--------
 70
     0
 62
     7
  6
CONTINUOUS
  0
LAYER
  2
D40_E---SANI--------
 70
     0
 62
     7
  6
CONTINUOUS
  0
LAYER
  2
D40_E---MW-K------
 70
     0
 62
     7
  6
CONTINUOUS
  0
LAYER
  2
D40_E---OBJE--------
 70
     0
 62
     7
  6
CONTINUOUS
  0
LAYER
  2
D40_E---ASPR--------
 70
     0
 62
     7
  6
CONTINUOUS
  0
LAYER
  2
D40_E---VERMTGA-----
 70
     0
 62
     7
  6
CONTINUOUS
  0
LAYER
  2
D40_E---PARK--------
 70
     0
 62
     7
  6
CONTINUOUS
  0
LAYER
  2
D40_E---ISOL--------
 70
     0
 62
     7
  6
CONTINUOUS
  0
LAYER
  2
D40_E---TUER--------
 70
     0
 62
     7
  6
CONTINUOUS
  0
LAYER
  2
D40_E---MW--BRA---
 70
     0
 62
     7
  6
CONTINUOUS
  0
LAYER
  2
D41_ARCHICAD
 70
     0
 62
     7
  6
CONTINUOUS
  0
LAYER
  2
D41_E---MW--------
 70
     0
 62
     7
  6
CONTINUOUS
  0
LAYER
  2
D41_E---FASSKON-----
 70
     0
 62
     7
  6
CONTINUOUS
  0
LAYER
  2
D41_TÜREN_VON_B---MW-N----
 70
     0
 62
     7
  6
CONTINUOUS
  0
LAYER
  2
D41_E---MW-L------
 70
     0
 62
     7
  6
CONTINUOUS
  0
LAYER
  2
D41_TÜREN_VON_B---MW------
 70
     0
 62
     7
  6
CONTINUOUS
  0
LAYER
  2
D41_E---VERM--------
 70
     0
 62
     7
  6
CONTINUOUS
  0
LAYER
  2
D41_FENSTER_VON_E---MW-L--
 70
     0
 62
     7
  6
CONTINUOUS
  0
LAYER
  2
D41_FENSTER_VON_B---MW-N--
 70
     0
 62
     7
  6
CONTINUOUS
  0
LAYER
  2
D41_E---SCHN--------
 70
     0
 62
     7
  6
CONTINUOUS
  0
LAYER
  2
D41_E---AUFZ--------
 70
     0
 62
     7
  6
CONTINUOUS
  0
LAYER
  2
D41_E---DECK--------
 70
     0
 62
     7
  6
CONTINUOUS
  0
LAYER
  2
D41_E---RAUMINF-----
 70
     0
 62
     7
  6
CONTINUOUS
  0
LAYER
  2
D41_E---TEXT--------
 70
     0
 62
     7
  6
CONTINUOUS
  0
LAYER
  2
D41_B---TEXT--------
 70
     0
 62
     7
  6
CONTINUOUS
  0
LAYER
  2
D41_B---MW-N--------
 70
     0
 62
     7
  6
CONTINUOUS
  0
LAYER
  2
D41_B---DECK--------
 70
     0
 62
     7
  6
CONTINUOUS
  0
LAYER
  2
D41_B---AUFZ--------
 70
     0
 62
     7
  6
CONTINUOUS
  0
LAYER
  2
D41_B---MW-S--------
 70
     0
 62
     7
  6
CONTINUOUS
  0
LAYER
  2
D41_B---MW----------
 70
     0
 62
     7
  6
CONTINUOUS
  0
LAYER
  2
D41_E---MOEB--------
 70
     0
 62
     7
  6
CONTINUOUS
  0
LAYER
  2
D41_B---UMGB--------
 70
     0
 62
     7
  6
CONTINUOUS
  0
LAYER
  2
D41_B---FASS--------
 70
     0
 62
     7
  6
CONTINUOUS
  0
LAYER
  2
D41_E---DACH--------
 70
     0
 62
     7
  6
CONTINUOUS
  0
LAYER
  2
D41_E---BODE--------
 70
     0
 62
     7
  6
CONTINUOUS
  0
LAYER
  2
D41_E---TREP--------
 70
     0
 62
     7
  6
CONTINUOUS
  0
LAYER
  2
D41_E---RASG--------
 70
     0
 62
     7
  6
CONTINUOUS
  0
LAYER
  2
D41_B---MW-K--------
 70
     0
 62
     7
  6
CONTINUOUS
  0
LAYER
  2
D41_E---FASSGLA-----
 70
     0
 62
     7
  6
CONTINUOUS
  0
LAYER
  2
D41_B---VERM--------
 70
     0
 62
     7
  6
CONTINUOUS
  0
LAYER
  2
D41_E---UMGBGSG-----
 70
     0
 62
     7
  6
CONTINUOUS
  0
LAYER
  2
D41_E---RASF--------
 70
     0
 62
     7
  6
CONTINUOUS
  0
LAYER
  2
D41_E---PFLA--------
 70
     0
 62
     7
  6
CONTINUOUS
  0
LAYER
  2
D41_E---KONS-ST-----
 70
     0
 62
     7
  6
CONTINUOUS
  0
LAYER
  2
D41_E---WERB--------
 70
     0
 62
     7
  6
CONTINUOUS
  0
LAYER
  2
D41_E---TUERINF-----
 70
     0
 62
     7
  6
CONTINUOUS
  0
LAYER
  2
D41_E---WOLK--------
 70
     0
 62
     7
  6
CONTINUOUS
  0
LAYER
  2
D41_B---MW-L--------
 70
     0
 62
     7
  6
CONTINUOUS
  0
LAYER
  2
D41_B---SANI--------
 70
     0
 62
     7
  6
CONTINUOUS
  0
LAYER
  2
D41_E---SANI--------
 70
     0
 62
     7
  6
CONTINUOUS
  0
LAYER
  2
D41_E---MW-K------
 70
     0
 62
     7
  6
CONTINUOUS
  0
LAYER
  2
D41_E---OBJE--------
 70
     0
 62
     7
  6
CONTINUOUS
  0
LAYER
  2
D41_E---ASPR--------
 70
     0
 62
     7
  6
CONTINUOUS
  0
LAYER
  2
D41_E---VERMTGA-----
 70
     0
 62
     7
  6
CONTINUOUS
  0
LAYER
  2
D41_E---PARK--------
 70
     0
 62
     7
  6
CONTINUOUS
  0
LAYER
  2
D41_E---ISOL--------
 70
     0
 62
     7
  6
CONTINUOUS
  0
LAYER
  2
D41_E---TUER--------
 70
     0
 62
     7
  6
CONTINUOUS
  0
LAYER
  2
D41_E---MW--BRA---
 70
     0
 62
     7
  6
CONTINUOUS
  0
LAYER
  2
D42_ARCHICAD
 70
     0
 62
     7
  6
CONTINUOUS
  0
LAYER
  2
D42_FENSTER_VON_B---FASS--
 70
     0
 62
     7
  6
CONTINUOUS
  0
LAYER
  2
D42_E---SCHN--------
 70
     0
 62
     7
  6
CONTINUOUS
  0
LAYER
  2
D42_B---MW-N--------
 70
     0
 62
     7
  6
CONTINUOUS
  0
LAYER
  2
D42_B---DECK--------
 70
     0
 62
     7
  6
CONTINUOUS
  0
LAYER
  2
D42_B---MW-S--------
 70
     0
 62
     7
  6
CONTINUOUS
  0
LAYER
  2
D42_B---MW----------
 70
     0
 62
     7
  6
CONTINUOUS
  0
LAYER
  2
D42_B---FASS--------
 70
     0
 62
     7
  6
CONTINUOUS
  0
LAYER
  2
D42_E---RASG--------
 70
     0
 62
     7
  6
CONTINUOUS
  0
LAYER
  2
CONSTRUCTION_CLASS
 70
     0
 62
     7
  6
CONTINUOUS
  0
LAYER
  2
PATTERN_CLASS
 70
     0
 62
     7
  6
CONTINUOUS
  0
LAYER
  2
KONSTRUKTION
 70
     0
 62
     7
  6
CONTINUOUS
  0
LAYER
  2
BEMAßUNG
 70
     0
 62
     7
  6
CONTINUOUS
  0
LAYER
  2
HILFSGEOMETRIE
 70
     0
 62
     7
  6
CONTINUOUS
  0
LAYER
  2
UNSICHTBAR
 70
     0
 62
     7
  6
CONTINUOUS
  0
LAYER
  2
LOGO
 70
     0
 62
     7
  6
CONTINUOUS
  0
LAYER
  2
VERWALTUNG
 70
     0
 62
     7
  6
CONTINUOUS
  0
LAYER
  2
UNSICHTBARE_GEWINDE
 70
     0
 62
     7
  6
CONTINUOUS
  0
LAYER
  2
SICHTBARE_GEWINDE
 70
     0
 62
     7
  6
CONTINUOUS
  0
LAYER
  2
DEFPOINTS
 70
     0
 62
     7
  6
CONTINUOUS
  0
LAYER
  2
THICK
 70
     0
 62
     7
  6
CONTINUOUS
  0
LAYER
  2
HIDDEN
 70
     0
 62
     7
  6
CONTINUOUS
  0
LAYER
  2
SCHRAFFURGRUNDRISS
 70
     0
 62
     7
  6
CONTINUOUS
  0
LAYER
  2
BEMASSUNG_GRUNDRISS
 70
     0
 62
     7
  6
CONTINUOUS
  0
LAYER
  2
STATIK
 70
     0
 62
     7
  6
CONTINUOUS
  0
LAYER
  2
TÜREN
 70
     0
 62
     7
  6
CONTINUOUS
  0
LAYER
  2
SANITÄR
 70
     0
 62
     7
  6
CONTINUOUS
  0
LAYER
  2
BEMASSUNG_GIPSKARTON
 70
     0
 62
     7
  6
CONTINUOUS
  0
LAYER
  2
EINRICHTUNGEN
 70
     0
 62
     7
  6
CONTINUOUS
  0
LAYER
  2
BECKEN
 70
     0
 62
     7
  6
CONTINUOUS
  0
LAYER
  2
BELEUCHTUNG
 70
     0
 62
     7
  6
CONTINUOUS
  0
LAYER
  2
BESCHRIFTUNGEN
 70
     0
 62
     7
  6
CONTINUOUS
  0
LAYER
  2
ELEKTRO_1__DOSEN_SCHALTER
 70
     0
 62
     7
  6
CONTINUOUS
  0
LAYER
  2
DEFAULT_1
 70
     0
 62
     7
  6
CONTINUOUS
  0
LAYER
  2
AM_0
 70
     0
 62
     7
  6
CONTINUOUS
  0
LAYER
  2
FRAME0_7
 70
     0
 62
     7
  6
CONTINUOUS
  0
LAYER
  2
AM_BOR
 70
     0
 62
     7
  6
CONTINUOUS
  0
LAYER
  2
RAHM2
 70
     0
 62
     7
  6
CONTINUOUS
  0
LAYER
  2
RAHM3
 70
     0
 62
     7
  6
CONTINUOUS
  0
LAYER
  2
FRAME0_5
 70
     0
 62
     7
  6
CONTINUOUS
  0
LAYER
  2
8
 70
     0
 62
     7
  6
CONTINUOUS
  0
LAYER
  2
AM_5
 70
     0
 62
     7
  6
CONTINUOUS
  0
LAYER
  2
AM_7
 70
     0
 62
     7
  6
CONTINUOUS
  0
LAYER
  2
HILFSLINIEN
 70
     0
 62
     7
  6
CONTINUOUS
  0
LAYER
  2
DRAWING_TEMPLATE
 70
     0
 62
     7
  6
CONTINUOUS
  0
LAYER
  2
TECHNOBOX_EXTERNALREFSYMBO
 70
     0
 62
     7
  6
CONTINUOUS
  0
LAYER
  2
TECHNOBOX_POLYCLIPSYMBOL_L
 70
     0
 62
     7
  6
CONTINUOUS
  0
LAYER
  2
100
 70
     0
 62
     7
  6
CONTINUOUS
  0
LAYER
  2
101
 70
     0
 62
     7
  6
CONTINUOUS
  0
LAYER
  2
KONTUR
 70
     0
 62
     7
  6
CONTINUOUS
  0
LAYER
  2
MITTELLINIE
 70
     0
 62
     7
  6
CONTINUOUS
  0
LAYER
  2
GESTRICHELT
 70
     0
 62
     7
  6
CONTINUOUS
  0
LAYER
  2
HILFSLINIE
 70
     0
 62
     7
  6
CONTINUOUS
  0
LAYER
  2
TEXT-25
 70
     0
 62
     7
  6
CONTINUOUS
  0
LAYER
  2
TEXT35
 70
     0
 62
     7
  6
CONTINUOUS
  0
LAYER
  2
TEXT-50
 70
     0
 62
     7
  6
CONTINUOUS
  0
LAYER
  2
TEXT-70
 70
     0
 62
     7
  6
CONTINUOUS
  0
LAYER
  2
ANSICHTSFENSTER
 70
     0
 62
     7
  6
CONTINUOUS
  0
LAYER
  2
KERA0
 70
     0
 62
     7
  6
CONTINUOUS
  0
LAYER
  2
KERA1
 70
     0
 62
     7
  6
CONTINUOUS
  0
LAYER
  2
KERA2
 70
     0
 62
     7
  6
CONTINUOUS
  0
LAYER
  2
KERA3
 70
     0
 62
     7
  6
CONTINUOUS
  0
LAYER
  2
KERA5
 70
     0
 62
     7
  6
CONTINUOUS
  0
LAYER
  2
KERA6
 70
     0
 62
     7
  6
CONTINUOUS
  0
LAYER
  2
KERA7
 70
     0
 62
     7
  6
CONTINUOUS
  0
LAYER
  2
20
 70
     0
 62
     7
  6
CONTINUOUS
  0
LAYER
  2
50
 70
     0
 62
     7
  6
CONTINUOUS
  0
LAYER
  2
EBENE_1
 70
     0
 62
     7
  6
CONTINUOUS
  0
LAYER
  2
EBENE_2
 70
     0
 62
     7
  6
CONTINUOUS
  0
LAYER
  2
EBENE_5
 70
     0
 62
     7
  6
CONTINUOUS
  0
LAYER
  2
3
 70
     0
 62
     7
  6
CONTINUOUS
  0
LAYER
  2
GEB-KONTUR-A
 70
     0
 62
     7
  6
CONTINUOUS
  0
LAYER
  2
GEB-SYMETRIE
 70
     0
 62
     7
  6
CONTINUOUS
  0
LAYER
  2
GEB-ART-NR
 70
     0
 62
     7
  6
CONTINUOUS
  0
LAYER
  2
PROJECTION
 70
     0
 62
     7
  6
CONTINUOUS
  0
ENDTAB
  0
TABLE
  2
STYLE
 70
     3
  0
STYLE
  2
STANDARD
 70
     0
 40
0.0
 41
1.0
 50
0.0
 71
     0
 42
0.0
  3
txt
  4

  0
STYLE
  2
ANNOTATIVE
 70
     0
 40
0.0
 41
1.0
 50
0.0
 71
     0
 42
0.2
  3
txt
  4

  0
STYLE
  2
SIMPLEX
 70
     0
 40
0.0
 41
1.0
 50
0.0
 71
     0
 42
0.0
  3
simplex
  4

  0
ENDTAB
  0
TABLE
  2
VIEW
 70
     0
  0
ENDTAB
  0
TABLE
  2
UCS
 70
     0
  0
ENDTAB
  0
TABLE
  2
APPID
 70
     3
  0
APPID
  2
ACAD
 70
     0
  0
APPID
  2
ACADANNOTATIVE
 70
     0
  0
APPID
  2
ACAD_MLEADERVER
 70
     0
  0
ENDTAB
  0
TABLE
  2
DIMSTYLE
 70
     2
  0
DIMSTYLE
  2
STANDARD
 70
     0
  3

  4

  5

  6

  7

 40
1.0
 41
0.18
 42
0.0625
 43
0.38
 44
0.18
 45
0.0
 46
0.0
 47
0.0
 48
0.0
140
0.18
141
0.09
142
0.0
143
25.399999999999999
144
1.0
145
0.0
146
1.0
147
0.09
 71
     0
 72
     0
 73
     1
 74
     1
 75
     0
 76
     0
 77
     0
 78
     0
170
     0
171
     2
172
     0
173
     0
174
     0
175
     0
176
     0
177
     0
178
     0
  0
DIMSTYLE
  2
ANNOTATIVE
 70
     0
  3

  4

  5

  6

  7

 40
1.0
 41
0.18
 42
0.0625
 43
0.38
 44
0.18
 45
0.0
 46
0.0
 47
0.0
 48
0.0
140
0.18
141
0.09
142
0.0
143
25.399999999999999
144
1.0
145
0.0
146
1.0
147
0.09
 71
     0
 72
     0
 73
     1
 74
     1
 75
     0
 76
     0
 77
     0
 78
     0
170
     0
171
     2
172
     0
173
     0
174
     0
175
     0
176
     0
177
     0
178
     0
  0
ENDTAB
  0
ENDSEC
  0
SECTION
  2
BLOCKS
  0
BLOCK
  8
0
  2
$MODEL_SPACE
 70
     0
 10
0.0
 20
0.0
 30
0.0
  3
$MODEL_SPACE
  1

  0
ENDBLK
  5
76
  8
0
  0
BLOCK
 67
     1
  8
0
  2
$PAPER_SPACE
 70
     0
 10
0.0
 20
0.0
 30
0.0
  3
$PAPER_SPACE
  1

  0
ENDBLK
  5
72
 67
     1
  8
0
  0
BLOCK
  8
0
  2
RETO-G1
 70
     0
 10
0.0
 20
0.0
 30
0.0
  3
RETO-G1
  1

  0
POLYLINE
  5
185
  8
LAYER01
  6
CONTINUOUS
 62
     7
 66
     1
 10
0.0
 20
0.0
 30
0.0
 70
     1
  0
VERTEX
  5
A33
  8
LAYER01
  6
CONTINUOUS
 62
     7
 10
4075.122331
 20
1999.7851680000001
 30
0.0
  0
VERTEX
  5
A34
  8
LAYER01
  6
CONTINUOUS
 62
     7
 10
4117.7454659999994
 20
1999.7851680000001
 30
0.0
  0
VERTEX
  5
A35
  8
LAYER01
  6
CONTINUOUS
 62
     7
 10
4171.2721929999998
 20
1877.8631789999999
 30
0.0
  0
VERTEX
  5
A36
  8
LAYER01
  6
CONTINUOUS
 62
     7
 10
4224.7989200000002
 20
1999.7851680000001
 30
0.0
  0
VERTEX
  5
A37
  8
LAYER01
  6
CONTINUOUS
 62
     7
 10
4269.4045259999994
 20
1999.7851680000001
 30
0.0
  0
VERTEX
  5
A38
  8
LAYER01
  6
CONTINUOUS
 62
     7
 10
4171.2721929999998
 20
1781.713317
 30
0.0
  0
VERTEX
  5
A39
  8
LAYER01
  6
CONTINUOUS
 62
     7
 10
4075.122331
 20
1999.7851680000001
 30
0.0
  0
VERTEX
  5
A3A
  8
LAYER01
  6
CONTINUOUS
 62
     7
 10
4075.122331
 20
1999.7851680000001
 30
0.0
  0
SEQEND
  5
A3B
  8
LAYER01
  6
CONTINUOUS
 62
     7
  0
POLYLINE
  5
18F
  8
LAYER01
  6
CONTINUOUS
 62
     7
 66
     1
 10
0.0
 20
0.0
 30
0.0
 70
     1
  0
VERTEX
  5
A3C
  8
LAYER01
  6
CONTINUOUS
 62
     7
 10
4220.8339770000002
 20
1851.099815
 30
0.0
  0
VERTEX
  5
A3D
  8
LAYER01
  6
CONTINUOUS
 62
     7
 10
4235.7025130000002
 20
1885.793064
 30
0.0
  0
VERTEX
  5
A3E
  8
LAYER01
  6
CONTINUOUS
 62
     7
 10
4300.1328320000002
 20
1885.793064
 30
0.0
  0
VERTEX
  5
A3F
  8
LAYER01
  6
CONTINUOUS
 62
     7
 10
4267.4220549999991
 20
1957.1620339999999
 30
0.0
  0
VERTEX
  5
A40
  8
LAYER01
  6
CONTINUOUS
 62
     7
 10
4286.2555329999996
 20
2002.758875
 30
0.0
  0
VERTEX
  5
A41
  8
LAYER01
  6
CONTINUOUS
 62
     7
 10
4374.4755089999999
 20
1816.4065660000001
 30
0.0
  0
VERTEX
  5
A42
  8
LAYER01
  6
CONTINUOUS
 62
     7
 10
4374.4755089999999
 20
1999.7851680000001
 30
0.0
  0
VERTEX
  5
A43
  8
LAYER01
  6
CONTINUOUS
 62
     7
 10
4492.4325559999997
 20
1999.7851680000001
 30
0.0
  0
VERTEX
  5
A44
  8
LAYER01
  6
CONTINUOUS
 62
     7
 10
4492.4325559999997
 20
1999.7851680000001
 30
0.0
  0
VERTEX
  5
A45
  8
LAYER01
  6
CONTINUOUS
 62
     7
 10
4503.3361479999994
 20
1997.8026970000001
 30
0.0
  0
VERTEX
  5
A46
  8
LAYER01
  6
CONTINUOUS
 62
     7
 10
4513.2485049999987
 20
1993.8377539999999
 30
0.0
  0
VERTEX
  5
A47
  8
LAYER01
  6
CONTINUOUS
 62
     7
 10
4522.1696259999999
 20
1986.8991040000001
 30
0.0
  0
VERTEX
  5
A48
  8
LAYER01
  6
CONTINUOUS
 62
     7
 10
4530.0995119999989
 20
1979.9604549999999
 30
0.0
  0
VERTEX
  5
A49
  8
LAYER01
  6
CONTINUOUS
 62
     7
 10
4537.0381619999989
 20
1971.0393329999999
 30
0.0
  0
VERTEX
  5
A4A
  8
LAYER01
  6
CONTINUOUS
 62
     7
 10
4541.9943400000002
 20
1961.1269769999999
 30
0.0
  0
VERTEX
  5
A4B
  8
LAYER01
  6
CONTINUOUS
 62
     7
 10
4545.9592830000011
 20
1949.2321480000001
 30
0.0
  0
VERTEX
  5
A4C
  8
LAYER01
  6
CONTINUOUS
 62
     7
 10
4546.9505179999996
 20
1938.3285559999999
 30
0.0
  0
VERTEX
  5
A4D
  8
LAYER01
  6
CONTINUOUS
 62
     7
 10
4546.9505179999996
 20
1938.3285559999999
 30
0.0
  0
VERTEX
  5
A4E
  8
LAYER01
  6
CONTINUOUS
 62
     7
 10
4546.9505179999996
 20
1926.4337270000001
 30
0.0
  0
VERTEX
  5
A4F
  8
LAYER01
  6
CONTINUOUS
 62
     7
 10
4544.9680470000003
 20
1916.521371
 30
0.0
  0
VERTEX
  5
A50
  8
LAYER01
  6
CONTINUOUS
 62
     7
 10
4541.0031040000003
 20
1906.6090139999999
 30
0.0
  0
VERTEX
  5
A51
  8
LAYER01
  6
CONTINUOUS
 62
     7
 10
4536.046926
 20
1897.687893
 30
0.0
  0
VERTEX
  5
A52
  8
LAYER01
  6
CONTINUOUS
 62
     7
 10
4529.1082759999999
 20
1889.7580069999999
 30
0.0
  0
VERTEX
  5
A53
  8
LAYER01
  6
CONTINUOUS
 62
     7
 10
4521.1783909999986
 20
1882.8193570000001
 30
0.0
  0
VERTEX
  5
A54
  8
LAYER01
  6
CONTINUOUS
 62
     7
 10
4512.2572689999997
 20
1877.8631789999999
 30
0.0
  0
VERTEX
  5
A55
  8
LAYER01
  6
CONTINUOUS
 62
     7
 10
4501.3536769999992
 20
1873.898236
 30
0.0
  0
VERTEX
  5
A56
  8
LAYER01
  6
CONTINUOUS
 62
     7
 10
4564.7927609999988
 20
1789.6432030000001
 30
0.0
  0
VERTEX
  5
A57
  8
LAYER01
  6
CONTINUOUS
 62
     7
 10
4564.7927609999988
 20
1999.7851680000001
 30
0.0
  0
VERTEX
  5
A58
  8
LAYER01
  6
CONTINUOUS
 62
     7
 10
4606.4246599999997
 20
1999.7851680000001
 30
0.0
  0
VERTEX
  5
A59
  8
LAYER01
  6
CONTINUOUS
 62
     7
 10
4606.4246599999997
 20
1787.6607309999999
 30
0.0
  0
VERTEX
  5
A5A
  8
LAYER01
  6
CONTINUOUS
 62
     7
 10
4517.2134479999986
 20
1787.6607309999999
 30
0.0
  0
VERTEX
  5
A5B
  8
LAYER01
  6
CONTINUOUS
 62
     7
 10
4430.9759430000004
 20
1897.687893
 30
0.0
  0
VERTEX
  5
A5C
  8
LAYER01
  6
CONTINUOUS
 62
     7
 10
4474.5903130000006
 20
1897.687893
 30
0.0
  0
VERTEX
  5
A5D
  8
LAYER01
  6
CONTINUOUS
 62
     7
 10
4474.5903130000006
 20
1897.687893
 30
0.0
  0
VERTEX
  5
A5E
  8
LAYER01
  6
CONTINUOUS
 62
     7
 10
4480.5377269999999
 20
1898.679128
 30
0.0
  0
VERTEX
  5
A5F
  8
LAYER01
  6
CONTINUOUS
 62
     7
 10
4486.4851420000014
 20
1900.6615999999999
 30
0.0
  0
VERTEX
  5
A60
  8
LAYER01
  6
CONTINUOUS
 62
     7
 10
4491.441319999999
 20
1903.635307
 30
0.0
  0
VERTEX
  5
A61
  8
LAYER01
  6
CONTINUOUS
 62
     7
 10
4496.3974979999994
 20
1907.6002490000001
 30
0.0
  0
VERTEX
  5
A62
  8
LAYER01
  6
CONTINUOUS
 62
     7
 10
4499.3712049999986
 20
1912.5564280000001
 30
0.0
  0
VERTEX
  5
A63
  8
LAYER01
  6
CONTINUOUS
 62
     7
 10
4502.3449129999999
 20
1918.5038420000001
 30
0.0
  0
VERTEX
  5
A64
  8
LAYER01
  6
CONTINUOUS
 62
     7
 10
4504.3273840000002
 20
1924.4512560000001
 30
0.0
  0
VERTEX
  5
A65
  8
LAYER01
  6
CONTINUOUS
 62
     7
 10
4504.3273840000002
 20
1931.3899060000001
 30
0.0
  0
VERTEX
  5
A66
  8
LAYER01
  6
CONTINUOUS
 62
     7
 10
4504.3273840000002
 20
1931.3899060000001
 30
0.0
  0
VERTEX
  5
A67
  8
LAYER01
  6
CONTINUOUS
 62
     7
 10
4504.3273840000002
 20
1937.3373200000001
 30
0.0
  0
VERTEX
  5
A68
  8
LAYER01
  6
CONTINUOUS
 62
     7
 10
4502.3449129999999
 20
1943.2847340000001
 30
0.0
  0
VERTEX
  5
A69
  8
LAYER01
  6
CONTINUOUS
 62
     7
 10
4500.3624409999993
 20
1949.2321480000001
 30
0.0
  0
VERTEX
  5
A6A
  8
LAYER01
  6
CONTINUOUS
 62
     7
 10
4496.3974979999994
 20
1954.1883270000001
 30
0.0
  0
VERTEX
  5
A6B
  8
LAYER01
  6
CONTINUOUS
 62
     7
 10
4492.4325559999997
 20
1958.1532689999999
 30
0.0
  0
VERTEX
  5
A6C
  8
LAYER01
  6
CONTINUOUS
 62
     7
 10
4486.4851420000014
 20
1961.1269769999999
 30
0.0
  0
VERTEX
  5
A6D
  8
LAYER01
  6
CONTINUOUS
 62
     7
 10
4480.5377269999999
 20
1963.1094479999999
 30
0.0
  0
VERTEX
  5
A6E
  8
LAYER01
  6
CONTINUOUS
 62
     7
 10
4474.5903130000006
 20
1964.100684
 30
0.0
  0
VERTEX
  5
A6F
  8
LAYER01
  6
CONTINUOUS
 62
     7
 10
4419.081115
 20
1964.100684
 30
0.0
  0
VERTEX
  5
A70
  8
LAYER01
  6
CONTINUOUS
 62
     7
 10
4419.081115
 20
1787.6607309999999
 30
0.0
  0
VERTEX
  5
A71
  8
LAYER01
  6
CONTINUOUS
 62
     7
 10
4347.7121450000004
 20
1787.6607309999999
 30
0.0
  0
VERTEX
  5
A72
  8
LAYER01
  6
CONTINUOUS
 62
     7
 10
4317.9750750000003
 20
1851.099815
 30
0.0
  0
VERTEX
  5
A73
  8
LAYER01
  6
CONTINUOUS
 62
     7
 10
4220.8339770000002
 20
1851.099815
 30
0.0
  0
VERTEX
  5
A74
  8
LAYER01
  6
CONTINUOUS
 62
     7
 10
4220.8339770000002
 20
1851.099815
 30
0.0
  0
SEQEND
  5
A75
  8
LAYER01
  6
CONTINUOUS
 62
     7
  0
POLYLINE
  5
1CA
  8
LAYER01
  6
CONTINUOUS
 62
     7
 66
     1
 10
0.0
 20
0.0
 30
0.0
 70
     1
  0
VERTEX
  5
A76
  8
LAYER01
  6
CONTINUOUS
 62
     7
 10
4798.7243829999989
 20
1985.9078689999999
 30
0.0
  0
VERTEX
  5
A77
  8
LAYER01
  6
CONTINUOUS
 62
     7
 10
4771.9610189999994
 20
1952.2058549999999
 30
0.0
  0
VERTEX
  5
A78
  8
LAYER01
  6
CONTINUOUS
 62
     7
 10
4771.9610189999994
 20
1952.2058549999999
 30
0.0
  0
VERTEX
  5
A79
  8
LAYER01
  6
CONTINUOUS
 62
     7
 10
4763.039898
 20
1958.1532689999999
 30
0.0
  0
VERTEX
  5
A7A
  8
LAYER01
  6
CONTINUOUS
 62
     7
 10
4754.1187770000006
 20
1963.1094479999999
 30
0.0
  0
VERTEX
  5
A7B
  8
LAYER01
  6
CONTINUOUS
 62
     7
 10
4744.2064200000004
 20
1966.083155
 30
0.0
  0
VERTEX
  5
A7C
  8
LAYER01
  6
CONTINUOUS
 62
     7
 10
4733.3028279999999
 20
1966.083155
 30
0.0
  0
VERTEX
  5
A7D
  8
LAYER01
  6
CONTINUOUS
 62
     7
 10
4733.3028279999999
 20
1966.083155
 30
0.0
  0
VERTEX
  5
A7E
  8
LAYER01
  6
CONTINUOUS
 62
     7
 10
4726.3641779999989
 20
1966.083155
 30
0.0
  0
VERTEX
  5
A7F
  8
LAYER01
  6
CONTINUOUS
 62
     7
 10
4719.4255279999998
 20
1965.091919
 30
0.0
  0
VERTEX
  5
A80
  8
LAYER01
  6
CONTINUOUS
 62
     7
 10
4712.4868779999988
 20
1963.1094479999999
 30
0.0
  0
VERTEX
  5
A81
  8
LAYER01
  6
CONTINUOUS
 62
     7
 10
4705.5482279999997
 20
1960.1357410000001
 30
0.0
  0
VERTEX
  5
A82
  8
LAYER01
  6
CONTINUOUS
 62
     7
 10
4699.6008140000004
 20
1957.1620339999999
 30
0.0
  0
VERTEX
  5
A83
  8
LAYER01
  6
CONTINUOUS
 62
     7
 10
4694.644636
 20
1953.197091
 30
0.0
  0
VERTEX
  5
A84
  8
LAYER01
  6
CONTINUOUS
 62
     7
 10
4688.6972219999998
 20
1949.2321480000001
 30
0.0
  0
VERTEX
  5
A85
  8
LAYER01
  6
CONTINUOUS
 62
     7
 10
4684.7322789999998
 20
1944.2759699999999
 30
0.0
  0
VERTEX
  5
A86
  8
LAYER01
  6
CONTINUOUS
 62
     7
 10
4679.7761009999986
 20
1938.3285559999999
 30
0.0
  0
VERTEX
  5
A87
  8
LAYER01
  6
CONTINUOUS
 62
     7
 10
4676.8023929999999
 20
1932.381142
 30
0.0
  0
VERTEX
  5
A88
  8
LAYER01
  6
CONTINUOUS
 62
     7
 10
4672.8374509999994
 20
1926.4337270000001
 30
0.0
  0
VERTEX
  5
A89
  8
LAYER01
  6
CONTINUOUS
 62
     7
 10
4669.8637439999993
 20
1920.4863130000001
 30
0.0
  0
VERTEX
  5
A8A
  8
LAYER01
  6
CONTINUOUS
 62
     7
 10
4667.8812719999987
 20
1913.5476639999999
 30
0.0
  0
VERTEX
  5
A8B
  8
LAYER01
  6
CONTINUOUS
 62
     7
 10
4666.8900370000001
 20
1906.6090139999999
 30
0.0
  0
VERTEX
  5
A8C
  8
LAYER01
  6
CONTINUOUS
 62
     7
 10
4665.8988009999994
 20
1899.6703640000001
 30
0.0
  0
VERTEX
  5
A8D
  8
LAYER01
  6
CONTINUOUS
 62
     7
 10
4664.9075649999986
 20
1891.7404779999999
 30
0.0
  0
VERTEX
  5
A8E
  8
LAYER01
  6
CONTINUOUS
 62
     7
 10
4664.9075649999986
 20
1891.7404779999999
 30
0.0
  0
VERTEX
  5
A8F
  8
LAYER01
  6
CONTINUOUS
 62
     7
 10
4665.8988009999994
 20
1884.801829
 30
0.0
  0
VERTEX
  5
A90
  8
LAYER01
  6
CONTINUOUS
 62
     7
 10
4666.8900370000001
 20
1877.8631789999999
 30
0.0
  0
VERTEX
  5
A91
  8
LAYER01
  6
CONTINUOUS
 62
     7
 10
4667.8812719999987
 20
1870.9245289999999
 30
0.0
  0
VERTEX
  5
A92
  8
LAYER01
  6
CONTINUOUS
 62
     7
 10
4670.8549789999997
 20
1864.9771149999999
 30
0.0
  0
VERTEX
  5
A93
  8
LAYER01
  6
CONTINUOUS
 62
     7
 10
4672.8374509999994
 20
1859.0297009999999
 30
0.0
  0
VERTEX
  5
A94
  8
LAYER01
  6
CONTINUOUS
 62
     7
 10
4676.8023929999999
 20
1853.082287
 30
0.0
  0
VERTEX
  5
A95
  8
LAYER01
  6
CONTINUOUS
 62
     7
 10
4680.7673359999999
 20
1847.1348719999989
 30
0.0
  0
VERTEX
  5
A96
  8
LAYER01
  6
CONTINUOUS
 62
     7
 10
4684.7322789999998
 20
1842.178694
 30
0.0
  0
VERTEX
  5
A97
  8
LAYER01
  6
CONTINUOUS
 62
     7
 10
4689.6884570000002
 20
1837.222516
 30
0.0
  0
VERTEX
  5
A98
  8
LAYER01
  6
CONTINUOUS
 62
     7
 10
4694.644636
 20
1833.2575730000001
 30
0.0
  0
VERTEX
  5
A99
  8
LAYER01
  6
CONTINUOUS
 62
     7
 10
4700.5920500000002
 20
1830.283866
 30
0.0
  0
VERTEX
  5
A9A
  8
LAYER01
  6
CONTINUOUS
 62
     7
 10
4706.5394640000013
 20
1827.3101590000001
 30
0.0
  0
VERTEX
  5
A9B
  8
LAYER01
  6
CONTINUOUS
 62
     7
 10
4713.4781139999996
 20
1824.336452
 30
0.0
  0
VERTEX
  5
A9C
  8
LAYER01
  6
CONTINUOUS
 62
     7
 10
4719.4255279999998
 20
1822.3539800000001
 30
0.0
  0
VERTEX
  5
A9D
  8
LAYER01
  6
CONTINUOUS
 62
     7
 10
4726.3641779999989
 20
1821.3627449999999
 30
0.0
  0
VERTEX
  5
A9E
  8
LAYER01
  6
CONTINUOUS
 62
     7
 10
4734.2940630000003
 20
1821.3627449999999
 30
0.0
  0
VERTEX
  5
A9F
  8
LAYER01
  6
CONTINUOUS
 62
     7
 10
4734.2940630000003
 20
1821.3627449999999
 30
0.0
  0
VERTEX
  5
AA0
  8
LAYER01
  6
CONTINUOUS
 62
     7
 10
4745.1976560000012
 20
1822.3539800000001
 30
0.0
  0
VERTEX
  5
AA1
  8
LAYER01
  6
CONTINUOUS
 62
     7
 10
4754.1187770000006
 20
1824.336452
 30
0.0
  0
VERTEX
  5
AA2
  8
LAYER01
  6
CONTINUOUS
 62
     7
 10
4763.039898
 20
1829.2926299999999
 30
0.0
  0
VERTEX
  5
AA3
  8
LAYER01
  6
CONTINUOUS
 62
     7
 10
4771.9610189999994
 20
1835.2400439999999
 30
0.0
  0
VERTEX
  5
AA4
  8
LAYER01
  6
CONTINUOUS
 62
     7
 10
4797.7331469999999
 20
1800.546795
 30
0.0
  0
VERTEX
  5
AA5
  8
LAYER01
  6
CONTINUOUS
 62
     7
 10
4797.7331469999999
 20
1800.546795
 30
0.0
  0
VERTEX
  5
AA6
  8
LAYER01
  6
CONTINUOUS
 62
     7
 10
4782.8646120000003
 20
1791.6256739999999
 30
0.0
  0
VERTEX
  5
AA7
  8
LAYER01
  6
CONTINUOUS
 62
     7
 10
4774.9347269999998
 20
1788.651967
 30
0.0
  0
VERTEX
  5
AA8
  8
LAYER01
  6
CONTINUOUS
 62
     7
 10
4767.9960770000007
 20
1785.6782599999999
 30
0.0
  0
VERTEX
  5
AA9
  8
LAYER01
  6
CONTINUOUS
 62
     7
 10
4760.066190999999
 20
1783.695788
 30
0.0
  0
VERTEX
  5
AAA
  8
LAYER01
  6
CONTINUOUS
 62
     7
 10
4752.1363060000003
 20
1782.704553
 30
0.0
  0
VERTEX
  5
AAB
  8
LAYER01
  6
CONTINUOUS
 62
     7
 10
4734.2940630000003
 20
1781.713317
 30
0.0
  0
VERTEX
  5
AAC
  8
LAYER01
  6
CONTINUOUS
 62
     7
 10
4734.2940630000003
 20
1781.713317
 30
0.0
  0
VERTEX
  5
AAD
  8
LAYER01
  6
CONTINUOUS
 62
     7
 10
4722.3992349999999
 20
1782.704553
 30
0.0
  0
VERTEX
  5
AAE
  8
LAYER01
  6
CONTINUOUS
 62
     7
 10
4711.4956430000002
 20
1784.6870240000001
 30
0.0
  0
VERTEX
  5
AAF
  8
LAYER01
  6
CONTINUOUS
 62
     7
 10
4700.5920500000002
 20
1786.669496
 30
0.0
  0
VERTEX
  5
AB0
  8
LAYER01
  6
CONTINUOUS
 62
     7
 10
4690.6796929999991
 20
1790.634438
 30
0.0
  0
VERTEX
  5
AB1
  8
LAYER01
  6
CONTINUOUS
 62
     7
 10
4680.7673359999999
 20
1795.5906170000001
 30
0.0
  0
VERTEX
  5
AB2
  8
LAYER01
  6
CONTINUOUS
 62
     7
 10
4671.8462149999987
 20
1800.546795
 30
0.0
  0
VERTEX
  5
AB3
  8
LAYER01
  6
CONTINUOUS
 62
     7
 10
4662.9250940000011
 20
1807.485445
 30
0.0
  0
VERTEX
  5
AB4
  8
LAYER01
  6
CONTINUOUS
 62
     7
 10
4654.9952080000003
 20
1814.4240950000001
 30
0.0
  0
VERTEX
  5
AB5
  8
LAYER01
  6
CONTINUOUS
 62
     7
 10
4647.0653229999989
 20
1822.3539800000001
 30
0.0
  0
VERTEX
  5
AB6
  8
LAYER01
  6
CONTINUOUS
 62
     7
 10
4641.1179089999996
 20
1831.2751009999999
 30
0.0
  0
VERTEX
  5
AB7
  8
LAYER01
  6
CONTINUOUS
 62
     7
 10
4635.1704950000003
 20
1840.1962229999999
 30
0.0
  0
VERTEX
  5
AB8
  8
LAYER01
  6
CONTINUOUS
 62
     7
 10
4630.2143159999987
 20
1850.1085800000001
 30
0.0
  0
VERTEX
  5
AB9
  8
LAYER01
  6
CONTINUOUS
 62
     7
 10
4627.2406090000004
 20
1860.0209359999999
 30
0.0
  0
VERTEX
  5
ABA
  8
LAYER01
  6
CONTINUOUS
 62
     7
 10
4624.2669020000003
 20
1870.9245289999999
 30
0.0
  0
VERTEX
  5
ABB
  8
LAYER01
  6
CONTINUOUS
 62
     7
 10
4622.2844309999991
 20
1881.8281219999999
 30
0.0
  0
VERTEX
  5
ABC
  8
LAYER01
  6
CONTINUOUS
 62
     7
 10
4621.2931950000002
 20
1893.7229500000001
 30
0.0
  0
VERTEX
  5
ABD
  8
LAYER01
  6
CONTINUOUS
 62
     7
 10
4621.2931950000002
 20
1893.7229500000001
 30
0.0
  0
VERTEX
  5
ABE
  8
LAYER01
  6
CONTINUOUS
 62
     7
 10
4622.2844309999991
 20
1904.626542
 30
0.0
  0
VERTEX
  5
ABF
  8
LAYER01
  6
CONTINUOUS
 62
     7
 10
4624.2669020000003
 20
1916.521371
 30
0.0
  0
VERTEX
  5
AC0
  8
LAYER01
  6
CONTINUOUS
 62
     7
 10
4626.2493729999987
 20
1926.4337270000001
 30
0.0
  0
VERTEX
  5
AC1
  8
LAYER01
  6
CONTINUOUS
 62
     7
 10
4630.2143159999987
 20
1937.3373200000001
 30
0.0
  0
VERTEX
  5
AC2
  8
LAYER01
  6
CONTINUOUS
 62
     7
 10
4635.1704950000003
 20
1947.249677
 30
0.0
  0
VERTEX
  5
AC3
  8
LAYER01
  6
CONTINUOUS
 62
     7
 10
4640.1266729999998
 20
1956.1707980000001
 30
0.0
  0
VERTEX
  5
AC4
  8
LAYER01
  6
CONTINUOUS
 62
     7
 10
4647.0653229999989
 20
1965.091919
 30
0.0
  0
VERTEX
  5
AC5
  8
LAYER01
  6
CONTINUOUS
 62
     7
 10
4654.0039729999999
 20
1973.0218050000001
 30
0.0
  0
VERTEX
  5
AC6
  8
LAYER01
  6
CONTINUOUS
 62
     7
 10
4661.9338580000003
 20
1979.9604549999999
 30
0.0
  0
VERTEX
  5
AC7
  8
LAYER01
  6
CONTINUOUS
 62
     7
 10
4670.8549789999997
 20
1986.8991040000001
 30
0.0
  0
VERTEX
  5
AC8
  8
LAYER01
  6
CONTINUOUS
 62
     7
 10
4679.7761009999986
 20
1991.8552830000001
 30
0.0
  0
VERTEX
  5
AC9
  8
LAYER01
  6
CONTINUOUS
 62
     7
 10
4689.6884570000002
 20
1996.811461
 30
0.0
  0
VERTEX
  5
ACA
  8
LAYER01
  6
CONTINUOUS
 62
     7
 10
4699.6008140000004
 20
2000.776404
 30
0.0
  0
VERTEX
  5
ACB
  8
LAYER01
  6
CONTINUOUS
 62
     7
 10
4710.5044070000013
 20
2003.7501110000001
 30
0.0
  0
VERTEX
  5
ACC
  8
LAYER01
  6
CONTINUOUS
 62
     7
 10
4722.3992349999999
 20
2004.7413469999999
 30
0.0
  0
VERTEX
  5
ACD
  8
LAYER01
  6
CONTINUOUS
 62
     7
 10
4733.3028279999999
 20
2005.7325820000001
 30
0.0
  0
VERTEX
  5
ACE
  8
LAYER01
  6
CONTINUOUS
 62
     7
 10
4733.3028279999999
 20
2005.7325820000001
 30
0.0
  0
VERTEX
  5
ACF
  8
LAYER01
  6
CONTINUOUS
 62
     7
 10
4751.1450699999996
 20
2004.7413469999999
 30
0.0
  0
VERTEX
  5
AD0
  8
LAYER01
  6
CONTINUOUS
 62
     7
 10
4760.066190999999
 20
2003.7501110000001
 30
0.0
  0
VERTEX
  5
AD1
  8
LAYER01
  6
CONTINUOUS
 62
     7
 10
4767.9960770000007
 20
2001.76764
 30
0.0
  0
VERTEX
  5
AD2
  8
LAYER01
  6
CONTINUOUS
 62
     7
 10
4774.9347269999998
 20
1998.7939329999999
 30
0.0
  0
VERTEX
  5
AD3
  8
LAYER01
  6
CONTINUOUS
 62
     7
 10
4782.8646120000003
 20
1995.820226
 30
0.0
  0
VERTEX
  5
AD4
  8
LAYER01
  6
CONTINUOUS
 62
     7
 10
4790.7944979999993
 20
1990.864047
 30
0.0
  0
VERTEX
  5
AD5
  8
LAYER01
  6
CONTINUOUS
 62
     7
 10
4798.7243829999989
 20
1985.9078689999999
 30
0.0
  0
VERTEX
  5
AD6
  8
LAYER01
  6
CONTINUOUS
 62
     7
 10
4798.7243829999989
 20
1985.9078689999999
 30
0.0
  0
SEQEND
  5
AD7
  8
LAYER01
  6
CONTINUOUS
 62
     7
  0
POLYLINE
  5
22D
  8
LAYER01
  6
CONTINUOUS
 62
     7
 66
     1
 10
0.0
 20
0.0
 30
0.0
 70
     1
  0
VERTEX
  5
AD8
  8
LAYER01
  6
CONTINUOUS
 62
     7
 10
4894.874245
 20
2004.7413469999999
 30
0.0
  0
VERTEX
  5
AD9
  8
LAYER01
  6
CONTINUOUS
 62
     7
 10
4894.874245
 20
2004.7413469999999
 30
0.0
  0
VERTEX
  5
ADA
  8
LAYER01
  6
CONTINUOUS
 62
     7
 10
4883.970652
 20
2003.7501110000001
 30
0.0
  0
VERTEX
  5
ADB
  8
LAYER01
  6
CONTINUOUS
 62
     7
 10
4872.0758240000014
 20
2002.758875
 30
0.0
  0
VERTEX
  5
ADC
  8
LAYER01
  6
CONTINUOUS
 62
     7
 10
4862.1634670000012
 20
1999.7851680000001
 30
0.0
  0
VERTEX
  5
ADD
  8
LAYER01
  6
CONTINUOUS
 62
     7
 10
4851.2598740000003
 20
1995.820226
 30
0.0
  0
VERTEX
  5
ADE
  8
LAYER01
  6
CONTINUOUS
 62
     7
 10
4841.3475179999996
 20
1991.8552830000001
 30
0.0
  0
VERTEX
  5
ADF
  8
LAYER01
  6
CONTINUOUS
 62
     7
 10
4832.4263959999989
 20
1985.9078689999999
 30
0.0
  0
VERTEX
  5
AE0
  8
LAYER01
  6
CONTINUOUS
 62
     7
 10
4823.5052750000013
 20
1979.9604549999999
 30
0.0
  0
VERTEX
  5
AE1
  8
LAYER01
  6
CONTINUOUS
 62
     7
 10
4815.57539
 20
1972.030569
 30
0.0
  0
VERTEX
  5
AE2
  8
LAYER01
  6
CONTINUOUS
 62
     7
 10
4808.6367399999999
 20
1964.100684
 30
0.0
  0
VERTEX
  5
AE3
  8
LAYER01
  6
CONTINUOUS
 62
     7
 10
4801.6980899999999
 20
1956.1707980000001
 30
0.0
  0
VERTEX
  5
AE4
  8
LAYER01
  6
CONTINUOUS
 62
     7
 10
4795.7506759999987
 20
1947.249677
 30
0.0
  0
VERTEX
  5
AE5
  8
LAYER01
  6
CONTINUOUS
 62
     7
 10
4790.7944979999993
 20
1937.3373200000001
 30
0.0
  0
VERTEX
  5
AE6
  8
LAYER01
  6
CONTINUOUS
 62
     7
 10
4787.8207899999998
 20
1926.4337270000001
 30
0.0
  0
VERTEX
  5
AE7
  8
LAYER01
  6
CONTINUOUS
 62
     7
 10
4784.8470829999987
 20
1916.521371
 30
0.0
  0
VERTEX
  5
AE8
  8
LAYER01
  6
CONTINUOUS
 62
     7
 10
4782.8646120000003
 20
1904.626542
 30
0.0
  0
VERTEX
  5
AE9
  8
LAYER01
  6
CONTINUOUS
 62
     7
 10
4781.8733759999986
 20
1893.7229500000001
 30
0.0
  0
VERTEX
  5
AEA
  8
LAYER01
  6
CONTINUOUS
 62
     7
 10
4781.8733759999986
 20
1893.7229500000001
 30
0.0
  0
VERTEX
  5
AEB
  8
LAYER01
  6
CONTINUOUS
 62
     7
 10
4782.8646120000003
 20
1881.8281219999999
 30
0.0
  0
VERTEX
  5
AEC
  8
LAYER01
  6
CONTINUOUS
 62
     7
 10
4783.8558479999992
 20
1870.9245289999999
 30
0.0
  0
VERTEX
  5
AED
  8
LAYER01
  6
CONTINUOUS
 62
     7
 10
4786.8295549999993
 20
1860.0209359999999
 30
0.0
  0
VERTEX
  5
AEE
  8
LAYER01
  6
CONTINUOUS
 62
     7
 10
4790.7944979999993
 20
1850.1085800000001
 30
0.0
  0
VERTEX
  5
AEF
  8
LAYER01
  6
CONTINUOUS
 62
     7
 10
4794.7594399999989
 20
1840.1962229999999
 30
0.0
  0
VERTEX
  5
AF0
  8
LAYER01
  6
CONTINUOUS
 62
     7
 10
4800.706854
 20
1831.2751009999999
 30
0.0
  0
VERTEX
  5
AF1
  8
LAYER01
  6
CONTINUOUS
 62
     7
 10
4806.6542689999997
 20
1822.3539800000001
 30
0.0
  0
VERTEX
  5
AF2
  8
LAYER01
  6
CONTINUOUS
 62
     7
 10
4813.5929180000012
 20
1814.4240950000001
 30
0.0
  0
VERTEX
  5
AF3
  8
LAYER01
  6
CONTINUOUS
 62
     7
 10
4821.5228040000002
 20
1806.494209
 30
0.0
  0
VERTEX
  5
AF4
  8
LAYER01
  6
CONTINUOUS
 62
     7
 10
4830.4439249999987
 20
1800.546795
 30
0.0
  0
VERTEX
  5
AF5
  8
LAYER01
  6
CONTINUOUS
 62
     7
 10
4839.3650460000008
 20
1794.599381
 30
0.0
  0
VERTEX
  5
AF6
  8
LAYER01
  6
CONTINUOUS
 62
     7
 10
4849.277403
 20
1789.6432030000001
 30
0.0
  0
VERTEX
  5
AF7
  8
LAYER01
  6
CONTINUOUS
 62
     7
 10
4859.1897600000002
 20
1785.6782599999999
 30
0.0
  0
VERTEX
  5
AF8
  8
LAYER01
  6
CONTINUOUS
 62
     7
 10
4870.0933530000002
 20
1783.695788
 30
0.0
  0
VERTEX
  5
AF9
  8
LAYER01
  6
CONTINUOUS
 62
     7
 10
4880.996944999999
 20
1781.713317
 30
0.0
  0
VERTEX
  5
AFA
  8
LAYER01
  6
CONTINUOUS
 62
     7
 10
4891.9005379999999
 20
1780.7220809999999
 30
0.0
  0
VERTEX
  5
AFB
  8
LAYER01
  6
CONTINUOUS
 62
     7
 10
4891.9005379999999
 20
1780.7220809999999
 30
0.0
  0
VERTEX
  5
AFC
  8
LAYER01
  6
CONTINUOUS
 62
     7
 10
4903.7953659999994
 20
1781.713317
 30
0.0
  0
VERTEX
  5
AFD
  8
LAYER01
  6
CONTINUOUS
 62
     7
 10
4914.6989579999999
 20
1783.695788
 30
0.0
  0
VERTEX
  5
AFE
  8
LAYER01
  6
CONTINUOUS
 62
     7
 10
4925.6025509999999
 20
1786.669496
 30
0.0
  0
VERTEX
  5
AFF
  8
LAYER01
  6
CONTINUOUS
 62
     7
 10
4935.5149080000001
 20
1790.634438
 30
0.0
  0
VERTEX
  5
B00
  8
LAYER01
  6
CONTINUOUS
 62
     7
 10
4945.4272650000012
 20
1795.5906170000001
 30
0.0
  0
VERTEX
  5
B01
  8
LAYER01
  6
CONTINUOUS
 62
     7
 10
4954.3483859999988
 20
1801.5380309999989
 30
0.0
  0
VERTEX
  5
B02
  8
LAYER01
  6
CONTINUOUS
 62
     7
 10
4963.269507
 20
1807.485445
 30
0.0
  0
VERTEX
  5
B03
  8
LAYER01
  6
CONTINUOUS
 62
     7
 10
4971.1993929999999
 20
1815.41533
 30
0.0
  0
VERTEX
  5
B04
  8
LAYER01
  6
CONTINUOUS
 62
     7
 10
4978.1380420000014
 20
1823.3452159999999
 30
0.0
  0
VERTEX
  5
B05
  8
LAYER01
  6
CONTINUOUS
 62
     7
 10
4984.0854570000001
 20
1832.266337
 30
0.0
  0
VERTEX
  5
B06
  8
LAYER01
  6
CONTINUOUS
 62
     7
 10
4989.0416350000014
 20
1841.1874580000001
 30
0.0
  0
VERTEX
  5
B07
  8
LAYER01
  6
CONTINUOUS
 62
     7
 10
4993.997813
 20
1851.099815
 30
0.0
  0
VERTEX
  5
B08
  8
LAYER01
  6
CONTINUOUS
 62
     7
 10
4997.962755999999
 20
1862.003408
 30
0.0
  0
VERTEX
  5
B09
  8
LAYER01
  6
CONTINUOUS
 62
     7
 10
4999.9452280000014
 20
1872.9069999999999
 30
0.0
  0
VERTEX
  5
B0A
  8
LAYER01
  6
CONTINUOUS
 62
     7
 10
5000.936463
 20
1883.8105929999999
 30
0.0
  0
VERTEX
  5
B0B
  8
LAYER01
  6
CONTINUOUS
 62
     7
 10
5001.9276989999998
 20
1895.7054209999999
 30
0.0
  0
VERTEX
  5
B0C
  8
LAYER01
  6
CONTINUOUS
 62
     7
 10
5001.9276989999998
 20
1895.7054209999999
 30
0.0
  0
VERTEX
  5
B0D
  8
LAYER01
  6
CONTINUOUS
 62
     7
 10
5000.936463
 20
1906.6090139999999
 30
0.0
  0
VERTEX
  5
B0E
  8
LAYER01
  6
CONTINUOUS
 62
     7
 10
4998.9539919999997
 20
1917.512606
 30
0.0
  0
VERTEX
  5
B0F
  8
LAYER01
  6
CONTINUOUS
 62
     7
 10
4995.9802850000005
 20
1927.4249629999999
 30
0.0
  0
VERTEX
  5
B10
  8
LAYER01
  6
CONTINUOUS
 62
     7
 10
4993.0065780000014
 20
1937.3373200000001
 30
0.0
  0
VERTEX
  5
B11
  8
LAYER01
  6
CONTINUOUS
 62
     7
 10
4988.0503990000007
 20
1946.2584409999999
 30
0.0
  0
VERTEX
  5
B12
  8
LAYER01
  6
CONTINUOUS
 62
     7
 10
4983.0942210000003
 20
1955.179562
 30
0.0
  0
VERTEX
  5
B13
  8
LAYER01
  6
CONTINUOUS
 62
     7
 10
4977.1468070000001
 20
1964.100684
 30
0.0
  0
VERTEX
  5
B14
  8
LAYER01
  6
CONTINUOUS
 62
     7
 10
4970.208157
 20
1971.0393329999999
 30
0.0
  0
VERTEX
  5
B15
  8
LAYER01
  6
CONTINUOUS
 62
     7
 10
4962.2782710000001
 20
1977.977983
 30
0.0
  0
VERTEX
  5
B16
  8
LAYER01
  6
CONTINUOUS
 62
     7
 10
4954.3483859999988
 20
1984.916633
 30
0.0
  0
VERTEX
  5
B17
  8
LAYER01
  6
CONTINUOUS
 62
     7
 10
4945.4272650000012
 20
1989.872811
 30
0.0
  0
VERTEX
  5
B18
  8
LAYER01
  6
CONTINUOUS
 62
     7
 10
4936.506143999999
 20
1994.82899
 30
0.0
  0
VERTEX
  5
B19
  8
LAYER01
  6
CONTINUOUS
 62
     7
 10
4926.5937869999998
 20
1998.7939329999999
 30
0.0
  0
VERTEX
  5
B1A
  8
LAYER01
  6
CONTINUOUS
 62
     7
 10
4916.6814299999996
 20
2001.76764
 30
0.0
  0
VERTEX
  5
B1B
  8
LAYER01
  6
CONTINUOUS
 62
     7
 10
4905.7778369999987
 20
2003.7501110000001
 30
0.0
  0
VERTEX
  5
B1C
  8
LAYER01
  6
CONTINUOUS
 62
     7
 10
4894.874245
 20
2004.7413469999999
 30
0.0
  0
VERTEX
  5
B1D
  8
LAYER01
  6
CONTINUOUS
 62
     7
 10
4894.874245
 20
2004.7413469999999
 30
0.0
  0
SEQEND
  5
B1E
  8
LAYER01
  6
CONTINUOUS
 62
     7
  0
POLYLINE
  5
275
  8
LAYER01
  6
CONTINUOUS
 62
     7
 66
     1
 10
0.0
 20
0.0
 30
0.0
 70
     1
  0
VERTEX
  5
B1F
  8
LAYER01
  6
CONTINUOUS
 62
     7
 10
4891.9005379999999
 20
1821.3627449999999
 30
0.0
  0
VERTEX
  5
B20
  8
LAYER01
  6
CONTINUOUS
 62
     7
 10
4891.9005379999999
 20
1821.3627449999999
 30
0.0
  0
VERTEX
  5
B21
  8
LAYER01
  6
CONTINUOUS
 62
     7
 10
4884.9618879999998
 20
1822.3539800000001
 30
0.0
  0
VERTEX
  5
B22
  8
LAYER01
  6
CONTINUOUS
 62
     7
 10
4878.0232379999998
 20
1823.3452159999999
 30
0.0
  0
VERTEX
  5
B23
  8
LAYER01
  6
CONTINUOUS
 62
     7
 10
4871.0845880000006
 20
1824.336452
 30
0.0
  0
VERTEX
  5
B24
  8
LAYER01
  6
CONTINUOUS
 62
     7
 10
4864.1459379999997
 20
1827.3101590000001
 30
0.0
  0
VERTEX
  5
B25
  8
LAYER01
  6
CONTINUOUS
 62
     7
 10
4858.1985240000004
 20
1830.283866
 30
0.0
  0
VERTEX
  5
B26
  8
LAYER01
  6
CONTINUOUS
 62
     7
 10
4852.2511100000002
 20
1834.2488089999999
 30
0.0
  0
VERTEX
  5
B27
  8
LAYER01
  6
CONTINUOUS
 62
     7
 10
4847.2949319999998
 20
1838.213751
 30
0.0
  0
VERTEX
  5
B28
  8
LAYER01
  6
CONTINUOUS
 62
     7
 10
4842.3387529999991
 20
1843.16993
 30
0.0
  0
VERTEX
  5
B29
  8
LAYER01
  6
CONTINUOUS
 62
     7
 10
4837.3825749999987
 20
1848.1261079999999
 30
0.0
  0
VERTEX
  5
B2A
  8
LAYER01
  6
CONTINUOUS
 62
     7
 10
4833.4176319999988
 20
1853.082287
 30
0.0
  0
VERTEX
  5
B2B
  8
LAYER01
  6
CONTINUOUS
 62
     7
 10
4830.4439249999987
 20
1859.0297009999999
 30
0.0
  0
VERTEX
  5
B2C
  8
LAYER01
  6
CONTINUOUS
 62
     7
 10
4827.4702180000013
 20
1865.968351
 30
0.0
  0
VERTEX
  5
B2D
  8
LAYER01
  6
CONTINUOUS
 62
     7
 10
4824.4965110000003
 20
1871.9157649999991
 30
0.0
  0
VERTEX
  5
B2E
  8
LAYER01
  6
CONTINUOUS
 62
     7
 10
4823.5052750000013
 20
1878.8544139999999
 30
0.0
  0
VERTEX
  5
B2F
  8
LAYER01
  6
CONTINUOUS
 62
     7
 10
4821.5228040000002
 20
1885.793064
 30
0.0
  0
VERTEX
  5
B30
  8
LAYER01
  6
CONTINUOUS
 62
     7
 10
4821.5228040000002
 20
1893.7229500000001
 30
0.0
  0
VERTEX
  5
B31
  8
LAYER01
  6
CONTINUOUS
 62
     7
 10
4821.5228040000002
 20
1893.7229500000001
 30
0.0
  0
VERTEX
  5
B32
  8
LAYER01
  6
CONTINUOUS
 62
     7
 10
4822.51404
 20
1900.6615999999999
 30
0.0
  0
VERTEX
  5
B33
  8
LAYER01
  6
CONTINUOUS
 62
     7
 10
4823.5052750000013
 20
1907.6002490000001
 30
0.0
  0
VERTEX
  5
B34
  8
LAYER01
  6
CONTINUOUS
 62
     7
 10
4825.4877470000001
 20
1914.5388989999999
 30
0.0
  0
VERTEX
  5
B35
  8
LAYER01
  6
CONTINUOUS
 62
     7
 10
4827.4702180000013
 20
1921.477549
 30
0.0
  0
VERTEX
  5
B36
  8
LAYER01
  6
CONTINUOUS
 62
     7
 10
4830.4439249999987
 20
1927.4249629999999
 30
0.0
  0
VERTEX
  5
B37
  8
LAYER01
  6
CONTINUOUS
 62
     7
 10
4834.4088680000004
 20
1933.3723769999999
 30
0.0
  0
VERTEX
  5
B38
  8
LAYER01
  6
CONTINUOUS
 62
     7
 10
4838.3738110000004
 20
1938.3285559999999
 30
0.0
  0
VERTEX
  5
B39
  8
LAYER01
  6
CONTINUOUS
 62
     7
 10
4843.3299889999998
 20
1943.2847340000001
 30
0.0
  0
VERTEX
  5
B3A
  8
LAYER01
  6
CONTINUOUS
 62
     7
 10
4848.2861670000011
 20
1948.2409130000001
 30
0.0
  0
VERTEX
  5
B3B
  8
LAYER01
  6
CONTINUOUS
 62
     7
 10
4853.242346
 20
1952.2058549999999
 30
0.0
  0
VERTEX
  5
B3C
  8
LAYER01
  6
CONTINUOUS
 62
     7
 10
4859.1897600000002
 20
1956.1707980000001
 30
0.0
  0
VERTEX
  5
B3D
  8
LAYER01
  6
CONTINUOUS
 62
     7
 10
4866.1284100000003
 20
1959.144505
 30
0.0
  0
VERTEX
  5
B3E
  8
LAYER01
  6
CONTINUOUS
 62
     7
 10
4872.0758240000014
 20
1961.1269769999999
 30
0.0
  0
VERTEX
  5
B3F
  8
LAYER01
  6
CONTINUOUS
 62
     7
 10
4879.0144740000014
 20
1963.1094479999999
 30
0.0
  0
VERTEX
  5
B40
  8
LAYER01
  6
CONTINUOUS
 62
     7
 10
4885.9531240000006
 20
1964.100684
 30
0.0
  0
VERTEX
  5
B41
  8
LAYER01
  6
CONTINUOUS
 62
     7
 10
4893.8830090000001
 20
1964.100684
 30
0.0
  0
VERTEX
  5
B42
  8
LAYER01
  6
CONTINUOUS
 62
     7
 10
4893.8830090000001
 20
1964.100684
 30
0.0
  0
VERTEX
  5
B43
  8
LAYER01
  6
CONTINUOUS
 62
     7
 10
4900.8216590000002
 20
1963.1094479999999
 30
0.0
  0
VERTEX
  5
B44
  8
LAYER01
  6
CONTINUOUS
 62
     7
 10
4907.7603090000002
 20
1962.1182120000001
 30
0.0
  0
VERTEX
  5
B45
  8
LAYER01
  6
CONTINUOUS
 62
     7
 10
4913.7077229999986
 20
1960.1357410000001
 30
0.0
  0
VERTEX
  5
B46
  8
LAYER01
  6
CONTINUOUS
 62
     7
 10
4920.6463729999996
 20
1958.1532689999999
 30
0.0
  0
VERTEX
  5
B47
  8
LAYER01
  6
CONTINUOUS
 62
     7
 10
4925.6025509999999
 20
1955.179562
 30
0.0
  0
VERTEX
  5
B48
  8
LAYER01
  6
CONTINUOUS
 62
     7
 10
4931.5499650000002
 20
1951.21462
 30
0.0
  0
VERTEX
  5
B49
  8
LAYER01
  6
CONTINUOUS
 62
     7
 10
4936.506143999999
 20
1947.249677
 30
0.0
  0
VERTEX
  5
B4A
  8
LAYER01
  6
CONTINUOUS
 62
     7
 10
4941.4623220000003
 20
1943.2847340000001
 30
0.0
  0
VERTEX
  5
B4B
  8
LAYER01
  6
CONTINUOUS
 62
     7
 10
4945.4272650000012
 20
1938.3285559999999
 30
0.0
  0
VERTEX
  5
B4C
  8
LAYER01
  6
CONTINUOUS
 62
     7
 10
4949.3922080000002
 20
1932.381142
 30
0.0
  0
VERTEX
  5
B4D
  8
LAYER01
  6
CONTINUOUS
 62
     7
 10
4953.3571499999998
 20
1927.4249629999999
 30
0.0
  0
VERTEX
  5
B4E
  8
LAYER01
  6
CONTINUOUS
 62
     7
 10
4956.3308570000008
 20
1921.477549
 30
0.0
  0
VERTEX
  5
B4F
  8
LAYER01
  6
CONTINUOUS
 62
     7
 10
4958.3133289999996
 20
1914.5388989999999
 30
0.0
  0
VERTEX
  5
B50
  8
LAYER01
  6
CONTINUOUS
 62
     7
 10
4960.2957999999999
 20
1908.5914849999999
 30
0.0
  0
VERTEX
  5
B51
  8
LAYER01
  6
CONTINUOUS
 62
     7
 10
4961.2870359999988
 20
1901.6528350000001
 30
0.0
  0
VERTEX
  5
B52
  8
LAYER01
  6
CONTINUOUS
 62
     7
 10
4961.2870359999988
 20
1894.714185
 30
0.0
  0
VERTEX
  5
B53
  8
LAYER01
  6
CONTINUOUS
 62
     7
 10
4961.2870359999988
 20
1894.714185
 30
0.0
  0
VERTEX
  5
B54
  8
LAYER01
  6
CONTINUOUS
 62
     7
 10
4961.2870359999988
 20
1886.7843
 30
0.0
  0
VERTEX
  5
B55
  8
LAYER01
  6
CONTINUOUS
 62
     7
 10
4960.2957999999999
 20
1879.84565
 30
0.0
  0
VERTEX
  5
B56
  8
LAYER01
  6
CONTINUOUS
 62
     7
 10
4959.3045639999991
 20
1872.9069999999999
 30
0.0
  0
VERTEX
  5
B57
  8
LAYER01
  6
CONTINUOUS
 62
     7
 10
4956.3308570000008
 20
1866.9595859999999
 30
0.0
  0
VERTEX
  5
B58
  8
LAYER01
  6
CONTINUOUS
 62
     7
 10
4954.3483859999988
 20
1860.0209359999999
 30
0.0
  0
VERTEX
  5
B59
  8
LAYER01
  6
CONTINUOUS
 62
     7
 10
4950.3834429999988
 20
1854.0735219999999
 30
0.0
  0
VERTEX
  5
B5A
  8
LAYER01
  6
CONTINUOUS
 62
     7
 10
4946.4184999999998
 20
1848.1261079999999
 30
0.0
  0
VERTEX
  5
B5B
  8
LAYER01
  6
CONTINUOUS
 62
     7
 10
4941.4623220000003
 20
1843.16993
 30
0.0
  0
VERTEX
  5
B5C
  8
LAYER01
  6
CONTINUOUS
 62
     7
 10
4936.506143999999
 20
1838.213751
 30
0.0
  0
VERTEX
  5
B5D
  8
LAYER01
  6
CONTINUOUS
 62
     7
 10
4931.5499650000002
 20
1834.2488089999999
 30
0.0
  0
VERTEX
  5
B5E
  8
LAYER01
  6
CONTINUOUS
 62
     7
 10
4925.6025509999999
 20
1830.283866
 30
0.0
  0
VERTEX
  5
B5F
  8
LAYER01
  6
CONTINUOUS
 62
     7
 10
4919.6551369999997
 20
1827.3101590000001
 30
0.0
  0
VERTEX
  5
B60
  8
LAYER01
  6
CONTINUOUS
 62
     7
 10
4912.7164869999997
 20
1825.327687
 30
0.0
  0
VERTEX
  5
B61
  8
LAYER01
  6
CONTINUOUS
 62
     7
 10
4905.7778369999987
 20
1823.3452159999999
 30
0.0
  0
VERTEX
  5
B62
  8
LAYER01
  6
CONTINUOUS
 62
     7
 10
4898.8391869999996
 20
1822.3539800000001
 30
0.0
  0
VERTEX
  5
B63
  8
LAYER01
  6
CONTINUOUS
 62
     7
 10
4891.9005379999999
 20
1821.3627449999999
 30
0.0
  0
VERTEX
  5
B64
  8
LAYER01
  6
CONTINUOUS
 62
     7
 10
4891.9005379999999
 20
1821.3627449999999
 30
0.0
  0
SEQEND
  5
B65
  8
LAYER01
  6
CONTINUOUS
 62
     7
  0
POLYLINE
  5
2BD
  8
LAYER01
  6
CONTINUOUS
 62
     7
 66
     1
 10
0.0
 20
0.0
 30
0.0
 70
     1
  0
VERTEX
  5
B66
  8
LAYER01
  6
CONTINUOUS
 62
     7
 10
4971.1993929999999
 20
1999.7851680000001
 30
0.0
  0
VERTEX
  5
B67
  8
LAYER01
  6
CONTINUOUS
 62
     7
 10
5076.2703750000001
 20
1999.7851680000001
 30
0.0
  0
VERTEX
  5
B68
  8
LAYER01
  6
CONTINUOUS
 62
     7
 10
5076.2703750000001
 20
1999.7851680000001
 30
0.0
  0
VERTEX
  5
B69
  8
LAYER01
  6
CONTINUOUS
 62
     7
 10
5088.1652039999999
 20
1997.8026970000001
 30
0.0
  0
VERTEX
  5
B6A
  8
LAYER01
  6
CONTINUOUS
 62
     7
 10
5099.0687959999996
 20
1992.8465180000001
 30
0.0
  0
VERTEX
  5
B6B
  8
LAYER01
  6
CONTINUOUS
 62
     7
 10
5107.9899169999999
 20
1986.8991040000001
 30
0.0
  0
VERTEX
  5
B6C
  8
LAYER01
  6
CONTINUOUS
 62
     7
 10
5115.9198029999998
 20
1978.9692190000001
 30
0.0
  0
VERTEX
  5
B6D
  8
LAYER01
  6
CONTINUOUS
 62
     7
 10
5122.8584529999998
 20
1971.0393329999999
 30
0.0
  0
VERTEX
  5
B6E
  8
LAYER01
  6
CONTINUOUS
 62
     7
 10
5127.8146310000002
 20
1961.1269769999999
 30
0.0
  0
VERTEX
  5
B6F
  8
LAYER01
  6
CONTINUOUS
 62
     7
 10
5130.7883380000012
 20
1949.2321480000001
 30
0.0
  0
VERTEX
  5
B70
  8
LAYER01
  6
CONTINUOUS
 62
     7
 10
5131.7795740000001
 20
1938.3285559999999
 30
0.0
  0
VERTEX
  5
B71
  8
LAYER01
  6
CONTINUOUS
 62
     7
 10
5131.7795740000001
 20
1938.3285559999999
 30
0.0
  0
VERTEX
  5
B72
  8
LAYER01
  6
CONTINUOUS
 62
     7
 10
5130.7883380000012
 20
1926.4337270000001
 30
0.0
  0
VERTEX
  5
B73
  8
LAYER01
  6
CONTINUOUS
 62
     7
 10
5128.805867
 20
1916.521371
 30
0.0
  0
VERTEX
  5
B74
  8
LAYER01
  6
CONTINUOUS
 62
     7
 10
5124.8409240000001
 20
1906.6090139999999
 30
0.0
  0
VERTEX
  5
B75
  8
LAYER01
  6
CONTINUOUS
 62
     7
 10
5119.8847459999997
 20
1897.687893
 30
0.0
  0
VERTEX
  5
B76
  8
LAYER01
  6
CONTINUOUS
 62
     7
 10
5112.9460959999988
 20
1889.7580069999999
 30
0.0
  0
VERTEX
  5
B77
  8
LAYER01
  6
CONTINUOUS
 62
     7
 10
5106.0074460000014
 20
1883.8105929999999
 30
0.0
  0
VERTEX
  5
B78
  8
LAYER01
  6
CONTINUOUS
 62
     7
 10
5096.0950890000013
 20
1877.8631789999999
 30
0.0
  0
VERTEX
  5
B79
  8
LAYER01
  6
CONTINUOUS
 62
     7
 10
5086.1827320000011
 20
1873.898236
 30
0.0
  0
VERTEX
  5
B7A
  8
LAYER01
  6
CONTINUOUS
 62
     7
 10
5150.6130519999997
 20
1787.6607309999999
 30
0.0
  0
VERTEX
  5
B7B
  8
LAYER01
  6
CONTINUOUS
 62
     7
 10
5101.0512680000002
 20
1787.6607309999999
 30
0.0
  0
VERTEX
  5
B7C
  8
LAYER01
  6
CONTINUOUS
 62
     7
 10
5014.8137630000001
 20
1897.687893
 30
0.0
  0
VERTEX
  5
B7D
  8
LAYER01
  6
CONTINUOUS
 62
     7
 10
5063.3843120000001
 20
1897.687893
 30
0.0
  0
VERTEX
  5
B7E
  8
LAYER01
  6
CONTINUOUS
 62
     7
 10
5063.3843120000001
 20
1897.687893
 30
0.0
  0
VERTEX
  5
B7F
  8
LAYER01
  6
CONTINUOUS
 62
     7
 10
5069.3317259999994
 20
1899.6703640000001
 30
0.0
  0
VERTEX
  5
B80
  8
LAYER01
  6
CONTINUOUS
 62
     7
 10
5074.2879039999998
 20
1901.6528350000001
 30
0.0
  0
VERTEX
  5
B81
  8
LAYER01
  6
CONTINUOUS
 62
     7
 10
5078.2528469999988
 20
1905.617778
 30
0.0
  0
VERTEX
  5
B82
  8
LAYER01
  6
CONTINUOUS
 62
     7
 10
5082.2177899999997
 20
1909.582721
 30
0.0
  0
VERTEX
  5
B83
  8
LAYER01
  6
CONTINUOUS
 62
     7
 10
5085.1914969999998
 20
1914.5388989999999
 30
0.0
  0
VERTEX
  5
B84
  8
LAYER01
  6
CONTINUOUS
 62
     7
 10
5088.1652039999999
 20
1919.4950779999999
 30
0.0
  0
VERTEX
  5
B85
  8
LAYER01
  6
CONTINUOUS
 62
     7
 10
5089.1564390000003
 20
1925.4424919999999
 30
0.0
  0
VERTEX
  5
B86
  8
LAYER01
  6
CONTINUOUS
 62
     7
 10
5089.1564390000003
 20
1931.3899060000001
 30
0.0
  0
VERTEX
  5
B87
  8
LAYER01
  6
CONTINUOUS
 62
     7
 10
5089.1564390000003
 20
1931.3899060000001
 30
0.0
  0
VERTEX
  5
B88
  8
LAYER01
  6
CONTINUOUS
 62
     7
 10
5089.1564390000003
 20
1937.3373200000001
 30
0.0
  0
VERTEX
  5
B89
  8
LAYER01
  6
CONTINUOUS
 62
     7
 10
5087.1739680000001
 20
1942.293498
 30
0.0
  0
VERTEX
  5
B8A
  8
LAYER01
  6
CONTINUOUS
 62
     7
 10
5085.1914969999998
 20
1947.249677
 30
0.0
  0
VERTEX
  5
B8B
  8
LAYER01
  6
CONTINUOUS
 62
     7
 10
5082.2177899999997
 20
1952.2058549999999
 30
0.0
  0
VERTEX
  5
B8C
  8
LAYER01
  6
CONTINUOUS
 62
     7
 10
5078.2528469999988
 20
1956.1707980000001
 30
0.0
  0
VERTEX
  5
B8D
  8
LAYER01
  6
CONTINUOUS
 62
     7
 10
5074.2879039999998
 20
1959.144505
 30
0.0
  0
VERTEX
  5
B8E
  8
LAYER01
  6
CONTINUOUS
 62
     7
 10
5068.3404899999996
 20
1962.1182120000001
 30
0.0
  0
VERTEX
  5
B8F
  8
LAYER01
  6
CONTINUOUS
 62
     7
 10
5063.3843120000001
 20
1964.100684
 30
0.0
  0
VERTEX
  5
B90
  8
LAYER01
  6
CONTINUOUS
 62
     7
 10
5006.8838770000002
 20
1964.100684
 30
0.0
  0
VERTEX
  5
B91
  8
LAYER01
  6
CONTINUOUS
 62
     7
 10
4971.1993929999999
 20
1999.7851680000001
 30
0.0
  0
VERTEX
  5
B92
  8
LAYER01
  6
CONTINUOUS
 62
     7
 10
4971.1993929999999
 20
1999.7851680000001
 30
0.0
  0
SEQEND
  5
B93
  8
LAYER01
  6
CONTINUOUS
 62
     7
  0
POLYLINE
  5
2EC
  8
LAYER01
  6
CONTINUOUS
 62
     7
 66
     1
 10
0.0
 20
0.0
 30
0.0
 70
     1
  0
VERTEX
  5
B94
  8
LAYER01
  6
CONTINUOUS
 62
     7
 10
5177.3764160000001
 20
1947.249677
 30
0.0
  0
VERTEX
  5
B95
  8
LAYER01
  6
CONTINUOUS
 62
     7
 10
5177.3764160000001
 20
1947.249677
 30
0.0
  0
VERTEX
  5
B96
  8
LAYER01
  6
CONTINUOUS
 62
     7
 10
5182.3325940000004
 20
1948.2409130000001
 30
0.0
  0
VERTEX
  5
B97
  8
LAYER01
  6
CONTINUOUS
 62
     7
 10
5187.2887719999999
 20
1949.2321480000001
 30
0.0
  0
VERTEX
  5
B98
  8
LAYER01
  6
CONTINUOUS
 62
     7
 10
5192.2449509999997
 20
1952.2058549999999
 30
0.0
  0
VERTEX
  5
B99
  8
LAYER01
  6
CONTINUOUS
 62
     7
 10
5196.2098939999987
 20
1955.179562
 30
0.0
  0
VERTEX
  5
B9A
  8
LAYER01
  6
CONTINUOUS
 62
     7
 10
5199.1836009999997
 20
1959.144505
 30
0.0
  0
VERTEX
  5
B9B
  8
LAYER01
  6
CONTINUOUS
 62
     7
 10
5201.166072
 20
1963.1094479999999
 30
0.0
  0
VERTEX
  5
B9C
  8
LAYER01
  6
CONTINUOUS
 62
     7
 10
5203.1485430000012
 20
1968.0656260000001
 30
0.0
  0
VERTEX
  5
B9D
  8
LAYER01
  6
CONTINUOUS
 62
     7
 10
5203.1485430000012
 20
1974.01304
 30
0.0
  0
VERTEX
  5
B9E
  8
LAYER01
  6
CONTINUOUS
 62
     7
 10
5203.1485430000012
 20
1974.01304
 30
0.0
  0
VERTEX
  5
B9F
  8
LAYER01
  6
CONTINUOUS
 62
     7
 10
5203.1485430000012
 20
1978.9692190000001
 30
0.0
  0
VERTEX
  5
BA0
  8
LAYER01
  6
CONTINUOUS
 62
     7
 10
5201.166072
 20
1983.925397
 30
0.0
  0
VERTEX
  5
BA1
  8
LAYER01
  6
CONTINUOUS
 62
     7
 10
5199.1836009999997
 20
1987.8903399999999
 30
0.0
  0
VERTEX
  5
BA2
  8
LAYER01
  6
CONTINUOUS
 62
     7
 10
5196.2098939999987
 20
1991.8552830000001
 30
0.0
  0
VERTEX
  5
BA3
  8
LAYER01
  6
CONTINUOUS
 62
     7
 10
5192.2449509999997
 20
1994.82899
 30
0.0
  0
VERTEX
  5
BA4
  8
LAYER01
  6
CONTINUOUS
 62
     7
 10
5187.2887719999999
 20
1997.8026970000001
 30
0.0
  0
VERTEX
  5
BA5
  8
LAYER01
  6
CONTINUOUS
 62
     7
 10
5182.3325940000004
 20
1998.7939329999999
 30
0.0
  0
VERTEX
  5
BA6
  8
LAYER01
  6
CONTINUOUS
 62
     7
 10
5177.3764160000001
 20
1999.7851680000001
 30
0.0
  0
VERTEX
  5
BA7
  8
LAYER01
  6
CONTINUOUS
 62
     7
 10
5177.3764160000001
 20
1999.7851680000001
 30
0.0
  0
VERTEX
  5
BA8
  8
LAYER01
  6
CONTINUOUS
 62
     7
 10
5172.4202369999994
 20
1998.7939329999999
 30
0.0
  0
VERTEX
  5
BA9
  8
LAYER01
  6
CONTINUOUS
 62
     7
 10
5167.4640589999999
 20
1997.8026970000001
 30
0.0
  0
VERTEX
  5
BAA
  8
LAYER01
  6
CONTINUOUS
 62
     7
 10
5162.5078800000001
 20
1994.82899
 30
0.0
  0
VERTEX
  5
BAB
  8
LAYER01
  6
CONTINUOUS
 62
     7
 10
5158.5429379999996
 20
1991.8552830000001
 30
0.0
  0
VERTEX
  5
BAC
  8
LAYER01
  6
CONTINUOUS
 62
     7
 10
5155.569230000001
 20
1987.8903399999999
 30
0.0
  0
VERTEX
  5
BAD
  8
LAYER01
  6
CONTINUOUS
 62
     7
 10
5153.5867590000007
 20
1983.925397
 30
0.0
  0
VERTEX
  5
BAE
  8
LAYER01
  6
CONTINUOUS
 62
     7
 10
5151.6042880000014
 20
1978.9692190000001
 30
0.0
  0
VERTEX
  5
BAF
  8
LAYER01
  6
CONTINUOUS
 62
     7
 10
5151.6042880000014
 20
1974.01304
 30
0.0
  0
VERTEX
  5
BB0
  8
LAYER01
  6
CONTINUOUS
 62
     7
 10
5151.6042880000014
 20
1974.01304
 30
0.0
  0
VERTEX
  5
BB1
  8
LAYER01
  6
CONTINUOUS
 62
     7
 10
5151.6042880000014
 20
1968.0656260000001
 30
0.0
  0
VERTEX
  5
BB2
  8
LAYER01
  6
CONTINUOUS
 62
     7
 10
5153.5867590000007
 20
1963.1094479999999
 30
0.0
  0
VERTEX
  5
BB3
  8
LAYER01
  6
CONTINUOUS
 62
     7
 10
5155.569230000001
 20
1959.144505
 30
0.0
  0
VERTEX
  5
BB4
  8
LAYER01
  6
CONTINUOUS
 62
     7
 10
5158.5429379999996
 20
1955.179562
 30
0.0
  0
VERTEX
  5
BB5
  8
LAYER01
  6
CONTINUOUS
 62
     7
 10
5162.5078800000001
 20
1952.2058549999999
 30
0.0
  0
VERTEX
  5
BB6
  8
LAYER01
  6
CONTINUOUS
 62
     7
 10
5167.4640589999999
 20
1949.2321480000001
 30
0.0
  0
VERTEX
  5
BB7
  8
LAYER01
  6
CONTINUOUS
 62
     7
 10
5172.4202369999994
 20
1948.2409130000001
 30
0.0
  0
VERTEX
  5
BB8
  8
LAYER01
  6
CONTINUOUS
 62
     7
 10
5177.3764160000001
 20
1947.249677
 30
0.0
  0
VERTEX
  5
BB9
  8
LAYER01
  6
CONTINUOUS
 62
     7
 10
5177.3764160000001
 20
1947.249677
 30
0.0
  0
SEQEND
  5
BBA
  8
LAYER01
  6
CONTINUOUS
 62
     7
  0
POLYLINE
  5
314
  8
LAYER01
  6
CONTINUOUS
 62
     7
 66
     1
 10
0.0
 20
0.0
 30
0.0
 70
     1
  0
VERTEX
  5
BBB
  8
LAYER01
  6
CONTINUOUS
 62
     7
 10
5177.3764160000001
 20
1995.820226
 30
0.0
  0
VERTEX
  5
BBC
  8
LAYER01
  6
CONTINUOUS
 62
     7
 10
5177.3764160000001
 20
1995.820226
 30
0.0
  0
VERTEX
  5
BBD
  8
LAYER01
  6
CONTINUOUS
 62
     7
 10
5181.3413579999997
 20
1994.82899
 30
0.0
  0
VERTEX
  5
BBE
  8
LAYER01
  6
CONTINUOUS
 62
     7
 10
5185.3063009999996
 20
1993.8377539999999
 30
0.0
  0
VERTEX
  5
BBF
  8
LAYER01
  6
CONTINUOUS
 62
     7
 10
5189.2712439999996
 20
1991.8552830000001
 30
0.0
  0
VERTEX
  5
BC0
  8
LAYER01
  6
CONTINUOUS
 62
     7
 10
5192.2449509999997
 20
1988.881576
 30
0.0
  0
VERTEX
  5
BC1
  8
LAYER01
  6
CONTINUOUS
 62
     7
 10
5195.2186579999989
 20
1985.9078689999999
 30
0.0
  0
VERTEX
  5
BC2
  8
LAYER01
  6
CONTINUOUS
 62
     7
 10
5197.201129
 20
1981.9429259999999
 30
0.0
  0
VERTEX
  5
BC3
  8
LAYER01
  6
CONTINUOUS
 62
     7
 10
5199.1836009999997
 20
1977.977983
 30
0.0
  0
VERTEX
  5
BC4
  8
LAYER01
  6
CONTINUOUS
 62
     7
 10
5199.1836009999997
 20
1974.01304
 30
0.0
  0
VERTEX
  5
BC5
  8
LAYER01
  6
CONTINUOUS
 62
     7
 10
5199.1836009999997
 20
1974.01304
 30
0.0
  0
VERTEX
  5
BC6
  8
LAYER01
  6
CONTINUOUS
 62
     7
 10
5199.1836009999997
 20
1969.0568619999999
 30
0.0
  0
VERTEX
  5
BC7
  8
LAYER01
  6
CONTINUOUS
 62
     7
 10
5197.201129
 20
1965.091919
 30
0.0
  0
VERTEX
  5
BC8
  8
LAYER01
  6
CONTINUOUS
 62
     7
 10
5195.2186579999989
 20
1961.1269769999999
 30
0.0
  0
VERTEX
  5
BC9
  8
LAYER01
  6
CONTINUOUS
 62
     7
 10
5192.2449509999997
 20
1958.1532689999999
 30
0.0
  0
VERTEX
  5
BCA
  8
LAYER01
  6
CONTINUOUS
 62
     7
 10
5189.2712439999996
 20
1955.179562
 30
0.0
  0
VERTEX
  5
BCB
  8
LAYER01
  6
CONTINUOUS
 62
     7
 10
5185.3063009999996
 20
1953.197091
 30
0.0
  0
VERTEX
  5
BCC
  8
LAYER01
  6
CONTINUOUS
 62
     7
 10
5181.3413579999997
 20
1952.2058549999999
 30
0.0
  0
VERTEX
  5
BCD
  8
LAYER01
  6
CONTINUOUS
 62
     7
 10
5177.3764160000001
 20
1952.2058549999999
 30
0.0
  0
VERTEX
  5
BCE
  8
LAYER01
  6
CONTINUOUS
 62
     7
 10
5177.3764160000001
 20
1952.2058549999999
 30
0.0
  0
VERTEX
  5
BCF
  8
LAYER01
  6
CONTINUOUS
 62
     7
 10
5173.4114730000001
 20
1952.2058549999999
 30
0.0
  0
VERTEX
  5
BD0
  8
LAYER01
  6
CONTINUOUS
 62
     7
 10
5168.4552940000003
 20
1953.197091
 30
0.0
  0
VERTEX
  5
BD1
  8
LAYER01
  6
CONTINUOUS
 62
     7
 10
5165.4815869999993
 20
1955.179562
 30
0.0
  0
VERTEX
  5
BD2
  8
LAYER01
  6
CONTINUOUS
 62
     7
 10
5161.5166449999997
 20
1958.1532689999999
 30
0.0
  0
VERTEX
  5
BD3
  8
LAYER01
  6
CONTINUOUS
 62
     7
 10
5159.534173
 20
1961.1269769999999
 30
0.0
  0
VERTEX
  5
BD4
  8
LAYER01
  6
CONTINUOUS
 62
     7
 10
5157.5517020000007
 20
1965.091919
 30
0.0
  0
VERTEX
  5
BD5
  8
LAYER01
  6
CONTINUOUS
 62
     7
 10
5155.569230000001
 20
1969.0568619999999
 30
0.0
  0
VERTEX
  5
BD6
  8
LAYER01
  6
CONTINUOUS
 62
     7
 10
5155.569230000001
 20
1974.01304
 30
0.0
  0
VERTEX
  5
BD7
  8
LAYER01
  6
CONTINUOUS
 62
     7
 10
5155.569230000001
 20
1974.01304
 30
0.0
  0
VERTEX
  5
BD8
  8
LAYER01
  6
CONTINUOUS
 62
     7
 10
5155.569230000001
 20
1977.977983
 30
0.0
  0
VERTEX
  5
BD9
  8
LAYER01
  6
CONTINUOUS
 62
     7
 10
5157.5517020000007
 20
1981.9429259999999
 30
0.0
  0
VERTEX
  5
BDA
  8
LAYER01
  6
CONTINUOUS
 62
     7
 10
5159.534173
 20
1985.9078689999999
 30
0.0
  0
VERTEX
  5
BDB
  8
LAYER01
  6
CONTINUOUS
 62
     7
 10
5161.5166449999997
 20
1988.881576
 30
0.0
  0
VERTEX
  5
BDC
  8
LAYER01
  6
CONTINUOUS
 62
     7
 10
5165.4815869999993
 20
1991.8552830000001
 30
0.0
  0
VERTEX
  5
BDD
  8
LAYER01
  6
CONTINUOUS
 62
     7
 10
5168.4552940000003
 20
1993.8377539999999
 30
0.0
  0
VERTEX
  5
BDE
  8
LAYER01
  6
CONTINUOUS
 62
     7
 10
5173.4114730000001
 20
1994.82899
 30
0.0
  0
VERTEX
  5
BDF
  8
LAYER01
  6
CONTINUOUS
 62
     7
 10
5177.3764160000001
 20
1995.820226
 30
0.0
  0
VERTEX
  5
BE0
  8
LAYER01
  6
CONTINUOUS
 62
     7
 10
5177.3764160000001
 20
1995.820226
 30
0.0
  0
SEQEND
  5
BE1
  8
LAYER01
  6
CONTINUOUS
 62
     7
  0
POLYLINE
  5
33C
  8
LAYER01
  6
CONTINUOUS
 62
     7
 66
     1
 10
0.0
 20
0.0
 30
0.0
 70
     1
  0
VERTEX
  5
BE2
  8
LAYER01
  6
CONTINUOUS
 62
     7
 10
5181.3413579999997
 20
1972.030569
 30
0.0
  0
VERTEX
  5
BE3
  8
LAYER01
  6
CONTINUOUS
 62
     7
 10
5181.3413579999997
 20
1972.030569
 30
0.0
  0
VERTEX
  5
BE4
  8
LAYER01
  6
CONTINUOUS
 62
     7
 10
5184.3150649999989
 20
1973.0218050000001
 30
0.0
  0
VERTEX
  5
BE5
  8
LAYER01
  6
CONTINUOUS
 62
     7
 10
5187.2887719999999
 20
1974.01304
 30
0.0
  0
VERTEX
  5
BE6
  8
LAYER01
  6
CONTINUOUS
 62
     7
 10
5189.2712439999996
 20
1976.9867469999999
 30
0.0
  0
VERTEX
  5
BE7
  8
LAYER01
  6
CONTINUOUS
 62
     7
 10
5189.2712439999996
 20
1979.9604549999999
 30
0.0
  0
VERTEX
  5
BE8
  8
LAYER01
  6
CONTINUOUS
 62
     7
 10
5189.2712439999996
 20
1979.9604549999999
 30
0.0
  0
VERTEX
  5
BE9
  8
LAYER01
  6
CONTINUOUS
 62
     7
 10
5189.2712439999996
 20
1983.925397
 30
0.0
  0
VERTEX
  5
BEA
  8
LAYER01
  6
CONTINUOUS
 62
     7
 10
5186.2975369999986
 20
1986.8991040000001
 30
0.0
  0
VERTEX
  5
BEB
  8
LAYER01
  6
CONTINUOUS
 62
     7
 10
5183.3238299999994
 20
1987.8903399999999
 30
0.0
  0
VERTEX
  5
BEC
  8
LAYER01
  6
CONTINUOUS
 62
     7
 10
5179.3588869999994
 20
1987.8903399999999
 30
0.0
  0
VERTEX
  5
BED
  8
LAYER01
  6
CONTINUOUS
 62
     7
 10
5167.4640589999999
 20
1987.8903399999999
 30
0.0
  0
VERTEX
  5
BEE
  8
LAYER01
  6
CONTINUOUS
 62
     7
 10
5167.4640589999999
 20
1959.144505
 30
0.0
  0
VERTEX
  5
BEF
  8
LAYER01
  6
CONTINUOUS
 62
     7
 10
5171.4290009999986
 20
1959.144505
 30
0.0
  0
VERTEX
  5
BF0
  8
LAYER01
  6
CONTINUOUS
 62
     7
 10
5171.4290009999986
 20
1972.030569
 30
0.0
  0
VERTEX
  5
BF1
  8
LAYER01
  6
CONTINUOUS
 62
     7
 10
5177.3764160000001
 20
1972.030569
 30
0.0
  0
VERTEX
  5
BF2
  8
LAYER01
  6
CONTINUOUS
 62
     7
 10
5184.3150649999989
 20
1959.144505
 30
0.0
  0
VERTEX
  5
BF3
  8
LAYER01
  6
CONTINUOUS
 62
     7
 10
5189.2712439999996
 20
1959.144505
 30
0.0
  0
VERTEX
  5
BF4
  8
LAYER01
  6
CONTINUOUS
 62
     7
 10
5181.3413579999997
 20
1972.030569
 30
0.0
  0
VERTEX
  5
BF5
  8
LAYER01
  6
CONTINUOUS
 62
     7
 10
5181.3413579999997
 20
1972.030569
 30
0.0
  0
SEQEND
  5
BF6
  8
LAYER01
  6
CONTINUOUS
 62
     7
  0
POLYLINE
  5
352
  8
LAYER01
  6
CONTINUOUS
 62
     7
 66
     1
 10
0.0
 20
0.0
 30
0.0
 70
     1
  0
VERTEX
  5
BF7
  8
LAYER01
  6
CONTINUOUS
 62
     7
 10
5178.3676509999996
 20
1983.925397
 30
0.0
  0
VERTEX
  5
BF8
  8
LAYER01
  6
CONTINUOUS
 62
     7
 10
5178.3676509999996
 20
1983.925397
 30
0.0
  0
VERTEX
  5
BF9
  8
LAYER01
  6
CONTINUOUS
 62
     7
 10
5183.3238299999994
 20
1982.934162
 30
0.0
  0
VERTEX
  5
BFA
  8
LAYER01
  6
CONTINUOUS
 62
     7
 10
5185.3063009999996
 20
1981.9429259999999
 30
0.0
  0
VERTEX
  5
BFB
  8
LAYER01
  6
CONTINUOUS
 62
     7
 10
5185.3063009999996
 20
1979.9604549999999
 30
0.0
  0
VERTEX
  5
BFC
  8
LAYER01
  6
CONTINUOUS
 62
     7
 10
5185.3063009999996
 20
1979.9604549999999
 30
0.0
  0
VERTEX
  5
BFD
  8
LAYER01
  6
CONTINUOUS
 62
     7
 10
5184.3150649999989
 20
1977.977983
 30
0.0
  0
VERTEX
  5
BFE
  8
LAYER01
  6
CONTINUOUS
 62
     7
 10
5182.3325940000004
 20
1976.9867469999999
 30
0.0
  0
VERTEX
  5
BFF
  8
LAYER01
  6
CONTINUOUS
 62
     7
 10
5176.3851800000002
 20
1975.995512
 30
0.0
  0
VERTEX
  5
C00
  8
LAYER01
  6
CONTINUOUS
 62
     7
 10
5171.4290009999986
 20
1975.995512
 30
0.0
  0
VERTEX
  5
C01
  8
LAYER01
  6
CONTINUOUS
 62
     7
 10
5171.4290009999986
 20
1983.925397
 30
0.0
  0
VERTEX
  5
C02
  8
LAYER01
  6
CONTINUOUS
 62
     7
 10
5178.3676509999996
 20
1983.925397
 30
0.0
  0
VERTEX
  5
C03
  8
LAYER01
  6
CONTINUOUS
 62
     7
 10
5178.3676509999996
 20
1983.925397
 30
0.0
  0
SEQEND
  5
C04
  8
LAYER01
  6
CONTINUOUS
 62
     7
  0
ENDBLK
  5
361
  8
0
  0
BLOCK
  8
0
  2
*D1
 70
     1
 10
0.0
 20
0.0
 30
0.0
  3
*D1
  1

  0
LINE
  5
364
  8
LAYER01
 62
     7
 10
-331.98105099999998
 20
2051.4229949999999
 30
0.0
 11
568.01894900000002
 21
2051.4229949999999
 31
0.0
  0
LINE
  5
365
  8
LAYER01
 62
     7
 10
-331.98105099999998
 20
2002.9528029999999
 30
0.0
 11
-331.98105099999998
 21
2066.4229949999999
 31
0.0
  0
LINE
  5
366
  8
LAYER01
 62
     7
 10
568.01894900000002
 20
2002.9528029999999
 30
0.0
 11
568.01894900000002
 21
2066.4229949999999
 31
0.0
  0
SOLID
  5
367
  8
LAYER01
 62
     7
 10
-307.98105099999998
 20
2047.423155
 30
0.0
 11
-331.98105099999998
 21
2051.4229949999999
 31
0.0
 12
-307.98105099999998
 22
2055.4228349999998
 32
0.0
 13
-307.98105099999998
 23
2055.4228349999998
 33
0.0
  0
SOLID
  5
368
  8
LAYER01
 62
     7
 10
544.01894900000002
 20
2047.423155
 30
0.0
 11
568.01894900000002
 21
2051.4229949999999
 31
0.0
 12
544.01894900000002
 22
2055.4228349999998
 32
0.0
 13
544.01894900000002
 23
2055.4228349999998
 33
0.0
  0
TEXT
  5
369
  8
LAYER01
  6
CONTINUOUS
 62
     7
 10
0.500005
 20
2066.4229949999999
 30
0.0
 40
30.0
  1
300 - 1250
  0
POINT
  5
36A
  8
LAYER01
 62
     7
 10
-331.98105099999998
 20
1990.9528029999999
 30
0.0
  0
POINT
  5
36B
  8
LAYER01
 62
     7
 10
568.01894900000002
 20
1990.9528029999999
 30
0.0
  0
POINT
  5
36C
  8
LAYER01
 62
     7
 10
568.01894900000002
 20
2051.4229949999999
 30
0.0
  0
ENDBLK
  5
36D
  8
0
  0
BLOCK
  8
0
  2
*D2
 70
     1
 10
0.0
 20
0.0
 30
0.0
  3
*D2
  1

  0
LINE
  5
370
  8
LAYER01
 62
     7
 10
568.01894900000002
 20
2134.0937289999988
 30
0.0
 11
-1231.981051
 21
2134.0937289999988
 31
0.0
  0
LINE
  5
371
  8
LAYER01
 62
     7
 10
568.01894900000002
 20
2002.9528029999999
 30
0.0
 11
568.01894900000002
 21
2149.0937290000002
 31
0.0
  0
LINE
  5
372
  8
LAYER01
 62
     7
 10
-1231.981051
 20
2002.9528029999999
 30
0.0
 11
-1231.981051
 21
2149.0937290000002
 31
0.0
  0
SOLID
  5
373
  8
LAYER01
 62
     7
 10
544.01894900000002
 20
2138.0935690000001
 30
0.0
 11
568.01894900000002
 21
2134.0937289999988
 31
0.0
 12
544.01894900000002
 22
2130.0938890000002
 32
0.0
 13
544.01894900000002
 23
2130.0938890000002
 33
0.0
  0
SOLID
  5
374
  8
LAYER01
 62
     7
 10
-1207.981051
 20
2138.0935690000001
 30
0.0
 11
-1231.981051
 21
2134.0937289999988
 31
0.0
 12
-1207.981051
 22
2130.0938890000002
 32
0.0
 13
-1207.981051
 23
2130.0938890000002
 33
0.0
  0
TEXT
  5
375
  8
LAYER01
  6
CONTINUOUS
 62
     7
 10
-442.04406399999988
 20
2149.0937290000002
 30
0.0
 40
30.0
  1
700 - 2500
  0
POINT
  5
376
  8
LAYER01
 62
     7
 10
568.01894900000002
 20
1990.9528029999999
 30
0.0
  0
POINT
  5
377
  8
LAYER01
 62
     7
 10
-1231.981051
 20
1990.9528029999999
 30
0.0
  0
POINT
  5
378
  8
LAYER01
 62
     7
 10
-1231.981051
 20
2134.0937289999988
 30
0.0
  0
ENDBLK
  5
379
  8
0
  0
BLOCK
  8
0
  2
*D3
 70
     1
 10
0.0
 20
0.0
 30
0.0
  3
*D3
  1

  0
LINE
  5
37C
  8
LAYER01
 62
     7
 10
568.01894900000002
 20
950.96512899999982
 30
0.0
 11
-1231.981051
 21
950.96512899999982
 31
0.0
  0
LINE
  5
37D
  8
LAYER01
 62
     7
 10
568.01894900000002
 20
773.56310399999995
 30
0.0
 11
568.01894900000002
 21
965.96512899999993
 31
0.0
  0
LINE
  5
37E
  8
LAYER01
 62
     7
 10
-1231.981051
 20
773.56310399999995
 30
0.0
 11
-1231.981051
 21
965.96512899999993
 31
0.0
  0
SOLID
  5
37F
  8
LAYER01
 62
     7
 10
544.01894900000002
 20
954.964969
 30
0.0
 11
568.01894900000002
 21
950.96512899999982
 31
0.0
 12
544.01894900000002
 22
946.96528899999998
 32
0.0
 13
544.01894900000002
 23
946.96528899999998
 33
0.0
  0
SOLID
  5
380
  8
LAYER01
 62
     7
 10
-1207.981051
 20
954.964969
 30
0.0
 11
-1231.981051
 21
950.96512899999982
 31
0.0
 12
-1207.981051
 22
946.96528899999998
 32
0.0
 13
-1207.981051
 23
946.96528899999998
 33
0.0
  0
TEXT
  5
381
  8
LAYER01
  6
CONTINUOUS
 62
     7
 10
-425.22894100000002
 20
965.96512899999993
 30
0.0
 40
30.0
  1
ab 1400
  0
POINT
  5
382
  8
LAYER01
 62
     7
 10
568.01894900000002
 20
761.56310399999995
 30
0.0
  0
POINT
  5
383
  8
LAYER01
 62
     7
 10
-1231.981051
 20
761.56310399999995
 30
0.0
  0
POINT
  5
384
  8
LAYER01
 62
     7
 10
-1231.981051
 20
950.96512899999982
 30
0.0
  0
ENDBLK
  5
385
  8
0
  0
BLOCK
  8
0
  2
*D4
 70
     1
 10
0.0
 20
0.0
 30
0.0
  3
*D4
  1

  0
LINE
  5
388
  8
LAYER01
 62
     7
 10
68.037875999999983
 20
840.891434
 30
0.0
 11
568.01894900000002
 21
840.891434
 31
0.0
  0
LINE
  5
389
  8
LAYER01
 62
     7
 10
68.037875999999983
 20
773.56310399999995
 30
0.0
 11
68.037875999999983
 21
855.89143399999989
 31
0.0
  0
LINE
  5
38A
  8
LAYER01
 62
     7
 10
568.01894900000002
 20
773.56310399999995
 30
0.0
 11
568.01894900000002
 21
855.89143399999989
 31
0.0
  0
SOLID
  5
38B
  8
LAYER01
 62
     7
 10
92.037875999999997
 20
836.89159400000005
 30
0.0
 11
68.037875999999983
 21
840.891434
 31
0.0
 12
92.037875999999997
 22
844.89127399999995
 32
0.0
 13
92.037875999999997
 23
844.89127399999995
 33
0.0
  0
SOLID
  5
38C
  8
LAYER01
 62
     7
 10
544.01894900000002
 20
836.89159400000005
 30
0.0
 11
568.01894900000002
 21
840.891434
 31
0.0
 12
544.01894900000002
 22
844.89127399999995
 32
0.0
 13
544.01894900000002
 23
844.89127399999995
 33
0.0
  0
TEXT
  5
38D
  8
LAYER01
  6
CONTINUOUS
 62
     7
 10
200.509468
 20
855.89143399999989
 30
0.0
 40
30.0
  1
350 - 1250
  0
POINT
  5
38E
  8
LAYER01
 62
     7
 10
68.037875999999983
 20
761.56310399999995
 30
0.0
  0
POINT
  5
38F
  8
LAYER01
 62
     7
 10
568.01894900000002
 20
761.56310399999995
 30
0.0
  0
POINT
  5
390
  8
LAYER01
 62
     7
 10
568.01894900000002
 20
840.891434
 30
0.0
  0
ENDBLK
  5
391
  8
0
  0
BLOCK
  8
0
  2
*D5
 70
     1
 10
0.0
 20
0.0
 30
0.0
  3
*D5
  1

  0
LINE
  5
394
  8
LAYER01
 62
     7
 10
-732.74474799999996
 20
840.891434
 30
0.0
 11
68.037875999999983
 21
840.891434
 31
0.0
  0
LINE
  5
395
  8
LAYER01
 62
     7
 10
-732.74474799999996
 20
773.56310399999995
 30
0.0
 11
-732.74474799999996
 21
855.89143399999989
 31
0.0
  0
LINE
  5
396
  8
LAYER01
 62
     7
 10
68.037875999999983
 20
773.56310399999995
 30
0.0
 11
68.037875999999983
 21
855.89143399999989
 31
0.0
  0
SOLID
  5
397
  8
LAYER01
 62
     7
 10
-708.74474799999996
 20
836.89159400000005
 30
0.0
 11
-732.74474799999996
 21
840.891434
 31
0.0
 12
-708.74474799999996
 22
844.89127399999995
 32
0.0
 13
-708.74474799999996
 23
844.89127399999995
 33
0.0
  0
SOLID
  5
398
  8
LAYER01
 62
     7
 10
44.037875999999997
 20
836.89159400000005
 30
0.0
 11
68.037875999999983
 21
840.891434
 31
0.0
 12
44.037875999999997
 22
844.89127399999995
 32
0.0
 13
44.037875999999997
 23
844.89127399999995
 33
0.0
  0
TEXT
  5
399
  8
LAYER01
  6
CONTINUOUS
 62
     7
 10
-456.89379699999989
 20
855.89143399999989
 30
0.0
 40
30.0
  1
700 - 2500
  0
POINT
  5
39A
  8
LAYER01
 62
     7
 10
-732.74474799999996
 20
761.56310399999995
 30
0.0
  0
POINT
  5
39B
  8
LAYER01
 62
     7
 10
68.037875999999983
 20
761.56310399999995
 30
0.0
  0
POINT
  5
39C
  8
LAYER01
 62
     7
 10
68.037875999999983
 20
840.891434
 30
0.0
  0
ENDBLK
  5
39D
  8
0
  0
BLOCK
  8
0
  2
*D6
 70
     1
 10
0.0
 20
0.0
 30
0.0
  3
*D6
  1

  0
LINE
  5
3A0
  8
LAYER01
 62
     7
 10
-732.74474799999996
 20
840.891434
 30
0.0
 11
-1231.981051
 21
840.891434
 31
0.0
  0
LINE
  5
3A1
  8
LAYER01
 62
     7
 10
-732.74474799999996
 20
773.56310399999995
 30
0.0
 11
-732.74474799999996
 21
855.89143399999989
 31
0.0
  0
LINE
  5
3A2
  8
LAYER01
 62
     7
 10
-1231.981051
 20
773.56310399999995
 30
0.0
 11
-1231.981051
 21
855.89143399999989
 31
0.0
  0
SOLID
  5
3A3
  8
LAYER01
 62
     7
 10
-756.74474800000007
 20
844.89127399999995
 30
0.0
 11
-732.74474799999996
 21
840.891434
 31
0.0
 12
-756.74474800000007
 22
836.89159400000005
 32
0.0
 13
-756.74474800000007
 23
836.89159400000005
 33
0.0
  0
SOLID
  5
3A4
  8
LAYER01
 62
     7
 10
-1207.981051
 20
844.89127399999995
 30
0.0
 11
-1231.981051
 21
840.891434
 31
0.0
 12
-1207.981051
 22
836.89159400000005
 32
0.0
 13
-1207.981051
 23
836.89159400000005
 33
0.0
  0
TEXT
  5
3A5
  8
LAYER01
  6
CONTINUOUS
 62
     7
 10
-1100.1211350000001
 20
855.89143399999989
 30
0.0
 40
30.0
  1
350 - 1250
  0
POINT
  5
3A6
  8
LAYER01
 62
     7
 10
-732.74474799999996
 20
761.56310399999995
 30
0.0
  0
POINT
  5
3A7
  8
LAYER01
 62
     7
 10
-1231.981051
 20
761.56310399999995
 30
0.0
  0
POINT
  5
3A8
  8
LAYER01
 62
     7
 10
-1231.981051
 20
840.891434
 30
0.0
  0
ENDBLK
  5
3A9
  8
0
  0
BLOCK
  8
0
  2
*D7
 70
     1
 10
0.0
 20
0.0
 30
0.0
  3
*D7
  1

  0
LINE
  5
3AC
  8
LAYER01
 62
     7
 10
-462.74474800000002
 20
187.27409299999999
 30
0.0
 11
-1002.744748
 21
187.27409299999999
 31
0.0
  0
LINE
  5
3AD
  8
LAYER01
 62
     7
 10
-462.74474800000002
 20
249.56310400000001
 30
0.0
 11
-462.74474800000002
 21
172.27409299999999
 31
0.0
  0
LINE
  5
3AE
  8
LAYER01
 62
     7
 10
-1002.744748
 20
249.56310400000001
 30
0.0
 11
-1002.744748
 21
172.27409299999999
 31
0.0
  0
SOLID
  5
3AF
  8
LAYER01
 62
     7
 10
-486.74474800000002
 20
191.273933
 30
0.0
 11
-462.74474800000002
 21
187.27409299999999
 31
0.0
 12
-486.74474800000002
 22
183.27425299999999
 32
0.0
 13
-486.74474800000002
 23
183.27425299999999
 33
0.0
  0
SOLID
  5
3B0
  8
LAYER01
 62
     7
 10
-978.74474799999996
 20
191.273933
 30
0.0
 11
-1002.744748
 21
187.27409299999999
 31
0.0
 12
-978.74474799999996
 22
183.27425299999999
 32
0.0
 13
-978.74474799999996
 23
183.27425299999999
 33
0.0
  0
TEXT
  5
3B1
  8
LAYER01
  6
CONTINUOUS
 62
     7
 10
-770.24474799999996
 20
202.27409299999999
 30
0.0
 40
30.0
  1
540
  0
POINT
  5
3B2
  8
LAYER01
 62
     7
 10
-462.74474800000002
 20
261.56310400000001
 30
0.0
  0
POINT
  5
3B3
  8
LAYER01
 62
     7
 10
-1002.744748
 20
261.56310400000001
 30
0.0
  0
POINT
  5
3B4
  8
LAYER01
 62
     7
 10
-1002.744748
 20
187.27409299999999
 30
0.0
  0
ENDBLK
  5
3B5
  8
0
  0
BLOCK
  8
0
  2
*D8
 70
     1
 10
0.0
 20
0.0
 30
0.0
  3
*D8
  1

  0
LINE
  5
3B8
  8
LAYER01
 62
     7
 10
-744.75767800000006
 20
689.28864999999985
 30
0.0
 11
-771.39590799999985
 21
717.50707999999997
 31
0.0
  0
LINE
  5
3B9
  8
LAYER01
 62
     7
 10
-771.39590799999985
 20
717.50707999999997
 30
0.0
 11
-807.50496399999986
 21
717.50707999999997
 31
0.0
  0
SOLID
  5
3BA
  8
LAYER01
 62
     7
 10
-758.32397300000002
 20
709.48653000000002
 30
0.0
 11
-744.75767800000006
 21
689.28864999999985
 31
0.0
 12
-764.14113299999985
 22
703.99512400000003
 32
0.0
 13
-764.14113299999985
 23
703.99512400000003
 33
0.0
  0
TEXT
  5
3BB
  8
LAYER01
  6
CONTINUOUS
 62
     7
 10
-902.50496399999997
 20
702.50707999999986
 30
0.0
 40
30.0
  1
%%c35
  0
POINT
  5
3BC
  8
LAYER01
 62
     7
 10
-732.74474799999996
 20
676.56310399999995
 30
0.0
  0
POINT
  5
3BD
  8
LAYER01
 62
     7
 10
-771.39590799999985
 20
717.50707999999997
 30
0.0
  0
ENDBLK
  5
3BE
  8
0
  0
BLOCK
  8
0
  2
RETO-G8
 70
     0
 10
0.0
 20
0.0
 30
0.0
  3
RETO-G8
  1

  0
LINE
  5
3C1
  8
0
  6
CONTINUOUS
 62
     7
 10
-1002.744748
 20
611.56310399999995
 30
0.0
 11
-1002.744748
 21
311.56310400000001
 31
0.0
  0
LINE
  5
3C2
  8
0
  6
CONTINUOUS
 62
     7
 10
-462.74474800000002
 20
611.56310399999995
 30
0.0
 11
-462.74474800000002
 21
311.56310400000001
 31
0.0
  0
LINE
  5
3C3
  8
0
  6
CONTINUOUS
 62
     7
 10
-992.74474800000007
 20
301.56310400000001
 30
0.0
 11
-472.74474800000007
 21
301.56310400000001
 31
0.0
  0
DIMENSION
  5
3C4
  8
LAYER01
 62
     7
  2
*D7
 10
-1002.744748
 20
187.27409299999999
 30
0.0
 11
-732.74474799999996
 21
217.27409299999999
 31
0.0
  3
STANDARD
 13
-462.74474800000002
 23
261.56310400000001
 33
0.0
 14
-1002.744748
 24
261.56310400000001
 34
0.0
  0
ARC
  5
3C5
  8
0
  6
CONTINUOUS
 62
     7
 10
-992.74474800000007
 20
311.56310400000001
 30
0.0
 40
10.0
 50
180.0
 51
270.0
  0
ARC
  5
3C6
  8
0
  6
CONTINUOUS
 62
     7
 10
-472.74474800000007
 20
311.56310400000001
 30
0.0
 40
10.0
 50
270.0
 51
0.0
  0
LINE
  5
3C7
  8
0
  6
CONTINUOUS
 62
     7
 10
-992.74474800000007
 20
621.56310399999995
 30
0.0
 11
-472.74474800000007
 21
621.56310399999995
 31
0.0
  0
LINE
  5
3C8
  8
LAYER01
  6
CONTINUOUS
 62
     7
 10
-686.82469700000001
 20
676.56310399999995
 30
0.0
 11
-782.62455999999997
 21
676.56310399999995
 31
0.0
  0
LINE
  5
3C9
  8
LAYER01
  6
CONTINUOUS
 62
     7
 10
-680.17302900000004
 20
461.56310400000001
 30
0.0
 11
-788.66333899999995
 21
461.56310400000001
 31
0.0
  0
DIMENSION
  5
3CA
  8
LAYER01
 62
     7
  2
*D8
 10
-771.39590799999985
 20
717.50707999999997
 30
0.0
 11
-862.50496399999997
 21
717.50707999999997
 31
0.0
 70
     3
  3
STANDARD
 15
-744.75767800000006
 25
689.28864999999985
 35
0.0
 40
38.805605999999997
  0
ARC
  5
3CB
  8
0
  6
CONTINUOUS
 62
     7
 10
-992.74474800000007
 20
611.56310399999995
 30
0.0
 40
10.0
 50
90.0
 51
180.0
  0
CIRCLE
  5
3CC
  8
0
  6
CONTINUOUS
 62
     7
 10
-732.74474799999996
 20
461.56310400000001
 30
0.0
 40
23.0
  0
CIRCLE
  5
3CD
  8
0
  6
CONTINUOUS
 62
     7
 10
-732.74474799999996
 20
461.56310400000001
 30
0.0
 40
32.5
  0
CIRCLE
  5
3CE
  8
0
  6
CONTINUOUS
 62
     7
 10
-732.74474799999996
 20
676.56310399999995
 30
0.0
 40
17.5
  0
ARC
  5
3CF
  8
0
  6
CONTINUOUS
 62
     7
 10
-472.74474800000007
 20
611.56310399999995
 30
0.0
 40
10.0
 50
0.0
 51
90.0
  0
LINE
  5
3D0
  8
LAYER01
  6
CONTINUOUS
 62
     7
 10
-732.74474799999996
 20
405.8289079999999
 30
0.0
 11
-732.74474799999996
 21
515.10631599999988
 31
0.0
  0
LINE
  5
3D1
  8
LAYER01
  6
CONTINUOUS
 62
     7
 10
-732.74474799999996
 20
639.58753699999988
 30
0.0
 11
-732.74474799999996
 21
718.45731799999999
 31
0.0
  0
ENDBLK
  5
3D2
  8
0
  0
BLOCK
  8
0
  2
*D10
 70
     1
 10
0.0
 20
0.0
 30
0.0
  3
*D10
  1

  0
LINE
  5
3D5
  8
LAYER01
 62
     7
 10
-1312.3183919999999
 20
-106.003908
 30
0.0
 11
-1312.3183919999999
 21
43.99609199999999
 31
0.0
  0
LINE
  5
3D6
  8
LAYER01
 62
     7
 10
-1243.981051
 20
-106.003908
 30
0.0
 11
-1327.3183919999999
 21
-106.003908
 31
0.0
  0
LINE
  5
3D7
  8
LAYER01
 62
     7
 10
-1243.981051
 20
43.99609199999999
 30
0.0
 11
-1327.3183919999999
 21
43.99609199999999
 31
0.0
  0
SOLID
  5
3D8
  8
LAYER01
 62
     7
 10
-1308.318552
 20
-82.003907999999996
 30
0.0
 11
-1312.3183919999999
 21
-106.003908
 31
0.0
 12
-1316.3182320000001
 22
-82.003907999999996
 32
0.0
 13
-1316.3182320000001
 23
-82.003907999999996
 33
0.0
  0
SOLID
  5
3D9
  8
LAYER01
 62
     7
 10
-1308.318552
 20
19.996092000000001
 30
0.0
 11
-1312.3183919999999
 21
43.99609199999999
 31
0.0
 12
-1316.3182320000001
 22
19.996092000000001
 32
0.0
 13
-1316.3182320000001
 23
19.996092000000001
 33
0.0
  0
TEXT
  5
3DA
  8
LAYER01
  6
CONTINUOUS
 62
     7
 10
-1327.3183919999999
 20
-63.503907999999988
 30
0.0
 40
30.0
  1
150
 50
90.0
  0
POINT
  5
3DB
  8
LAYER01
 62
     7
 10
-1231.981051
 20
-106.003908
 30
0.0
  0
POINT
  5
3DC
  8
LAYER01
 62
     7
 10
-1231.981051
 20
43.99609199999999
 30
0.0
  0
POINT
  5
3DD
  8
LAYER01
 62
     7
 10
-1312.3183919999999
 20
43.99609199999999
 30
0.0
  0
ENDBLK
  5
3DE
  8
0
  0
BLOCK
  8
0
  2
*D11
 70
     1
 10
0.0
 20
0.0
 30
0.0
  3
*D11
  1

  0
LINE
  5
3E1
  8
LAYER01
 62
     7
 10
-1312.3183919999999
 20
43.99609199999999
 30
0.0
 11
-1312.3183919999999
 21
93.996092000000004
 31
0.0
  0
LINE
  5
3E2
  8
LAYER01
 62
     7
 10
-1243.981051
 20
43.99609199999999
 30
0.0
 11
-1327.3183919999999
 21
43.99609199999999
 31
0.0
  0
LINE
  5
3E3
  8
LAYER01
 62
     7
 10
-1243.981051
 20
93.996092000000004
 30
0.0
 11
-1327.3183919999999
 21
93.996092000000004
 31
0.0
  0
SOLID
  5
3E4
  8
LAYER01
 62
     7
 10
-1308.318552
 20
67.996092000000004
 30
0.0
 11
-1312.3183919999999
 21
43.99609199999999
 31
0.0
 12
-1316.3182320000001
 22
67.996092000000004
 32
0.0
 13
-1316.3182320000001
 23
67.996092000000004
 33
0.0
  0
SOLID
  5
3E5
  8
LAYER01
 62
     7
 10
-1308.318552
 20
69.996092000000004
 30
0.0
 11
-1312.3183919999999
 21
93.996092000000004
 31
0.0
 12
-1316.3182320000001
 22
69.996092000000004
 32
0.0
 13
-1316.3182320000001
 23
69.996092000000004
 33
0.0
  0
TEXT
  5
3E6
  8
LAYER01
  6
CONTINUOUS
 62
     7
 10
-1327.3183919999999
 20
46.49609199999999
 30
0.0
 40
30.0
  1
50
 50
90.0
  0
POINT
  5
3E7
  8
LAYER01
 62
     7
 10
-1231.981051
 20
43.99609199999999
 30
0.0
  0
POINT
  5
3E8
  8
LAYER01
 62
     7
 10
-1231.981051
 20
93.996092000000004
 30
0.0
  0
POINT
  5
3E9
  8
LAYER01
 62
     7
 10
-1312.3183919999999
 20
93.996092000000004
 30
0.0
  0
ENDBLK
  5
3EA
  8
0
  0
BLOCK
  8
0
  2
*D12
 70
     1
 10
0.0
 20
0.0
 30
0.0
  3
*D12
  1

  0
LINE
  5
3ED
  8
LAYER01
 62
     7
 10
-1285.7117189999999
 20
301.56310400000001
 30
0.0
 11
-1285.7117189999999
 21
349.56310400000001
 31
0.0
  0
LINE
  5
3EE
  8
LAYER01
 62
     7
 10
-1285.7117189999999
 20
261.56310400000001
 30
0.0
 11
-1285.7117189999999
 21
213.56310400000001
 31
0.0
  0
LINE
  5
3EF
  8
LAYER01
 62
     7
 10
-1243.981051
 20
301.56310400000001
 30
0.0
 11
-1300.7117189999999
 21
301.56310400000001
 31
0.0
  0
LINE
  5
3F0
  8
LAYER01
 62
     7
 10
-1243.981051
 20
261.56310400000001
 30
0.0
 11
-1300.7117189999999
 21
261.56310400000001
 31
0.0
  0
SOLID
  5
3F1
  8
LAYER01
 62
     7
 10
-1289.7115590000001
 20
325.56310400000001
 30
0.0
 11
-1285.7117189999999
 21
301.56310400000001
 31
0.0
 12
-1281.711879
 22
325.56310400000001
 32
0.0
 13
-1281.711879
 23
325.56310400000001
 33
0.0
  0
SOLID
  5
3F2
  8
LAYER01
 62
     7
 10
-1289.7115590000001
 20
237.56310400000001
 30
0.0
 11
-1285.7117189999999
 21
261.56310400000001
 31
0.0
 12
-1281.711879
 22
237.56310400000001
 32
0.0
 13
-1281.711879
 23
237.56310400000001
 33
0.0
  0
TEXT
  5
3F3
  8
LAYER01
  6
CONTINUOUS
 62
     7
 10
-1300.7117189999999
 20
364.56310400000001
 30
0.0
 40
30.0
  1
40
 50
90.0
  0
POINT
  5
3F4
  8
LAYER01
 62
     7
 10
-1231.981051
 20
301.56310400000001
 30
0.0
  0
POINT
  5
3F5
  8
LAYER01
 62
     7
 10
-1231.981051
 20
261.56310400000001
 30
0.0
  0
POINT
  5
3F6
  8
LAYER01
 62
     7
 10
-1285.7117189999999
 20
261.56310400000001
 30
0.0
  0
ENDBLK
  5
3F7
  8
0
  0
BLOCK
  8
0
  2
*D13
 70
     1
 10
0.0
 20
0.0
 30
0.0
  3
*D13
  1

  0
LINE
  5
3FA
  8
LAYER01
 62
     7
 10
-1356.9795939999999
 20
301.56310400000001
 30
0.0
 11
-1356.9795939999999
 21
621.56310399999995
 31
0.0
  0
LINE
  5
3FB
  8
LAYER01
 62
     7
 10
-1243.981051
 20
301.56310400000001
 30
0.0
 11
-1371.9795939999999
 21
301.56310400000001
 31
0.0
  0
LINE
  5
3FC
  8
LAYER01
 62
     7
 10
-1243.981051
 20
621.56310399999995
 30
0.0
 11
-1371.9795939999999
 21
621.56310399999995
 31
0.0
  0
SOLID
  5
3FD
  8
LAYER01
 62
     7
 10
-1352.979754
 20
325.56310400000001
 30
0.0
 11
-1356.9795939999999
 21
301.56310400000001
 31
0.0
 12
-1360.9794340000001
 22
325.56310400000001
 32
0.0
 13
-1360.9794340000001
 23
325.56310400000001
 33
0.0
  0
SOLID
  5
3FE
  8
LAYER01
 62
     7
 10
-1352.979754
 20
597.56310399999995
 30
0.0
 11
-1356.9795939999999
 21
621.56310399999995
 31
0.0
 12
-1360.9794340000001
 22
597.56310399999995
 32
0.0
 13
-1360.9794340000001
 23
597.56310399999995
 33
0.0
  0
TEXT
  5
3FF
  8
LAYER01
  6
CONTINUOUS
 62
     7
 10
-1371.9795939999999
 20
424.06310400000001
 30
0.0
 40
30.0
  1
320
 50
90.0
  0
POINT
  5
400
  8
LAYER01
 62
     7
 10
-1231.981051
 20
301.56310400000001
 30
0.0
  0
POINT
  5
401
  8
LAYER01
 62
     7
 10
-1231.981051
 20
621.56310399999995
 30
0.0
  0
POINT
  5
402
  8
LAYER01
 62
     7
 10
-1356.9795939999999
 20
621.56310399999995
 30
0.0
  0
ENDBLK
  5
403
  8
0
  0
BLOCK
  8
0
  2
*D14
 70
     1
 10
0.0
 20
0.0
 30
0.0
  3
*D14
  1

  0
LINE
  5
406
  8
LAYER01
 62
     7
 10
-1443.4512810000001
 20
761.56310399999995
 30
0.0
 11
-1443.4512810000001
 21
261.56310400000001
 31
0.0
  0
LINE
  5
407
  8
LAYER01
 62
     7
 10
-1243.981051
 20
761.56310399999995
 30
0.0
 11
-1458.4512810000001
 21
761.56310399999995
 31
0.0
  0
LINE
  5
408
  8
LAYER01
 62
     7
 10
-1243.981051
 20
261.56310400000001
 30
0.0
 11
-1458.4512810000001
 21
261.56310400000001
 31
0.0
  0
SOLID
  5
409
  8
LAYER01
 62
     7
 10
-1447.4511210000001
 20
737.56310399999995
 30
0.0
 11
-1443.4512810000001
 21
761.56310399999995
 31
0.0
 12
-1439.4514409999999
 22
737.56310399999995
 32
0.0
 13
-1439.4514409999999
 23
737.56310399999995
 33
0.0
  0
SOLID
  5
40A
  8
LAYER01
 62
     7
 10
-1447.4511210000001
 20
285.56310400000001
 30
0.0
 11
-1443.4512810000001
 21
261.56310400000001
 31
0.0
 12
-1439.4514409999999
 22
285.56310400000001
 32
0.0
 13
-1439.4514409999999
 23
285.56310400000001
 33
0.0
  0
TEXT
  5
40B
  8
LAYER01
  6
CONTINUOUS
 62
     7
 10
-1458.4512810000001
 20
476.56310400000001
 30
0.0
 40
30.0
  1
500
 50
90.0
  0
POINT
  5
40C
  8
LAYER01
 62
     7
 10
-1231.981051
 20
761.56310399999995
 30
0.0
  0
POINT
  5
40D
  8
LAYER01
 62
     7
 10
-1231.981051
 20
261.56310400000001
 30
0.0
  0
POINT
  5
40E
  8
LAYER01
 62
     7
 10
-1443.4512810000001
 20
261.56310400000001
 30
0.0
  0
ENDBLK
  5
40F
  8
0
  0
BLOCK
  8
0
  2
*D15
 70
     1
 10
0.0
 20
0.0
 30
0.0
  3
*D15
  1

  0
LINE
  5
412
  8
LAYER01
 62
     7
 10
-1356.9795939999999
 20
621.56310399999995
 30
0.0
 11
-1356.9795939999999
 21
761.56310399999995
 31
0.0
  0
LINE
  5
413
  8
LAYER01
 62
     7
 10
-1243.981051
 20
621.56310399999995
 30
0.0
 11
-1371.9795939999999
 21
621.56310399999995
 31
0.0
  0
LINE
  5
414
  8
LAYER01
 62
     7
 10
-1243.981051
 20
761.56310399999995
 30
0.0
 11
-1371.9795939999999
 21
761.56310399999995
 31
0.0
  0
SOLID
  5
415
  8
LAYER01
 62
     7
 10
-1352.979754
 20
645.56310399999995
 30
0.0
 11
-1356.9795939999999
 21
621.56310399999995
 31
0.0
 12
-1360.9794340000001
 22
645.56310399999995
 32
0.0
 13
-1360.9794340000001
 23
645.56310399999995
 33
0.0
  0
SOLID
  5
416
  8
LAYER01
 62
     7
 10
-1352.979754
 20
737.56310399999995
 30
0.0
 11
-1356.9795939999999
 21
761.56310399999995
 31
0.0
 12
-1360.9794340000001
 22
737.56310399999995
 32
0.0
 13
-1360.9794340000001
 23
737.56310399999995
 33
0.0
  0
TEXT
  5
417
  8
LAYER01
  6
CONTINUOUS
 62
     7
 10
-1371.9795939999999
 20
659.06310399999995
 30
0.0
 40
30.0
  1
140
 50
90.0
  0
POINT
  5
418
  8
LAYER01
 62
     7
 10
-1231.981051
 20
621.56310399999995
 30
0.0
  0
POINT
  5
419
  8
LAYER01
 62
     7
 10
-1231.981051
 20
761.56310399999995
 30
0.0
  0
POINT
  5
41A
  8
LAYER01
 62
     7
 10
-1356.9795939999999
 20
761.56310399999995
 30
0.0
  0
ENDBLK
  5
41B
  8
0
  0
BLOCK
  8
0
  2
*D16
 70
     1
 10
0.0
 20
0.0
 30
0.0
  3
*D16
  1

  0
LINE
  5
41E
  8
LAYER01
 62
     7
 10
-1285.7117189999999
 20
621.56310399999995
 30
0.0
 11
-1285.7117189999999
 21
676.56310399999995
 31
0.0
  0
LINE
  5
41F
  8
LAYER01
 62
     7
 10
-1243.981051
 20
621.56310399999995
 30
0.0
 11
-1300.7117189999999
 21
621.56310399999995
 31
0.0
  0
LINE
  5
420
  8
LAYER01
 62
     7
 10
-1243.981051
 20
676.56310399999995
 30
0.0
 11
-1300.7117189999999
 21
676.56310399999995
 31
0.0
  0
SOLID
  5
421
  8
LAYER01
 62
     7
 10
-1281.711879
 20
645.56310399999995
 30
0.0
 11
-1285.7117189999999
 21
621.56310399999995
 31
0.0
 12
-1289.7115590000001
 22
645.56310399999995
 32
0.0
 13
-1289.7115590000001
 23
645.56310399999995
 33
0.0
  0
SOLID
  5
422
  8
LAYER01
 62
     7
 10
-1281.711879
 20
652.56310399999995
 30
0.0
 11
-1285.7117189999999
 21
676.56310399999995
 31
0.0
 12
-1289.7115590000001
 22
652.56310399999995
 32
0.0
 13
-1289.7115590000001
 23
652.56310399999995
 33
0.0
  0
TEXT
  5
423
  8
LAYER01
  6
CONTINUOUS
 62
     7
 10
-1300.7117189999999
 20
624.06310399999995
 30
0.0
 40
30.0
  1
55
 50
90.0
  0
POINT
  5
424
  8
LAYER01
 62
     7
 10
-1231.981051
 20
621.56310399999995
 30
0.0
  0
POINT
  5
425
  8
LAYER01
 62
     7
 10
-1231.981051
 20
676.56310399999995
 30
0.0
  0
POINT
  5
426
  8
LAYER01
 62
     7
 10
-1285.7117189999999
 20
676.56310399999995
 30
0.0
  0
ENDBLK
  5
427
  8
0
  0
BLOCK
  8
0
  2
*D17
 70
     1
 10
0.0
 20
0.0
 30
0.0
  3
*D17
  1

  0
LINE
  5
42A
  8
LAYER01
 62
     7
 10
-154.72475600000001
 20
-501.87869699999987
 30
0.0
 11
-106.724756
 21
-501.87869699999987
 31
0.0
  0
LINE
  5
42B
  8
LAYER01
 62
     7
 10
-200.77793399999999
 20
-501.87869699999987
 30
0.0
 11
-248.77793399999999
 21
-501.87869699999987
 31
0.0
  0
LINE
  5
42C
  8
LAYER01
 62
     7
 10
-154.72475600000001
 20
-464.06424500000003
 30
0.0
 11
-154.72475600000001
 21
-516.87869699999999
 31
0.0
  0
LINE
  5
42D
  8
LAYER01
 62
     7
 10
-200.77793399999999
 20
-464.06424500000003
 30
0.0
 11
-200.77793399999999
 21
-516.87869699999999
 31
0.0
  0
SOLID
  5
42E
  8
LAYER01
 62
     7
 10
-130.72475600000001
 20
-497.87885699999998
 30
0.0
 11
-154.72475600000001
 21
-501.87869699999987
 31
0.0
 12
-130.72475600000001
 22
-505.87853699999988
 32
0.0
 13
-130.72475600000001
 23
-505.87853699999988
 33
0.0
  0
SOLID
  5
42F
  8
LAYER01
 62
     7
 10
-224.77793399999999
 20
-497.87885699999998
 30
0.0
 11
-200.77793399999999
 21
-501.87869699999987
 31
0.0
 12
-224.77793399999999
 22
-505.87853699999988
 32
0.0
 13
-224.77793399999999
 23
-505.87853699999988
 33
0.0
  0
TEXT
  5
430
  8
LAYER01
  6
CONTINUOUS
 62
     7
 10
-91.724755999999999
 20
-486.87869699999999
 30
0.0
 40
30.0
  1
46
  0
POINT
  5
431
  8
LAYER01
 62
     7
 10
-154.72475600000001
 20
-452.06424500000003
 30
0.0
  0
POINT
  5
432
  8
LAYER01
 62
     7
 10
-200.77793399999999
 20
-452.06424500000003
 30
0.0
  0
POINT
  5
433
  8
LAYER01
 62
     7
 10
-200.77793399999999
 20
-501.87869699999987
 30
0.0
  0
ENDBLK
  5
434
  8
0
  0
BLOCK
  8
0
  2
*D18
 70
     1
 10
0.0
 20
0.0
 30
0.0
  3
*D18
  1

  0
LINE
  5
437
  8
LAYER01
 62
     7
 10
-337.77793400000002
 20
-226.953149
 30
0.0
 11
-17.783830999999999
 21
-226.953149
 31
0.0
  0
LINE
  5
438
  8
LAYER01
 62
     7
 10
-337.77793400000002
 20
-241.064245
 30
0.0
 11
-337.77793400000002
 21
-211.953149
 31
0.0
  0
LINE
  5
439
  8
LAYER01
 62
     7
 10
-17.783830999999999
 20
-241.064245
 30
0.0
 11
-17.783830999999999
 21
-211.953149
 31
0.0
  0
SOLID
  5
43A
  8
LAYER01
 62
     7
 10
-313.77793400000002
 20
-230.952989
 30
0.0
 11
-337.77793400000002
 21
-226.953149
 31
0.0
 12
-313.77793400000002
 22
-222.95330899999999
 32
0.0
 13
-313.77793400000002
 23
-222.95330899999999
 33
0.0
  0
SOLID
  5
43B
  8
LAYER01
 62
     7
 10
-41.783830999999999
 20
-230.952989
 30
0.0
 11
-17.783830999999999
 21
-226.953149
 31
0.0
 12
-41.783830999999999
 22
-222.95330899999999
 32
0.0
 13
-41.783830999999999
 23
-222.95330899999999
 33
0.0
  0
TEXT
  5
43C
  8
LAYER01
  6
CONTINUOUS
 62
     7
 10
-215.28088299999999
 20
-211.953149
 30
0.0
 40
30.0
  1
320
  0
POINT
  5
43D
  8
LAYER01
 62
     7
 10
-337.77793400000002
 20
-253.064245
 30
0.0
  0
POINT
  5
43E
  8
LAYER01
 62
     7
 10
-17.783830999999999
 20
-253.064245
 30
0.0
  0
POINT
  5
43F
  8
LAYER01
 62
     7
 10
-17.783830999999999
 20
-226.953149
 30
0.0
  0
ENDBLK
  5
440
  8
0
  0
BLOCK
  8
0
  2
*D19
 70
     1
 10
0.0
 20
0.0
 30
0.0
  3
*D19
  1

  0
LINE
  5
443
  8
LAYER01
 62
     7
 10
122.222066
 20
-164.41377900000001
 30
0.0
 11
-377.7779339999999
 21
-164.41377900000001
 31
0.0
  0
LINE
  5
444
  8
LAYER01
 62
     7
 10
122.222066
 20
-241.064245
 30
0.0
 11
122.222066
 21
-149.41377900000001
 31
0.0
  0
LINE
  5
445
  8
LAYER01
 62
     7
 10
-377.7779339999999
 20
-241.064245
 30
0.0
 11
-377.7779339999999
 21
-149.41377900000001
 31
0.0
  0
SOLID
  5
446
  8
LAYER01
 62
     7
 10
98.222066000000012
 20
-160.413939
 30
0.0
 11
122.222066
 21
-164.41377900000001
 31
0.0
 12
98.222066000000012
 22
-168.41361900000001
 32
0.0
 13
98.222066000000012
 23
-168.41361900000001
 33
0.0
  0
SOLID
  5
447
  8
LAYER01
 62
     7
 10
-353.77793400000002
 20
-160.413939
 30
0.0
 11
-377.7779339999999
 21
-164.41377900000001
 31
0.0
 12
-353.77793400000002
 22
-168.41361900000001
 32
0.0
 13
-353.77793400000002
 23
-168.41361900000001
 33
0.0
  0
TEXT
  5
448
  8
LAYER01
  6
CONTINUOUS
 62
     7
 10
-162.77793399999999
 20
-149.41377900000001
 30
0.0
 40
30.0
  1
500
  0
POINT
  5
449
  8
LAYER01
 62
     7
 10
122.222066
 20
-253.064245
 30
0.0
  0
POINT
  5
44A
  8
LAYER01
 62
     7
 10
-377.7779339999999
 20
-253.064245
 30
0.0
  0
POINT
  5
44B
  8
LAYER01
 62
     7
 10
-377.7779339999999
 20
-164.41377900000001
 30
0.0
  0
ENDBLK
  5
44C
  8
0
  0
BLOCK
  8
0
  2
*D20
 70
     1
 10
0.0
 20
0.0
 30
0.0
  3
*D20
  1

  0
LINE
  5
44F
  8
LAYER01
 62
     7
 10
-527.76034900000002
 20
-303.06424500000003
 30
0.0
 11
-527.76034900000002
 21
-253.064245
 31
0.0
  0
LINE
  5
450
  8
LAYER01
 62
     7
 10
-389.7779339999999
 20
-303.06424500000003
 30
0.0
 11
-542.76034900000002
 21
-303.06424500000003
 31
0.0
  0
LINE
  5
451
  8
LAYER01
 62
     7
 10
-389.7779339999999
 20
-253.064245
 30
0.0
 11
-542.76034900000002
 21
-253.064245
 31
0.0
  0
SOLID
  5
452
  8
LAYER01
 62
     7
 10
-523.76050899999996
 20
-279.06424500000003
 30
0.0
 11
-527.76034900000002
 21
-303.06424500000003
 31
0.0
 12
-531.76018899999985
 22
-279.06424500000003
 32
0.0
 13
-531.76018899999985
 23
-279.06424500000003
 33
0.0
  0
SOLID
  5
453
  8
LAYER01
 62
     7
 10
-523.76050899999996
 20
-277.06424500000003
 30
0.0
 11
-527.76034900000002
 21
-253.064245
 31
0.0
 12
-531.76018899999985
 22
-277.06424500000003
 32
0.0
 13
-531.76018899999985
 23
-277.06424500000003
 33
0.0
  0
TEXT
  5
454
  8
LAYER01
  6
CONTINUOUS
 62
     7
 10
-542.76034900000002
 20
-300.56424500000003
 30
0.0
 40
30.0
  1
50
 50
90.0
  0
POINT
  5
455
  8
LAYER01
 62
     7
 10
-377.7779339999999
 20
-303.06424500000003
 30
0.0
  0
POINT
  5
456
  8
LAYER01
 62
     7
 10
-377.7779339999999
 20
-253.064245
 30
0.0
  0
POINT
  5
457
  8
LAYER01
 62
     7
 10
-527.76034900000002
 20
-253.064245
 30
0.0
  0
ENDBLK
  5
458
  8
0
  0
BLOCK
  8
0
  2
*D21
 70
     1
 10
0.0
 20
0.0
 30
0.0
  3
*D21
  1

  0
LINE
  5
45B
  8
LAYER01
 62
     7
 10
-430.85528599999998
 20
-430.05130099999991
 30
0.0
 11
-430.85528599999998
 21
-303.06424500000003
 31
0.0
  0
LINE
  5
45C
  8
LAYER01
 62
     7
 10
-389.7779339999999
 20
-430.05130099999991
 30
0.0
 11
-445.85528599999998
 21
-430.05130099999991
 31
0.0
  0
LINE
  5
45D
  8
LAYER01
 62
     7
 10
-389.7779339999999
 20
-303.06424500000003
 30
0.0
 11
-445.85528599999998
 21
-303.06424500000003
 31
0.0
  0
SOLID
  5
45E
  8
LAYER01
 62
     7
 10
-426.85544599999992
 20
-406.05130099999991
 30
0.0
 11
-430.85528599999998
 21
-430.05130099999991
 31
0.0
 12
-434.85512599999993
 22
-406.05130099999991
 32
0.0
 13
-434.85512599999993
 23
-406.05130099999991
 33
0.0
  0
SOLID
  5
45F
  8
LAYER01
 62
     7
 10
-426.85544599999992
 20
-327.06424500000003
 30
0.0
 11
-430.85528599999998
 21
-303.06424500000003
 31
0.0
 12
-434.85512599999993
 22
-327.06424500000003
 32
0.0
 13
-434.85512599999993
 23
-327.06424500000003
 33
0.0
  0
TEXT
  5
460
  8
LAYER01
  6
CONTINUOUS
 62
     7
 10
-445.85528599999998
 20
-401.557773
 30
0.0
 40
30.0
  1
127
 50
90.0
  0
POINT
  5
461
  8
LAYER01
 62
     7
 10
-377.7779339999999
 20
-430.05130099999991
 30
0.0
  0
POINT
  5
462
  8
LAYER01
 62
     7
 10
-377.7779339999999
 20
-303.06424500000003
 30
0.0
  0
POINT
  5
463
  8
LAYER01
 62
     7
 10
-430.85528599999998
 20
-303.06424500000003
 30
0.0
  0
ENDBLK
  5
464
  8
0
  0
BLOCK
  8
0
  2
*D22
 70
     1
 10
0.0
 20
0.0
 30
0.0
  3
*D22
  1

  0
LINE
  5
467
  8
LAYER01
 62
     7
 10
-527.76034900000002
 20
-453.06424500000003
 30
0.0
 11
-527.76034900000002
 21
-303.06424500000003
 31
0.0
  0
LINE
  5
468
  8
LAYER01
 62
     7
 10
-389.7779339999999
 20
-453.06424500000003
 30
0.0
 11
-542.76034900000002
 21
-453.06424500000003
 31
0.0
  0
LINE
  5
469
  8
LAYER01
 62
     7
 10
-389.7779339999999
 20
-303.06424500000003
 30
0.0
 11
-542.76034900000002
 21
-303.06424500000003
 31
0.0
  0
SOLID
  5
46A
  8
LAYER01
 62
     7
 10
-523.76050899999996
 20
-429.06424499999991
 30
0.0
 11
-527.76034900000002
 21
-453.06424500000003
 31
0.0
 12
-531.76018899999985
 22
-429.06424499999991
 32
0.0
 13
-531.76018899999985
 23
-429.06424499999991
 33
0.0
  0
SOLID
  5
46B
  8
LAYER01
 62
     7
 10
-523.76050899999996
 20
-327.06424500000003
 30
0.0
 11
-527.76034900000002
 21
-303.06424500000003
 31
0.0
 12
-531.76018899999985
 22
-327.06424500000003
 32
0.0
 13
-531.76018899999985
 23
-327.06424500000003
 33
0.0
  0
TEXT
  5
46C
  8
LAYER01
  6
CONTINUOUS
 62
     7
 10
-542.76034900000002
 20
-410.56424500000003
 30
0.0
 40
30.0
  1
150
 50
90.0
  0
POINT
  5
46D
  8
LAYER01
 62
     7
 10
-377.7779339999999
 20
-453.06424500000003
 30
0.0
  0
POINT
  5
46E
  8
LAYER01
 62
     7
 10
-377.7779339999999
 20
-303.06424500000003
 30
0.0
  0
POINT
  5
46F
  8
LAYER01
 62
     7
 10
-527.76034900000002
 20
-303.06424500000003
 30
0.0
  0
ENDBLK
  5
470
  8
0
  0
BLOCK
  8
0
  2
*D23
 70
     1
 10
0.0
 20
0.0
 30
0.0
  3
*D23
  1

  0
LINE
  5
473
  8
LAYER01
 62
     7
 10
-17.783830999999999
 20
-226.64354800000001
 30
0.0
 11
122.222066
 21
-226.64354800000001
 31
0.0
  0
LINE
  5
474
  8
LAYER01
 62
     7
 10
-17.783830999999999
 20
-241.064245
 30
0.0
 11
-17.783830999999999
 21
-211.64354800000001
 31
0.0
  0
LINE
  5
475
  8
LAYER01
 62
     7
 10
122.222066
 20
-241.064245
 30
0.0
 11
122.222066
 21
-211.64354800000001
 31
0.0
  0
SOLID
  5
476
  8
LAYER01
 62
     7
 10
6.2161689999999989
 20
-230.64338799999999
 30
0.0
 11
-17.783830999999999
 21
-226.64354800000001
 31
0.0
 12
6.2161689999999989
 22
-222.643708
 32
0.0
 13
6.2161689999999989
 23
-222.643708
 33
0.0
  0
SOLID
  5
477
  8
LAYER01
 62
     7
 10
98.222066000000012
 20
-230.64338799999999
 30
0.0
 11
122.222066
 21
-226.64354800000001
 31
0.0
 12
98.222066000000012
 22
-222.643708
 32
0.0
 13
98.222066000000012
 23
-222.643708
 33
0.0
  0
TEXT
  5
478
  8
LAYER01
  6
CONTINUOUS
 62
     7
 10
19.719117000000001
 20
-211.64354800000001
 30
0.0
 40
30.0
  1
140
  0
POINT
  5
479
  8
LAYER01
 62
     7
 10
-17.783830999999999
 20
-253.064245
 30
0.0
  0
POINT
  5
47A
  8
LAYER01
 62
     7
 10
122.222066
 20
-253.064245
 30
0.0
  0
POINT
  5
47B
  8
LAYER01
 62
     7
 10
122.222066
 20
-226.64354800000001
 30
0.0
  0
ENDBLK
  5
47C
  8
0
  0
BLOCK
  8
0
  2
*D24
 70
     1
 10
0.0
 20
0.0
 30
0.0
  3
*D24
  1

  0
LINE
  5
47F
  8
LAYER01
 62
     7
 10
338.03787599999998
 20
187.27409299999999
 30
0.0
 11
-201.96212399999999
 21
187.27409299999999
 31
0.0
  0
LINE
  5
480
  8
LAYER01
 62
     7
 10
338.03787599999998
 20
249.56310400000001
 30
0.0
 11
338.03787599999998
 21
172.27409299999999
 31
0.0
  0
LINE
  5
481
  8
LAYER01
 62
     7
 10
-201.96212399999999
 20
249.56310400000001
 30
0.0
 11
-201.96212399999999
 21
172.27409299999999
 31
0.0
  0
SOLID
  5
482
  8
LAYER01
 62
     7
 10
314.03787599999998
 20
191.273933
 30
0.0
 11
338.03787599999998
 21
187.27409299999999
 31
0.0
 12
314.03787599999998
 22
183.27425299999999
 32
0.0
 13
314.03787599999998
 23
183.27425299999999
 33
0.0
  0
SOLID
  5
483
  8
LAYER01
 62
     7
 10
-177.96212399999999
 20
191.273933
 30
0.0
 11
-201.96212399999999
 21
187.27409299999999
 31
0.0
 12
-177.96212399999999
 22
183.27425299999999
 32
0.0
 13
-177.96212399999999
 23
183.27425299999999
 33
0.0
  0
TEXT
  5
484
  8
LAYER01
  6
CONTINUOUS
 62
     7
 10
30.537876000000001
 20
202.27409299999999
 30
0.0
 40
30.0
  1
540
  0
POINT
  5
485
  8
LAYER01
 62
     7
 10
338.03787599999998
 20
261.56310400000001
 30
0.0
  0
POINT
  5
486
  8
LAYER01
 62
     7
 10
-201.96212399999999
 20
261.56310400000001
 30
0.0
  0
POINT
  5
487
  8
LAYER01
 62
     7
 10
-201.96212399999999
 20
187.27409299999999
 30
0.0
  0
ENDBLK
  5
488
  8
0
  0
BLOCK
  8
0
  2
*D25
 70
     1
 10
0.0
 20
0.0
 30
0.0
  3
*D25
  1

  0
LINE
  5
48B
  8
LAYER01
 62
     7
 10
56.024945999999993
 20
689.28864999999985
 30
0.0
 11
29.386716
 21
717.50707999999997
 31
0.0
  0
LINE
  5
48C
  8
LAYER01
 62
     7
 10
29.386716
 20
717.50707999999997
 30
0.0
 11
-6.7223399999999991
 21
717.50707999999997
 31
0.0
  0
SOLID
  5
48D
  8
LAYER01
 62
     7
 10
42.458651000000003
 20
709.48653000000002
 30
0.0
 11
56.024945999999993
 21
689.28864999999985
 31
0.0
 12
36.641490999999988
 22
703.99512400000003
 32
0.0
 13
36.641490999999988
 23
703.99512400000003
 33
0.0
  0
TEXT
  5
48E
  8
LAYER01
  6
CONTINUOUS
 62
     7
 10
-101.72234
 20
702.50707999999986
 30
0.0
 40
30.0
  1
%%c35
  0
POINT
  5
48F
  8
LAYER01
 62
     7
 10
68.037875999999983
 20
676.56310399999995
 30
0.0
  0
POINT
  5
490
  8
LAYER01
 62
     7
 10
29.386716
 20
717.50707999999997
 30
0.0
  0
ENDBLK
  5
491
  8
0
  0
BLOCK
  8
0
  2
RETO-G25
 70
     0
 10
0.0
 20
0.0
 30
0.0
  3
RETO-G25
  1

  0
LINE
  5
494
  8
0
  6
CONTINUOUS
 62
     7
 10
-201.96212399999999
 20
611.56310399999995
 30
0.0
 11
-201.96212399999999
 21
311.56310400000001
 31
0.0
  0
LINE
  5
495
  8
0
  6
CONTINUOUS
 62
     7
 10
338.03787599999998
 20
611.56310399999995
 30
0.0
 11
338.03787599999998
 21
311.56310400000001
 31
0.0
  0
LINE
  5
496
  8
0
  6
CONTINUOUS
 62
     7
 10
-191.96212399999999
 20
301.56310400000001
 30
0.0
 11
328.03787599999998
 21
301.56310400000001
 31
0.0
  0
DIMENSION
  5
497
  8
LAYER01
 62
     7
  2
*D24
 10
-201.96212399999999
 20
187.27409299999999
 30
0.0
 11
68.037875999999983
 21
217.27409299999999
 31
0.0
  3
STANDARD
 13
338.03787599999998
 23
261.56310400000001
 33
0.0
 14
-201.96212399999999
 24
261.56310400000001
 34
0.0
  0
ARC
  5
498
  8
0
  6
CONTINUOUS
 62
     7
 10
-191.96212399999999
 20
311.56310400000001
 30
0.0
 40
10.0
 50
180.0
 51
270.0
  0
ARC
  5
499
  8
0
  6
CONTINUOUS
 62
     7
 10
328.03787599999998
 20
311.56310400000001
 30
0.0
 40
10.0
 50
270.0
 51
0.0
  0
LINE
  5
49A
  8
0
  6
CONTINUOUS
 62
     7
 10
-191.96212399999999
 20
621.56310399999995
 30
0.0
 11
328.03787599999998
 21
621.56310399999995
 31
0.0
  0
LINE
  5
49B
  8
LAYER01
  6
CONTINUOUS
 62
     7
 10
113.957927
 20
676.56310399999995
 30
0.0
 11
18.158065000000001
 21
676.56310399999995
 31
0.0
  0
LINE
  5
49C
  8
LAYER01
  6
CONTINUOUS
 62
     7
 10
120.609596
 20
461.56310400000001
 30
0.0
 11
12.119286000000001
 21
461.56310400000001
 31
0.0
  0
DIMENSION
  5
49D
  8
LAYER01
 62
     7
  2
*D25
 10
29.386716
 20
717.50707999999997
 30
0.0
 11
-61.722340000000003
 21
717.50707999999997
 31
0.0
 70
     3
  3
STANDARD
 15
56.024945999999993
 25
689.28864999999985
 35
0.0
 40
38.805605999999997
  0
ARC
  5
49E
  8
0
  6
CONTINUOUS
 62
     7
 10
-191.96212399999999
 20
611.56310399999995
 30
0.0
 40
10.0
 50
90.0
 51
180.0
  0
CIRCLE
  5
49F
  8
0
  6
CONTINUOUS
 62
     7
 10
68.037875999999983
 20
461.56310400000001
 30
0.0
 40
23.0
  0
CIRCLE
  5
4A0
  8
0
  6
CONTINUOUS
 62
     7
 10
68.037875999999983
 20
461.56310400000001
 30
0.0
 40
32.5
  0
CIRCLE
  5
4A1
  8
0
  6
CONTINUOUS
 62
     7
 10
68.037875999999983
 20
676.56310399999995
 30
0.0
 40
17.5
  0
ARC
  5
4A2
  8
0
  6
CONTINUOUS
 62
     7
 10
328.03787599999998
 20
611.56310399999995
 30
0.0
 40
10.0
 50
0.0
 51
90.0
  0
LINE
  5
4A3
  8
LAYER01
  6
CONTINUOUS
 62
     7
 10
68.037875999999983
 20
405.8289079999999
 30
0.0
 11
68.037875999999983
 21
515.10631599999988
 31
0.0
  0
LINE
  5
4A4
  8
LAYER01
  6
CONTINUOUS
 62
     7
 10
68.037875999999983
 20
639.58753699999988
 30
0.0
 11
68.037875999999983
 21
718.45731799999999
 31
0.0
  0
ENDBLK
  5
4A5
  8
0
  0
BLOCK
  8
0
  2
*D27
 70
     1
 10
0.0
 20
0.0
 30
0.0
  3
*D27
  1

  0
LINE
  5
4A8
  8
LAYER01
 62
     7
 10
-1231.981051
 20
2051.4229949999999
 30
0.0
 11
-331.98105099999998
 21
2051.4229949999999
 31
0.0
  0
LINE
  5
4A9
  8
LAYER01
 62
     7
 10
-1231.981051
 20
2002.9528029999999
 30
0.0
 11
-1231.981051
 21
2066.4229949999999
 31
0.0
  0
LINE
  5
4AA
  8
LAYER01
 62
     7
 10
-331.98105099999998
 20
2002.9528029999999
 30
0.0
 11
-331.98105099999998
 21
2066.4229949999999
 31
0.0
  0
SOLID
  5
4AB
  8
LAYER01
 62
     7
 10
-1207.981051
 20
2047.423155
 30
0.0
 11
-1231.981051
 21
2051.4229949999999
 31
0.0
 12
-1207.981051
 22
2055.4228349999998
 32
0.0
 13
-1207.981051
 23
2055.4228349999998
 33
0.0
  0
SOLID
  5
4AC
  8
LAYER01
 62
     7
 10
-355.98105099999998
 20
2047.423155
 30
0.0
 11
-331.98105099999998
 21
2051.4229949999999
 31
0.0
 12
-355.98105099999998
 22
2055.4228349999998
 32
0.0
 13
-355.98105099999998
 23
2055.4228349999998
 33
0.0
  0
TEXT
  5
4AD
  8
LAYER01
  6
CONTINUOUS
 62
     7
 10
-899.49999499999979
 20
2066.4229949999999
 30
0.0
 40
30.0
  1
350 - 1250
  0
POINT
  5
4AE
  8
LAYER01
 62
     7
 10
-1231.981051
 20
1990.9528029999999
 30
0.0
  0
POINT
  5
4AF
  8
LAYER01
 62
     7
 10
-331.98105099999998
 20
1990.9528029999999
 30
0.0
  0
POINT
  5
4B0
  8
LAYER01
 62
     7
 10
-331.98105099999998
 20
2051.4229949999999
 30
0.0
  0
ENDBLK
  5
4B1
  8
0
  0
BLOCK
  8
0
  2
*D28
 70
     1
 10
0.0
 20
0.0
 30
0.0
  3
*D28
  1

  0
LINE
  5
4B4
  8
LAYER01
 62
     7
 10
-1285.7117189999999
 20
1530.9528029999999
 30
0.0
 11
-1285.7117189999999
 21
1578.9528029999999
 31
0.0
  0
LINE
  5
4B5
  8
LAYER01
 62
     7
 10
-1285.7117189999999
 20
1490.9528029999999
 30
0.0
 11
-1285.7117189999999
 21
1442.9528029999999
 31
0.0
  0
LINE
  5
4B6
  8
LAYER01
 62
     7
 10
-1243.981051
 20
1530.9528029999999
 30
0.0
 11
-1300.7117189999999
 21
1530.9528029999999
 31
0.0
  0
LINE
  5
4B7
  8
LAYER01
 62
     7
 10
-1243.981051
 20
1490.9528029999999
 30
0.0
 11
-1300.7117189999999
 21
1490.9528029999999
 31
0.0
  0
SOLID
  5
4B8
  8
LAYER01
 62
     7
 10
-1289.7115590000001
 20
1554.9528029999999
 30
0.0
 11
-1285.7117189999999
 21
1530.9528029999999
 31
0.0
 12
-1281.711879
 22
1554.9528029999999
 32
0.0
 13
-1281.711879
 23
1554.9528029999999
 33
0.0
  0
SOLID
  5
4B9
  8
LAYER01
 62
     7
 10
-1289.7115590000001
 20
1466.9528029999999
 30
0.0
 11
-1285.7117189999999
 21
1490.9528029999999
 31
0.0
 12
-1281.711879
 22
1466.9528029999999
 32
0.0
 13
-1281.711879
 23
1466.9528029999999
 33
0.0
  0
TEXT
  5
4BA
  8
LAYER01
  6
CONTINUOUS
 62
     7
 10
-1300.7117189999999
 20
1593.9528029999999
 30
0.0
 40
30.0
  1
40
 50
90.0
  0
POINT
  5
4BB
  8
LAYER01
 62
     7
 10
-1231.981051
 20
1530.9528029999999
 30
0.0
  0
POINT
  5
4BC
  8
LAYER01
 62
     7
 10
-1231.981051
 20
1490.9528029999999
 30
0.0
  0
POINT
  5
4BD
  8
LAYER01
 62
     7
 10
-1285.7117189999999
 20
1490.9528029999999
 30
0.0
  0
ENDBLK
  5
4BE
  8
0
  0
BLOCK
  8
0
  2
*D29
 70
     1
 10
0.0
 20
0.0
 30
0.0
  3
*D29
  1

  0
LINE
  5
4C1
  8
LAYER01
 62
     7
 10
-1356.9795939999999
 20
1530.9528029999999
 30
0.0
 11
-1356.9795939999999
 21
1850.9528029999999
 31
0.0
  0
LINE
  5
4C2
  8
LAYER01
 62
     7
 10
-1243.981051
 20
1530.9528029999999
 30
0.0
 11
-1371.9795939999999
 21
1530.9528029999999
 31
0.0
  0
LINE
  5
4C3
  8
LAYER01
 62
     7
 10
-1243.981051
 20
1850.9528029999999
 30
0.0
 11
-1371.9795939999999
 21
1850.9528029999999
 31
0.0
  0
SOLID
  5
4C4
  8
LAYER01
 62
     7
 10
-1352.979754
 20
1554.9528029999999
 30
0.0
 11
-1356.9795939999999
 21
1530.9528029999999
 31
0.0
 12
-1360.9794340000001
 22
1554.9528029999999
 32
0.0
 13
-1360.9794340000001
 23
1554.9528029999999
 33
0.0
  0
SOLID
  5
4C5
  8
LAYER01
 62
     7
 10
-1352.979754
 20
1826.9528029999999
 30
0.0
 11
-1356.9795939999999
 21
1850.9528029999999
 31
0.0
 12
-1360.9794340000001
 22
1826.9528029999999
 32
0.0
 13
-1360.9794340000001
 23
1826.9528029999999
 33
0.0
  0
TEXT
  5
4C6
  8
LAYER01
  6
CONTINUOUS
 62
     7
 10
-1371.9795939999999
 20
1653.4528029999999
 30
0.0
 40
30.0
  1
320
 50
90.0
  0
POINT
  5
4C7
  8
LAYER01
 62
     7
 10
-1231.981051
 20
1530.9528029999999
 30
0.0
  0
POINT
  5
4C8
  8
LAYER01
 62
     7
 10
-1231.981051
 20
1850.9528029999999
 30
0.0
  0
POINT
  5
4C9
  8
LAYER01
 62
     7
 10
-1356.9795939999999
 20
1850.9528029999999
 30
0.0
  0
ENDBLK
  5
4CA
  8
0
  0
BLOCK
  8
0
  2
*D30
 70
     1
 10
0.0
 20
0.0
 30
0.0
  3
*D30
  1

  0
LINE
  5
4CD
  8
LAYER01
 62
     7
 10
-1443.4512810000001
 20
1990.9528029999999
 30
0.0
 11
-1443.4512810000001
 21
1490.9528029999999
 31
0.0
  0
LINE
  5
4CE
  8
LAYER01
 62
     7
 10
-1243.981051
 20
1990.9528029999999
 30
0.0
 11
-1458.4512810000001
 21
1990.9528029999999
 31
0.0
  0
LINE
  5
4CF
  8
LAYER01
 62
     7
 10
-1243.981051
 20
1490.9528029999999
 30
0.0
 11
-1458.4512810000001
 21
1490.9528029999999
 31
0.0
  0
SOLID
  5
4D0
  8
LAYER01
 62
     7
 10
-1447.4511210000001
 20
1966.9528029999999
 30
0.0
 11
-1443.4512810000001
 21
1990.9528029999999
 31
0.0
 12
-1439.4514409999999
 22
1966.9528029999999
 32
0.0
 13
-1439.4514409999999
 23
1966.9528029999999
 33
0.0
  0
SOLID
  5
4D1
  8
LAYER01
 62
     7
 10
-1447.4511210000001
 20
1514.9528029999999
 30
0.0
 11
-1443.4512810000001
 21
1490.9528029999999
 31
0.0
 12
-1439.4514409999999
 22
1514.9528029999999
 32
0.0
 13
-1439.4514409999999
 23
1514.9528029999999
 33
0.0
  0
TEXT
  5
4D2
  8
LAYER01
  6
CONTINUOUS
 62
     7
 10
-1458.4512810000001
 20
1705.9528029999999
 30
0.0
 40
30.0
  1
500
 50
90.0
  0
POINT
  5
4D3
  8
LAYER01
 62
     7
 10
-1231.981051
 20
1990.9528029999999
 30
0.0
  0
POINT
  5
4D4
  8
LAYER01
 62
     7
 10
-1231.981051
 20
1490.9528029999999
 30
0.0
  0
POINT
  5
4D5
  8
LAYER01
 62
     7
 10
-1443.4512810000001
 20
1490.9528029999999
 30
0.0
  0
ENDBLK
  5
4D6
  8
0
  0
BLOCK
  8
0
  2
*D31
 70
     1
 10
0.0
 20
0.0
 30
0.0
  3
*D31
  1

  0
LINE
  5
4D9
  8
LAYER01
 62
     7
 10
-1312.3183919999999
 20
1123.3857909999999
 30
0.0
 11
-1312.3183919999999
 21
1273.3857909999999
 31
0.0
  0
LINE
  5
4DA
  8
LAYER01
 62
     7
 10
-1243.981051
 20
1123.3857909999999
 30
0.0
 11
-1327.3183919999999
 21
1123.3857909999999
 31
0.0
  0
LINE
  5
4DB
  8
LAYER01
 62
     7
 10
-1243.981051
 20
1273.3857909999999
 30
0.0
 11
-1327.3183919999999
 21
1273.3857909999999
 31
0.0
  0
SOLID
  5
4DC
  8
LAYER01
 62
     7
 10
-1308.318552
 20
1147.3857909999999
 30
0.0
 11
-1312.3183919999999
 21
1123.3857909999999
 31
0.0
 12
-1316.3182320000001
 22
1147.3857909999999
 32
0.0
 13
-1316.3182320000001
 23
1147.3857909999999
 33
0.0
  0
SOLID
  5
4DD
  8
LAYER01
 62
     7
 10
-1308.318552
 20
1249.3857909999999
 30
0.0
 11
-1312.3183919999999
 21
1273.3857909999999
 31
0.0
 12
-1316.3182320000001
 22
1249.3857909999999
 32
0.0
 13
-1316.3182320000001
 23
1249.3857909999999
 33
0.0
  0
TEXT
  5
4DE
  8
LAYER01
  6
CONTINUOUS
 62
     7
 10
-1327.3183919999999
 20
1165.8857909999999
 30
0.0
 40
30.0
  1
150
 50
90.0
  0
POINT
  5
4DF
  8
LAYER01
 62
     7
 10
-1231.981051
 20
1123.3857909999999
 30
0.0
  0
POINT
  5
4E0
  8
LAYER01
 62
     7
 10
-1231.981051
 20
1273.3857909999999
 30
0.0
  0
POINT
  5
4E1
  8
LAYER01
 62
     7
 10
-1312.3183919999999
 20
1273.3857909999999
 30
0.0
  0
ENDBLK
  5
4E2
  8
0
  0
BLOCK
  8
0
  2
*D32
 70
     1
 10
0.0
 20
0.0
 30
0.0
  3
*D32
  1

  0
LINE
  5
4E5
  8
LAYER01
 62
     7
 10
-1312.3183919999999
 20
1273.3857909999999
 30
0.0
 11
-1312.3183919999999
 21
1323.3857909999999
 31
0.0
  0
LINE
  5
4E6
  8
LAYER01
 62
     7
 10
-1243.981051
 20
1273.3857909999999
 30
0.0
 11
-1327.3183919999999
 21
1273.3857909999999
 31
0.0
  0
LINE
  5
4E7
  8
LAYER01
 62
     7
 10
-1243.981051
 20
1323.3857909999999
 30
0.0
 11
-1327.3183919999999
 21
1323.3857909999999
 31
0.0
  0
SOLID
  5
4E8
  8
LAYER01
 62
     7
 10
-1308.318552
 20
1297.3857909999999
 30
0.0
 11
-1312.3183919999999
 21
1273.3857909999999
 31
0.0
 12
-1316.3182320000001
 22
1297.3857909999999
 32
0.0
 13
-1316.3182320000001
 23
1297.3857909999999
 33
0.0
  0
SOLID
  5
4E9
  8
LAYER01
 62
     7
 10
-1308.318552
 20
1299.3857909999999
 30
0.0
 11
-1312.3183919999999
 21
1323.3857909999999
 31
0.0
 12
-1316.3182320000001
 22
1299.3857909999999
 32
0.0
 13
-1316.3182320000001
 23
1299.3857909999999
 33
0.0
  0
TEXT
  5
4EA
  8
LAYER01
  6
CONTINUOUS
 62
     7
 10
-1327.3183919999999
 20
1275.8857909999999
 30
0.0
 40
30.0
  1
50
 50
90.0
  0
POINT
  5
4EB
  8
LAYER01
 62
     7
 10
-1231.981051
 20
1273.3857909999999
 30
0.0
  0
POINT
  5
4EC
  8
LAYER01
 62
     7
 10
-1231.981051
 20
1323.3857909999999
 30
0.0
  0
POINT
  5
4ED
  8
LAYER01
 62
     7
 10
-1312.3183919999999
 20
1323.3857909999999
 30
0.0
  0
ENDBLK
  5
4EE
  8
0
  0
BLOCK
  8
0
  2
*D33
 70
     1
 10
0.0
 20
0.0
 30
0.0
  3
*D33
  1

  0
LINE
  5
4F1
  8
LAYER01
 62
     7
 10
-1356.9795939999999
 20
1850.9528029999999
 30
0.0
 11
-1356.9795939999999
 21
1990.9528029999999
 31
0.0
  0
LINE
  5
4F2
  8
LAYER01
 62
     7
 10
-1243.981051
 20
1850.9528029999999
 30
0.0
 11
-1371.9795939999999
 21
1850.9528029999999
 31
0.0
  0
LINE
  5
4F3
  8
LAYER01
 62
     7
 10
-1243.981051
 20
1990.9528029999999
 30
0.0
 11
-1371.9795939999999
 21
1990.9528029999999
 31
0.0
  0
SOLID
  5
4F4
  8
LAYER01
 62
     7
 10
-1352.979754
 20
1874.9528029999999
 30
0.0
 11
-1356.9795939999999
 21
1850.9528029999999
 31
0.0
 12
-1360.9794340000001
 22
1874.9528029999999
 32
0.0
 13
-1360.9794340000001
 23
1874.9528029999999
 33
0.0
  0
SOLID
  5
4F5
  8
LAYER01
 62
     7
 10
-1352.979754
 20
1966.9528029999999
 30
0.0
 11
-1356.9795939999999
 21
1990.9528029999999
 31
0.0
 12
-1360.9794340000001
 22
1966.9528029999999
 32
0.0
 13
-1360.9794340000001
 23
1966.9528029999999
 33
0.0
  0
TEXT
  5
4F6
  8
LAYER01
  6
CONTINUOUS
 62
     7
 10
-1371.9795939999999
 20
1888.4528029999999
 30
0.0
 40
30.0
  1
140
 50
90.0
  0
POINT
  5
4F7
  8
LAYER01
 62
     7
 10
-1231.981051
 20
1850.9528029999999
 30
0.0
  0
POINT
  5
4F8
  8
LAYER01
 62
     7
 10
-1231.981051
 20
1990.9528029999999
 30
0.0
  0
POINT
  5
4F9
  8
LAYER01
 62
     7
 10
-1356.9795939999999
 20
1990.9528029999999
 30
0.0
  0
ENDBLK
  5
4FA
  8
0
  0
BLOCK
  8
0
  2
*D34
 70
     1
 10
0.0
 20
0.0
 30
0.0
  3
*D34
  1

  0
LINE
  5
4FD
  8
LAYER01
 62
     7
 10
-1285.7117189999999
 20
1850.9528029999999
 30
0.0
 11
-1285.7117189999999
 21
1905.9528029999999
 31
0.0
  0
LINE
  5
4FE
  8
LAYER01
 62
     7
 10
-1243.981051
 20
1850.9528029999999
 30
0.0
 11
-1300.7117189999999
 21
1850.9528029999999
 31
0.0
  0
LINE
  5
4FF
  8
LAYER01
 62
     7
 10
-1243.981051
 20
1905.9528029999999
 30
0.0
 11
-1300.7117189999999
 21
1905.9528029999999
 31
0.0
  0
SOLID
  5
500
  8
LAYER01
 62
     7
 10
-1281.711879
 20
1874.9528029999999
 30
0.0
 11
-1285.7117189999999
 21
1850.9528029999999
 31
0.0
 12
-1289.7115590000001
 22
1874.9528029999999
 32
0.0
 13
-1289.7115590000001
 23
1874.9528029999999
 33
0.0
  0
SOLID
  5
501
  8
LAYER01
 62
     7
 10
-1281.711879
 20
1881.9528029999999
 30
0.0
 11
-1285.7117189999999
 21
1905.9528029999999
 31
0.0
 12
-1289.7115590000001
 22
1881.9528029999999
 32
0.0
 13
-1289.7115590000001
 23
1881.9528029999999
 33
0.0
  0
TEXT
  5
502
  8
LAYER01
  6
CONTINUOUS
 62
     7
 10
-1300.7117189999999
 20
1853.4528029999999
 30
0.0
 40
30.0
  1
55
 50
90.0
  0
POINT
  5
503
  8
LAYER01
 62
     7
 10
-1231.981051
 20
1850.9528029999999
 30
0.0
  0
POINT
  5
504
  8
LAYER01
 62
     7
 10
-1231.981051
 20
1905.9528029999999
 30
0.0
  0
POINT
  5
505
  8
LAYER01
 62
     7
 10
-1285.7117189999999
 20
1905.9528029999999
 30
0.0
  0
ENDBLK
  5
506
  8
0
  0
BLOCK
  8
0
  2
*D35
 70
     1
 10
0.0
 20
0.0
 30
0.0
  3
*D35
  1

  0
LINE
  5
509
  8
LAYER01
 62
     7
 10
-61.981051000000001
 20
1416.6637920000001
 30
0.0
 11
-601.98105099999998
 21
1416.6637920000001
 31
0.0
  0
LINE
  5
50A
  8
LAYER01
 62
     7
 10
-61.981051000000001
 20
1478.9528029999999
 30
0.0
 11
-61.981051000000001
 21
1401.6637920000001
 31
0.0
  0
LINE
  5
50B
  8
LAYER01
 62
     7
 10
-601.98105099999998
 20
1478.9528029999999
 30
0.0
 11
-601.98105099999998
 21
1401.6637920000001
 31
0.0
  0
SOLID
  5
50C
  8
LAYER01
 62
     7
 10
-85.981051000000008
 20
1420.663632
 30
0.0
 11
-61.981051000000001
 21
1416.6637920000001
 31
0.0
 12
-85.981051000000008
 22
1412.6639520000001
 32
0.0
 13
-85.981051000000008
 23
1412.6639520000001
 33
0.0
  0
SOLID
  5
50D
  8
LAYER01
 62
     7
 10
-577.98105099999987
 20
1420.663632
 30
0.0
 11
-601.98105099999998
 21
1416.6637920000001
 31
0.0
 12
-577.98105099999987
 22
1412.6639520000001
 32
0.0
 13
-577.98105099999987
 23
1412.6639520000001
 33
0.0
  0
TEXT
  5
50E
  8
LAYER01
  6
CONTINUOUS
 62
     7
 10
-369.48105099999998
 20
1431.6637920000001
 30
0.0
 40
30.0
  1
540
  0
POINT
  5
50F
  8
LAYER01
 62
     7
 10
-61.981051000000001
 20
1490.9528029999999
 30
0.0
  0
POINT
  5
510
  8
LAYER01
 62
     7
 10
-601.98105099999998
 20
1490.9528029999999
 30
0.0
  0
POINT
  5
511
  8
LAYER01
 62
     7
 10
-601.98105099999998
 20
1416.6637920000001
 30
0.0
  0
ENDBLK
  5
512
  8
0
  0
BLOCK
  8
0
  2
*D36
 70
     1
 10
0.0
 20
0.0
 30
0.0
  3
*D36
  1

  0
LINE
  5
515
  8
LAYER01
 62
     7
 10
-343.99398000000002
 20
1918.678349
 30
0.0
 11
-370.63220999999999
 21
1946.8967789999999
 31
0.0
  0
LINE
  5
516
  8
LAYER01
 62
     7
 10
-370.63220999999999
 20
1946.8967789999999
 30
0.0
 11
-406.74126699999999
 21
1946.8967789999999
 31
0.0
  0
SOLID
  5
517
  8
LAYER01
 62
     7
 10
-357.56027599999999
 20
1938.876229
 30
0.0
 11
-343.99398000000002
 21
1918.678349
 31
0.0
 12
-363.37743499999999
 22
1933.3848230000001
 32
0.0
 13
-363.37743499999999
 23
1933.3848230000001
 33
0.0
  0
TEXT
  5
518
  8
LAYER01
  6
CONTINUOUS
 62
     7
 10
-501.74126699999988
 20
1931.8967789999999
 30
0.0
 40
30.0
  1
%%c35
  0
POINT
  5
519
  8
LAYER01
 62
     7
 10
-331.98105099999998
 20
1905.9528029999999
 30
0.0
  0
POINT
  5
51A
  8
LAYER01
 62
     7
 10
-370.63220999999999
 20
1946.8967789999999
 30
0.0
  0
ENDBLK
  5
51B
  8
0
  0
BLOCK
  8
0
  2
RETO-G36
 70
     0
 10
0.0
 20
0.0
 30
0.0
  3
RETO-G36
  1

  0
LINE
  5
51E
  8
0
  6
CONTINUOUS
 62
     7
 10
-601.98105099999998
 20
1840.9528029999999
 30
0.0
 11
-601.98105099999998
 21
1540.9528029999999
 31
0.0
  0
LINE
  5
51F
  8
0
  6
CONTINUOUS
 62
     7
 10
-61.981051000000001
 20
1840.9528029999999
 30
0.0
 11
-61.981051000000001
 21
1540.9528029999999
 31
0.0
  0
LINE
  5
520
  8
0
  6
CONTINUOUS
 62
     7
 10
-591.98105099999987
 20
1530.9528029999999
 30
0.0
 11
-71.981051000000008
 21
1530.9528029999999
 31
0.0
  0
DIMENSION
  5
521
  8
LAYER01
 62
     7
  2
*D35
 10
-601.98105099999998
 20
1416.6637920000001
 30
0.0
 11
-331.98105099999998
 21
1446.6637920000001
 31
0.0
  3
STANDARD
 13
-61.981051000000001
 23
1490.9528029999999
 33
0.0
 14
-601.98105099999998
 24
1490.9528029999999
 34
0.0
  0
ARC
  5
522
  8
0
  6
CONTINUOUS
 62
     7
 10
-591.98105099999987
 20
1540.9528029999999
 30
0.0
 40
10.0
 50
180.0
 51
270.0
  0
ARC
  5
523
  8
0
  6
CONTINUOUS
 62
     7
 10
-71.981051000000008
 20
1540.9528029999999
 30
0.0
 40
10.0
 50
270.0
 51
0.0
  0
LINE
  5
524
  8
0
  6
CONTINUOUS
 62
     7
 10
-591.98105099999987
 20
1850.9528029999999
 30
0.0
 11
-71.981051000000008
 21
1850.9528029999999
 31
0.0
  0
LINE
  5
525
  8
LAYER01
  6
CONTINUOUS
 62
     7
 10
-286.06099899999998
 20
1905.9528029999999
 30
0.0
 11
-381.860862
 21
1905.9528029999999
 31
0.0
  0
LINE
  5
526
  8
LAYER01
  6
CONTINUOUS
 62
     7
 10
-279.40933100000001
 20
1690.9528029999999
 30
0.0
 11
-387.89964099999997
 21
1690.9528029999999
 31
0.0
  0
DIMENSION
  5
527
  8
LAYER01
 62
     7
  2
*D36
 10
-370.63220999999999
 20
1946.8967789999999
 30
0.0
 11
-461.74126699999999
 21
1946.8967789999999
 31
0.0
 70
     3
  3
STANDARD
 15
-343.99398000000002
 25
1918.678349
 35
0.0
 40
38.805605999999997
  0
ARC
  5
528
  8
0
  6
CONTINUOUS
 62
     7
 10
-591.98105099999987
 20
1840.9528029999999
 30
0.0
 40
10.0
 50
90.0
 51
180.0
  0
CIRCLE
  5
529
  8
0
  6
CONTINUOUS
 62
     7
 10
-331.98105099999998
 20
1690.9528029999999
 30
0.0
 40
23.0
  0
CIRCLE
  5
52A
  8
0
  6
CONTINUOUS
 62
     7
 10
-331.98105099999998
 20
1690.9528029999999
 30
0.0
 40
32.5
  0
CIRCLE
  5
52B
  8
0
  6
CONTINUOUS
 62
     7
 10
-331.98105099999998
 20
1905.9528029999999
 30
0.0
 40
17.5
  0
ARC
  5
52C
  8
0
  6
CONTINUOUS
 62
     7
 10
-71.981051000000008
 20
1840.9528029999999
 30
0.0
 40
10.0
 50
0.0
 51
90.0
  0
LINE
  5
52D
  8
LAYER01
  6
CONTINUOUS
 62
     7
 10
-331.98105099999998
 20
1635.218607
 30
0.0
 11
-331.98105099999998
 21
1744.4960149999999
 31
0.0
  0
LINE
  5
52E
  8
LAYER01
  6
CONTINUOUS
 62
     7
 10
-331.98105099999998
 20
1868.9772359999999
 30
0.0
 11
-331.98105099999998
 21
1947.8470170000001
 31
0.0
  0
ENDBLK
  5
52F
  8
0
  0
BLOCK
  8
0
  2
RETO-G40
 70
     0
 10
0.0
 20
0.0
 30
0.0
  3
RETO-G40
  1

  0
TEXT
  5
532
  8
LAYER01
  6
VERDECKT
 62
     1
 10
874.88339000000008
 20
-109.515199
 30
0.0
 40
13.0
  1
A. Sprenger GmbH
  7
SIMPLEX
  0
TEXT
  5
533
  8
LAYER01
  6
VERDECKT
 62
     1
 10
874.88339000000008
 20
-131.80091400000001
 30
0.0
 40
13.0
  1
Berner Str. 10
  7
SIMPLEX
  0
TEXT
  5
534
  8
LAYER01
  6
VERDECKT
 62
     1
 10
874.88339000000008
 20
-154.08662799999999
 30
0.0
 40
13.0
  1
60437 Frankfurt
  7
SIMPLEX
  0
TEXT
  5
535
  8
LAYER01
  6
VERDECKT
 62
     1
 10
874.88339000000008
 20
-176.372342
 30
0.0
 40
13.0
  1
Tel.: 069 - 507 27 41
  7
SIMPLEX
  0
TEXT
  5
536
  8
LAYER01
  6
VERDECKT
 62
     1
 10
874.88339000000008
 20
-198.65805700000001
 30
0.0
 40
13.0
  1
Fax: 069 - 507 72 91
  7
SIMPLEX
  0
TEXT
  5
537
  8
LAYER01
  6
VERDECKT
 62
     1
 10
874.88339000000008
 20
-220.943771
 30
0.0
 40
13.0
  1
info@varicor.org
  7
SIMPLEX
  0
ENDBLK
  5
538
  8
0
  0
BLOCK
  8
0
  2
RETO-G39
 70
     0
 10
0.0
 20
0.0
 30
0.0
  3
RETO-G39
  1

  0
TEXT
  5
53B
  8
LAYER01
  6
CONTINUOUS
 62
     1
 10
2240.947381
 20
-415.11944299999999
 30
0.0
 40
13.0
  1
Blatt
  7
SIMPLEX
  0
LINE
  5
53C
  8
LAYER01
  6
CONTINUOUS
 62
     1
 10
856.44738099999995
 20
-324.11944299999999
 30
0.0
 11
1636.447381
 21
-324.11944299999999
 31
0.0
  0
LINE
  5
53D
  8
LAYER01
  6
CONTINUOUS
 62
     1
 10
856.44738099999995
 20
-356.61944299999999
 30
0.0
 11
1636.447381
 21
-356.61944299999999
 31
0.0
  0
LINE
  5
53E
  8
LAYER01
  6
CONTINUOUS
 62
     1
 10
856.44738099999995
 20
-389.11944299999999
 30
0.0
 11
2325.447381
 21
-389.11944299999999
 31
0.0
  0
LINE
  5
53F
  8
LAYER01
  6
CONTINUOUS
 62
     1
 10
856.44738099999995
 20
-486.61944299999999
 30
0.0
 11
2325.447381
 21
-486.61944299999999
 31
0.0
  0
LINE
  5
540
  8
LAYER01
  6
CONTINUOUS
 62
     1
 10
856.44738099999995
 20
-226.61944299999999
 30
0.0
 11
2325.447381
 21
-226.61944299999999
 31
0.0
  0
POLYLINE
  5
541
  8
LAYER01
  6
CONTINUOUS
 62
     1
 66
     1
 10
0.0
 20
0.0
 30
0.0
 70
     1
  0
VERTEX
  5
C05
  8
LAYER01
  6
CONTINUOUS
 62
     1
 10
856.44738099999995
 20
-525.61944299999993
 30
0.0
  0
VERTEX
  5
C06
  8
LAYER01
  6
CONTINUOUS
 62
     1
 10
856.44738099999995
 20
-90.119443000000004
 30
0.0
  0
VERTEX
  5
C07
  8
LAYER01
  6
CONTINUOUS
 62
     1
 10
2325.447381
 20
-90.119443000000004
 30
0.0
  0
VERTEX
  5
C08
  8
LAYER01
  6
CONTINUOUS
 62
     1
 10
2325.447381
 20
-525.61944299999993
 30
0.0
  0
SEQEND
  5
C09
  8
LAYER01
  6
CONTINUOUS
 62
     1
  0
LINE
  5
547
  8
LAYER01
  6
CONTINUOUS
 62
     1
 10
856.44738099999995
 20
-259.11944299999999
 30
0.0
 11
1636.447381
 21
-259.11944299999999
 31
0.0
  0
LINE
  5
548
  8
LAYER01
  6
CONTINUOUS
 62
     1
 10
856.44738099999995
 20
-291.61944299999999
 30
0.0
 11
1636.447381
 21
-291.61944299999999
 31
0.0
  0
LINE
  5
549
  8
LAYER01
  6
CONTINUOUS
 62
     1
 10
1278.947381
 20
-90.119443000000004
 30
0.0
 11
1278.947381
 21
-525.61944299999993
 31
0.0
  0
INSERT
  5
54A
  8
LAYER01
  2
RETO-G40
 10
0.0
 20
0.0
 30
0.0
  0
LINE
  5
54B
  8
LAYER01
  6
CONTINUOUS
 62
     1
 10
856.44738099999995
 20
-454.11944299999999
 30
0.0
 11
1278.947381
 21
-454.11944299999999
 31
0.0
  0
LINE
  5
54C
  8
LAYER01
  6
CONTINUOUS
 62
     1
 10
856.44738099999995
 20
-421.61944299999988
 30
0.0
 11
1278.947381
 21
-421.61944299999988
 31
0.0
  0
LINE
  5
54D
  8
LAYER01
  6
CONTINUOUS
 62
     1
 10
914.94738100000006
 20
-226.61944299999999
 30
0.0
 11
914.94738100000006
 21
-525.61944299999993
 31
0.0
  0
TEXT
  5
54E
  8
LAYER01
  6
CONTINUOUS
 62
     1
 10
867.36642599999982
 20
-512.61944299999993
 30
0.0
 40
12.35
  1
Zust
  7
SIMPLEX
  0
LINE
  5
54F
  8
LAYER01
  6
CONTINUOUS
 62
     1
 10
1120.0673810000001
 20
-525.61944299999993
 30
0.0
 11
1120.0673810000001
 21
-226.61944299999999
 31
0.0
  0
LINE
  5
550
  8
LAYER01
  6
CONTINUOUS
 62
     1
 10
1220.447381
 20
-226.61944299999999
 30
0.0
 11
1220.447381
 21
-525.61944299999993
 31
0.0
  0
TEXT
  5
551
  8
LAYER01
  6
CONTINUOUS
 62
     1
 10
972.31448599999987
 20
-512.61944299999993
 30
0.0
 40
12.35
  1
Änderung
  7
SIMPLEX
  0
TEXT
  5
552
  8
LAYER01
  6
CONTINUOUS
 62
     1
 10
1138.357769
 20
-512.61944299999993
 30
0.0
 40
12.35
  1
Datum
  7
SIMPLEX
  0
TEXT
  5
553
  8
LAYER01
  6
CONTINUOUS
 62
     1
 10
1225.3404559999999
 20
-512.61944299999993
 30
0.0
 40
12.35
  1
Name
  7
SIMPLEX
  0
LINE
  5
554
  8
LAYER01
  6
CONTINUOUS
 62
     1
 10
2325.447381
 20
-142.11944299999999
 30
0.0
 11
1636.447381
 21
-142.11944299999999
 31
0.0
  0
LINE
  5
555
  8
LAYER01
  6
CONTINUOUS
 62
     1
 10
1363.447381
 20
-356.61944299999999
 30
0.0
 11
1363.447381
 21
-226.61944299999999
 31
0.0
  0
TEXT
  5
556
  8
LAYER01
  6
CONTINUOUS
 62
     1
 10
1291.947381
 20
-285.11944299999999
 30
0.0
 40
13.0
  1
Bearb.
  7
SIMPLEX
  0
TEXT
  5
557
  8
LAYER01
  6
CONTINUOUS
 62
     1
 10
1291.947381
 20
-350.11944299999999
 30
0.0
 40
13.0
  1
Norm
  7
SIMPLEX
  0
TEXT
  5
558
  8
LAYER01
  6
CONTINUOUS
 62
     1
 10
1291.947381
 20
-317.61944299999999
 30
0.0
 40
13.0
  1
Gepr.
  7
SIMPLEX
  0
TEXT
  5
559
  8
LAYER01
  6
CONTINUOUS
 62
     1
 10
1395.947381
 20
-252.61944299999999
 30
0.0
 40
13.0
  1
Datum
  7
SIMPLEX
  0
TEXT
  5
55A
  8
LAYER01
  6
CONTINUOUS
 62
     1
 10
1525.947381
 20
-252.61944299999999
 30
0.0
 40
13.0
  1
Name
  7
SIMPLEX
  0
TEXT
  5
55B
  8
LAYER01
  6
CONTINUOUS
 62
     1
 10
2292.947381
 20
-480.11944299999988
 30
0.0
 40
13.0
  1
Bl.
  7
SIMPLEX
  0
LINE
  5
55C
  8
LAYER01
  6
CONTINUOUS
 62
     1
 10
1636.447381
 20
-525.61944299999993
 30
0.0
 11
1636.447381
 21
-90.119443000000004
 31
0.0
  0
LINE
  5
55D
  8
LAYER01
  6
CONTINUOUS
 62
     1
 10
1486.947381
 20
-389.11944299999999
 30
0.0
 11
1486.947381
 21
-90.119443000000004
 31
0.0
  0
LINE
  5
55E
  8
LAYER01
  6
CONTINUOUS
 62
     1
 10
2045.947381
 20
-90.119443000000004
 30
0.0
 11
2045.947381
 21
-142.11944299999999
 31
0.0
  0
TEXT
  5
55F
  8
LAYER01
  6
CONTINUOUS
 62
     1
 10
1650.6095800000001
 20
-123.308446
 30
0.0
 40
13.0
  1
Maßstab
  7
SIMPLEX
  0
LINE
  5
560
  8
LAYER01
  6
CONTINUOUS
 62
     1
 10
2227.947381
 20
-389.11944299999999
 30
0.0
 11
2227.947381
 21
-486.61944299999999
 31
0.0
  0
LINE
  5
561
  8
LAYER01
  6
CONTINUOUS
 62
     1
 10
2227.947381
 20
-454.11944299999999
 30
0.0
 11
2325.447381
 21
-454.11944299999999
 31
0.0
  0
ENDBLK
  5
562
  8
0
  0
BLOCK
  8
0
  2
RETO-G41
 70
     0
 10
0.0
 20
0.0
 30
0.0
  3
RETO-G41
  1

  0
ENDBLK
  5
565
  8
0
  0
ENDSEC
  0
SECTION
  2
ENTITIES
  0
POLYLINE
  5
566
  8
LAYER01
  6
CONTINUOUS
 62
     7
 66
     1
 10
0.0
 20
0.0
 30
0.0
 70
     1
  0
VERTEX
  5
C0A
  8
LAYER01
  6
CONTINUOUS
 62
     7
 10
-1644.393838
 20
-525.61944299999993
 30
0.0
  0
VERTEX
  5
C0B
  8
LAYER01
  6
CONTINUOUS
 62
     7
 10
-1644.393838
 20
2232.0565179999999
 30
0.0
  0
VERTEX
  5
C0C
  8
LAYER01
  6
CONTINUOUS
 62
     7
 10
2325.447381
 20
2232.0565179999999
 30
0.0
  0
VERTEX
  5
C0D
  8
LAYER01
  6
CONTINUOUS
 62
     7
 10
2325.447381
 20
-525.61944299999993
 30
0.0
  0
SEQEND
  5
C0E
  8
LAYER01
  6
CONTINUOUS
 62
     7
  0
INSERT
  5
56C
  8
LAYER01
  2
RETO-G1
 10
-3097.2058365208418
 20
-1540.539759092964
 30
0.0
  0
LINE
  5
56D
  8
0
  6
CONTINUOUS
 62
     7
 10
-1231.981051
 20
1978.9528029999999
 30
0.0
 11
568.01894900000002
 21
1978.9528029999999
 31
0.0
  0
LINE
  5
56E
  8
LAYER01
  6
VERDECKT
 62
     7
 10
-1231.981051
 20
1502.9528029999999
 30
0.0
 11
568.01894900000002
 21
1502.9528029999999
 31
0.0
  0
LINE
  5
56F
  8
LAYER01
  6
CONTINUOUS
 62
     7
 10
-1231.981051
 20
1323.3857909999999
 30
0.0
 11
568.01894900000002
 21
1323.3857909999999
 31
0.0
  0
LINE
  5
570
  8
LAYER01
  6
CONTINUOUS
 62
     7
 10
-1231.981051
 20
1123.3857909999999
 30
0.0
 11
568.01894900000002
 21
1123.3857909999999
 31
0.0
  0
LINE
  5
571
  8
LAYER01
  6
CONTINUOUS
 62
     7
 10
-1231.981051
 20
1273.3857909999999
 30
0.0
 11
568.01894900000002
 21
1273.3857909999999
 31
0.0
  0
LINE
  5
572
  8
0
  6
CONTINUOUS
 62
     7
 10
-1231.981051
 20
1990.9528029999999
 30
0.0
 11
568.01894900000002
 21
1990.9528029999999
 31
0.0
  0
LINE
  5
573
  8
0
  6
CONTINUOUS
 62
     7
 10
-1231.981051
 20
1490.9528029999999
 30
0.0
 11
568.01894900000002
 21
1490.9528029999999
 31
0.0
  0
DIMENSION
  5
574
  8
LAYER01
 62
     7
  2
*D1
 10
568.01894900000002
 20
2051.4229949999999
 30
0.0
 11
133.00000499999999
 21
2081.4229949999999
 31
0.0
 13
-331.98105099999998
 23
1990.9528029999999
 33
0.0
 14
568.01894900000002
 24
1990.9528029999999
 34
0.0
  0
DIMENSION
  5
575
  8
LAYER01
 62
     7
  2
*D2
 10
-1231.981051
 20
2134.0937289999988
 30
0.0
 11
-307.04406399999999
 21
2164.0937290000002
 31
0.0
 13
568.01894900000002
 23
1990.9528029999999
 33
0.0
 14
-1231.981051
 24
1990.9528029999999
 34
0.0
  0
LINE
  5
576
  8
LAYER01
  6
CONTINUOUS
 62
     7
 10
-1231.981051
 20
93.996092000000004
 30
0.0
 11
568.01894900000002
 21
93.996092000000004
 31
0.0
  0
LINE
  5
577
  8
LAYER01
  6
CONTINUOUS
 62
     7
 10
-1231.981051
 20
-106.003908
 30
0.0
 11
568.01894900000002
 21
-106.003908
 31
0.0
  0
LINE
  5
578
  8
LAYER01
  6
CONTINUOUS
 62
     7
 10
-1231.981051
 20
43.99609199999999
 30
0.0
 11
568.01894900000002
 21
43.99609199999999
 31
0.0
  0
LINE
  5
579
  8
0
  6
CONTINUOUS
 62
     7
 10
-1231.981051
 20
761.56310399999995
 30
0.0
 11
568.01894900000002
 21
761.56310399999995
 31
0.0
  0
LINE
  5
57A
  8
0
  6
CONTINUOUS
 62
     7
 10
-1231.981051
 20
749.56310399999995
 30
0.0
 11
568.01894900000002
 21
749.56310399999995
 31
0.0
  0
LINE
  5
57B
  8
0
  6
CONTINUOUS
 62
     7
 10
-1231.981051
 20
261.56310400000001
 30
0.0
 11
568.01894900000002
 21
261.56310400000001
 31
0.0
  0
LINE
  5
57C
  8
LAYER01
  6
VERDECKT
 62
     7
 10
-1231.981051
 20
273.56310400000001
 30
0.0
 11
568.01894900000002
 21
273.56310400000001
 31
0.0
  0
DIMENSION
  5
57D
  8
LAYER01
 62
     7
  2
*D3
 10
-1231.981051
 20
950.96512899999982
 30
0.0
 11
-335.22894100000002
 21
980.96512899999993
 31
0.0
 13
568.01894900000002
 23
761.56310399999995
 33
0.0
 14
-1231.981051
 24
761.56310399999995
 34
0.0
  0
DIMENSION
  5
57E
  8
LAYER01
 62
     7
  2
*D4
 10
568.01894900000002
 20
840.891434
 30
0.0
 11
335.50946800000003
 21
870.89143399999989
 31
0.0
 13
68.037875999999983
 23
761.56310399999995
 33
0.0
 14
568.01894900000002
 24
761.56310399999995
 34
0.0
  0
DIMENSION
  5
57F
  8
LAYER01
 62
     7
  2
*D5
 10
68.037875999999983
 20
840.891434
 30
0.0
 11
-321.89379700000001
 21
870.89143399999989
 31
0.0
 13
-732.74474799999996
 23
761.56310399999995
 33
0.0
 14
68.037875999999983
 24
761.56310399999995
 34
0.0
  0
DIMENSION
  5
580
  8
LAYER01
 62
     7
  2
*D6
 10
-1231.981051
 20
840.891434
 30
0.0
 11
-965.12113499999998
 21
870.89143399999989
 31
0.0
 13
-732.74474799999996
 23
761.56310399999995
 33
0.0
 14
-1231.981051
 24
761.56310399999995
 34
0.0
  0
INSERT
  5
581
  8
LAYER01
  2
RETO-G8
 10
0.0
 20
0.0
 30
0.0
  0
DIMENSION
  5
582
  8
LAYER01
 62
     7
  2
*D10
 10
-1312.3183919999999
 20
43.99609199999999
 30
0.0
 11
-1342.3183919999999
 21
-31.003907999999999
 31
0.0
 53
90.0
 13
-1231.981051
 23
-106.003908
 33
0.0
 14
-1231.981051
 24
43.99609199999999
 34
0.0
 50
90.0
  0
DIMENSION
  5
583
  8
LAYER01
 62
     7
  2
*D11
 10
-1312.3183919999999
 20
93.996092000000004
 30
0.0
 11
-1342.3183919999999
 21
68.996092000000004
 31
0.0
 53
90.0
 13
-1231.981051
 23
43.99609199999999
 33
0.0
 14
-1231.981051
 24
93.996092000000004
 34
0.0
 50
90.0
  0
LINE
  5
584
  8
LAYER01
  6
CONTINUOUS
 62
     7
 10
-1231.981051
 20
-106.003908
 30
0.0
 11
-1231.981051
 21
93.996092000000004
 31
0.0
  0
DIMENSION
  5
585
  8
LAYER01
 62
     7
  2
*D12
 10
-1285.7117189999999
 20
261.56310400000001
 30
0.0
 11
-1315.7117189999999
 21
387.06310400000001
 31
0.0
 53
90.0
 13
-1231.981051
 23
301.56310400000001
 33
0.0
 14
-1231.981051
 24
261.56310400000001
 34
0.0
 50
90.0
  0
DIMENSION
  5
586
  8
LAYER01
 62
     7
  2
*D13
 10
-1356.9795939999999
 20
621.56310399999995
 30
0.0
 11
-1386.9795939999999
 21
461.56310400000001
 31
0.0
 53
90.0
 13
-1231.981051
 23
301.56310400000001
 33
0.0
 14
-1231.981051
 24
621.56310399999995
 34
0.0
 50
90.0
  0
DIMENSION
  5
587
  8
LAYER01
 62
     7
  2
*D14
 10
-1443.4512810000001
 20
261.56310400000001
 30
0.0
 11
-1473.4512810000001
 21
511.56310400000001
 31
0.0
 53
90.0
 13
-1231.981051
 23
761.56310399999995
 33
0.0
 14
-1231.981051
 24
261.56310400000001
 34
0.0
 50
90.0
  0
DIMENSION
  5
588
  8
LAYER01
 62
     7
  2
*D15
 10
-1356.9795939999999
 20
761.56310399999995
 30
0.0
 11
-1386.9795939999999
 21
691.56310399999995
 31
0.0
 53
90.0
 13
-1231.981051
 23
621.56310399999995
 33
0.0
 14
-1231.981051
 24
761.56310399999995
 34
0.0
 50
90.0
  0
DIMENSION
  5
589
  8
LAYER01
 62
     7
  2
*D16
 10
-1285.7117189999999
 20
676.56310399999995
 30
0.0
 11
-1315.7117189999999
 21
649.06310399999995
 31
0.0
 53
90.0
 13
-1231.981051
 23
621.56310399999995
 33
0.0
 14
-1231.981051
 24
676.56310399999995
 34
0.0
 50
90.0
  0
LINE
  5
58A
  8
0
  6
CONTINUOUS
 62
     7
 10
-1231.981051
 20
761.56310399999995
 30
0.0
 11
-1231.981051
 21
261.56310400000001
 31
0.0
  0
LINE
  5
58B
  8
0
  6
CONTINUOUS
 62
     7
 10
-145.14555300000001
 20
-430.06424500000003
 30
0.0
 11
-210.410315
 21
-430.06424500000003
 31
0.0
  0
LINE
  5
58C
  8
0
  6
CONTINUOUS
 62
     7
 10
-154.77793399999999
 20
-438.146773
 30
0.0
 11
-200.77793399999999
 21
-438.146773
 31
0.0
  0
LINE
  5
58D
  8
0
  6
CONTINUOUS
 62
     7
 10
-176.23148900000001
 20
-452.06424500000003
 30
0.0
 11
-200.77793399999999
 21
-452.06424500000003
 31
0.0
  0
LINE
  5
58E
  8
0
  6
CONTINUOUS
 62
     7
 10
-17.841422999999999
 20
-303.06424500000003
 30
0.0
 11
-337.97810700000002
 21
-303.06424500000003
 31
0.0
  0
DIMENSION
  5
58F
  8
LAYER01
 62
     7
  2
*D17
 10
-200.77793399999999
 20
-501.87869699999987
 30
0.0
 11
-66.724755999999999
 21
-471.87869699999999
 31
0.0
 13
-154.72475600000001
 23
-452.06424500000003
 33
0.0
 14
-200.77793399999999
 24
-452.06424500000003
 34
0.0
  0
DIMENSION
  5
590
  8
LAYER01
 62
     7
  2
*D18
 10
-17.783830999999999
 20
-226.953149
 30
0.0
 11
-177.78088299999999
 21
-196.953149
 31
0.0
 13
-337.77793400000002
 23
-253.064245
 33
0.0
 14
-17.783830999999999
 24
-253.064245
 34
0.0
  0
DIMENSION
  5
591
  8
LAYER01
 62
     7
  2
*D19
 10
-377.7779339999999
 20
-164.41377900000001
 30
0.0
 11
-127.777934
 21
-134.41377900000001
 31
0.0
 13
122.222066
 23
-253.064245
 33
0.0
 14
-377.7779339999999
 24
-253.064245
 34
0.0
  0
DIMENSION
  5
592
  8
LAYER01
 62
     7
  2
*D20
 10
-527.76034900000002
 20
-253.064245
 30
0.0
 11
-557.76034900000002
 21
-278.06424500000003
 31
0.0
 53
90.0
 13
-377.7779339999999
 23
-303.06424500000003
 33
0.0
 14
-377.7779339999999
 24
-253.064245
 34
0.0
 50
90.0
  0
POLYLINE
  5
593
  8
0
  6
CONTINUOUS
 62
     7
 66
     1
 10
0.0
 20
0.0
 30
0.0
 40
0.011811
 41
0.011811
  0
VERTEX
  5
C0F
  8
0
  6
CONTINUOUS
 62
     7
 10
-210.410315
 20
-430.06424500000003
 30
0.0
  0
VERTEX
  5
C10
  8
0
  6
CONTINUOUS
 62
     7
 10
-323.09352799999999
 20
-424.1587679999999
 30
0.0
 42
-0.383864
  0
VERTEX
  5
C11
  8
0
  6
CONTINUOUS
 62
     7
 10
-332.55646400000001
 20
-414.695832
 30
0.0
  0
VERTEX
  5
C12
  8
0
  6
CONTINUOUS
 62
     7
 10
-337.77793400000002
 20
-315.06424500000003
 30
0.0
  0
SEQEND
  5
C13
  8
0
  6
CONTINUOUS
 62
     7
  0
POLYLINE
  5
599
  8
0
  6
CONTINUOUS
 62
     7
 66
     1
 10
0.0
 20
0.0
 30
0.0
 70
     1
  0
VERTEX
  5
C14
  8
0
  6
CONTINUOUS
 62
     7
 10
-337.77793400000002
 20
-315.06424500000003
 30
0.0
  0
VERTEX
  5
C15
  8
0
  6
CONTINUOUS
 62
     7
 10
-337.77793400000002
 20
-308.06424500000003
 30
0.0
  0
VERTEX
  5
C16
  8
0
  6
CONTINUOUS
 62
     7
 10
-337.79334699999998
 20
-307.67194999999998
 30
0.0
  0
VERTEX
  5
C17
  8
0
  6
CONTINUOUS
 62
     7
 10
-337.83949200000001
 20
-307.28207300000003
 30
0.0
  0
VERTEX
  5
C18
  8
0
  6
CONTINUOUS
 62
     7
 10
-337.91608400000001
 20
-306.897018
 30
0.0
  0
VERTEX
  5
C19
  8
0
  6
CONTINUOUS
 62
     7
 10
-338.022651
 20
-306.51916
 30
0.0
  0
VERTEX
  5
C1A
  8
0
  6
CONTINUOUS
 62
     7
 10
-338.15853600000003
 20
-306.15082799999999
 30
0.0
  0
VERTEX
  5
C1B
  8
0
  6
CONTINUOUS
 62
     7
 10
-338.322901
 20
-305.79429299999998
 30
0.0
  0
VERTEX
  5
C1C
  8
0
  6
CONTINUOUS
 62
     7
 10
-338.51473300000009
 20
-305.451752
 30
0.0
  0
VERTEX
  5
C1D
  8
0
  6
CONTINUOUS
 62
     7
 10
-338.7328490000001
 20
-305.12531899999999
 30
0.0
  0
VERTEX
  5
C1E
  8
0
  6
CONTINUOUS
 62
     7
 10
-338.97590400000001
 20
-304.81700499999999
 30
0.0
  0
VERTEX
  5
C1F
  8
0
  6
CONTINUOUS
 62
     7
 10
-339.24239999999998
 20
-304.52871099999999
 30
0.0
  0
VERTEX
  5
C20
  8
0
  6
CONTINUOUS
 62
     7
 10
-339.53069399999998
 20
-304.26221500000003
 30
0.0
  0
VERTEX
  5
C21
  8
0
  6
CONTINUOUS
 62
     7
 10
-339.83900799999998
 20
-304.01916
 30
0.0
  0
VERTEX
  5
C22
  8
0
  6
CONTINUOUS
 62
     7
 10
-340.16544099999999
 20
-303.80104399999999
 30
0.0
  0
VERTEX
  5
C23
  8
0
  6
CONTINUOUS
 62
     7
 10
-340.50798099999997
 20
-303.60921200000001
 30
0.0
  0
VERTEX
  5
C24
  8
0
  6
CONTINUOUS
 62
     7
 10
-340.86451699999998
 20
-303.44484699999998
 30
0.0
  0
VERTEX
  5
C25
  8
0
  6
CONTINUOUS
 62
     7
 10
-341.2328490000001
 20
-303.30896300000001
 30
0.0
  0
VERTEX
  5
C26
  8
0
  6
CONTINUOUS
 62
     7
 10
-341.61070699999999
 20
-303.20239500000002
 30
0.0
  0
VERTEX
  5
C27
  8
0
  6
CONTINUOUS
 62
     7
 10
-341.99576200000001
 20
-303.12580300000002
 30
0.0
  0
VERTEX
  5
C28
  8
0
  6
CONTINUOUS
 62
     7
 10
-342.38563799999997
 20
-303.07965799999999
 30
0.0
  0
VERTEX
  5
C29
  8
0
  6
CONTINUOUS
 62
     7
 10
-342.77793400000002
 20
-303.06424500000003
 30
0.0
  0
VERTEX
  5
C2A
  8
0
  6
CONTINUOUS
 62
     7
 10
-372.77793400000002
 20
-303.06424500000003
 30
0.0
  0
VERTEX
  5
C2B
  8
0
  6
CONTINUOUS
 62
     7
 10
-373.17022900000001
 20
-303.07965799999999
 30
0.0
  0
VERTEX
  5
C2C
  8
0
  6
CONTINUOUS
 62
     7
 10
-373.56010600000002
 20
-303.12580300000002
 30
0.0
  0
VERTEX
  5
C2D
  8
0
  6
CONTINUOUS
 62
     7
 10
-373.94516099999998
 20
-303.20239500000002
 30
0.0
  0
VERTEX
  5
C2E
  8
0
  6
CONTINUOUS
 62
     7
 10
-374.32301899999999
 20
-303.30896300000001
 30
0.0
  0
VERTEX
  5
C2F
  8
0
  6
CONTINUOUS
 62
     7
 10
-374.691351
 20
-303.44484699999998
 30
0.0
  0
VERTEX
  5
C30
  8
0
  6
CONTINUOUS
 62
     7
 10
-375.04788600000001
 20
-303.60921200000001
 30
0.0
  0
VERTEX
  5
C31
  8
0
  6
CONTINUOUS
 62
     7
 10
-375.39042699999999
 20
-303.80104399999999
 30
0.0
  0
VERTEX
  5
C32
  8
0
  6
CONTINUOUS
 62
     7
 10
-375.71686
 20
-304.01916
 30
0.0
  0
VERTEX
  5
C33
  8
0
  6
CONTINUOUS
 62
     7
 10
-376.02517400000011
 20
-304.26221500000003
 30
0.0
  0
VERTEX
  5
C34
  8
0
  6
CONTINUOUS
 62
     7
 10
-376.313468
 20
-304.52871099999999
 30
0.0
  0
VERTEX
  5
C35
  8
0
  6
CONTINUOUS
 62
     7
 10
-376.57996400000002
 20
-304.81700499999999
 30
0.0
  0
VERTEX
  5
C36
  8
0
  6
CONTINUOUS
 62
     7
 10
-376.82301899999999
 20
-305.12531899999999
 30
0.0
  0
VERTEX
  5
C37
  8
0
  6
CONTINUOUS
 62
     7
 10
-377.041135
 20
-305.451752
 30
0.0
  0
VERTEX
  5
C38
  8
0
  6
CONTINUOUS
 62
     7
 10
-377.23296699999997
 20
-305.79429299999998
 30
0.0
  0
VERTEX
  5
C39
  8
0
  6
CONTINUOUS
 62
     7
 10
-377.39733200000001
 20
-306.15082799999999
 30
0.0
  0
VERTEX
  5
C3A
  8
0
  6
CONTINUOUS
 62
     7
 10
-377.53321699999998
 20
-306.51916
 30
0.0
  0
VERTEX
  5
C3B
  8
0
  6
CONTINUOUS
 62
     7
 10
-377.63978400000002
 20
-306.897018
 30
0.0
  0
VERTEX
  5
C3C
  8
0
  6
CONTINUOUS
 62
     7
 10
-377.71637600000003
 20
-307.28207300000003
 30
0.0
  0
VERTEX
  5
C3D
  8
0
  6
CONTINUOUS
 62
     7
 10
-377.76252099999999
 20
-307.67194999999998
 30
0.0
  0
VERTEX
  5
C3E
  8
0
  6
CONTINUOUS
 62
     7
 10
-377.7779339999999
 20
-308.06424500000003
 30
0.0
  0
VERTEX
  5
C3F
  8
0
  6
CONTINUOUS
 62
     7
 10
-377.7779339999999
 20
-453.06424500000003
 30
0.0
  0
VERTEX
  5
C40
  8
0
  6
CONTINUOUS
 62
     7
 10
-365.77793400000002
 20
-453.06424500000003
 30
0.0
  0
VERTEX
  5
C41
  8
0
  6
CONTINUOUS
 62
     7
 10
-365.77793400000002
 20
-327.51115199999998
 30
0.0
  0
VERTEX
  5
C42
  8
0
  6
CONTINUOUS
 62
     7
 10
-365.762227
 20
-327.11514899999997
 30
0.0
  0
VERTEX
  5
C43
  8
0
  6
CONTINUOUS
 62
     7
 10
-365.71520600000002
 20
-326.72163399999999
 30
0.0
  0
VERTEX
  5
C44
  8
0
  6
CONTINUOUS
 62
     7
 10
-365.63716699999998
 20
-326.333079
 30
0.0
  0
VERTEX
  5
C45
  8
0
  6
CONTINUOUS
 62
     7
 10
-365.52859799999999
 20
-325.95192500000002
 30
0.0
  0
VERTEX
  5
C46
  8
0
  6
CONTINUOUS
 62
     7
 10
-365.39018299999998
 20
-325.58056699999997
 30
0.0
  0
VERTEX
  5
C47
  8
0
  6
CONTINUOUS
 62
     7
 10
-365.22279100000009
 20
-325.221338
 30
0.0
  0
VERTEX
  5
C48
  8
0
  6
CONTINUOUS
 62
     7
 10
-365.02747299999999
 20
-324.87649599999997
 30
0.0
  0
VERTEX
  5
C49
  8
0
  6
CONTINUOUS
 62
     7
 10
-364.80545799999999
 20
-324.54820599999999
 30
0.0
  0
VERTEX
  5
C4A
  8
0
  6
CONTINUOUS
 62
     7
 10
-364.55813899999998
 20
-324.23853100000002
 30
0.0
  0
VERTEX
  5
C4B
  8
0
  6
CONTINUOUS
 62
     7
 10
-364.28707000000003
 20
-323.94941599999999
 30
0.0
  0
VERTEX
  5
C4C
  8
0
  6
CONTINUOUS
 62
     7
 10
-363.99395500000003
 20
-323.68267900000001
 30
0.0
  0
VERTEX
  5
C4D
  8
0
  6
CONTINUOUS
 62
     7
 10
-363.680635
 20
-323.43999400000001
 30
0.0
  0
VERTEX
  5
C4E
  8
0
  6
CONTINUOUS
 62
     7
 10
-363.34907800000002
 20
-323.22288700000001
 30
0.0
  0
VERTEX
  5
C4F
  8
0
  6
CONTINUOUS
 62
     7
 10
-363.00136800000001
 20
-323.03272199999998
 30
0.0
  0
VERTEX
  5
C50
  8
0
  6
CONTINUOUS
 62
     7
 10
-362.63968899999998
 20
-322.87069200000002
 30
0.0
  0
VERTEX
  5
C51
  8
0
  6
CONTINUOUS
 62
     7
 10
-362.26631300000003
 20
-322.73781700000001
 30
0.0
  0
VERTEX
  5
C52
  8
0
  6
CONTINUOUS
 62
     7
 10
-361.88358599999998
 20
-322.63493099999999
 30
0.0
  0
VERTEX
  5
C53
  8
0
  6
CONTINUOUS
 62
     7
 10
-361.49391300000002
 20
-322.56268
 30
0.0
  0
VERTEX
  5
C54
  8
0
  6
CONTINUOUS
 62
     7
 10
-361.09974199999999
 20
-322.52151900000001
 30
0.0
  0
VERTEX
  5
C55
  8
0
  6
CONTINUOUS
 62
     7
 10
-360.70354900000001
 20
-322.511706
 30
0.0
  0
VERTEX
  5
C56
  8
0
  6
CONTINUOUS
 62
     7
 10
-359.03626700000001
 20
-322.53651300000001
 30
0.0
  0
VERTEX
  5
C57
  8
0
  6
CONTINUOUS
 62
     7
 10
-358.283793
 20
-322.57610099999999
 30
0.0
  0
VERTEX
  5
C58
  8
0
  6
CONTINUOUS
 62
     7
 10
-357.53643599999998
 20
-322.672237
 30
0.0
  0
VERTEX
  5
C59
  8
0
  6
CONTINUOUS
 62
     7
 10
-356.79844000000003
 20
-322.82437399999998
 30
0.0
  0
VERTEX
  5
C5A
  8
0
  6
CONTINUOUS
 62
     7
 10
-356.07399400000003
 20
-323.03164800000002
 30
0.0
  0
VERTEX
  5
C5B
  8
0
  6
CONTINUOUS
 62
     7
 10
-355.36721199999999
 20
-323.29288400000002
 30
0.0
  0
VERTEX
  5
C5C
  8
0
  6
CONTINUOUS
 62
     7
 10
-354.68210800000003
 20
-323.60659700000002
 30
0.0
  0
VERTEX
  5
C5D
  8
0
  6
CONTINUOUS
 62
     7
 10
-354.02257000000009
 20
-323.97100699999999
 30
0.0
  0
VERTEX
  5
C5E
  8
0
  6
CONTINUOUS
 62
     7
 10
-353.39234399999998
 20
-324.38404400000002
 30
0.0
  0
VERTEX
  5
C5F
  8
0
  6
CONTINUOUS
 62
     7
 10
-352.795008
 20
-324.84336300000001
 30
0.0
  0
VERTEX
  5
C60
  8
0
  6
CONTINUOUS
 62
     7
 10
-352.23395399999998
 20
-325.34635700000001
 30
0.0
  0
VERTEX
  5
C61
  8
0
  6
CONTINUOUS
 62
     7
 10
-351.71236599999997
 20
-325.89016800000002
 30
0.0
  0
VERTEX
  5
C62
  8
0
  6
CONTINUOUS
 62
     7
 10
-351.23320799999999
 20
-326.47171100000003
 30
0.0
  0
VERTEX
  5
C63
  8
0
  6
CONTINUOUS
 62
     7
 10
-350.79919799999999
 20
-327.08768199999997
 30
0.0
  0
VERTEX
  5
C64
  8
0
  6
CONTINUOUS
 62
     7
 10
-350.412803
 20
-327.73458399999998
 30
0.0
  0
VERTEX
  5
C65
  8
0
  6
CONTINUOUS
 62
     7
 10
-350.07621399999999
 20
-328.40874500000001
 30
0.0
  0
VERTEX
  5
C66
  8
0
  6
CONTINUOUS
 62
     7
 10
-349.79134399999998
 20
-329.106336
 30
0.0
  0
VERTEX
  5
C67
  8
0
  6
CONTINUOUS
 62
     7
 10
-349.55981000000003
 20
-329.823397
 30
0.0
  0
VERTEX
  5
C68
  8
0
  6
CONTINUOUS
 62
     7
 10
-349.382927
 20
-330.55585600000001
 30
0.0
  0
VERTEX
  5
C69
  8
0
  6
CONTINUOUS
 62
     7
 10
-349.26169800000002
 20
-331.299555
 30
0.0
  0
VERTEX
  5
C6A
  8
0
  6
CONTINUOUS
 62
     7
 10
-349.19681200000002
 20
-332.05027100000001
 30
0.0
  0
VERTEX
  5
C6B
  8
0
  6
CONTINUOUS
 62
     7
 10
-345.14847500000002
 20
-415.39958899999999
 30
0.0
  0
VERTEX
  5
C6C
  8
0
  6
CONTINUOUS
 62
     7
 10
-345.00514800000002
 20
-417.00552999999991
 30
0.0
  0
VERTEX
  5
C6D
  8
0
  6
CONTINUOUS
 62
     7
 10
-344.74459100000001
 20
-418.59665999999987
 30
0.0
  0
VERTEX
  5
C6E
  8
0
  6
CONTINUOUS
 62
     7
 10
-344.368201
 20
-420.16443399999991
 30
0.0
  0
VERTEX
  5
C6F
  8
0
  6
CONTINUOUS
 62
     7
 10
-343.87800199999998
 20
-421.70043299999992
 30
0.0
  0
VERTEX
  5
C70
  8
0
  6
CONTINUOUS
 62
     7
 10
-343.27662500000002
 20
-423.19640500000003
 30
0.0
  0
VERTEX
  5
C71
  8
0
  6
CONTINUOUS
 62
     7
 10
-342.56730099999999
 20
-424.64431500000012
 30
0.0
  0
VERTEX
  5
C72
  8
0
  6
CONTINUOUS
 62
     7
 10
-341.75383900000003
 20
-426.03638799999987
 30
0.0
  0
VERTEX
  5
C73
  8
0
  6
CONTINUOUS
 62
     7
 10
-340.84060899999997
 20
-427.36514599999992
 30
0.0
  0
VERTEX
  5
C74
  8
0
  6
CONTINUOUS
 62
     7
 10
-339.832516
 20
-428.62345199999987
 30
0.0
  0
VERTEX
  5
C75
  8
0
  6
CONTINUOUS
 62
     7
 10
-338.73497400000002
 20
-429.80454800000001
 30
0.0
  0
VERTEX
  5
C76
  8
0
  6
CONTINUOUS
 62
     7
 10
-337.553878
 20
-430.90208999999999
 30
0.0
  0
VERTEX
  5
C77
  8
0
  6
CONTINUOUS
 62
     7
 10
-336.29557199999999
 20
-431.91018300000002
 30
0.0
  0
VERTEX
  5
C78
  8
0
  6
CONTINUOUS
 62
     7
 10
-334.966814
 20
-432.82341300000002
 30
0.0
  0
VERTEX
  5
C79
  8
0
  6
CONTINUOUS
 62
     7
 10
-333.57474200000001
 20
-433.63687399999998
 30
0.0
  0
VERTEX
  5
C7A
  8
0
  6
CONTINUOUS
 62
     7
 10
-332.12683099999998
 20
-434.34619800000002
 30
0.0
  0
VERTEX
  5
C7B
  8
0
  6
CONTINUOUS
 62
     7
 10
-330.63085899999999
 20
-434.94757499999992
 30
0.0
  0
VERTEX
  5
C7C
  8
0
  6
CONTINUOUS
 62
     7
 10
-329.09486099999998
 20
-435.43777499999999
 30
0.0
  0
VERTEX
  5
C7D
  8
0
  6
CONTINUOUS
 62
     7
 10
-327.527086
 20
-435.81416399999989
 30
0.0
  0
VERTEX
  5
C7E
  8
0
  6
CONTINUOUS
 62
     7
 10
-325.93595599999998
 20
-436.07472199999989
 30
0.0
  0
VERTEX
  5
C7F
  8
0
  6
CONTINUOUS
 62
     7
 10
-324.330016
 20
-436.21804800000012
 30
0.0
  0
VERTEX
  5
C80
  8
0
  6
CONTINUOUS
 62
     7
 10
-222.25457399999999
 20
-441.56759499999998
 30
0.0
  0
VERTEX
  5
C81
  8
0
  6
CONTINUOUS
 62
     7
 10
-221.49863199999999
 20
-441.63605899999999
 30
0.0
  0
VERTEX
  5
C82
  8
0
  6
CONTINUOUS
 62
     7
 10
-220.75006099999999
 20
-441.761663
 30
0.0
  0
VERTEX
  5
C83
  8
0
  6
CONTINUOUS
 62
     7
 10
-220.01317299999999
 20
-441.94368300000002
 30
0.0
  0
VERTEX
  5
C84
  8
0
  6
CONTINUOUS
 62
     7
 10
-219.292213
 20
-442.18107099999992
 30
0.0
  0
VERTEX
  5
C85
  8
0
  6
CONTINUOUS
 62
     7
 10
-218.59133700000001
 20
-442.4724589999999
 30
0.0
  0
VERTEX
  5
C86
  8
0
  6
CONTINUOUS
 62
     7
 10
-217.91458
 20
-442.816169
 30
0.0
  0
VERTEX
  5
C87
  8
0
  6
CONTINUOUS
 62
     7
 10
-217.26584299999999
 20
-443.21021900000011
 30
0.0
  0
VERTEX
  5
C88
  8
0
  6
CONTINUOUS
 62
     7
 10
-216.64886300000001
 20
-443.65234099999998
 30
0.0
  0
VERTEX
  5
C89
  8
0
  6
CONTINUOUS
 62
     7
 10
-216.067195
 20
-444.13998600000002
 30
0.0
  0
VERTEX
  5
C8A
  8
0
  6
CONTINUOUS
 62
     7
 10
-215.52419
 20
-444.670345
 30
0.0
  0
VERTEX
  5
C8B
  8
0
  6
CONTINUOUS
 62
     7
 10
-215.022977
 20
-445.240363
 30
0.0
  0
VERTEX
  5
C8C
  8
0
  6
CONTINUOUS
 62
     7
 10
-214.566442
 20
-445.84675499999992
 30
0.0
  0
VERTEX
  5
C8D
  8
0
  6
CONTINUOUS
 62
     7
 10
-214.157217
 20
-446.48602799999998
 30
0.0
  0
VERTEX
  5
C8E
  8
0
  6
CONTINUOUS
 62
     7
 10
-213.79765800000001
 20
-447.15449899999999
 30
0.0
  0
VERTEX
  5
C8F
  8
0
  6
CONTINUOUS
 62
     7
 10
-213.48983799999999
 20
-447.84831600000001
 30
0.0
  0
VERTEX
  5
C90
  8
0
  6
CONTINUOUS
 62
     7
 10
-213.23553100000001
 20
-448.56348300000002
 30
0.0
  0
VERTEX
  5
C91
  8
0
  6
CONTINUOUS
 62
     7
 10
-213.03620000000001
 20
-449.29587800000002
 30
0.0
  0
VERTEX
  5
C92
  8
0
  6
CONTINUOUS
 62
     7
 10
-212.89299500000001
 20
-450.04128300000002
 30
0.0
  0
VERTEX
  5
C93
  8
0
  6
CONTINUOUS
 62
     7
 10
-212.80674099999999
 20
-450.79540199999991
 30
0.0
  0
VERTEX
  5
C94
  8
0
  6
CONTINUOUS
 62
     7
 10
-212.77793399999999
 20
-451.55389100000002
 30
0.0
  0
VERTEX
  5
C95
  8
0
  6
CONTINUOUS
 62
     7
 10
-212.77793399999999
 20
-452.06424500000003
 30
0.0
  0
VERTEX
  5
C96
  8
0
  6
CONTINUOUS
 62
     7
 10
-200.77793399999999
 20
-452.06424500000003
 30
0.0
  0
VERTEX
  5
C97
  8
0
  6
CONTINUOUS
 62
     7
 10
-200.77793399999999
 20
-438.146773
 30
0.0
  0
VERTEX
  5
C98
  8
0
  6
CONTINUOUS
 62
     7
 10
-210.410315
 20
-430.06424500000003
 30
0.0
  0
VERTEX
  5
C99
  8
0
  6
CONTINUOUS
 62
     7
 10
-323.09352799999999
 20
-424.1587679999999
 30
0.0
  0
VERTEX
  5
C9A
  8
0
  6
CONTINUOUS
 62
     7
 10
-323.82350100000002
 20
-424.09361999999999
 30
0.0
  0
VERTEX
  5
C9B
  8
0
  6
CONTINUOUS
 62
     7
 10
-324.54674199999999
 20
-423.9751849999999
 30
0.0
  0
VERTEX
  5
C9C
  8
0
  6
CONTINUOUS
 62
     7
 10
-325.259367
 20
-423.80409800000001
 30
0.0
  0
VERTEX
  5
C9D
  8
0
  6
CONTINUOUS
 62
     7
 10
-325.95754799999997
 20
-423.58127999999988
 30
0.0
  0
VERTEX
  5
C9E
  8
0
  6
CONTINUOUS
 62
     7
 10
-326.63753500000001
 20
-423.30792699999989
 30
0.0
  0
VERTEX
  5
C9F
  8
0
  6
CONTINUOUS
 62
     7
 10
-327.29567600000001
 20
-422.98550699999998
 30
0.0
  0
VERTEX
  5
CA0
  8
0
  6
CONTINUOUS
 62
     7
 10
-327.92843599999998
 20
-422.61575199999987
 30
0.0
  0
VERTEX
  5
CA1
  8
0
  6
CONTINUOUS
 62
     7
 10
-328.53241700000001
 20
-422.20064800000011
 30
0.0
  0
VERTEX
  5
CA2
  8
0
  6
CONTINUOUS
 62
     7
 10
-329.10437400000001
 20
-421.74242299999997
 30
0.0
  0
VERTEX
  5
CA3
  8
0
  6
CONTINUOUS
 62
     7
 10
-329.64123599999999
 20
-421.24354099999999
 30
0.0
  0
VERTEX
  5
CA4
  8
0
  6
CONTINUOUS
 62
     7
 10
-330.14011900000003
 20
-420.70667899999989
 30
0.0
  0
VERTEX
  5
CA5
  8
0
  6
CONTINUOUS
 62
     7
 10
-330.598343
 20
-420.1347219999999
 30
0.0
  0
VERTEX
  5
CA6
  8
0
  6
CONTINUOUS
 62
     7
 10
-331.01344799999998
 20
-419.53074099999998
 30
0.0
  0
VERTEX
  5
CA7
  8
0
  6
CONTINUOUS
 62
     7
 10
-331.38320299999998
 20
-418.8979799999999
 30
0.0
  0
VERTEX
  5
CA8
  8
0
  6
CONTINUOUS
 62
     7
 10
-331.705623
 20
-418.23983900000002
 30
0.0
  0
VERTEX
  5
CA9
  8
0
  6
CONTINUOUS
 62
     7
 10
-331.97897599999999
 20
-417.55985199999992
 30
0.0
  0
VERTEX
  5
CAA
  8
0
  6
CONTINUOUS
 62
     7
 10
-332.20179400000001
 20
-416.861671
 30
0.0
  0
VERTEX
  5
CAB
  8
0
  6
CONTINUOUS
 62
     7
 10
-332.37288000000001
 20
-416.149046
 30
0.0
  0
VERTEX
  5
CAC
  8
0
  6
CONTINUOUS
 62
     7
 10
-332.49131499999999
 20
-415.42580500000003
 30
0.0
  0
VERTEX
  5
CAD
  8
0
  6
CONTINUOUS
 62
     7
 10
-332.55646400000001
 20
-414.695832
 30
0.0
  0
SEQEND
  5
CAE
  8
0
  6
CONTINUOUS
 62
     7
  0
LINE
  5
635
  8
0
  6
CONTINUOUS
 62
     7
 10
-377.7779339999999
 20
-308.06424500000003
 30
0.0
 11
-377.7779339999999
 21
-453.06424500000003
 31
0.0
  0
LINE
  5
636
  8
0
  6
CONTINUOUS
 62
     7
 10
-332.55646400000001
 20
-414.695832
 30
0.0
 11
-337.77793400000002
 21
-315.06424500000003
 31
0.0
  0
LINE
  5
637
  8
0
  6
CONTINUOUS
 62
     7
 10
-377.7779339999999
 20
-308.06424500000003
 30
0.0
 11
-377.7779339999999
 21
-453.06424500000003
 31
0.0
  0
LINE
  5
638
  8
0
  6
CONTINUOUS
 62
     7
 10
-349.19681200000002
 20
-332.05027100000001
 30
0.0
 11
-345.14847500000002
 21
-415.39958899999999
 31
0.0
  0
LINE
  5
639
  8
0
  6
CONTINUOUS
 62
     7
 10
-332.55646400000001
 20
-414.695832
 30
0.0
 11
-337.77793400000002
 21
-315.06424500000003
 31
0.0
  0
LINE
  5
63A
  8
0
  6
CONTINUOUS
 62
     7
 10
-377.7779339999999
 20
-308.06424500000003
 30
0.0
 11
-377.7779339999999
 21
-453.06424500000003
 31
0.0
  0
LINE
  5
63B
  8
0
  6
CONTINUOUS
 62
     7
 10
-365.77793400000002
 20
-453.06424500000003
 30
0.0
 11
-365.77793400000002
 21
-327.51115199999998
 31
0.0
  0
LINE
  5
63C
  8
0
  6
CONTINUOUS
 62
     7
 10
-365.77793400000002
 20
-453.06424500000003
 30
0.0
 11
-365.77793400000002
 21
-327.51115199999998
 31
0.0
  0
LINE
  5
63D
  8
0
  6
CONTINUOUS
 62
     7
 10
-349.19681200000002
 20
-332.05027100000001
 30
0.0
 11
-345.14847500000002
 21
-415.39958899999999
 31
0.0
  0
LINE
  5
63E
  8
0
  6
CONTINUOUS
 62
     7
 10
-222.25457399999999
 20
-441.56759499999998
 30
0.0
 11
-324.330016
 21
-436.21804800000012
 31
0.0
  0
LINE
  5
63F
  8
0
  6
CONTINUOUS
 62
     7
 10
-210.410315
 20
-430.06424500000003
 30
0.0
 11
-323.09352799999999
 21
-424.1587679999999
 31
0.0
  0
LINE
  5
640
  8
0
  6
CONTINUOUS
 62
     7
 10
-324.330016
 20
-436.21804800000012
 30
0.0
 11
-222.25457399999999
 21
-441.56759499999998
 31
0.0
  0
LINE
  5
641
  8
0
  6
CONTINUOUS
 62
     7
 10
-324.330016
 20
-436.21804800000012
 30
0.0
 11
-222.25457399999999
 21
-441.56759499999998
 31
0.0
  0
LINE
  5
642
  8
0
  6
CONTINUOUS
 62
     7
 10
-210.410315
 20
-430.06424500000003
 30
0.0
 11
-323.09352799999999
 21
-424.1587679999999
 31
0.0
  0
LINE
  5
643
  8
0
  6
CONTINUOUS
 62
     7
 10
-377.7779339999999
 20
-453.06424500000003
 30
0.0
 11
-365.77793400000002
 21
-453.06424500000003
 31
0.0
  0
ARC
  5
644
  8
0
  6
CONTINUOUS
 62
     7
 10
-323.17862500000001
 20
-414.248198
 30
0.0
 40
22.0
 50
183.0
 51
267.0
  0
LINE
  5
645
  8
0
  6
CONTINUOUS
 62
     7
 10
-323.09352799999999
 20
-424.1587679999999
 30
0.0
 11
-323.82350100000002
 21
-424.09361999999999
 31
0.0
  0
LINE
  5
646
  8
0
  6
CONTINUOUS
 62
     7
 10
-323.82350100000002
 20
-424.09361999999999
 30
0.0
 11
-324.54674199999999
 21
-423.9751849999999
 31
0.0
  0
LINE
  5
647
  8
0
  6
CONTINUOUS
 62
     7
 10
-324.54674199999999
 20
-423.9751849999999
 30
0.0
 11
-325.259367
 21
-423.80409800000001
 31
0.0
  0
LINE
  5
648
  8
0
  6
CONTINUOUS
 62
     7
 10
-325.259367
 20
-423.80409800000001
 30
0.0
 11
-325.95754799999997
 21
-423.58127999999988
 31
0.0
  0
LINE
  5
649
  8
0
  6
CONTINUOUS
 62
     7
 10
-325.95754799999997
 20
-423.58127999999988
 30
0.0
 11
-326.63753500000001
 21
-423.30792699999989
 31
0.0
  0
LINE
  5
64A
  8
0
  6
CONTINUOUS
 62
     7
 10
-326.63753500000001
 20
-423.30792699999989
 30
0.0
 11
-327.29567600000001
 21
-422.98550699999998
 31
0.0
  0
LINE
  5
64B
  8
0
  6
CONTINUOUS
 62
     7
 10
-327.29567600000001
 20
-422.98550699999998
 30
0.0
 11
-327.92843599999998
 21
-422.61575199999987
 31
0.0
  0
LINE
  5
64C
  8
0
  6
CONTINUOUS
 62
     7
 10
-327.92843599999998
 20
-422.61575199999987
 30
0.0
 11
-328.53241700000001
 21
-422.20064800000011
 31
0.0
  0
LINE
  5
64D
  8
0
  6
CONTINUOUS
 62
     7
 10
-328.53241700000001
 20
-422.20064800000011
 30
0.0
 11
-329.10437400000001
 21
-421.74242299999997
 31
0.0
  0
LINE
  5
64E
  8
0
  6
CONTINUOUS
 62
     7
 10
-329.10437400000001
 20
-421.74242299999997
 30
0.0
 11
-329.64123599999999
 21
-421.24354099999999
 31
0.0
  0
LINE
  5
64F
  8
0
  6
CONTINUOUS
 62
     7
 10
-329.64123599999999
 20
-421.24354099999999
 30
0.0
 11
-330.14011900000003
 21
-420.70667899999989
 31
0.0
  0
LINE
  5
650
  8
0
  6
CONTINUOUS
 62
     7
 10
-330.14011900000003
 20
-420.70667899999989
 30
0.0
 11
-330.598343
 21
-420.1347219999999
 31
0.0
  0
LINE
  5
651
  8
0
  6
CONTINUOUS
 62
     7
 10
-330.598343
 20
-420.1347219999999
 30
0.0
 11
-331.01344799999998
 21
-419.53074099999998
 31
0.0
  0
LINE
  5
652
  8
0
  6
CONTINUOUS
 62
     7
 10
-331.01344799999998
 20
-419.53074099999998
 30
0.0
 11
-331.38320299999998
 21
-418.8979799999999
 31
0.0
  0
LINE
  5
653
  8
0
  6
CONTINUOUS
 62
     7
 10
-331.38320299999998
 20
-418.8979799999999
 30
0.0
 11
-331.705623
 21
-418.23983900000002
 31
0.0
  0
LINE
  5
654
  8
0
  6
CONTINUOUS
 62
     7
 10
-331.705623
 20
-418.23983900000002
 30
0.0
 11
-331.97897599999999
 21
-417.55985199999992
 31
0.0
  0
LINE
  5
655
  8
0
  6
CONTINUOUS
 62
     7
 10
-331.97897599999999
 20
-417.55985199999992
 30
0.0
 11
-332.20179400000001
 21
-416.861671
 31
0.0
  0
LINE
  5
656
  8
0
  6
CONTINUOUS
 62
     7
 10
-332.20179400000001
 20
-416.861671
 30
0.0
 11
-332.37288000000001
 21
-416.149046
 31
0.0
  0
LINE
  5
657
  8
0
  6
CONTINUOUS
 62
     7
 10
-332.37288000000001
 20
-416.149046
 30
0.0
 11
-332.49131499999999
 21
-415.42580500000003
 31
0.0
  0
LINE
  5
658
  8
0
  6
CONTINUOUS
 62
     7
 10
-332.49131499999999
 20
-415.42580500000003
 30
0.0
 11
-332.55646400000001
 21
-414.695832
 31
0.0
  0
LINE
  5
659
  8
0
  6
CONTINUOUS
 62
     7
 10
-345.14847500000002
 20
-415.39958899999999
 30
0.0
 11
-345.00514800000002
 21
-417.00552999999991
 31
0.0
  0
LINE
  5
65A
  8
0
  6
CONTINUOUS
 62
     7
 10
-345.00514800000002
 20
-417.00552999999991
 30
0.0
 11
-344.74459100000001
 21
-418.59665999999987
 31
0.0
  0
LINE
  5
65B
  8
0
  6
CONTINUOUS
 62
     7
 10
-344.74459100000001
 20
-418.59665999999987
 30
0.0
 11
-344.368201
 21
-420.16443399999991
 31
0.0
  0
LINE
  5
65C
  8
0
  6
CONTINUOUS
 62
     7
 10
-344.368201
 20
-420.16443399999991
 30
0.0
 11
-343.87800199999998
 21
-421.70043299999992
 31
0.0
  0
LINE
  5
65D
  8
0
  6
CONTINUOUS
 62
     7
 10
-343.87800199999998
 20
-421.70043299999992
 30
0.0
 11
-343.27662500000002
 21
-423.19640500000003
 31
0.0
  0
LINE
  5
65E
  8
0
  6
CONTINUOUS
 62
     7
 10
-343.27662500000002
 20
-423.19640500000003
 30
0.0
 11
-342.56730099999999
 21
-424.64431500000012
 31
0.0
  0
LINE
  5
65F
  8
0
  6
CONTINUOUS
 62
     7
 10
-342.56730099999999
 20
-424.64431500000012
 30
0.0
 11
-341.75383900000003
 21
-426.03638799999987
 31
0.0
  0
LINE
  5
660
  8
0
  6
CONTINUOUS
 62
     7
 10
-341.75383900000003
 20
-426.03638799999987
 30
0.0
 11
-340.84060899999997
 21
-427.36514599999992
 31
0.0
  0
LINE
  5
661
  8
0
  6
CONTINUOUS
 62
     7
 10
-340.84060899999997
 20
-427.36514599999992
 30
0.0
 11
-339.832516
 21
-428.62345199999987
 31
0.0
  0
LINE
  5
662
  8
0
  6
CONTINUOUS
 62
     7
 10
-339.832516
 20
-428.62345199999987
 30
0.0
 11
-338.73497400000002
 21
-429.80454800000001
 31
0.0
  0
LINE
  5
663
  8
0
  6
CONTINUOUS
 62
     7
 10
-338.73497400000002
 20
-429.80454800000001
 30
0.0
 11
-337.553878
 21
-430.90208999999999
 31
0.0
  0
LINE
  5
664
  8
0
  6
CONTINUOUS
 62
     7
 10
-337.553878
 20
-430.90208999999999
 30
0.0
 11
-336.29557199999999
 21
-431.91018300000002
 31
0.0
  0
LINE
  5
665
  8
0
  6
CONTINUOUS
 62
     7
 10
-336.29557199999999
 20
-431.91018300000002
 30
0.0
 11
-334.966814
 21
-432.82341300000002
 31
0.0
  0
LINE
  5
666
  8
0
  6
CONTINUOUS
 62
     7
 10
-334.966814
 20
-432.82341300000002
 30
0.0
 11
-333.57474200000001
 21
-433.63687399999998
 31
0.0
  0
LINE
  5
667
  8
0
  6
CONTINUOUS
 62
     7
 10
-333.57474200000001
 20
-433.63687399999998
 30
0.0
 11
-332.12683099999998
 21
-434.34619800000002
 31
0.0
  0
LINE
  5
668
  8
0
  6
CONTINUOUS
 62
     7
 10
-332.12683099999998
 20
-434.34619800000002
 30
0.0
 11
-330.63085899999999
 21
-434.94757499999992
 31
0.0
  0
LINE
  5
669
  8
0
  6
CONTINUOUS
 62
     7
 10
-330.63085899999999
 20
-434.94757499999992
 30
0.0
 11
-329.09486099999998
 21
-435.43777499999999
 31
0.0
  0
LINE
  5
66A
  8
0
  6
CONTINUOUS
 62
     7
 10
-329.09486099999998
 20
-435.43777499999999
 30
0.0
 11
-327.527086
 21
-435.81416399999989
 31
0.0
  0
LINE
  5
66B
  8
0
  6
CONTINUOUS
 62
     7
 10
-327.527086
 20
-435.81416399999989
 30
0.0
 11
-325.93595599999998
 21
-436.07472199999989
 31
0.0
  0
LINE
  5
66C
  8
0
  6
CONTINUOUS
 62
     7
 10
-325.93595599999998
 20
-436.07472199999989
 30
0.0
 11
-324.330016
 21
-436.21804800000012
 31
0.0
  0
LINE
  5
66D
  8
0
  6
CONTINUOUS
 62
     7
 10
-377.7779339999999
 20
-453.06424500000003
 30
0.0
 11
-365.77793400000002
 21
-453.06424500000003
 31
0.0
  0
LINE
  5
66E
  8
0
  6
CONTINUOUS
 62
     7
 10
-377.7779339999999
 20
-453.06424500000003
 30
0.0
 11
-365.77793400000002
 21
-453.06424500000003
 31
0.0
  0
LINE
  5
66F
  8
0
  6
CONTINUOUS
 62
     7
 10
-345.14847500000002
 20
-415.39958899999999
 30
0.0
 11
-345.00514800000002
 21
-417.00552999999991
 31
0.0
  0
LINE
  5
670
  8
0
  6
CONTINUOUS
 62
     7
 10
-345.00514800000002
 20
-417.00552999999991
 30
0.0
 11
-344.74459100000001
 21
-418.59665999999987
 31
0.0
  0
LINE
  5
671
  8
0
  6
CONTINUOUS
 62
     7
 10
-344.74459100000001
 20
-418.59665999999987
 30
0.0
 11
-344.368201
 21
-420.16443399999991
 31
0.0
  0
LINE
  5
672
  8
0
  6
CONTINUOUS
 62
     7
 10
-344.368201
 20
-420.16443399999991
 30
0.0
 11
-343.87800199999998
 21
-421.70043299999992
 31
0.0
  0
LINE
  5
673
  8
0
  6
CONTINUOUS
 62
     7
 10
-343.87800199999998
 20
-421.70043299999992
 30
0.0
 11
-343.27662500000002
 21
-423.19640500000003
 31
0.0
  0
LINE
  5
674
  8
0
  6
CONTINUOUS
 62
     7
 10
-343.27662500000002
 20
-423.19640500000003
 30
0.0
 11
-342.56730099999999
 21
-424.64431500000012
 31
0.0
  0
LINE
  5
675
  8
0
  6
CONTINUOUS
 62
     7
 10
-342.56730099999999
 20
-424.64431500000012
 30
0.0
 11
-341.75383900000003
 21
-426.03638799999987
 31
0.0
  0
LINE
  5
676
  8
0
  6
CONTINUOUS
 62
     7
 10
-341.75383900000003
 20
-426.03638799999987
 30
0.0
 11
-340.84060899999997
 21
-427.36514599999992
 31
0.0
  0
LINE
  5
677
  8
0
  6
CONTINUOUS
 62
     7
 10
-340.84060899999997
 20
-427.36514599999992
 30
0.0
 11
-339.832516
 21
-428.62345199999987
 31
0.0
  0
LINE
  5
678
  8
0
  6
CONTINUOUS
 62
     7
 10
-339.832516
 20
-428.62345199999987
 30
0.0
 11
-338.73497400000002
 21
-429.80454800000001
 31
0.0
  0
LINE
  5
679
  8
0
  6
CONTINUOUS
 62
     7
 10
-338.73497400000002
 20
-429.80454800000001
 30
0.0
 11
-337.553878
 21
-430.90208999999999
 31
0.0
  0
LINE
  5
67A
  8
0
  6
CONTINUOUS
 62
     7
 10
-337.553878
 20
-430.90208999999999
 30
0.0
 11
-336.29557199999999
 21
-431.91018300000002
 31
0.0
  0
LINE
  5
67B
  8
0
  6
CONTINUOUS
 62
     7
 10
-336.29557199999999
 20
-431.91018300000002
 30
0.0
 11
-334.966814
 21
-432.82341300000002
 31
0.0
  0
LINE
  5
67C
  8
0
  6
CONTINUOUS
 62
     7
 10
-334.966814
 20
-432.82341300000002
 30
0.0
 11
-333.57474200000001
 21
-433.63687399999998
 31
0.0
  0
LINE
  5
67D
  8
0
  6
CONTINUOUS
 62
     7
 10
-333.57474200000001
 20
-433.63687399999998
 30
0.0
 11
-332.12683099999998
 21
-434.34619800000002
 31
0.0
  0
LINE
  5
67E
  8
0
  6
CONTINUOUS
 62
     7
 10
-332.12683099999998
 20
-434.34619800000002
 30
0.0
 11
-330.63085899999999
 21
-434.94757499999992
 31
0.0
  0
LINE
  5
67F
  8
0
  6
CONTINUOUS
 62
     7
 10
-330.63085899999999
 20
-434.94757499999992
 30
0.0
 11
-329.09486099999998
 21
-435.43777499999999
 31
0.0
  0
LINE
  5
680
  8
0
  6
CONTINUOUS
 62
     7
 10
-329.09486099999998
 20
-435.43777499999999
 30
0.0
 11
-327.527086
 21
-435.81416399999989
 31
0.0
  0
LINE
  5
681
  8
0
  6
CONTINUOUS
 62
     7
 10
-327.527086
 20
-435.81416399999989
 30
0.0
 11
-325.93595599999998
 21
-436.07472199999989
 31
0.0
  0
LINE
  5
682
  8
0
  6
CONTINUOUS
 62
     7
 10
-325.93595599999998
 20
-436.07472199999989
 30
0.0
 11
-324.330016
 21
-436.21804800000012
 31
0.0
  0
LINE
  5
683
  8
0
  6
CONTINUOUS
 62
     7
 10
-323.09352799999999
 20
-424.1587679999999
 30
0.0
 11
-323.82350100000002
 21
-424.09361999999999
 31
0.0
  0
LINE
  5
684
  8
0
  6
CONTINUOUS
 62
     7
 10
-323.82350100000002
 20
-424.09361999999999
 30
0.0
 11
-324.54674199999999
 21
-423.9751849999999
 31
0.0
  0
LINE
  5
685
  8
0
  6
CONTINUOUS
 62
     7
 10
-324.54674199999999
 20
-423.9751849999999
 30
0.0
 11
-325.259367
 21
-423.80409800000001
 31
0.0
  0
LINE
  5
686
  8
0
  6
CONTINUOUS
 62
     7
 10
-325.259367
 20
-423.80409800000001
 30
0.0
 11
-325.95754799999997
 21
-423.58127999999988
 31
0.0
  0
LINE
  5
687
  8
0
  6
CONTINUOUS
 62
     7
 10
-325.95754799999997
 20
-423.58127999999988
 30
0.0
 11
-326.63753500000001
 21
-423.30792699999989
 31
0.0
  0
LINE
  5
688
  8
0
  6
CONTINUOUS
 62
     7
 10
-326.63753500000001
 20
-423.30792699999989
 30
0.0
 11
-327.29567600000001
 21
-422.98550699999998
 31
0.0
  0
LINE
  5
689
  8
0
  6
CONTINUOUS
 62
     7
 10
-327.29567600000001
 20
-422.98550699999998
 30
0.0
 11
-327.92843599999998
 21
-422.61575199999987
 31
0.0
  0
LINE
  5
68A
  8
0
  6
CONTINUOUS
 62
     7
 10
-327.92843599999998
 20
-422.61575199999987
 30
0.0
 11
-328.53241700000001
 21
-422.20064800000011
 31
0.0
  0
LINE
  5
68B
  8
0
  6
CONTINUOUS
 62
     7
 10
-328.53241700000001
 20
-422.20064800000011
 30
0.0
 11
-329.10437400000001
 21
-421.74242299999997
 31
0.0
  0
LINE
  5
68C
  8
0
  6
CONTINUOUS
 62
     7
 10
-329.10437400000001
 20
-421.74242299999997
 30
0.0
 11
-329.64123599999999
 21
-421.24354099999999
 31
0.0
  0
LINE
  5
68D
  8
0
  6
CONTINUOUS
 62
     7
 10
-329.64123599999999
 20
-421.24354099999999
 30
0.0
 11
-330.14011900000003
 21
-420.70667899999989
 31
0.0
  0
LINE
  5
68E
  8
0
  6
CONTINUOUS
 62
     7
 10
-330.14011900000003
 20
-420.70667899999989
 30
0.0
 11
-330.598343
 21
-420.1347219999999
 31
0.0
  0
LINE
  5
68F
  8
0
  6
CONTINUOUS
 62
     7
 10
-330.598343
 20
-420.1347219999999
 30
0.0
 11
-331.01344799999998
 21
-419.53074099999998
 31
0.0
  0
LINE
  5
690
  8
0
  6
CONTINUOUS
 62
     7
 10
-331.01344799999998
 20
-419.53074099999998
 30
0.0
 11
-331.38320299999998
 21
-418.8979799999999
 31
0.0
  0
LINE
  5
691
  8
0
  6
CONTINUOUS
 62
     7
 10
-331.38320299999998
 20
-418.8979799999999
 30
0.0
 11
-331.705623
 21
-418.23983900000002
 31
0.0
  0
LINE
  5
692
  8
0
  6
CONTINUOUS
 62
     7
 10
-331.705623
 20
-418.23983900000002
 30
0.0
 11
-331.97897599999999
 21
-417.55985199999992
 31
0.0
  0
LINE
  5
693
  8
0
  6
CONTINUOUS
 62
     7
 10
-331.97897599999999
 20
-417.55985199999992
 30
0.0
 11
-332.20179400000001
 21
-416.861671
 31
0.0
  0
LINE
  5
694
  8
0
  6
CONTINUOUS
 62
     7
 10
-332.20179400000001
 20
-416.861671
 30
0.0
 11
-332.37288000000001
 21
-416.149046
 31
0.0
  0
LINE
  5
695
  8
0
  6
CONTINUOUS
 62
     7
 10
-332.37288000000001
 20
-416.149046
 30
0.0
 11
-332.49131499999999
 21
-415.42580500000003
 31
0.0
  0
LINE
  5
696
  8
0
  6
CONTINUOUS
 62
     7
 10
-332.49131499999999
 20
-415.42580500000003
 30
0.0
 11
-332.55646400000001
 21
-414.695832
 31
0.0
  0
LINE
  5
697
  8
0
  6
CONTINUOUS
 62
     7
 10
-210.410315
 20
-430.06424500000003
 30
0.0
 11
-210.410315
 21
-430.06424500000003
 31
0.0
  0
LINE
  5
698
  8
0
  6
CONTINUOUS
 62
     7
 10
-210.410315
 20
-430.06424500000003
 30
0.0
 11
-200.77793399999999
 21
-438.146773
 31
0.0
  0
LINE
  5
699
  8
0
  6
CONTINUOUS
 62
     7
 10
-200.77793399999999
 20
-438.146773
 30
0.0
 11
-200.77793399999999
 21
-452.06424500000003
 31
0.0
  0
LINE
  5
69A
  8
0
  6
CONTINUOUS
 62
     7
 10
-200.77793399999999
 20
-452.06424500000003
 30
0.0
 11
-212.77793399999999
 21
-452.06424500000003
 31
0.0
  0
ARC
  5
69B
  8
0
  6
CONTINUOUS
 62
     7
 10
-222.77793399999999
 20
-451.55389100000002
 30
0.0
 40
10.0
 50
0.0
 51
87.0
  0
LINE
  5
69C
  8
0
  6
CONTINUOUS
 62
     7
 10
-212.77793399999999
 20
-452.06424500000003
 30
0.0
 11
-212.77793399999999
 21
-451.55389100000002
 31
0.0
  0
LINE
  5
69D
  8
0
  6
CONTINUOUS
 62
     7
 10
-200.77793399999999
 20
-438.146773
 30
0.0
 11
-210.410315
 21
-430.06424500000003
 31
0.0
  0
LINE
  5
69E
  8
0
  6
CONTINUOUS
 62
     7
 10
-222.25457399999999
 20
-441.56759499999998
 30
0.0
 11
-221.49863199999999
 21
-441.63605899999999
 31
0.0
  0
LINE
  5
69F
  8
0
  6
CONTINUOUS
 62
     7
 10
-221.49863199999999
 20
-441.63605899999999
 30
0.0
 11
-220.75006099999999
 21
-441.761663
 31
0.0
  0
LINE
  5
6A0
  8
0
  6
CONTINUOUS
 62
     7
 10
-220.75006099999999
 20
-441.761663
 30
0.0
 11
-220.01317299999999
 21
-441.94368300000002
 31
0.0
  0
LINE
  5
6A1
  8
0
  6
CONTINUOUS
 62
     7
 10
-220.01317299999999
 20
-441.94368300000002
 30
0.0
 11
-219.292213
 21
-442.18107099999992
 31
0.0
  0
LINE
  5
6A2
  8
0
  6
CONTINUOUS
 62
     7
 10
-219.292213
 20
-442.18107099999992
 30
0.0
 11
-218.59133700000001
 21
-442.4724589999999
 31
0.0
  0
LINE
  5
6A3
  8
0
  6
CONTINUOUS
 62
     7
 10
-218.59133700000001
 20
-442.4724589999999
 30
0.0
 11
-217.91458
 21
-442.816169
 31
0.0
  0
LINE
  5
6A4
  8
0
  6
CONTINUOUS
 62
     7
 10
-217.91458
 20
-442.816169
 30
0.0
 11
-217.26584299999999
 21
-443.21021900000011
 31
0.0
  0
LINE
  5
6A5
  8
0
  6
CONTINUOUS
 62
     7
 10
-217.26584299999999
 20
-443.21021900000011
 30
0.0
 11
-216.64886300000001
 21
-443.65234099999998
 31
0.0
  0
LINE
  5
6A6
  8
0
  6
CONTINUOUS
 62
     7
 10
-216.64886300000001
 20
-443.65234099999998
 30
0.0
 11
-216.067195
 21
-444.13998600000002
 31
0.0
  0
LINE
  5
6A7
  8
0
  6
CONTINUOUS
 62
     7
 10
-216.067195
 20
-444.13998600000002
 30
0.0
 11
-215.52419
 21
-444.670345
 31
0.0
  0
LINE
  5
6A8
  8
0
  6
CONTINUOUS
 62
     7
 10
-215.52419
 20
-444.670345
 30
0.0
 11
-215.022977
 21
-445.240363
 31
0.0
  0
LINE
  5
6A9
  8
0
  6
CONTINUOUS
 62
     7
 10
-215.022977
 20
-445.240363
 30
0.0
 11
-214.566442
 21
-445.84675499999992
 31
0.0
  0
LINE
  5
6AA
  8
0
  6
CONTINUOUS
 62
     7
 10
-214.566442
 20
-445.84675499999992
 30
0.0
 11
-214.157217
 21
-446.48602799999998
 31
0.0
  0
LINE
  5
6AB
  8
0
  6
CONTINUOUS
 62
     7
 10
-214.157217
 20
-446.48602799999998
 30
0.0
 11
-213.79765800000001
 21
-447.15449899999999
 31
0.0
  0
LINE
  5
6AC
  8
0
  6
CONTINUOUS
 62
     7
 10
-213.79765800000001
 20
-447.15449899999999
 30
0.0
 11
-213.48983799999999
 21
-447.84831600000001
 31
0.0
  0
LINE
  5
6AD
  8
0
  6
CONTINUOUS
 62
     7
 10
-213.48983799999999
 20
-447.84831600000001
 30
0.0
 11
-213.23553100000001
 21
-448.56348300000002
 31
0.0
  0
LINE
  5
6AE
  8
0
  6
CONTINUOUS
 62
     7
 10
-213.23553100000001
 20
-448.56348300000002
 30
0.0
 11
-213.03620000000001
 21
-449.29587800000002
 31
0.0
  0
LINE
  5
6AF
  8
0
  6
CONTINUOUS
 62
     7
 10
-213.03620000000001
 20
-449.29587800000002
 30
0.0
 11
-212.89299500000001
 21
-450.04128300000002
 31
0.0
  0
LINE
  5
6B0
  8
0
  6
CONTINUOUS
 62
     7
 10
-212.89299500000001
 20
-450.04128300000002
 30
0.0
 11
-212.80674099999999
 21
-450.79540199999991
 31
0.0
  0
LINE
  5
6B1
  8
0
  6
CONTINUOUS
 62
     7
 10
-212.80674099999999
 20
-450.79540199999991
 30
0.0
 11
-212.77793399999999
 21
-451.55389100000002
 31
0.0
  0
LINE
  5
6B2
  8
0
  6
CONTINUOUS
 62
     7
 10
-212.77793399999999
 20
-451.55389100000002
 30
0.0
 11
-212.77793399999999
 21
-452.06424500000003
 31
0.0
  0
LINE
  5
6B3
  8
0
  6
CONTINUOUS
 62
     7
 10
-212.77793399999999
 20
-452.06424500000003
 30
0.0
 11
-200.77793399999999
 21
-452.06424500000003
 31
0.0
  0
LINE
  5
6B4
  8
0
  6
CONTINUOUS
 62
     7
 10
-200.77793399999999
 20
-452.06424500000003
 30
0.0
 11
-200.77793399999999
 21
-438.146773
 31
0.0
  0
LINE
  5
6B5
  8
0
  6
CONTINUOUS
 62
     7
 10
-222.25457399999999
 20
-441.56759499999998
 30
0.0
 11
-221.49863199999999
 21
-441.63605899999999
 31
0.0
  0
LINE
  5
6B6
  8
0
  6
CONTINUOUS
 62
     7
 10
-221.49863199999999
 20
-441.63605899999999
 30
0.0
 11
-220.75006099999999
 21
-441.761663
 31
0.0
  0
LINE
  5
6B7
  8
0
  6
CONTINUOUS
 62
     7
 10
-220.75006099999999
 20
-441.761663
 30
0.0
 11
-220.01317299999999
 21
-441.94368300000002
 31
0.0
  0
LINE
  5
6B8
  8
0
  6
CONTINUOUS
 62
     7
 10
-220.01317299999999
 20
-441.94368300000002
 30
0.0
 11
-219.292213
 21
-442.18107099999992
 31
0.0
  0
LINE
  5
6B9
  8
0
  6
CONTINUOUS
 62
     7
 10
-219.292213
 20
-442.18107099999992
 30
0.0
 11
-218.59133700000001
 21
-442.4724589999999
 31
0.0
  0
LINE
  5
6BA
  8
0
  6
CONTINUOUS
 62
     7
 10
-218.59133700000001
 20
-442.4724589999999
 30
0.0
 11
-217.91458
 21
-442.816169
 31
0.0
  0
LINE
  5
6BB
  8
0
  6
CONTINUOUS
 62
     7
 10
-217.91458
 20
-442.816169
 30
0.0
 11
-217.26584299999999
 21
-443.21021900000011
 31
0.0
  0
LINE
  5
6BC
  8
0
  6
CONTINUOUS
 62
     7
 10
-217.26584299999999
 20
-443.21021900000011
 30
0.0
 11
-216.64886300000001
 21
-443.65234099999998
 31
0.0
  0
LINE
  5
6BD
  8
0
  6
CONTINUOUS
 62
     7
 10
-216.64886300000001
 20
-443.65234099999998
 30
0.0
 11
-216.067195
 21
-444.13998600000002
 31
0.0
  0
LINE
  5
6BE
  8
0
  6
CONTINUOUS
 62
     7
 10
-216.067195
 20
-444.13998600000002
 30
0.0
 11
-215.52419
 21
-444.670345
 31
0.0
  0
LINE
  5
6BF
  8
0
  6
CONTINUOUS
 62
     7
 10
-215.52419
 20
-444.670345
 30
0.0
 11
-215.022977
 21
-445.240363
 31
0.0
  0
LINE
  5
6C0
  8
0
  6
CONTINUOUS
 62
     7
 10
-215.022977
 20
-445.240363
 30
0.0
 11
-214.566442
 21
-445.84675499999992
 31
0.0
  0
LINE
  5
6C1
  8
0
  6
CONTINUOUS
 62
     7
 10
-214.566442
 20
-445.84675499999992
 30
0.0
 11
-214.157217
 21
-446.48602799999998
 31
0.0
  0
LINE
  5
6C2
  8
0
  6
CONTINUOUS
 62
     7
 10
-214.157217
 20
-446.48602799999998
 30
0.0
 11
-213.79765800000001
 21
-447.15449899999999
 31
0.0
  0
LINE
  5
6C3
  8
0
  6
CONTINUOUS
 62
     7
 10
-213.79765800000001
 20
-447.15449899999999
 30
0.0
 11
-213.48983799999999
 21
-447.84831600000001
 31
0.0
  0
LINE
  5
6C4
  8
0
  6
CONTINUOUS
 62
     7
 10
-213.48983799999999
 20
-447.84831600000001
 30
0.0
 11
-213.23553100000001
 21
-448.56348300000002
 31
0.0
  0
LINE
  5
6C5
  8
0
  6
CONTINUOUS
 62
     7
 10
-213.23553100000001
 20
-448.56348300000002
 30
0.0
 11
-213.03620000000001
 21
-449.29587800000002
 31
0.0
  0
LINE
  5
6C6
  8
0
  6
CONTINUOUS
 62
     7
 10
-213.03620000000001
 20
-449.29587800000002
 30
0.0
 11
-212.89299500000001
 21
-450.04128300000002
 31
0.0
  0
LINE
  5
6C7
  8
0
  6
CONTINUOUS
 62
     7
 10
-212.89299500000001
 20
-450.04128300000002
 30
0.0
 11
-212.80674099999999
 21
-450.79540199999991
 31
0.0
  0
LINE
  5
6C8
  8
0
  6
CONTINUOUS
 62
     7
 10
-212.80674099999999
 20
-450.79540199999991
 30
0.0
 11
-212.77793399999999
 21
-451.55389100000002
 31
0.0
  0
LINE
  5
6C9
  8
0
  6
CONTINUOUS
 62
     7
 10
-212.77793399999999
 20
-451.55389100000002
 30
0.0
 11
-212.77793399999999
 21
-452.06424500000003
 31
0.0
  0
LINE
  5
6CA
  8
0
  6
CONTINUOUS
 62
     7
 10
-212.77793399999999
 20
-452.06424500000003
 30
0.0
 11
-200.77793399999999
 21
-452.06424500000003
 31
0.0
  0
LINE
  5
6CB
  8
0
  6
CONTINUOUS
 62
     7
 10
-200.77793399999999
 20
-452.06424500000003
 30
0.0
 11
-200.77793399999999
 21
-438.146773
 31
0.0
  0
LINE
  5
6CC
  8
0
  6
CONTINUOUS
 62
     7
 10
-200.77793399999999
 20
-438.146773
 30
0.0
 11
-210.410315
 21
-430.06424500000003
 31
0.0
  0
ARC
  5
6CD
  8
0
  6
CONTINUOUS
 62
     7
 10
-342.77793400000002
 20
-308.06424500000003
 30
0.0
 40
5.0
 50
0.0
 51
90.0
  0
LINE
  5
6CE
  8
0
  6
CONTINUOUS
 62
     7
 10
-337.77793400000002
 20
-315.06424500000003
 30
0.0
 11
-337.77793400000002
 21
-308.06424500000003
 31
0.0
  0
ARC
  5
6CF
  8
0
  6
CONTINUOUS
 62
     7
 10
-372.77793400000002
 20
-308.06424500000003
 30
0.0
 40
5.0
 50
90.0
 51
180.0
  0
LINE
  5
6D0
  8
0
  6
CONTINUOUS
 62
     7
 10
-342.77793400000002
 20
-303.06424500000003
 30
0.0
 11
-372.77793400000002
 21
-303.06424500000003
 31
0.0
  0
LINE
  5
6D1
  8
0
  6
CONTINUOUS
 62
     7
 10
-337.77793400000002
 20
-315.06424500000003
 30
0.0
 11
-337.77793400000002
 21
-308.06424500000003
 31
0.0
  0
LINE
  5
6D2
  8
0
  6
CONTINUOUS
 62
     7
 10
-337.77793400000002
 20
-308.06424500000003
 30
0.0
 11
-337.79334699999998
 21
-307.67194999999998
 31
0.0
  0
LINE
  5
6D3
  8
0
  6
CONTINUOUS
 62
     7
 10
-337.79334699999998
 20
-307.67194999999998
 30
0.0
 11
-337.83949200000001
 21
-307.28207300000003
 31
0.0
  0
LINE
  5
6D4
  8
0
  6
CONTINUOUS
 62
     7
 10
-337.83949200000001
 20
-307.28207300000003
 30
0.0
 11
-337.91608400000001
 21
-306.897018
 31
0.0
  0
LINE
  5
6D5
  8
0
  6
CONTINUOUS
 62
     7
 10
-337.91608400000001
 20
-306.897018
 30
0.0
 11
-338.022651
 21
-306.51916
 31
0.0
  0
LINE
  5
6D6
  8
0
  6
CONTINUOUS
 62
     7
 10
-338.022651
 20
-306.51916
 30
0.0
 11
-338.15853600000003
 21
-306.15082799999999
 31
0.0
  0
LINE
  5
6D7
  8
0
  6
CONTINUOUS
 62
     7
 10
-338.15853600000003
 20
-306.15082799999999
 30
0.0
 11
-338.322901
 21
-305.79429299999998
 31
0.0
  0
LINE
  5
6D8
  8
0
  6
CONTINUOUS
 62
     7
 10
-338.322901
 20
-305.79429299999998
 30
0.0
 11
-338.51473300000009
 21
-305.451752
 31
0.0
  0
LINE
  5
6D9
  8
0
  6
CONTINUOUS
 62
     7
 10
-338.51473300000009
 20
-305.451752
 30
0.0
 11
-338.7328490000001
 21
-305.12531899999999
 31
0.0
  0
LINE
  5
6DA
  8
0
  6
CONTINUOUS
 62
     7
 10
-338.7328490000001
 20
-305.12531899999999
 30
0.0
 11
-338.97590400000001
 21
-304.81700499999999
 31
0.0
  0
LINE
  5
6DB
  8
0
  6
CONTINUOUS
 62
     7
 10
-338.97590400000001
 20
-304.81700499999999
 30
0.0
 11
-339.24239999999998
 21
-304.52871099999999
 31
0.0
  0
LINE
  5
6DC
  8
0
  6
CONTINUOUS
 62
     7
 10
-339.24239999999998
 20
-304.52871099999999
 30
0.0
 11
-339.53069399999998
 21
-304.26221500000003
 31
0.0
  0
LINE
  5
6DD
  8
0
  6
CONTINUOUS
 62
     7
 10
-339.53069399999998
 20
-304.26221500000003
 30
0.0
 11
-339.83900799999998
 21
-304.01916
 31
0.0
  0
LINE
  5
6DE
  8
0
  6
CONTINUOUS
 62
     7
 10
-339.83900799999998
 20
-304.01916
 30
0.0
 11
-340.16544099999999
 21
-303.80104399999999
 31
0.0
  0
LINE
  5
6DF
  8
0
  6
CONTINUOUS
 62
     7
 10
-340.16544099999999
 20
-303.80104399999999
 30
0.0
 11
-340.50798099999997
 21
-303.60921200000001
 31
0.0
  0
LINE
  5
6E0
  8
0
  6
CONTINUOUS
 62
     7
 10
-340.50798099999997
 20
-303.60921200000001
 30
0.0
 11
-340.86451699999998
 21
-303.44484699999998
 31
0.0
  0
LINE
  5
6E1
  8
0
  6
CONTINUOUS
 62
     7
 10
-340.86451699999998
 20
-303.44484699999998
 30
0.0
 11
-341.2328490000001
 21
-303.30896300000001
 31
0.0
  0
LINE
  5
6E2
  8
0
  6
CONTINUOUS
 62
     7
 10
-341.2328490000001
 20
-303.30896300000001
 30
0.0
 11
-341.61070699999999
 21
-303.20239500000002
 31
0.0
  0
LINE
  5
6E3
  8
0
  6
CONTINUOUS
 62
     7
 10
-341.61070699999999
 20
-303.20239500000002
 30
0.0
 11
-341.99576200000001
 21
-303.12580300000002
 31
0.0
  0
LINE
  5
6E4
  8
0
  6
CONTINUOUS
 62
     7
 10
-341.99576200000001
 20
-303.12580300000002
 30
0.0
 11
-342.38563799999997
 21
-303.07965799999999
 31
0.0
  0
LINE
  5
6E5
  8
0
  6
CONTINUOUS
 62
     7
 10
-342.38563799999997
 20
-303.07965799999999
 30
0.0
 11
-342.77793400000002
 21
-303.06424500000003
 31
0.0
  0
LINE
  5
6E6
  8
0
  6
CONTINUOUS
 62
     7
 10
-342.77793400000002
 20
-303.06424500000003
 30
0.0
 11
-372.77793400000002
 21
-303.06424500000003
 31
0.0
  0
LINE
  5
6E7
  8
0
  6
CONTINUOUS
 62
     7
 10
-372.77793400000002
 20
-303.06424500000003
 30
0.0
 11
-373.17022900000001
 21
-303.07965799999999
 31
0.0
  0
LINE
  5
6E8
  8
0
  6
CONTINUOUS
 62
     7
 10
-373.17022900000001
 20
-303.07965799999999
 30
0.0
 11
-373.56010600000002
 21
-303.12580300000002
 31
0.0
  0
LINE
  5
6E9
  8
0
  6
CONTINUOUS
 62
     7
 10
-373.56010600000002
 20
-303.12580300000002
 30
0.0
 11
-373.94516099999998
 21
-303.20239500000002
 31
0.0
  0
LINE
  5
6EA
  8
0
  6
CONTINUOUS
 62
     7
 10
-373.94516099999998
 20
-303.20239500000002
 30
0.0
 11
-374.32301899999999
 21
-303.30896300000001
 31
0.0
  0
LINE
  5
6EB
  8
0
  6
CONTINUOUS
 62
     7
 10
-374.32301899999999
 20
-303.30896300000001
 30
0.0
 11
-374.691351
 21
-303.44484699999998
 31
0.0
  0
LINE
  5
6EC
  8
0
  6
CONTINUOUS
 62
     7
 10
-374.691351
 20
-303.44484699999998
 30
0.0
 11
-375.04788600000001
 21
-303.60921200000001
 31
0.0
  0
LINE
  5
6ED
  8
0
  6
CONTINUOUS
 62
     7
 10
-375.04788600000001
 20
-303.60921200000001
 30
0.0
 11
-375.39042699999999
 21
-303.80104399999999
 31
0.0
  0
LINE
  5
6EE
  8
0
  6
CONTINUOUS
 62
     7
 10
-375.39042699999999
 20
-303.80104399999999
 30
0.0
 11
-375.71686
 21
-304.01916
 31
0.0
  0
LINE
  5
6EF
  8
0
  6
CONTINUOUS
 62
     7
 10
-375.71686
 20
-304.01916
 30
0.0
 11
-376.02517400000011
 21
-304.26221500000003
 31
0.0
  0
LINE
  5
6F0
  8
0
  6
CONTINUOUS
 62
     7
 10
-376.02517400000011
 20
-304.26221500000003
 30
0.0
 11
-376.313468
 21
-304.52871099999999
 31
0.0
  0
LINE
  5
6F1
  8
0
  6
CONTINUOUS
 62
     7
 10
-376.313468
 20
-304.52871099999999
 30
0.0
 11
-376.57996400000002
 21
-304.81700499999999
 31
0.0
  0
LINE
  5
6F2
  8
0
  6
CONTINUOUS
 62
     7
 10
-376.57996400000002
 20
-304.81700499999999
 30
0.0
 11
-376.82301899999999
 21
-305.12531899999999
 31
0.0
  0
LINE
  5
6F3
  8
0
  6
CONTINUOUS
 62
     7
 10
-376.82301899999999
 20
-305.12531899999999
 30
0.0
 11
-377.041135
 21
-305.451752
 31
0.0
  0
LINE
  5
6F4
  8
0
  6
CONTINUOUS
 62
     7
 10
-377.041135
 20
-305.451752
 30
0.0
 11
-377.23296699999997
 21
-305.79429299999998
 31
0.0
  0
LINE
  5
6F5
  8
0
  6
CONTINUOUS
 62
     7
 10
-377.23296699999997
 20
-305.79429299999998
 30
0.0
 11
-377.39733200000001
 21
-306.15082799999999
 31
0.0
  0
LINE
  5
6F6
  8
0
  6
CONTINUOUS
 62
     7
 10
-377.39733200000001
 20
-306.15082799999999
 30
0.0
 11
-377.53321699999998
 21
-306.51916
 31
0.0
  0
LINE
  5
6F7
  8
0
  6
CONTINUOUS
 62
     7
 10
-377.53321699999998
 20
-306.51916
 30
0.0
 11
-377.63978400000002
 21
-306.897018
 31
0.0
  0
LINE
  5
6F8
  8
0
  6
CONTINUOUS
 62
     7
 10
-377.63978400000002
 20
-306.897018
 30
0.0
 11
-377.71637600000003
 21
-307.28207300000003
 31
0.0
  0
LINE
  5
6F9
  8
0
  6
CONTINUOUS
 62
     7
 10
-377.71637600000003
 20
-307.28207300000003
 30
0.0
 11
-377.76252099999999
 21
-307.67194999999998
 31
0.0
  0
LINE
  5
6FA
  8
0
  6
CONTINUOUS
 62
     7
 10
-377.76252099999999
 20
-307.67194999999998
 30
0.0
 11
-377.7779339999999
 21
-308.06424500000003
 31
0.0
  0
ARC
  5
6FB
  8
0
  6
CONTINUOUS
 62
     7
 10
-359.18503800000002
 20
-332.53540600000002
 30
0.0
 40
10.0
 50
2.7807129999999991
 51
89.147575000000003
  0
LINE
  5
6FC
  8
0
  6
CONTINUOUS
 62
     7
 10
-337.77793400000002
 20
-315.06424500000003
 30
0.0
 11
-337.77793400000002
 21
-308.06424500000003
 31
0.0
  0
LINE
  5
6FD
  8
0
  6
CONTINUOUS
 62
     7
 10
-337.77793400000002
 20
-308.06424500000003
 30
0.0
 11
-337.79334699999998
 21
-307.67194999999998
 31
0.0
  0
LINE
  5
6FE
  8
0
  6
CONTINUOUS
 62
     7
 10
-337.79334699999998
 20
-307.67194999999998
 30
0.0
 11
-337.83949200000001
 21
-307.28207300000003
 31
0.0
  0
LINE
  5
6FF
  8
0
  6
CONTINUOUS
 62
     7
 10
-337.83949200000001
 20
-307.28207300000003
 30
0.0
 11
-337.91608400000001
 21
-306.897018
 31
0.0
  0
LINE
  5
700
  8
0
  6
CONTINUOUS
 62
     7
 10
-337.91608400000001
 20
-306.897018
 30
0.0
 11
-338.022651
 21
-306.51916
 31
0.0
  0
LINE
  5
701
  8
0
  6
CONTINUOUS
 62
     7
 10
-338.022651
 20
-306.51916
 30
0.0
 11
-338.15853600000003
 21
-306.15082799999999
 31
0.0
  0
LINE
  5
702
  8
0
  6
CONTINUOUS
 62
     7
 10
-338.15853600000003
 20
-306.15082799999999
 30
0.0
 11
-338.322901
 21
-305.79429299999998
 31
0.0
  0
LINE
  5
703
  8
0
  6
CONTINUOUS
 62
     7
 10
-338.322901
 20
-305.79429299999998
 30
0.0
 11
-338.51473300000009
 21
-305.451752
 31
0.0
  0
LINE
  5
704
  8
0
  6
CONTINUOUS
 62
     7
 10
-338.51473300000009
 20
-305.451752
 30
0.0
 11
-338.7328490000001
 21
-305.12531899999999
 31
0.0
  0
LINE
  5
705
  8
0
  6
CONTINUOUS
 62
     7
 10
-338.7328490000001
 20
-305.12531899999999
 30
0.0
 11
-338.97590400000001
 21
-304.81700499999999
 31
0.0
  0
LINE
  5
706
  8
0
  6
CONTINUOUS
 62
     7
 10
-338.97590400000001
 20
-304.81700499999999
 30
0.0
 11
-339.24239999999998
 21
-304.52871099999999
 31
0.0
  0
LINE
  5
707
  8
0
  6
CONTINUOUS
 62
     7
 10
-339.24239999999998
 20
-304.52871099999999
 30
0.0
 11
-339.53069399999998
 21
-304.26221500000003
 31
0.0
  0
LINE
  5
708
  8
0
  6
CONTINUOUS
 62
     7
 10
-339.53069399999998
 20
-304.26221500000003
 30
0.0
 11
-339.83900799999998
 21
-304.01916
 31
0.0
  0
LINE
  5
709
  8
0
  6
CONTINUOUS
 62
     7
 10
-339.83900799999998
 20
-304.01916
 30
0.0
 11
-340.16544099999999
 21
-303.80104399999999
 31
0.0
  0
LINE
  5
70A
  8
0
  6
CONTINUOUS
 62
     7
 10
-340.16544099999999
 20
-303.80104399999999
 30
0.0
 11
-340.50798099999997
 21
-303.60921200000001
 31
0.0
  0
LINE
  5
70B
  8
0
  6
CONTINUOUS
 62
     7
 10
-340.50798099999997
 20
-303.60921200000001
 30
0.0
 11
-340.86451699999998
 21
-303.44484699999998
 31
0.0
  0
LINE
  5
70C
  8
0
  6
CONTINUOUS
 62
     7
 10
-340.86451699999998
 20
-303.44484699999998
 30
0.0
 11
-341.2328490000001
 21
-303.30896300000001
 31
0.0
  0
LINE
  5
70D
  8
0
  6
CONTINUOUS
 62
     7
 10
-341.2328490000001
 20
-303.30896300000001
 30
0.0
 11
-341.61070699999999
 21
-303.20239500000002
 31
0.0
  0
LINE
  5
70E
  8
0
  6
CONTINUOUS
 62
     7
 10
-341.61070699999999
 20
-303.20239500000002
 30
0.0
 11
-341.99576200000001
 21
-303.12580300000002
 31
0.0
  0
LINE
  5
70F
  8
0
  6
CONTINUOUS
 62
     7
 10
-341.99576200000001
 20
-303.12580300000002
 30
0.0
 11
-342.38563799999997
 21
-303.07965799999999
 31
0.0
  0
LINE
  5
710
  8
0
  6
CONTINUOUS
 62
     7
 10
-342.38563799999997
 20
-303.07965799999999
 30
0.0
 11
-342.77793400000002
 21
-303.06424500000003
 31
0.0
  0
LINE
  5
711
  8
0
  6
CONTINUOUS
 62
     7
 10
-342.77793400000002
 20
-303.06424500000003
 30
0.0
 11
-372.77793400000002
 21
-303.06424500000003
 31
0.0
  0
LINE
  5
712
  8
0
  6
CONTINUOUS
 62
     7
 10
-372.77793400000002
 20
-303.06424500000003
 30
0.0
 11
-373.17022900000001
 21
-303.07965799999999
 31
0.0
  0
LINE
  5
713
  8
0
  6
CONTINUOUS
 62
     7
 10
-373.17022900000001
 20
-303.07965799999999
 30
0.0
 11
-373.56010600000002
 21
-303.12580300000002
 31
0.0
  0
LINE
  5
714
  8
0
  6
CONTINUOUS
 62
     7
 10
-373.56010600000002
 20
-303.12580300000002
 30
0.0
 11
-373.94516099999998
 21
-303.20239500000002
 31
0.0
  0
LINE
  5
715
  8
0
  6
CONTINUOUS
 62
     7
 10
-373.94516099999998
 20
-303.20239500000002
 30
0.0
 11
-374.32301899999999
 21
-303.30896300000001
 31
0.0
  0
LINE
  5
716
  8
0
  6
CONTINUOUS
 62
     7
 10
-374.32301899999999
 20
-303.30896300000001
 30
0.0
 11
-374.691351
 21
-303.44484699999998
 31
0.0
  0
LINE
  5
717
  8
0
  6
CONTINUOUS
 62
     7
 10
-374.691351
 20
-303.44484699999998
 30
0.0
 11
-375.04788600000001
 21
-303.60921200000001
 31
0.0
  0
LINE
  5
718
  8
0
  6
CONTINUOUS
 62
     7
 10
-375.04788600000001
 20
-303.60921200000001
 30
0.0
 11
-375.39042699999999
 21
-303.80104399999999
 31
0.0
  0
LINE
  5
719
  8
0
  6
CONTINUOUS
 62
     7
 10
-375.39042699999999
 20
-303.80104399999999
 30
0.0
 11
-375.71686
 21
-304.01916
 31
0.0
  0
LINE
  5
71A
  8
0
  6
CONTINUOUS
 62
     7
 10
-375.71686
 20
-304.01916
 30
0.0
 11
-376.02517400000011
 21
-304.26221500000003
 31
0.0
  0
LINE
  5
71B
  8
0
  6
CONTINUOUS
 62
     7
 10
-376.02517400000011
 20
-304.26221500000003
 30
0.0
 11
-376.313468
 21
-304.52871099999999
 31
0.0
  0
LINE
  5
71C
  8
0
  6
CONTINUOUS
 62
     7
 10
-376.313468
 20
-304.52871099999999
 30
0.0
 11
-376.57996400000002
 21
-304.81700499999999
 31
0.0
  0
LINE
  5
71D
  8
0
  6
CONTINUOUS
 62
     7
 10
-376.57996400000002
 20
-304.81700499999999
 30
0.0
 11
-376.82301899999999
 21
-305.12531899999999
 31
0.0
  0
LINE
  5
71E
  8
0
  6
CONTINUOUS
 62
     7
 10
-376.82301899999999
 20
-305.12531899999999
 30
0.0
 11
-377.041135
 21
-305.451752
 31
0.0
  0
LINE
  5
71F
  8
0
  6
CONTINUOUS
 62
     7
 10
-377.041135
 20
-305.451752
 30
0.0
 11
-377.23296699999997
 21
-305.79429299999998
 31
0.0
  0
LINE
  5
720
  8
0
  6
CONTINUOUS
 62
     7
 10
-377.23296699999997
 20
-305.79429299999998
 30
0.0
 11
-377.39733200000001
 21
-306.15082799999999
 31
0.0
  0
LINE
  5
721
  8
0
  6
CONTINUOUS
 62
     7
 10
-377.39733200000001
 20
-306.15082799999999
 30
0.0
 11
-377.53321699999998
 21
-306.51916
 31
0.0
  0
LINE
  5
722
  8
0
  6
CONTINUOUS
 62
     7
 10
-377.53321699999998
 20
-306.51916
 30
0.0
 11
-377.63978400000002
 21
-306.897018
 31
0.0
  0
LINE
  5
723
  8
0
  6
CONTINUOUS
 62
     7
 10
-377.63978400000002
 20
-306.897018
 30
0.0
 11
-377.71637600000003
 21
-307.28207300000003
 31
0.0
  0
LINE
  5
724
  8
0
  6
CONTINUOUS
 62
     7
 10
-377.71637600000003
 20
-307.28207300000003
 30
0.0
 11
-377.76252099999999
 21
-307.67194999999998
 31
0.0
  0
LINE
  5
725
  8
0
  6
CONTINUOUS
 62
     7
 10
-377.76252099999999
 20
-307.67194999999998
 30
0.0
 11
-377.7779339999999
 21
-308.06424500000003
 31
0.0
  0
ARC
  5
726
  8
0
  6
CONTINUOUS
 62
     7
 10
-360.77793400000002
 20
-327.51115199999998
 30
0.0
 40
5.0
 50
89.147575000000003
 51
180.0
  0
LINE
  5
727
  8
0
  6
CONTINUOUS
 62
     7
 10
-359.03626700000001
 20
-322.53651300000001
 30
0.0
 11
-360.70354900000001
 21
-322.511706
 31
0.0
  0
DIMENSION
  5
728
  8
LAYER01
 62
     7
  2
*D21
 10
-430.85528599999998
 20
-303.06424500000003
 30
0.0
 11
-460.85528599999998
 21
-366.557773
 31
0.0
 53
90.0
 13
-377.7779339999999
 23
-430.05130099999991
 33
0.0
 14
-377.7779339999999
 24
-303.06424500000003
 34
0.0
 50
90.0
  0
DIMENSION
  5
729
  8
LAYER01
 62
     7
  2
*D22
 10
-527.76034900000002
 20
-303.06424500000003
 30
0.0
 11
-557.76034900000002
 21
-378.06424500000003
 31
0.0
 53
90.0
 13
-377.7779339999999
 23
-453.06424500000003
 33
0.0
 14
-377.7779339999999
 24
-303.06424500000003
 34
0.0
 50
90.0
  0
POLYLINE
  5
72A
  8
0
  6
CONTINUOUS
 62
     7
 66
     1
 10
0.0
 20
0.0
 30
0.0
 70
     1
  0
VERTEX
  5
CAF
  8
0
  6
CONTINUOUS
 62
     7
 10
122.222066
 20
-405.06424500000003
 30
0.0
  0
VERTEX
  5
CB0
  8
0
  6
CONTINUOUS
 62
     7
 10
122.222066
 20
-315.06424500000003
 30
0.0
  0
VERTEX
  5
CB1
  8
0
  6
CONTINUOUS
 62
     7
 10
122.222066
 20
-303.06424500000003
 30
0.0
  0
VERTEX
  5
CB2
  8
0
  6
CONTINUOUS
 62
     7
 10
122.222066
 20
-253.064245
 30
0.0
  0
VERTEX
  5
CB3
  8
0
  6
CONTINUOUS
 62
     7
 10
115.222066
 20
-253.064245
 30
0.0
  0
VERTEX
  5
CB4
  8
0
  6
CONTINUOUS
 62
     7
 10
114.82977099999999
 20
-253.07965799999999
 30
0.0
  0
VERTEX
  5
CB5
  8
0
  6
CONTINUOUS
 62
     7
 10
114.439894
 20
-253.12580299999999
 30
0.0
  0
VERTEX
  5
CB6
  8
0
  6
CONTINUOUS
 62
     7
 10
114.054839
 20
-253.202395
 30
0.0
  0
VERTEX
  5
CB7
  8
0
  6
CONTINUOUS
 62
     7
 10
113.676981
 20
-253.30896300000001
 30
0.0
  0
VERTEX
  5
CB8
  8
0
  6
CONTINUOUS
 62
     7
 10
113.308649
 20
-253.44484700000001
 30
0.0
  0
VERTEX
  5
CB9
  8
0
  6
CONTINUOUS
 62
     7
 10
112.95211399999999
 20
-253.60921200000001
 30
0.0
  0
VERTEX
  5
CBA
  8
0
  6
CONTINUOUS
 62
     7
 10
112.609573
 20
-253.80104399999999
 30
0.0
  0
VERTEX
  5
CBB
  8
0
  6
CONTINUOUS
 62
     7
 10
112.28314
 20
-254.01916
 30
0.0
  0
VERTEX
  5
CBC
  8
0
  6
CONTINUOUS
 62
     7
 10
111.97482599999999
 20
-254.262215
 30
0.0
  0
VERTEX
  5
CBD
  8
0
  6
CONTINUOUS
 62
     7
 10
111.686532
 20
-254.52871099999999
 30
0.0
  0
VERTEX
  5
CBE
  8
0
  6
CONTINUOUS
 62
     7
 10
111.420036
 20
-254.81700499999999
 30
0.0
  0
VERTEX
  5
CBF
  8
0
  6
CONTINUOUS
 62
     7
 10
111.176981
 20
-255.12531899999999
 30
0.0
  0
VERTEX
  5
CC0
  8
0
  6
CONTINUOUS
 62
     7
 10
110.958865
 20
-255.451752
 30
0.0
  0
VERTEX
  5
CC1
  8
0
  6
CONTINUOUS
 62
     7
 10
110.767033
 20
-255.79429300000001
 30
0.0
  0
VERTEX
  5
CC2
  8
0
  6
CONTINUOUS
 62
     7
 10
110.60266799999999
 20
-256.15082799999999
 30
0.0
  0
VERTEX
  5
CC3
  8
0
  6
CONTINUOUS
 62
     7
 10
110.46678300000001
 20
-256.51916
 30
0.0
  0
VERTEX
  5
CC4
  8
0
  6
CONTINUOUS
 62
     7
 10
110.36021599999999
 20
-256.897018
 30
0.0
  0
VERTEX
  5
CC5
  8
0
  6
CONTINUOUS
 62
     7
 10
110.283624
 20
-257.28207300000003
 30
0.0
  0
VERTEX
  5
CC6
  8
0
  6
CONTINUOUS
 62
     7
 10
110.23747899999999
 20
-257.67194999999998
 30
0.0
  0
VERTEX
  5
CC7
  8
0
  6
CONTINUOUS
 62
     7
 10
110.222066
 20
-258.06424500000003
 30
0.0
  0
VERTEX
  5
CC8
  8
0
  6
CONTINUOUS
 62
     7
 10
110.222066
 20
-295.06424500000003
 30
0.0
  0
VERTEX
  5
CC9
  8
0
  6
CONTINUOUS
 62
     7
 10
110.197405
 20
-295.69191799999999
 30
0.0
  0
VERTEX
  5
CCA
  8
0
  6
CONTINUOUS
 62
     7
 10
110.12357299999999
 20
-296.315721
 30
0.0
  0
VERTEX
  5
CCB
  8
0
  6
CONTINUOUS
 62
     7
 10
110.001025
 20
-296.93180799999999
 30
0.0
  0
VERTEX
  5
CCC
  8
0
  6
CONTINUOUS
 62
     7
 10
109.830518
 20
-297.53638100000001
 30
0.0
  0
VERTEX
  5
CCD
  8
0
  6
CONTINUOUS
 62
     7
 10
109.613102
 20
-298.12571299999991
 30
0.0
  0
VERTEX
  5
CCE
  8
0
  6
CONTINUOUS
 62
     7
 10
109.35011799999999
 20
-298.696169
 30
0.0
  0
VERTEX
  5
CCF
  8
0
  6
CONTINUOUS
 62
     7
 10
109.043187
 20
-299.24423400000001
 30
0.0
  0
VERTEX
  5
CD0
  8
0
  6
CONTINUOUS
 62
     7
 10
108.694202
 20
-299.766527
 30
0.0
  0
VERTEX
  5
CD1
  8
0
  6
CONTINUOUS
 62
     7
 10
108.305314
 20
-300.25982900000002
 30
0.0
  0
VERTEX
  5
CD2
  8
0
  6
CONTINUOUS
 62
     7
 10
107.87891999999999
 20
-300.72109899999998
 30
0.0
  0
VERTEX
  5
CD3
  8
0
  6
CONTINUOUS
 62
     7
 10
107.41764999999999
 20
-301.147493
 30
0.0
  0
VERTEX
  5
CD4
  8
0
  6
CONTINUOUS
 62
     7
 10
106.92434799999999
 20
-301.53638100000001
 30
0.0
  0
VERTEX
  5
CD5
  8
0
  6
CONTINUOUS
 62
     7
 10
106.402055
 20
-301.88536599999998
 30
0.0
  0
VERTEX
  5
CD6
  8
0
  6
CONTINUOUS
 62
     7
 10
105.85399
 20
-302.192297
 30
0.0
  0
VERTEX
  5
CD7
  8
0
  6
CONTINUOUS
 62
     7
 10
105.283534
 20
-302.45528100000001
 30
0.0
  0
VERTEX
  5
CD8
  8
0
  6
CONTINUOUS
 62
     7
 10
104.694202
 20
-302.67269700000003
 30
0.0
  0
VERTEX
  5
CD9
  8
0
  6
CONTINUOUS
 62
     7
 10
104.089629
 20
-302.84320400000001
 30
0.0
  0
VERTEX
  5
CDA
  8
0
  6
CONTINUOUS
 62
     7
 10
103.47354199999999
 20
-302.96575200000001
 30
0.0
  0
VERTEX
  5
CDB
  8
0
  6
CONTINUOUS
 62
     7
 10
102.849739
 20
-303.03958399999999
 30
0.0
  0
VERTEX
  5
CDC
  8
0
  6
CONTINUOUS
 62
     7
 10
102.222066
 20
-303.06424500000003
 30
0.0
  0
VERTEX
  5
CDD
  8
0
  6
CONTINUOUS
 62
     7
 10
92.222065999999984
 20
-303.06424500000003
 30
0.0
  0
VERTEX
  5
CDE
  8
0
  6
CONTINUOUS
 62
     7
 10
60.222065999999998
 20
-303.06424500000003
 30
0.0
  0
VERTEX
  5
CDF
  8
0
  6
CONTINUOUS
 62
     7
 10
60.222065999999998
 20
-308.58955800000001
 30
0.0
  0
VERTEX
  5
CE0
  8
0
  6
CONTINUOUS
 62
     7
 10
60.222065999999998
 20
-315.06424500000003
 30
0.0
  0
VERTEX
  5
CE1
  8
0
  6
CONTINUOUS
 62
     7
 10
92.222065999999984
 20
-315.06424500000003
 30
0.0
  0
VERTEX
  5
CE2
  8
0
  6
CONTINUOUS
 62
     7
 10
100.302318
 20
-315.06424500000003
 30
0.0
  0
VERTEX
  5
CE3
  8
0
  6
CONTINUOUS
 62
     7
 10
100.92066699999999
 20
-315.08817800000003
 30
0.0
  0
VERTEX
  5
CE4
  8
0
  6
CONTINUOUS
 62
     7
 10
101.53531599999999
 20
-315.15983399999999
 30
0.0
  0
VERTEX
  5
CE5
  8
0
  6
CONTINUOUS
 62
     7
 10
102.142588
 20
-315.27878399999997
 30
0.0
  0
VERTEX
  5
CE6
  8
0
  6
CONTINUOUS
 62
     7
 10
102.738849
 20
-315.44431600000001
 30
0.0
  0
VERTEX
  5
CE7
  8
0
  6
CONTINUOUS
 62
     7
 10
103.320532
 20
-315.65544
 30
0.0
  0
VERTEX
  5
CE8
  8
0
  6
CONTINUOUS
 62
     7
 10
103.884156
 20
-315.91089299999999
 30
0.0
  0
VERTEX
  5
CE9
  8
0
  6
CONTINUOUS
 62
     7
 10
104.426349
 20
-316.20914699999997
 30
0.0
  0
VERTEX
  5
CEA
  8
0
  6
CONTINUOUS
 62
     7
 10
104.943866
 20
-316.54841599999997
 30
0.0
  0
VERTEX
  5
CEB
  8
0
  6
CONTINUOUS
 62
     7
 10
105.43361299999999
 20
-316.926671
 30
0.0
  0
VERTEX
  5
CEC
  8
0
  6
CONTINUOUS
 62
     7
 10
105.892657
 20
-317.34164800000002
 30
0.0
  0
VERTEX
  5
CED
  8
0
  6
CONTINUOUS
 62
     7
 10
106.318253
 20
-317.79086599999999
 30
0.0
  0
VERTEX
  5
CEE
  8
0
  6
CONTINUOUS
 62
     7
 10
106.707854
 20
-318.271635
 30
0.0
  0
VERTEX
  5
CEF
  8
0
  6
CONTINUOUS
 62
     7
 10
107.059129
 20
-318.78107999999997
 30
0.0
  0
VERTEX
  5
CF0
  8
0
  6
CONTINUOUS
 62
     7
 10
107.36997700000001
 20
-319.31615199999999
 30
0.0
  0
VERTEX
  5
CF1
  8
0
  6
CONTINUOUS
 62
     7
 10
107.638537
 20
-319.87365
 30
0.0
  0
VERTEX
  5
CF2
  8
0
  6
CONTINUOUS
 62
     7
 10
107.863202
 20
-320.45023800000001
 30
0.0
  0
VERTEX
  5
CF3
  8
0
  6
CONTINUOUS
 62
     7
 10
108.04262900000001
 20
-321.04246599999999
 30
0.0
  0
VERTEX
  5
CF4
  8
0
  6
CONTINUOUS
 62
     7
 10
108.175743
 20
-321.64679100000001
 30
0.0
  0
VERTEX
  5
CF5
  8
0
  6
CONTINUOUS
 62
     7
 10
108.26174899999999
 20
-322.25959699999999
 30
0.0
  0
VERTEX
  5
CF6
  8
0
  6
CONTINUOUS
 62
     7
 10
108.300132
 20
-322.87721699999997
 30
0.0
  0
VERTEX
  5
CF7
  8
0
  6
CONTINUOUS
 62
     7
 10
110.10787500000001
 20
-400.18113799999992
 30
0.0
  0
VERTEX
  5
CF8
  8
0
  6
CONTINUOUS
 62
     7
 10
110.13186399999999
 20
-400.56715000000003
 30
0.0
  0
VERTEX
  5
CF9
  8
0
  6
CONTINUOUS
 62
     7
 10
110.18561800000001
 20
-400.950154
 30
0.0
  0
VERTEX
  5
CFA
  8
0
  6
CONTINUOUS
 62
     7
 10
110.26881400000001
 20
-401.32785699999988
 30
0.0
  0
VERTEX
  5
CFB
  8
0
  6
CONTINUOUS
 62
     7
 10
110.380956
 20
-401.69799999999998
 30
0.0
  0
VERTEX
  5
CFC
  8
0
  6
CONTINUOUS
 62
     7
 10
110.521372
 20
-402.05836699999992
 30
0.0
  0
VERTEX
  5
CFD
  8
0
  6
CONTINUOUS
 62
     7
 10
110.689222
 20
-402.40680299999991
 30
0.0
  0
VERTEX
  5
CFE
  8
0
  6
CONTINUOUS
 62
     7
 10
110.88350199999999
 20
-402.74122299999999
 30
0.0
  0
VERTEX
  5
CFF
  8
0
  6
CONTINUOUS
 62
     7
 10
111.103049
 20
-403.05962599999998
 30
0.0
  0
VERTEX
  5
D00
  8
0
  6
CONTINUOUS
 62
     7
 10
111.346549
 20
-403.36010699999991
 30
0.0
  0
VERTEX
  5
D01
  8
0
  6
CONTINUOUS
 62
     7
 10
111.61254700000001
 20
-403.64086800000001
 30
0.0
  0
VERTEX
  5
D02
  8
0
  6
CONTINUOUS
 62
     7
 10
111.89945
 20
-403.90022899999991
 30
0.0
  0
VERTEX
  5
D03
  8
0
  6
CONTINUOUS
 62
     7
 10
112.205541
 20
-404.136638
 30
0.0
  0
VERTEX
  5
D04
  8
0
  6
CONTINUOUS
 62
     7
 10
112.52898999999999
 20
-404.348682
 30
0.0
  0
VERTEX
  5
D05
  8
0
  6
CONTINUOUS
 62
     7
 10
112.86785999999999
 20
-404.53508999999991
 30
0.0
  0
VERTEX
  5
D06
  8
0
  6
CONTINUOUS
 62
     7
 10
113.220125
 20
-404.694748
 30
0.0
  0
VERTEX
  5
D07
  8
0
  6
CONTINUOUS
 62
     7
 10
113.58367699999999
 20
-404.8267009999999
 30
0.0
  0
VERTEX
  5
D08
  8
0
  6
CONTINUOUS
 62
     7
 10
113.95634
 20
-404.93015799999989
 30
0.0
  0
VERTEX
  5
D09
  8
0
  6
CONTINUOUS
 62
     7
 10
114.335885
 20
-405.00450199999989
 30
0.0
  0
VERTEX
  5
D0A
  8
0
  6
CONTINUOUS
 62
     7
 10
114.72004
 20
-405.04928699999999
 30
0.0
  0
VERTEX
  5
D0B
  8
0
  6
CONTINUOUS
 62
     7
 10
115.106509
 20
-405.06424500000003
 30
0.0
  0
SEQEND
  5
D0C
  8
0
  6
CONTINUOUS
 62
     7
  0
POLYLINE
  5
789
  8
0
  6
CONTINUOUS
 62
     7
 66
     1
 10
0.0
 20
0.0
 30
0.0
 40
0.011811
 41
0.011811
  0
VERTEX
  5
D0D
  8
0
  6
CONTINUOUS
 62
     7
 10
-145.14555300000001
 20
-430.06424500000003
 30
0.0
  0
VERTEX
  5
D0E
  8
0
  6
CONTINUOUS
 62
     7
 10
-32.462340000000012
 20
-424.1587679999999
 30
0.0
 42
0.383864
  0
VERTEX
  5
D0F
  8
0
  6
CONTINUOUS
 62
     7
 10
-22.999403999999998
 20
-414.695832
 30
0.0
  0
VERTEX
  5
D10
  8
0
  6
CONTINUOUS
 62
     7
 10
-17.777933999999998
 20
-315.06424500000003
 30
0.0
  0
SEQEND
  5
D11
  8
0
  6
CONTINUOUS
 62
     7
  0
LINE
  5
78F
  8
0
  6
CONTINUOUS
 62
     7
 10
-6.0262589999999987
 20
-331.80256500000002
 30
0.0
 11
-10.371604
 21
-414.71669000000003
 31
0.0
  0
LINE
  5
790
  8
0
  6
CONTINUOUS
 62
     7
 10
-19.088128000000001
 20
-340.06424500000003
 30
0.0
 11
-22.999403999999998
 21
-414.695832
 31
0.0
  0
LINE
  5
791
  8
0
  6
CONTINUOUS
 62
     7
 10
-10.371604
 20
-414.71669000000003
 30
0.0
 11
-5.4413299999999998
 21
-322.63651199999998
 31
0.0
  0
LINE
  5
792
  8
0
  6
CONTINUOUS
 62
     7
 10
-32.462340000000012
 20
-424.1587679999999
 30
0.0
 11
-145.14555300000001
 21
-430.06424500000003
 31
0.0
  0
LINE
  5
793
  8
0
  6
CONTINUOUS
 62
     7
 10
-133.24690799999999
 20
-440.88372099999992
 30
0.0
 11
-31.190063000000009
 21
-435.53514799999999
 31
0.0
  0
LINE
  5
794
  8
0
  6
CONTINUOUS
 62
     7
 10
-133.24690799999999
 20
-440.88372099999992
 30
0.0
 11
-31.190063000000009
 21
-435.53514799999999
 31
0.0
  0
ARC
  5
795
  8
0
  6
CONTINUOUS
 62
     7
 10
-132.72354899999999
 20
-450.87001600000002
 30
0.0
 40
10.0
 50
93.0
 51
180.0
  0
LINE
  5
796
  8
0
  6
CONTINUOUS
 62
     7
 10
-134.00285
 20
-440.95218499999987
 30
0.0
 11
-133.24690799999999
 21
-440.88372099999992
 31
0.0
  0
LINE
  5
797
  8
0
  6
CONTINUOUS
 62
     7
 10
-145.14555300000001
 20
-430.06424500000003
 30
0.0
 11
-154.77793399999999
 21
-438.146773
 31
0.0
  0
LINE
  5
798
  8
0
  6
CONTINUOUS
 62
     7
 10
-176.23148900000001
 20
-430.06424500000003
 30
0.0
 11
-176.23148900000001
 21
-452.06424500000003
 31
0.0
  0
LINE
  5
799
  8
0
  6
CONTINUOUS
 62
     7
 10
-142.72354899999999
 20
-452.06424500000003
 30
0.0
 11
-142.72354899999999
 21
-450.87001600000002
 31
0.0
  0
LINE
  5
79A
  8
0
  6
CONTINUOUS
 62
     7
 10
-154.77793399999999
 20
-438.146773
 30
0.0
 11
-154.72475600000001
 21
-452.06424500000003
 31
0.0
  0
LINE
  5
79B
  8
0
  6
CONTINUOUS
 62
     7
 10
-176.23148900000001
 20
-452.06424500000003
 30
0.0
 11
-142.72354899999999
 21
-452.06424500000003
 31
0.0
  0
LINE
  5
79C
  8
0
  6
CONTINUOUS
 62
     7
 10
-145.14555300000001
 20
-430.06424500000003
 30
0.0
 11
-154.77793399999999
 21
-438.146773
 31
0.0
  0
LINE
  5
79D
  8
0
  6
CONTINUOUS
 62
     7
 10
-154.77793399999999
 20
-438.146773
 30
0.0
 11
-154.72475600000001
 21
-452.06424500000003
 31
0.0
  0
LINE
  5
79E
  8
0
  6
CONTINUOUS
 62
     7
 10
-154.72475600000001
 20
-452.06424500000003
 30
0.0
 11
-142.72354899999999
 21
-452.06424500000003
 31
0.0
  0
LINE
  5
79F
  8
0
  6
CONTINUOUS
 62
     7
 10
-142.72354899999999
 20
-452.06424500000003
 30
0.0
 11
-142.72354899999999
 21
-450.87001600000002
 31
0.0
  0
LINE
  5
7A0
  8
0
  6
CONTINUOUS
 62
     7
 10
-142.72354899999999
 20
-450.87001600000002
 30
0.0
 11
-142.69474199999999
 21
-450.11152699999991
 31
0.0
  0
LINE
  5
7A1
  8
0
  6
CONTINUOUS
 62
     7
 10
-142.69474199999999
 20
-450.11152699999991
 30
0.0
 11
-142.608487
 21
-449.35740800000002
 31
0.0
  0
LINE
  5
7A2
  8
0
  6
CONTINUOUS
 62
     7
 10
-142.608487
 20
-449.35740800000002
 30
0.0
 11
-142.465282
 21
-448.61200400000001
 31
0.0
  0
LINE
  5
7A3
  8
0
  6
CONTINUOUS
 62
     7
 10
-142.465282
 20
-448.61200400000001
 30
0.0
 11
-142.265952
 21
-447.8796089999999
 31
0.0
  0
LINE
  5
7A4
  8
0
  6
CONTINUOUS
 62
     7
 10
-142.265952
 20
-447.8796089999999
 30
0.0
 11
-142.01164399999999
 21
-447.16444200000001
 31
0.0
  0
LINE
  5
7A5
  8
0
  6
CONTINUOUS
 62
     7
 10
-142.01164399999999
 20
-447.16444200000001
 30
0.0
 11
-141.703824
 21
-446.47062499999993
 31
0.0
  0
LINE
  5
7A6
  8
0
  6
CONTINUOUS
 62
     7
 10
-141.703824
 20
-446.47062499999993
 30
0.0
 11
-141.344266
 21
-445.80215399999997
 31
0.0
  0
LINE
  5
7A7
  8
0
  6
CONTINUOUS
 62
     7
 10
-141.344266
 20
-445.80215399999997
 30
0.0
 11
-140.93504100000001
 21
-445.16288099999991
 31
0.0
  0
LINE
  5
7A8
  8
0
  6
CONTINUOUS
 62
     7
 10
-140.93504100000001
 20
-445.16288099999991
 30
0.0
 11
-140.47850600000001
 21
-444.556488
 31
0.0
  0
LINE
  5
7A9
  8
0
  6
CONTINUOUS
 62
     7
 10
-140.47850600000001
 20
-444.556488
 30
0.0
 11
-139.97729200000001
 21
-443.98647099999999
 31
0.0
  0
LINE
  5
7AA
  8
0
  6
CONTINUOUS
 62
     7
 10
-139.97729200000001
 20
-443.98647099999999
 30
0.0
 11
-139.43428700000001
 21
-443.45611100000002
 31
0.0
  0
LINE
  5
7AB
  8
0
  6
CONTINUOUS
 62
     7
 10
-139.43428700000001
 20
-443.45611100000002
 30
0.0
 11
-138.852619
 21
-442.96846599999998
 31
0.0
  0
LINE
  5
7AC
  8
0
  6
CONTINUOUS
 62
     7
 10
-138.852619
 20
-442.96846599999998
 30
0.0
 11
-138.23563899999999
 21
-442.52634499999999
 31
0.0
  0
LINE
  5
7AD
  8
0
  6
CONTINUOUS
 62
     7
 10
-138.23563899999999
 20
-442.52634499999999
 30
0.0
 11
-137.58690200000001
 21
-442.132294
 31
0.0
  0
LINE
  5
7AE
  8
0
  6
CONTINUOUS
 62
     7
 10
-137.58690200000001
 20
-442.132294
 30
0.0
 11
-136.910146
 21
-441.7885849999999
 31
0.0
  0
LINE
  5
7AF
  8
0
  6
CONTINUOUS
 62
     7
 10
-136.910146
 20
-441.7885849999999
 30
0.0
 11
-136.20926900000001
 21
-441.49719699999991
 31
0.0
  0
LINE
  5
7B0
  8
0
  6
CONTINUOUS
 62
     7
 10
-136.20926900000001
 20
-441.49719699999991
 30
0.0
 11
-135.48831000000001
 21
-441.2598089999999
 31
0.0
  0
LINE
  5
7B1
  8
0
  6
CONTINUOUS
 62
     7
 10
-135.48831000000001
 20
-441.2598089999999
 30
0.0
 11
-134.75142199999999
 21
-441.077788
 31
0.0
  0
LINE
  5
7B2
  8
0
  6
CONTINUOUS
 62
     7
 10
-134.75142199999999
 20
-441.077788
 30
0.0
 11
-134.00285
 21
-440.95218499999987
 31
0.0
  0
ARC
  5
7B3
  8
0
  6
CONTINUOUS
 62
     7
 10
-32.341453999999999
 20
-413.56529899999998
 30
0.0
 40
22.0
 50
273.0
 51
357.0
  0
LINE
  5
7B4
  8
0
  6
CONTINUOUS
 62
     7
 10
-22.999403999999998
 20
-414.695832
 30
0.0
 11
-23.064553
 21
-415.42580500000003
 31
0.0
  0
LINE
  5
7B5
  8
0
  6
CONTINUOUS
 62
     7
 10
-23.064553
 20
-415.42580500000003
 30
0.0
 11
-23.182988000000002
 21
-416.149046
 31
0.0
  0
LINE
  5
7B6
  8
0
  6
CONTINUOUS
 62
     7
 10
-23.182988000000002
 20
-416.149046
 30
0.0
 11
-23.354074000000001
 21
-416.861671
 31
0.0
  0
LINE
  5
7B7
  8
0
  6
CONTINUOUS
 62
     7
 10
-23.354074000000001
 20
-416.861671
 30
0.0
 11
-23.576892000000001
 21
-417.55985199999992
 31
0.0
  0
LINE
  5
7B8
  8
0
  6
CONTINUOUS
 62
     7
 10
-23.576892000000001
 20
-417.55985199999992
 30
0.0
 11
-23.850245000000001
 21
-418.23983900000002
 31
0.0
  0
LINE
  5
7B9
  8
0
  6
CONTINUOUS
 62
     7
 10
-23.850245000000001
 20
-418.23983900000002
 30
0.0
 11
-24.172664999999999
 21
-418.8979799999999
 31
0.0
  0
LINE
  5
7BA
  8
0
  6
CONTINUOUS
 62
     7
 10
-24.172664999999999
 20
-418.8979799999999
 30
0.0
 11
-24.54242
 21
-419.53074099999998
 31
0.0
  0
LINE
  5
7BB
  8
0
  6
CONTINUOUS
 62
     7
 10
-24.54242
 20
-419.53074099999998
 30
0.0
 11
-24.957525
 21
-420.1347219999999
 31
0.0
  0
LINE
  5
7BC
  8
0
  6
CONTINUOUS
 62
     7
 10
-24.957525
 20
-420.1347219999999
 30
0.0
 11
-25.415749000000002
 21
-420.70667899999989
 31
0.0
  0
LINE
  5
7BD
  8
0
  6
CONTINUOUS
 62
     7
 10
-25.415749000000002
 20
-420.70667899999989
 30
0.0
 11
-25.914632000000001
 21
-421.24354099999999
 31
0.0
  0
LINE
  5
7BE
  8
0
  6
CONTINUOUS
 62
     7
 10
-25.914632000000001
 20
-421.24354099999999
 30
0.0
 11
-26.451492999999999
 21
-421.74242299999997
 31
0.0
  0
LINE
  5
7BF
  8
0
  6
CONTINUOUS
 62
     7
 10
-26.451492999999999
 20
-421.74242299999997
 30
0.0
 11
-27.023451000000001
 21
-422.20064800000011
 31
0.0
  0
LINE
  5
7C0
  8
0
  6
CONTINUOUS
 62
     7
 10
-27.023451000000001
 20
-422.20064800000011
 30
0.0
 11
-27.627431999999999
 21
-422.61575199999987
 31
0.0
  0
LINE
  5
7C1
  8
0
  6
CONTINUOUS
 62
     7
 10
-27.627431999999999
 20
-422.61575199999987
 30
0.0
 11
-28.260192
 21
-422.98550699999998
 31
0.0
  0
LINE
  5
7C2
  8
0
  6
CONTINUOUS
 62
     7
 10
-28.260192
 20
-422.98550699999998
 30
0.0
 11
-28.918333000000001
 21
-423.30792699999989
 31
0.0
  0
LINE
  5
7C3
  8
0
  6
CONTINUOUS
 62
     7
 10
-28.918333000000001
 20
-423.30792699999989
 30
0.0
 11
-29.598320000000001
 21
-423.58127999999988
 31
0.0
  0
LINE
  5
7C4
  8
0
  6
CONTINUOUS
 62
     7
 10
-29.598320000000001
 20
-423.58127999999988
 30
0.0
 11
-30.296500999999999
 21
-423.80409800000001
 31
0.0
  0
LINE
  5
7C5
  8
0
  6
CONTINUOUS
 62
     7
 10
-30.296500999999999
 20
-423.80409800000001
 30
0.0
 11
-31.009125999999998
 21
-423.9751849999999
 31
0.0
  0
LINE
  5
7C6
  8
0
  6
CONTINUOUS
 62
     7
 10
-31.009125999999998
 20
-423.9751849999999
 30
0.0
 11
-31.732367
 21
-424.09361999999999
 31
0.0
  0
LINE
  5
7C7
  8
0
  6
CONTINUOUS
 62
     7
 10
-31.732367
 20
-424.09361999999999
 30
0.0
 11
-32.462340000000012
 21
-424.1587679999999
 31
0.0
  0
LINE
  5
7C8
  8
0
  6
CONTINUOUS
 62
     7
 10
-31.190063000000009
 20
-435.53514799999999
 30
0.0
 11
-29.584123000000002
 21
-435.39182199999988
 31
0.0
  0
LINE
  5
7C9
  8
0
  6
CONTINUOUS
 62
     7
 10
-29.584123000000002
 20
-435.39182199999988
 30
0.0
 11
-27.992992000000001
 21
-435.13126499999998
 31
0.0
  0
LINE
  5
7CA
  8
0
  6
CONTINUOUS
 62
     7
 10
-27.992992000000001
 20
-435.13126499999998
 30
0.0
 11
-26.425218000000001
 21
-434.75487500000003
 31
0.0
  0
LINE
  5
7CB
  8
0
  6
CONTINUOUS
 62
     7
 10
-26.425218000000001
 20
-434.75487500000003
 30
0.0
 11
-24.889219000000001
 21
-434.26467600000001
 31
0.0
  0
LINE
  5
7CC
  8
0
  6
CONTINUOUS
 62
     7
 10
-24.889219000000001
 20
-434.26467600000001
 30
0.0
 11
-23.393248
 21
-433.66329899999999
 31
0.0
  0
LINE
  5
7CD
  8
0
  6
CONTINUOUS
 62
     7
 10
-23.393248
 20
-433.66329899999999
 30
0.0
 11
-21.945336999999999
 21
-432.95397500000001
 31
0.0
  0
LINE
  5
7CE
  8
0
  6
CONTINUOUS
 62
     7
 10
-21.945336999999999
 20
-432.95397500000001
 30
0.0
 11
-20.553263999999999
 21
-432.140513
 31
0.0
  0
LINE
  5
7CF
  8
0
  6
CONTINUOUS
 62
     7
 10
-20.553263999999999
 20
-432.140513
 30
0.0
 11
-19.224506000000002
 21
-431.227283
 31
0.0
  0
LINE
  5
7D0
  8
0
  6
CONTINUOUS
 62
     7
 10
-19.224506000000002
 20
-431.227283
 30
0.0
 11
-17.966200000000001
 21
-430.21919000000003
 31
0.0
  0
LINE
  5
7D1
  8
0
  6
CONTINUOUS
 62
     7
 10
-17.966200000000001
 20
-430.21919000000003
 30
0.0
 11
-16.785104
 21
-429.12164799999999
 31
0.0
  0
LINE
  5
7D2
  8
0
  6
CONTINUOUS
 62
     7
 10
-16.785104
 20
-429.12164799999999
 30
0.0
 11
-15.687562
 21
-427.94055200000003
 31
0.0
  0
LINE
  5
7D3
  8
0
  6
CONTINUOUS
 62
     7
 10
-15.687562
 20
-427.94055200000003
 30
0.0
 11
-14.679468999999999
 21
-426.68224600000002
 31
0.0
  0
LINE
  5
7D4
  8
0
  6
CONTINUOUS
 62
     7
 10
-14.679468999999999
 20
-426.68224600000002
 30
0.0
 11
-13.766239000000001
 21
-425.35348800000003
 31
0.0
  0
LINE
  5
7D5
  8
0
  6
CONTINUOUS
 62
     7
 10
-13.766239000000001
 20
-425.35348800000003
 30
0.0
 11
-12.952778
 21
-423.96141599999999
 31
0.0
  0
LINE
  5
7D6
  8
0
  6
CONTINUOUS
 62
     7
 10
-12.952778
 20
-423.96141599999999
 30
0.0
 11
-12.243454
 21
-422.51350500000001
 31
0.0
  0
LINE
  5
7D7
  8
0
  6
CONTINUOUS
 62
     7
 10
-12.243454
 20
-422.51350500000001
 30
0.0
 11
-11.642077
 21
-421.01753300000001
 31
0.0
  0
LINE
  5
7D8
  8
0
  6
CONTINUOUS
 62
     7
 10
-11.642077
 20
-421.01753300000001
 30
0.0
 11
-11.151877000000001
 21
-419.48153499999989
 31
0.0
  0
LINE
  5
7D9
  8
0
  6
CONTINUOUS
 62
     7
 10
-11.151877000000001
 20
-419.48153499999989
 30
0.0
 11
-10.775487999999999
 21
-417.91376000000002
 31
0.0
  0
LINE
  5
7DA
  8
0
  6
CONTINUOUS
 62
     7
 10
-10.775487999999999
 20
-417.91376000000002
 30
0.0
 11
-10.51493
 21
-416.32262999999989
 31
0.0
  0
LINE
  5
7DB
  8
0
  6
CONTINUOUS
 62
     7
 10
-10.51493
 20
-416.32262999999989
 30
0.0
 11
-10.371604
 21
-414.71669000000003
 31
0.0
  0
LINE
  5
7DC
  8
0
  6
CONTINUOUS
 62
     7
 10
-12.777934
 20
-303.06424500000003
 30
0.0
 11
92.222065999999984
 21
-303.06424500000003
 31
0.0
  0
LINE
  5
7DD
  8
0
  6
CONTINUOUS
 62
     7
 10
2.547226999999999
 20
-315.06424500000003
 30
0.0
 11
92.222065999999984
 21
-315.06424500000003
 31
0.0
  0
LINE
  5
7DE
  8
0
  6
CONTINUOUS
 62
     7
 10
-17.777933999999998
 20
-325.06424500000003
 30
0.0
 11
-18.302012000000001
 21
-325.06424500000003
 31
0.0
  0
LINE
  5
7DF
  8
0
  6
CONTINUOUS
 62
     7
 10
2.547226999999999
 20
-315.06424500000003
 30
0.0
 11
7.2220659999999999
 21
-315.06424500000003
 31
0.0
  0
LINE
  5
7E0
  8
0
  6
CONTINUOUS
 62
     7
 10
-17.777933999999998
 20
-315.06424500000003
 30
0.0
 11
-18.302012000000001
 21
-325.06424500000003
 31
0.0
  0
LINE
  5
7E1
  8
0
  6
CONTINUOUS
 62
     7
 10
-18.302012000000001
 20
-325.06424500000003
 30
0.0
 11
-19.088128000000001
 21
-340.06424500000003
 31
0.0
  0
ARC
  5
7E2
  8
0
  6
CONTINUOUS
 62
     7
 10
-12.777934
 20
-308.06424500000003
 30
0.0
 40
5.0
 50
90.0
 51
180.0
  0
LINE
  5
7E3
  8
0
  6
CONTINUOUS
 62
     7
 10
-17.777933999999998
 20
-315.06424500000003
 30
0.0
 11
-17.777933999999998
 21
-308.06424500000003
 31
0.0
  0
ARC
  5
7E4
  8
0
  6
CONTINUOUS
 62
     7
 10
2.547226999999999
 20
-323.06424500000003
 30
0.0
 40
8.0
 50
90.0
 51
176.935123
  0
LINE
  5
7E5
  8
0
  6
CONTINUOUS
 62
     7
 10
24.222066000000002
 20
-303.06424500000003
 30
0.0
 11
24.222066000000002
 21
-315.06424500000003
 31
0.0
  0
LINE
  5
7E6
  8
0
  6
CONTINUOUS
 62
     7
 10
122.222066
 20
-315.06424500000003
 30
0.0
 11
122.222066
 21
-405.06424500000003
 31
0.0
  0
LINE
  5
7E7
  8
0
  6
CONTINUOUS
 62
     7
 10
110.10787500000001
 20
-400.18113799999992
 30
0.0
 11
108.300132
 21
-322.87721699999997
 31
0.0
  0
LINE
  5
7E8
  8
0
  6
CONTINUOUS
 62
     7
 10
112.133979
 20
-411.86898799999989
 30
0.0
 11
112.222511
 21
-411.86898799999989
 31
0.0
  0
LINE
  5
7E9
  8
0
  6
CONTINUOUS
 62
     7
 10
122.222066
 20
-405.06424500000003
 30
0.0
 11
115.106509
 21
-405.06424500000003
 31
0.0
  0
ARC
  5
7EA
  8
0
  6
CONTINUOUS
 62
     7
 10
115.106509
 20
-400.06424499999991
 30
0.0
 40
5.0
 50
181.33961099999999
 51
270.0
  0
LINE
  5
7EB
  8
0
  6
CONTINUOUS
 62
     7
 10
82.222065999999984
 20
-303.06424500000003
 30
0.0
 11
39.722065999999998
 21
-303.06424500000003
 31
0.0
  0
LINE
  5
7EC
  8
0
  6
CONTINUOUS
 62
     7
 10
39.722065999999998
 20
-315.06424500000003
 30
0.0
 11
82.222065999999984
 21
-315.06424500000003
 31
0.0
  0
LINE
  5
7ED
  8
0
  6
CONTINUOUS
 62
     7
 10
92.222065999999984
 20
-303.06424500000003
 30
0.0
 11
82.222065999999984
 21
-303.06424500000003
 31
0.0
  0
LINE
  5
7EE
  8
0
  6
CONTINUOUS
 62
     7
 10
90.302318000000014
 20
-315.06424500000003
 30
0.0
 11
82.222065999999984
 21
-315.06424500000003
 31
0.0
  0
LINE
  5
7EF
  8
0
  6
CONTINUOUS
 62
     7
 10
60.222065999999998
 20
-308.58955800000001
 30
0.0
 11
60.222065999999998
 21
-315.06424500000003
 31
0.0
  0
DIMENSION
  5
7F0
  8
LAYER01
 62
     7
  2
*D23
 10
122.222066
 20
-226.64354800000001
 30
0.0
 11
52.21911699999999
 21
-196.64354800000001
 31
0.0
 13
-17.783830999999999
 23
-253.064245
 33
0.0
 14
122.222066
 24
-253.064245
 34
0.0
  0
INSERT
  5
7F1
  8
LAYER01
  2
RETO-G25
 10
0.0
 20
0.0
 30
0.0
  0
DIMENSION
  5
7F2
  8
LAYER01
 62
     7
  2
*D27
 10
-331.98105099999998
 20
2051.4229949999999
 30
0.0
 11
-764.4999949999999
 21
2081.4229949999999
 31
0.0
 13
-1231.981051
 23
1990.9528029999999
 33
0.0
 14
-331.98105099999998
 24
1990.9528029999999
 34
0.0
  0
DIMENSION
  5
7F3
  8
LAYER01
 62
     7
  2
*D28
 10
-1285.7117189999999
 20
1490.9528029999999
 30
0.0
 11
-1315.7117189999999
 21
1616.4528029999999
 31
0.0
 53
90.0
 13
-1231.981051
 23
1530.9528029999999
 33
0.0
 14
-1231.981051
 24
1490.9528029999999
 34
0.0
 50
90.0
  0
DIMENSION
  5
7F4
  8
LAYER01
 62
     7
  2
*D29
 10
-1356.9795939999999
 20
1850.9528029999999
 30
0.0
 11
-1386.9795939999999
 21
1690.9528029999999
 31
0.0
 53
90.0
 13
-1231.981051
 23
1530.9528029999999
 33
0.0
 14
-1231.981051
 24
1850.9528029999999
 34
0.0
 50
90.0
  0
LINE
  5
7F5
  8
0
  6
CONTINUOUS
 62
     7
 10
-1231.981051
 20
1490.9528029999999
 30
0.0
 11
-1231.981051
 21
1990.9528029999999
 31
0.0
  0
DIMENSION
  5
7F6
  8
LAYER01
 62
     7
  2
*D30
 10
-1443.4512810000001
 20
1490.9528029999999
 30
0.0
 11
-1473.4512810000001
 21
1740.9528029999999
 31
0.0
 53
90.0
 13
-1231.981051
 23
1990.9528029999999
 33
0.0
 14
-1231.981051
 24
1490.9528029999999
 34
0.0
 50
90.0
  0
DIMENSION
  5
7F7
  8
LAYER01
 62
     7
  2
*D31
 10
-1312.3183919999999
 20
1273.3857909999999
 30
0.0
 11
-1342.3183919999999
 21
1198.3857909999999
 31
0.0
 53
90.0
 13
-1231.981051
 23
1123.3857909999999
 33
0.0
 14
-1231.981051
 24
1273.3857909999999
 34
0.0
 50
90.0
  0
DIMENSION
  5
7F8
  8
LAYER01
 62
     7
  2
*D32
 10
-1312.3183919999999
 20
1323.3857909999999
 30
0.0
 11
-1342.3183919999999
 21
1298.3857909999999
 31
0.0
 53
90.0
 13
-1231.981051
 23
1273.3857909999999
 33
0.0
 14
-1231.981051
 24
1323.3857909999999
 34
0.0
 50
90.0
  0
LINE
  5
7F9
  8
LAYER01
  6
CONTINUOUS
 62
     7
 10
-1231.981051
 20
1123.3857909999999
 30
0.0
 11
-1231.981051
 21
1323.3857909999999
 31
0.0
  0
DIMENSION
  5
7FA
  8
LAYER01
 62
     7
  2
*D33
 10
-1356.9795939999999
 20
1990.9528029999999
 30
0.0
 11
-1386.9795939999999
 21
1920.9528029999999
 31
0.0
 53
90.0
 13
-1231.981051
 23
1850.9528029999999
 33
0.0
 14
-1231.981051
 24
1990.9528029999999
 34
0.0
 50
90.0
  0
DIMENSION
  5
7FB
  8
LAYER01
 62
     7
  2
*D34
 10
-1285.7117189999999
 20
1905.9528029999999
 30
0.0
 11
-1315.7117189999999
 21
1878.4528029999999
 31
0.0
 53
90.0
 13
-1231.981051
 23
1850.9528029999999
 33
0.0
 14
-1231.981051
 24
1905.9528029999999
 34
0.0
 50
90.0
  0
INSERT
  5
7FC
  8
LAYER01
  2
RETO-G36
 10
0.0
 20
0.0
 30
0.0
  0
INSERT
  5
7FD
  8
LAYER01
  2
RETO-G39
 10
0.0
 20
0.0
 30
0.0
  0
TEXT
  5
7FE
  8
LAYER01
  6
CONTINUOUS
 62
     1
 10
1337.5306989999999
 20
-468.82121699999988
 30
0.0
 40
45.499999999999993
  1
61xxx
  7
SIMPLEX
  0
TEXT
  5
7FF
  8
LAYER01
  6
VERDECKT
 62
     1
 10
1374.891112
 20
-282.99453399999999
 30
0.0
 40
13.0
  1
März 2017
  7
SIMPLEX
  0
TEXT
  5
800
  8
LAYER01
  6
STRICHPUNKTIERT
 62
     7
 10
946.96088873879376
 20
114.59373709169159
 30
0.0
 40
64.338300000000004
  1
http://www.varicor.org
  0
INSERT
  5
801
  8
LAYER01
  2
RETO-G41
 10
0.0
 20
0.0
 30
0.0
  0
LINE
  5
802
  8
LAYER01
  6
CONTINUOUS
 62
     7
 10
568.01894900000002
 20
-106.003908
 30
0.0
 11
568.01894900000002
 21
93.996092000000004
 31
0.0
  0
LINE
  5
803
  8
LAYER01
  6
CONTINUOUS
 62
     7
 10
568.01894900000002
 20
261.56310400000001
 30
0.0
 11
568.01894900000002
 21
761.56310399999995
 31
0.0
  0
TEXT
  5
804
  8
LAYER01
  6
VERDECKT
 62
     1
 10
1676.056994
 20
-207.74429599999999
 30
0.0
 40
32.5
  1
A. Sprenger GmbH
  7
SIMPLEX
  0
TEXT
  5
805
  8
LAYER01
  6
CONTINUOUS
 62
     7
 10
1665.5137910000001
 20
-6.4761269999999991
 30
0.0
 40
9.75
  1
Diese Zeichnung ist geistiges Eigentum der A. Sprenger GmbH
  7
SIMPLEX
  0
TEXT
  5
806
  8
LAYER01
  6
CONTINUOUS
 62
     7
 10
1665.5137910000001
 20
-23.190412999999999
 30
0.0
 40
9.75
  1
und urheberrechtlich geschützt. Ohne unsere Zustimmung darf 
  7
SIMPLEX
  0
TEXT
  5
807
  8
LAYER01
  6
CONTINUOUS
 62
     7
 10
1665.5137910000001
 20
-39.904697999999989
 30
0.0
 40
9.75
  1
sie in keiner Form verwendet oder Dritten zugänglich gemacht
  7
SIMPLEX
  0
TEXT
  5
808
  8
LAYER01
  6
CONTINUOUS
 62
     7
 10
1665.5137910000001
 20
-56.618983999999998
 30
0.0
 40
9.75
  1
werden. (§106 Urheberrecht)
  7
SIMPLEX
  0
TEXT
  5
809
  8
LAYER01
  6
VERDECKT
 62
     1
 10
1761.7838409999999
 20
-123.92249099999999
 30
0.0
 40
13.0
  1
1 : 10 (DIN A3)
  7
SIMPLEX
  0
TEXT
  5
80A
  8
LAYER01
  6
VERDECKT
 62
     1
 10
1499.8954160000001
 20
-283.04203100000001
 30
0.0
 40
13.0
  1
b.s.
  7
SIMPLEX
  0
TEXT
  5
80B
  8
LAYER01
  6
VERDECKT
 62
     1
 10
1676.056994
 20
-335.38204500000001
 30
0.0
 40
45.499999999999993
  1
Reto
  7
SIMPLEX
  0
TEXT
  5
80C
  8
LAYER01
  6
VERDECKT
 62
     1
 10
2096.8310120000001
 20
-123.92249099999999
 30
0.0
 40
13.0
  1
trigo.skd
  7
SIMPLEX
  0
LINE
  5
80D
  8
0
  6
CONTINUOUS
 62
     7
 10
568.01894900000002
 20
1490.9528029999999
 30
0.0
 11
568.01894900000002
 21
1990.9528029999999
 31
0.0
  0
LINE
  5
80E
  8
LAYER01
  6
CONTINUOUS
 62
     7
 10
568.01894900000002
 20
1323.3857909999999
 30
0.0
 11
568.01894900000002
 21
1123.3857909999999
 31
0.0
  0
ENDSEC
  0
EOF
