  0
SECTION
  2
HEADER
  9
$ACADVER
  1
AC1009
  9
$INSBASE
 10
0.0
 20
0.0
 30
0.0
  9
$EXTMIN
 10
10423.102975
 20
13883.232813000001
 30
0.0
  9
$EXTMAX
 10
14755.074144020409
 20
16671.149165999999
 30
0.0
  9
$LIMMIN
 10
10330.071819000001
 20
13793.185708999999
  9
$LIMMAX
 10
14530.071819000001
 20
16763.185709000001
  9
$ORTHOMODE
 70
     1
  9
$REGENMODE
 70
     1
  9
$FILLMODE
 70
     1
  9
$QTEXTMODE
 70
     0
  9
$MIRRTEXT
 70
     0
  9
$DRAGMODE
 70
     2
  9
$LTSCALE
 40
2.0
  9
$OSMODE
 70
    37
  9
$ATTMODE
 70
     1
  9
$TEXTSIZE
 40
0.0
  9
$TRACEWID
 40
0.05
  9
$TEXTSTYLE
  7
STANDARD
  9
$CLAYER
  8
LAYER01
  9
$CELTYPE
  6
CONTINUOUS
  9
$CECOLOR
 62
     7
  9
$DIMSCALE
 40
1.0
  9
$DIMASZ
 40
0.18
  9
$DIMEXO
 40
0.0625
  9
$DIMDLI
 40
0.38
  9
$DIMRND
 40
0.0
  9
$DIMDLE
 40
0.0
  9
$DIMEXE
 40
0.18
  9
$DIMTP
 40
0.0
  9
$DIMTM
 40
0.0
  9
$DIMTXT
 40
0.18
  9
$DIMCEN
 40
0.09
  9
$DIMTSZ
 40
0.0
  9
$DIMTOL
 70
     0
  9
$DIMLIM
 70
     0
  9
$DIMTIH
 70
     1
  9
$DIMTOH
 70
     1
  9
$DIMSE1
 70
     0
  9
$DIMSE2
 70
     0
  9
$DIMTAD
 70
     0
  9
$DIMZIN
 70
     0
  9
$DIMBLK
  1

  9
$DIMASO
 70
     1
  9
$DIMSHO
 70
     1
  9
$DIMPOST
  1

  9
$DIMAPOST
  1

  9
$DIMALT
 70
     0
  9
$DIMALTD
 70
     2
  9
$DIMALTF
 40
25.399999999999999
  9
$DIMLFAC
 40
1.0
  9
$DIMTOFL
 70
     0
  9
$DIMTVP
 40
0.0
  9
$DIMTIX
 70
     0
  9
$DIMSOXD
 70
     0
  9
$DIMSAH
 70
     0
  9
$DIMBLK1
  1

  9
$DIMBLK2
  1

  9
$DIMSTYLE
  2
STANDARD
  9
$DIMCLRD
 70
     0
  9
$DIMCLRE
 70
     0
  9
$DIMCLRT
 70
     0
  9
$DIMTFAC
 40
1.0
  9
$DIMGAP
 40
0.09
  9
$LUNITS
 70
     2
  9
$LUPREC
 70
     4
  9
$SKETCHINC
 40
0.1
  9
$FILLETRAD
 40
10.0
  9
$AUNITS
 70
     0
  9
$AUPREC
 70
     0
  9
$MENU
  1
acad
  9
$ELEVATION
 40
0.0
  9
$PELEVATION
 40
0.0
  9
$THICKNESS
 40
0.0
  9
$LIMCHECK
 70
     0
  9
$BLIPMODE
 70
     0
  9
$CHAMFERA
 40
0.0
  9
$CHAMFERB
 40
0.0
  9
$SKPOLY
 70
     0
  9
$TDCREATE
 40
11492862.6282262
  9
$TDUPDATE
 40
2456560.6382756019
  9
$TDINDWG
 40
0.0020004282
  9
$TDUSRTIMER
 40
0.0020004051
  9
$USRTIMER
 70
     1
  9
$ANGBASE
 50
0.0
  9
$ANGDIR
 70
     0
  9
$PDMODE
 70
     0
  9
$PDSIZE
 40
0.0
  9
$PLINEWID
 40
0.0
  9
$COORDS
 70
     1
  9
$SPLFRAME
 70
     0
  9
$SPLINETYPE
 70
     6
  9
$SPLINESEGS
 70
    10
  9
$ATTDIA
 70
     0
  9
$ATTREQ
 70
     1
  9
$HANDLING
 70
     1
  9
$HANDSEED
  5
9E8
  9
$SURFTAB1
 70
     6
  9
$SURFTAB2
 70
     6
  9
$SURFTYPE
 70
     6
  9
$SURFU
 70
     6
  9
$SURFV
 70
     6
  9
$UCSNAME
  2

  9
$UCSORG
 10
0.0
 20
0.0
 30
0.0
  9
$UCSXDIR
 10
1.0
 20
0.0
 30
0.0
  9
$UCSYDIR
 10
0.0
 20
1.0
 30
0.0
  9
$PUCSNAME
  2

  9
$PUCSORG
 10
0.0
 20
0.0
 30
0.0
  9
$PUCSXDIR
 10
1.0
 20
0.0
 30
0.0
  9
$PUCSYDIR
 10
0.0
 20
1.0
 30
0.0
  9
$USERI1
 70
     0
  9
$USERI2
 70
     0
  9
$USERI3
 70
     0
  9
$USERI4
 70
     0
  9
$USERI5
 70
     0
  9
$USERR1
 40
0.0
  9
$USERR2
 40
0.0
  9
$USERR3
 40
0.0
  9
$USERR4
 40
0.0
  9
$USERR5
 40
0.0
  9
$WORLDVIEW
 70
     1
  9
$SHADEDGE
 70
     3
  9
$SHADEDIF
 70
    70
  9
$TILEMODE
 70
     1
  9
$MAXACTVP
 70
    64
  9
$PLIMCHECK
 70
     0
  9
$PEXTMIN
 10
1.0000000000000000E+020
 20
1.0000000000000000E+020
 30
1.0000000000000000E+020
  9
$PEXTMAX
 10
-1.0000000000000000E+020
 20
-1.0000000000000000E+020
 30
-1.0000000000000000E+020
  9
$PLIMMIN
 10
0.0
 20
0.0
  9
$PLIMMAX
 10
12.0
 20
9.0
  9
$UNITMODE
 70
     0
  9
$VISRETAIN
 70
     1
  9
$PLINEGEN
 70
     0
  9
$PSLTSCALE
 70
     1
  0
ENDSEC
  0
SECTION
  2
TABLES
  0
TABLE
  2
VPORT
 70
     1
  0
VPORT
  2
*ACTIVE
 70
     0
 10
0.0
 20
0.0
 11
1.0
 21
1.0
 12
12430.071819000001
 22
15278.185708999999
 13
0.0
 23
0.0
 14
1.0
 24
1.0
 15
0.0
 25
0.0
 16
0.0
 26
0.0
 36
1.0
 17
0.0
 27
0.0
 37
0.0
 40
3003.6269524924692
 41
1.8841911764705881
 42
50.0
 43
0.0
 44
0.0
 50
0.0
 51
0.0
 71
     0
 72
   100
 73
     1
 74
     1
 75
     0
 76
     0
 77
     0
 78
     0
  0
ENDTAB
  0
TABLE
  2
LTYPE
 70
    11
  0
LTYPE
  2
CONTINUOUS
 70
     0
  3
Solid line
 72
    65
 73
     0
 40
0.0
  0
LTYPE
  2
GESTRICHELT
 70
     0
  3
__ __ __ __ __ __ __ __ __ __ __ __ __ __ __
 72
    65
 73
     2
 40
0.75
 49
0.5
 49
-0.25
  0
LTYPE
  2
VERDECKT
 70
     0
  3
_ _ _ _ _ _ _ _ _ _ _ _ _ _ _ _ _ _ _ _ _ _ 
 72
    65
 73
     2
 40
0.25
 49
0.125
 49
-0.125
  0
LTYPE
  2
MITTELLINIE
 70
     0
  3
____ _ ____ _ ____ _ ____ _ ____ _ ____ _ __
 72
    65
 73
     4
 40
2.0
 49
1.25
 49
-0.25
 49
0.25
 49
-0.25
  0
LTYPE
  2
PHANTOM
 70
     0
  3
_____ _ _ _____ _ _ _____ _ _ _____ _ _ ____
 72
    65
 73
     6
 40
2.5
 49
1.25
 49
-0.25
 49
0.25
 49
-0.25
 49
0.25
 49
-0.25
  0
LTYPE
  2
PUNKTIERT
 70
     0
  3
............................................
 72
    65
 73
     2
 40
0.25
 49
0.0
 49
-0.25
  0
LTYPE
  2
STRICHPUNKTIERT
 70
     0
  3
__ . __ . __ . __ . __ . __ . __ . __ . __ .
 72
    65
 73
     4
 40
1.0
 49
0.5
 49
-0.25
 49
0.0
 49
-0.25
  0
LTYPE
  2
RAND
 70
     0
  3
__ __ . __ __ . __ __ . __ __ . __ __ . __ _
 72
    65
 73
     6
 40
1.75
 49
0.5
 49
-0.25
 49
0.5
 49
-0.25
 49
0.0
 49
-0.25
  0
LTYPE
  2
TRENNLINIE
 70
     0
  3
__ . . __ . . __ . . __ . . __ . . __ . . __
 72
    65
 73
     6
 40
1.25
 49
0.5
 49
-0.25
 49
0.0
 49
-0.25
 49
0.0
 49
-0.25
  0
LTYPE
  2
ENG_PUNKTIERT
 70
     0
  3
Schließen                                   
 72
    65
 73
     2
 40
0.1
 49
0.05
 49
-0.05
  0
LTYPE
  2
CLOSE
 70
     0
  3
                                            
 72
    65
 73
     0
 40
0.0
  0
ENDTAB
  0
TABLE
  2
LAYER
 70
   254
  0
LAYER
  2
0
 70
     0
 62
     7
  6
CONTINUOUS
  0
LAYER
  2
LAYER01
 70
     0
 62
     7
  6
CONTINUOUS
  0
LAYER
  2
LAYER02
 70
     0
 62
     7
  6
CONTINUOUS
  0
LAYER
  2
LAYER03
 70
     0
 62
     7
  6
CONTINUOUS
  0
LAYER
  2
LAYER04
 70
     0
 62
     7
  6
CONTINUOUS
  0
LAYER
  2
LAYER05
 70
     0
 62
     7
  6
CONTINUOUS
  0
LAYER
  2
LAYER06
 70
     0
 62
     7
  6
CONTINUOUS
  0
LAYER
  2
LAYER07
 70
     0
 62
     7
  6
CONTINUOUS
  0
LAYER
  2
LAYER08
 70
     0
 62
     7
  6
CONTINUOUS
  0
LAYER
  2
LAYER09
 70
     0
 62
     7
  6
CONTINUOUS
  0
LAYER
  2
LAYER10
 70
     0
 62
     7
  6
CONTINUOUS
  0
LAYER
  2
2
 70
     0
 62
     7
  6
CONTINUOUS
  0
LAYER
  2
5
 70
     0
 62
     7
  6
CONTINUOUS
  0
LAYER
  2
RAUMAUFM
 70
     0
 62
     7
  6
CONTINUOUS
  0
LAYER
  2
EINRICHT
 70
     0
 62
     7
  6
CONTINUOUS
  0
LAYER
  2
HILFE
 70
     0
 62
     7
  6
CONTINUOUS
  0
LAYER
  2
SCHNITTE
 70
     0
 62
     7
  6
CONTINUOUS
  0
LAYER
  2
SCHRAFF1
 70
     0
 62
     7
  6
CONTINUOUS
  0
LAYER
  2
SCHRAFF2
 70
     0
 62
     7
  6
CONTINUOUS
  0
LAYER
  2
BEMASS-1
 70
     0
 62
     7
  6
CONTINUOUS
  0
LAYER
  2
BEMASS-2
 70
     0
 62
     7
  6
CONTINUOUS
  0
LAYER
  2
TEXT
 70
     0
 62
     7
  6
CONTINUOUS
  0
LAYER
  2
SYMBOLE
 70
     0
 62
     7
  6
CONTINUOUS
  0
LAYER
  2
RAHMEN
 70
     0
 62
     7
  6
CONTINUOUS
  0
LAYER
  2
SCHRIFTF
 70
     0
 62
     7
  6
CONTINUOUS
  0
LAYER
  2
ACHSEN
 70
     0
 62
     7
  6
CONTINUOUS
  0
LAYER
  2
ZEICHN
 70
     0
 62
     7
  6
CONTINUOUS
  0
LAYER
  2
7
 70
     0
 62
     7
  6
CONTINUOUS
  0
LAYER
  2
1
 70
     0
 62
     7
  6
CONTINUOUS
  0
LAYER
  2
6
 70
     0
 62
     7
  6
CONTINUOUS
  0
LAYER
  2
4
 70
     0
 62
     7
  6
CONTINUOUS
  0
LAYER
  2
GRUNDEBENE
 70
     0
 62
     7
  6
CONTINUOUS
  0
LAYER
  2
GRUNDRISS
 70
     0
 62
     7
  6
CONTINUOUS
  0
LAYER
  2
BEMASSUNGGRUNDRISS
 70
     0
 62
     7
  6
CONTINUOUS
  0
LAYER
  2
WANDELEMENTE
 70
     0
 62
     7
  6
CONTINUOUS
  0
LAYER
  2
KUECHE
 70
     0
 62
     7
  6
CONTINUOUS
  0
LAYER
  2
THEKEBROETCHEN
 70
     0
 62
     7
  6
CONTINUOUS
  0
LAYER
  2
CENTERLINIE
 70
     0
 62
     7
  6
CONTINUOUS
  0
LAYER
  2
UMRISSE
 70
     0
 62
     7
  6
CONTINUOUS
  0
LAYER
  2
MAUER
 70
     0
 62
     7
  6
CONTINUOUS
  0
LAYER
  2
SCHRAFFUR
 70
     0
 62
     7
  6
CONTINUOUS
  0
LAYER
  2
MASSLINIE
 70
     0
 62
     7
  6
CONTINUOUS
  0
LAYER
  2
PV
 70
     0
 62
     7
  6
CONTINUOUS
  0
LAYER
  2
BESCHRIFTUNG
 70
     0
 62
     7
  6
CONTINUOUS
  0
LAYER
  2
AS
 70
     0
 62
     7
  6
CONTINUOUS
  0
LAYER
  2
PL
 70
     0
 62
     7
  6
CONTINUOUS
  0
LAYER
  2
UK
 70
     0
 62
     7
  6
CONTINUOUS
  0
LAYER
  2
TEXT3
 70
     0
 62
     7
  6
CONTINUOUS
  0
LAYER
  2
TEXT7
 70
     0
 62
     7
  6
CONTINUOUS
  0
LAYER
  2
BEPL1
 70
     0
 62
     7
  6
CONTINUOUS
  0
LAYER
  2
BEPL2
 70
     0
 62
     7
  6
CONTINUOUS
  0
LAYER
  2
BEPL2V
 70
     0
 62
     7
  6
CONTINUOUS
  0
LAYER
  2
BEPL4
 70
     0
 62
     7
  6
CONTINUOUS
  0
LAYER
  2
BEPL
 70
     0
 62
     7
  6
CONTINUOUS
  0
LAYER
  2
UK1
 70
     0
 62
     7
  6
CONTINUOUS
  0
LAYER
  2
UK2
 70
     0
 62
     7
  6
CONTINUOUS
  0
LAYER
  2
UK2V
 70
     0
 62
     7
  6
CONTINUOUS
  0
LAYER
  2
UK3
 70
     0
 62
     7
  6
CONTINUOUS
  0
LAYER
  2
TEXT2
 70
     0
 62
     7
  6
CONTINUOUS
  0
LAYER
  2
HILF2S
 70
     0
 62
     7
  6
CONTINUOUS
  0
LAYER
  2
UK1V
 70
     0
 62
     7
  6
CONTINUOUS
  0
LAYER
  2
GAIN_ZRA
 70
     0
 62
     7
  6
CONTINUOUS
  0
LAYER
  2
GAIN_ZSF
 70
     0
 62
     7
  6
CONTINUOUS
  0
LAYER
  2
RAHM4
 70
     0
 62
     7
  6
CONTINUOUS
  0
LAYER
  2
KORPUSBAND
 70
     0
 62
     7
  6
CONTINUOUS
  0
LAYER
  2
E---LGPL--------
 70
     0
 62
     7
  6
CONTINUOUS
  0
LAYER
  2
E---NPFL--------
 70
     0
 62
     7
  6
CONTINUOUS
  0
LAYER
  2
E---PLNKTXT-----
 70
     0
 62
     7
  6
CONTINUOUS
  0
LAYER
  2
E---PLNK--------
 70
     0
 62
     7
  6
CONTINUOUS
  0
LAYER
  2
E---PLNR--------
 70
     0
 62
     7
  6
CONTINUOUS
  0
LAYER
  2
D547_ARCHICAD
 70
     0
 62
     7
  6
CONTINUOUS
  0
LAYER
  2
D547_E---TEXT--------
 70
     0
 62
     7
  6
CONTINUOUS
  0
LAYER
  2
E---LEGD--------
 70
     0
 62
     7
  6
CONTINUOUS
  0
LAYER
  2
D43_ARCHICAD
 70
     0
 62
     7
  6
CONTINUOUS
  0
LAYER
  2
D43_FENSTER_VON_B---FASS--
 70
     0
 62
     7
  6
CONTINUOUS
  0
LAYER
  2
D43_E---SCHN--------
 70
     0
 62
     7
  6
CONTINUOUS
  0
LAYER
  2
D43_B---MW-N--------
 70
     0
 62
     7
  6
CONTINUOUS
  0
LAYER
  2
D43_B---DECK--------
 70
     0
 62
     7
  6
CONTINUOUS
  0
LAYER
  2
D43_B---MW-S--------
 70
     0
 62
     7
  6
CONTINUOUS
  0
LAYER
  2
D43_B---MW----------
 70
     0
 62
     7
  6
CONTINUOUS
  0
LAYER
  2
D43_B---FASS--------
 70
     0
 62
     7
  6
CONTINUOUS
  0
LAYER
  2
D43_E---RASG--------
 70
     0
 62
     7
  6
CONTINUOUS
  0
LAYER
  2
D40_ARCHICAD
 70
     0
 62
     7
  6
CONTINUOUS
  0
LAYER
  2
D40_E---MW--------
 70
     0
 62
     7
  6
CONTINUOUS
  0
LAYER
  2
D40_E---FASSKON-----
 70
     0
 62
     7
  6
CONTINUOUS
  0
LAYER
  2
D40_TÜREN_VON_B---MW-N----
 70
     0
 62
     7
  6
CONTINUOUS
  0
LAYER
  2
D40_E---MW-L------
 70
     0
 62
     7
  6
CONTINUOUS
  0
LAYER
  2
D40_TÜREN_VON_B---MW------
 70
     0
 62
     7
  6
CONTINUOUS
  0
LAYER
  2
D40_E---VERM--------
 70
     0
 62
     7
  6
CONTINUOUS
  0
LAYER
  2
D40_FENSTER_VON_E---MW-L--
 70
     0
 62
     7
  6
CONTINUOUS
  0
LAYER
  2
D40_FENSTER_VON_B---MW-N--
 70
     0
 62
     7
  6
CONTINUOUS
  0
LAYER
  2
D40_E---SCHN--------
 70
     0
 62
     7
  6
CONTINUOUS
  0
LAYER
  2
D40_E---AUFZ--------
 70
     0
 62
     7
  6
CONTINUOUS
  0
LAYER
  2
D40_E---DECK--------
 70
     0
 62
     7
  6
CONTINUOUS
  0
LAYER
  2
D40_E---RAUMINF-----
 70
     0
 62
     7
  6
CONTINUOUS
  0
LAYER
  2
D40_E---TEXT--------
 70
     0
 62
     7
  6
CONTINUOUS
  0
LAYER
  2
D40_B---TEXT--------
 70
     0
 62
     7
  6
CONTINUOUS
  0
LAYER
  2
D40_B---MW-N--------
 70
     0
 62
     7
  6
CONTINUOUS
  0
LAYER
  2
D40_B---DECK--------
 70
     0
 62
     7
  6
CONTINUOUS
  0
LAYER
  2
D40_B---AUFZ--------
 70
     0
 62
     7
  6
CONTINUOUS
  0
LAYER
  2
D40_B---MW-S--------
 70
     0
 62
     7
  6
CONTINUOUS
  0
LAYER
  2
D40_B---MW----------
 70
     0
 62
     7
  6
CONTINUOUS
  0
LAYER
  2
D40_E---MOEB--------
 70
     0
 62
     7
  6
CONTINUOUS
  0
LAYER
  2
D40_B---UMGB--------
 70
     0
 62
     7
  6
CONTINUOUS
  0
LAYER
  2
D40_B---FASS--------
 70
     0
 62
     7
  6
CONTINUOUS
  0
LAYER
  2
D40_E---DACH--------
 70
     0
 62
     7
  6
CONTINUOUS
  0
LAYER
  2
D40_E---BODE--------
 70
     0
 62
     7
  6
CONTINUOUS
  0
LAYER
  2
D40_E---TREP--------
 70
     0
 62
     7
  6
CONTINUOUS
  0
LAYER
  2
D40_E---RASG--------
 70
     0
 62
     7
  6
CONTINUOUS
  0
LAYER
  2
D40_B---MW-K--------
 70
     0
 62
     7
  6
CONTINUOUS
  0
LAYER
  2
D40_E---FASSGLA-----
 70
     0
 62
     7
  6
CONTINUOUS
  0
LAYER
  2
D40_B---VERM--------
 70
     0
 62
     7
  6
CONTINUOUS
  0
LAYER
  2
D40_E---UMGBGSG-----
 70
     0
 62
     7
  6
CONTINUOUS
  0
LAYER
  2
D40_E---RASF--------
 70
     0
 62
     7
  6
CONTINUOUS
  0
LAYER
  2
D40_E---PFLA--------
 70
     0
 62
     7
  6
CONTINUOUS
  0
LAYER
  2
D40_E---KONS-ST-----
 70
     0
 62
     7
  6
CONTINUOUS
  0
LAYER
  2
D40_E---WERB--------
 70
     0
 62
     7
  6
CONTINUOUS
  0
LAYER
  2
D40_E---TUERINF-----
 70
     0
 62
     7
  6
CONTINUOUS
  0
LAYER
  2
D40_E---WOLK--------
 70
     0
 62
     7
  6
CONTINUOUS
  0
LAYER
  2
D40_B---MW-L--------
 70
     0
 62
     7
  6
CONTINUOUS
  0
LAYER
  2
D40_B---SANI--------
 70
     0
 62
     7
  6
CONTINUOUS
  0
LAYER
  2
D40_E---SANI--------
 70
     0
 62
     7
  6
CONTINUOUS
  0
LAYER
  2
D40_E---MW-K------
 70
     0
 62
     7
  6
CONTINUOUS
  0
LAYER
  2
D40_E---OBJE--------
 70
     0
 62
     7
  6
CONTINUOUS
  0
LAYER
  2
D40_E---ASPR--------
 70
     0
 62
     7
  6
CONTINUOUS
  0
LAYER
  2
D40_E---VERMTGA-----
 70
     0
 62
     7
  6
CONTINUOUS
  0
LAYER
  2
D40_E---PARK--------
 70
     0
 62
     7
  6
CONTINUOUS
  0
LAYER
  2
D40_E---ISOL--------
 70
     0
 62
     7
  6
CONTINUOUS
  0
LAYER
  2
D40_E---TUER--------
 70
     0
 62
     7
  6
CONTINUOUS
  0
LAYER
  2
D40_E---MW--BRA---
 70
     0
 62
     7
  6
CONTINUOUS
  0
LAYER
  2
D41_ARCHICAD
 70
     0
 62
     7
  6
CONTINUOUS
  0
LAYER
  2
D41_E---MW--------
 70
     0
 62
     7
  6
CONTINUOUS
  0
LAYER
  2
D41_E---FASSKON-----
 70
     0
 62
     7
  6
CONTINUOUS
  0
LAYER
  2
D41_TÜREN_VON_B---MW-N----
 70
     0
 62
     7
  6
CONTINUOUS
  0
LAYER
  2
D41_E---MW-L------
 70
     0
 62
     7
  6
CONTINUOUS
  0
LAYER
  2
D41_TÜREN_VON_B---MW------
 70
     0
 62
     7
  6
CONTINUOUS
  0
LAYER
  2
D41_E---VERM--------
 70
     0
 62
     7
  6
CONTINUOUS
  0
LAYER
  2
D41_FENSTER_VON_E---MW-L--
 70
     0
 62
     7
  6
CONTINUOUS
  0
LAYER
  2
D41_FENSTER_VON_B---MW-N--
 70
     0
 62
     7
  6
CONTINUOUS
  0
LAYER
  2
D41_E---SCHN--------
 70
     0
 62
     7
  6
CONTINUOUS
  0
LAYER
  2
D41_E---AUFZ--------
 70
     0
 62
     7
  6
CONTINUOUS
  0
LAYER
  2
D41_E---DECK--------
 70
     0
 62
     7
  6
CONTINUOUS
  0
LAYER
  2
D41_E---RAUMINF-----
 70
     0
 62
     7
  6
CONTINUOUS
  0
LAYER
  2
D41_E---TEXT--------
 70
     0
 62
     7
  6
CONTINUOUS
  0
LAYER
  2
D41_B---TEXT--------
 70
     0
 62
     7
  6
CONTINUOUS
  0
LAYER
  2
D41_B---MW-N--------
 70
     0
 62
     7
  6
CONTINUOUS
  0
LAYER
  2
D41_B---DECK--------
 70
     0
 62
     7
  6
CONTINUOUS
  0
LAYER
  2
D41_B---AUFZ--------
 70
     0
 62
     7
  6
CONTINUOUS
  0
LAYER
  2
D41_B---MW-S--------
 70
     0
 62
     7
  6
CONTINUOUS
  0
LAYER
  2
D41_B---MW----------
 70
     0
 62
     7
  6
CONTINUOUS
  0
LAYER
  2
D41_E---MOEB--------
 70
     0
 62
     7
  6
CONTINUOUS
  0
LAYER
  2
D41_B---UMGB--------
 70
     0
 62
     7
  6
CONTINUOUS
  0
LAYER
  2
D41_B---FASS--------
 70
     0
 62
     7
  6
CONTINUOUS
  0
LAYER
  2
D41_E---DACH--------
 70
     0
 62
     7
  6
CONTINUOUS
  0
LAYER
  2
D41_E---BODE--------
 70
     0
 62
     7
  6
CONTINUOUS
  0
LAYER
  2
D41_E---TREP--------
 70
     0
 62
     7
  6
CONTINUOUS
  0
LAYER
  2
D41_E---RASG--------
 70
     0
 62
     7
  6
CONTINUOUS
  0
LAYER
  2
D41_B---MW-K--------
 70
     0
 62
     7
  6
CONTINUOUS
  0
LAYER
  2
D41_E---FASSGLA-----
 70
     0
 62
     7
  6
CONTINUOUS
  0
LAYER
  2
D41_B---VERM--------
 70
     0
 62
     7
  6
CONTINUOUS
  0
LAYER
  2
D41_E---UMGBGSG-----
 70
     0
 62
     7
  6
CONTINUOUS
  0
LAYER
  2
D41_E---RASF--------
 70
     0
 62
     7
  6
CONTINUOUS
  0
LAYER
  2
D41_E---PFLA--------
 70
     0
 62
     7
  6
CONTINUOUS
  0
LAYER
  2
D41_E---KONS-ST-----
 70
     0
 62
     7
  6
CONTINUOUS
  0
LAYER
  2
D41_E---WERB--------
 70
     0
 62
     7
  6
CONTINUOUS
  0
LAYER
  2
D41_E---TUERINF-----
 70
     0
 62
     7
  6
CONTINUOUS
  0
LAYER
  2
D41_E---WOLK--------
 70
     0
 62
     7
  6
CONTINUOUS
  0
LAYER
  2
D41_B---MW-L--------
 70
     0
 62
     7
  6
CONTINUOUS
  0
LAYER
  2
D41_B---SANI--------
 70
     0
 62
     7
  6
CONTINUOUS
  0
LAYER
  2
D41_E---SANI--------
 70
     0
 62
     7
  6
CONTINUOUS
  0
LAYER
  2
D41_E---MW-K------
 70
     0
 62
     7
  6
CONTINUOUS
  0
LAYER
  2
D41_E---OBJE--------
 70
     0
 62
     7
  6
CONTINUOUS
  0
LAYER
  2
D41_E---ASPR--------
 70
     0
 62
     7
  6
CONTINUOUS
  0
LAYER
  2
D41_E---VERMTGA-----
 70
     0
 62
     7
  6
CONTINUOUS
  0
LAYER
  2
D41_E---PARK--------
 70
     0
 62
     7
  6
CONTINUOUS
  0
LAYER
  2
D41_E---ISOL--------
 70
     0
 62
     7
  6
CONTINUOUS
  0
LAYER
  2
D41_E---TUER--------
 70
     0
 62
     7
  6
CONTINUOUS
  0
LAYER
  2
D41_E---MW--BRA---
 70
     0
 62
     7
  6
CONTINUOUS
  0
LAYER
  2
D42_ARCHICAD
 70
     0
 62
     7
  6
CONTINUOUS
  0
LAYER
  2
D42_FENSTER_VON_B---FASS--
 70
     0
 62
     7
  6
CONTINUOUS
  0
LAYER
  2
D42_E---SCHN--------
 70
     0
 62
     7
  6
CONTINUOUS
  0
LAYER
  2
D42_B---MW-N--------
 70
     0
 62
     7
  6
CONTINUOUS
  0
LAYER
  2
D42_B---DECK--------
 70
     0
 62
     7
  6
CONTINUOUS
  0
LAYER
  2
D42_B---MW-S--------
 70
     0
 62
     7
  6
CONTINUOUS
  0
LAYER
  2
D42_B---MW----------
 70
     0
 62
     7
  6
CONTINUOUS
  0
LAYER
  2
D42_B---FASS--------
 70
     0
 62
     7
  6
CONTINUOUS
  0
LAYER
  2
D42_E---RASG--------
 70
     0
 62
     7
  6
CONTINUOUS
  0
LAYER
  2
THICK
 70
     0
 62
     7
  6
CONTINUOUS
  0
LAYER
  2
HIDDEN
 70
     0
 62
     7
  6
CONTINUOUS
  0
LAYER
  2
EBENE_1
 70
     0
 62
     7
  6
CONTINUOUS
  0
LAYER
  2
CONSTRUCTION_CLASS
 70
     0
 62
     7
  6
CONTINUOUS
  0
LAYER
  2
PATTERN_CLASS
 70
     0
 62
     7
  6
CONTINUOUS
  0
LAYER
  2
KONSTRUKTION
 70
     0
 62
     7
  6
CONTINUOUS
  0
LAYER
  2
BEMAßUNG
 70
     0
 62
     7
  6
CONTINUOUS
  0
LAYER
  2
HILFSGEOMETRIE
 70
     0
 62
     7
  6
CONTINUOUS
  0
LAYER
  2
UNSICHTBAR
 70
     0
 62
     7
  6
CONTINUOUS
  0
LAYER
  2
LOGO
 70
     0
 62
     7
  6
CONTINUOUS
  0
LAYER
  2
VERWALTUNG
 70
     0
 62
     7
  6
CONTINUOUS
  0
LAYER
  2
UNSICHTBARE_GEWINDE
 70
     0
 62
     7
  6
CONTINUOUS
  0
LAYER
  2
SICHTBARE_GEWINDE
 70
     0
 62
     7
  6
CONTINUOUS
  0
LAYER
  2
DEFPOINTS
 70
     0
 62
     7
  6
CONTINUOUS
  0
LAYER
  2
SCHRAFFURGRUNDRISS
 70
     0
 62
     7
  6
CONTINUOUS
  0
LAYER
  2
BEMASSUNG_GRUNDRISS
 70
     0
 62
     7
  6
CONTINUOUS
  0
LAYER
  2
STATIK
 70
     0
 62
     7
  6
CONTINUOUS
  0
LAYER
  2
TÜREN
 70
     0
 62
     7
  6
CONTINUOUS
  0
LAYER
  2
SANITÄR
 70
     0
 62
     7
  6
CONTINUOUS
  0
LAYER
  2
BEMASSUNG_GIPSKARTON
 70
     0
 62
     7
  6
CONTINUOUS
  0
LAYER
  2
EINRICHTUNGEN
 70
     0
 62
     7
  6
CONTINUOUS
  0
LAYER
  2
BECKEN
 70
     0
 62
     7
  6
CONTINUOUS
  0
LAYER
  2
BELEUCHTUNG
 70
     0
 62
     7
  6
CONTINUOUS
  0
LAYER
  2
BESCHRIFTUNGEN
 70
     0
 62
     7
  6
CONTINUOUS
  0
LAYER
  2
ELEKTRO_1__DOSEN_SCHALTER
 70
     0
 62
     7
  6
CONTINUOUS
  0
LAYER
  2
DEFAULT_1
 70
     0
 62
     7
  6
CONTINUOUS
  0
LAYER
  2
AM_0
 70
     0
 62
     7
  6
CONTINUOUS
  0
LAYER
  2
FRAME0_7
 70
     0
 62
     7
  6
CONTINUOUS
  0
LAYER
  2
AM_BOR
 70
     0
 62
     7
  6
CONTINUOUS
  0
LAYER
  2
RAHM2
 70
     0
 62
     7
  6
CONTINUOUS
  0
LAYER
  2
RAHM3
 70
     0
 62
     7
  6
CONTINUOUS
  0
LAYER
  2
FRAME0_5
 70
     0
 62
     7
  6
CONTINUOUS
  0
LAYER
  2
8
 70
     0
 62
     7
  6
CONTINUOUS
  0
LAYER
  2
AM_5
 70
     0
 62
     7
  6
CONTINUOUS
  0
LAYER
  2
AM_7
 70
     0
 62
     7
  6
CONTINUOUS
  0
LAYER
  2
HILFSLINIEN
 70
     0
 62
     7
  6
CONTINUOUS
  0
LAYER
  2
DRAWING_TEMPLATE
 70
     0
 62
     7
  6
CONTINUOUS
  0
LAYER
  2
TECHNOBOX_EXTERNALREFSYMBO
 70
     0
 62
     7
  6
CONTINUOUS
  0
LAYER
  2
TECHNOBOX_POLYCLIPSYMBOL_L
 70
     0
 62
     7
  6
CONTINUOUS
  0
LAYER
  2
100
 70
     0
 62
     7
  6
CONTINUOUS
  0
LAYER
  2
101
 70
     0
 62
     7
  6
CONTINUOUS
  0
LAYER
  2
KONTUR
 70
     0
 62
     7
  6
CONTINUOUS
  0
LAYER
  2
MITTELLINIE
 70
     0
 62
     7
  6
CONTINUOUS
  0
LAYER
  2
GESTRICHELT
 70
     0
 62
     7
  6
CONTINUOUS
  0
LAYER
  2
HILFSLINIE
 70
     0
 62
     7
  6
CONTINUOUS
  0
LAYER
  2
TEXT-25
 70
     0
 62
     7
  6
CONTINUOUS
  0
LAYER
  2
TEXT35
 70
     0
 62
     7
  6
CONTINUOUS
  0
LAYER
  2
TEXT-50
 70
     0
 62
     7
  6
CONTINUOUS
  0
LAYER
  2
TEXT-70
 70
     0
 62
     7
  6
CONTINUOUS
  0
LAYER
  2
ANSICHTSFENSTER
 70
     0
 62
     7
  6
CONTINUOUS
  0
LAYER
  2
KERA0
 70
     0
 62
     7
  6
CONTINUOUS
  0
LAYER
  2
KERA1
 70
     0
 62
     7
  6
CONTINUOUS
  0
LAYER
  2
KERA2
 70
     0
 62
     7
  6
CONTINUOUS
  0
LAYER
  2
KERA3
 70
     0
 62
     7
  6
CONTINUOUS
  0
LAYER
  2
KERA4
 70
     0
 62
     7
  6
CONTINUOUS
  0
LAYER
  2
KERA5
 70
     0
 62
     7
  6
CONTINUOUS
  0
LAYER
  2
KERA6
 70
     0
 62
     7
  6
CONTINUOUS
  0
LAYER
  2
KERA7
 70
     0
 62
     7
  6
CONTINUOUS
  0
LAYER
  2
20
 70
     0
 62
     7
  6
CONTINUOUS
  0
LAYER
  2
50
 70
     0
 62
     7
  6
CONTINUOUS
  0
LAYER
  2
EBENE_2
 70
     0
 62
     7
  6
CONTINUOUS
  0
LAYER
  2
EBENE_5
 70
     0
 62
     7
  6
CONTINUOUS
  0
LAYER
  2
3
 70
     0
 62
     7
  6
CONTINUOUS
  0
LAYER
  2
GEB-KONTUR-A
 70
     0
 62
     7
  6
CONTINUOUS
  0
LAYER
  2
GEB-SYMETRIE
 70
     0
 62
     7
  6
CONTINUOUS
  0
LAYER
  2
GEB-ART-NR
 70
     0
 62
     7
  6
CONTINUOUS
  0
LAYER
  2
PROJECTION
 70
     0
 62
     7
  6
CONTINUOUS
  0
ENDTAB
  0
TABLE
  2
STYLE
 70
     3
  0
STYLE
  2
STANDARD
 70
     0
 40
0.0
 41
1.0
 50
0.0
 71
     0
 42
0.0
  3
txt
  4

  0
STYLE
  2
ANNOTATIVE
 70
     0
 40
0.0
 41
1.0
 50
0.0
 71
     0
 42
0.2
  3
txt
  4

  0
STYLE
  2
SIMPLEX
 70
     0
 40
0.0
 41
1.0
 50
0.0
 71
     0
 42
0.0
  3
simplex
  4

  0
ENDTAB
  0
TABLE
  2
VIEW
 70
     1
  0
ENDTAB
  0
TABLE
  2
UCS
 70
     0
  0
ENDTAB
  0
TABLE
  2
APPID
 70
     7
  0
APPID
  2
ACAD
 70
     0
  0
APPID
  2
ACADANNOTATIVE
 70
     0
  0
APPID
  2
ACAD_MLEADERVER
 70
     0
  0
APPID
  2
ACAD_DSTYLE_DIMJAG
 70
     0
  0
APPID
  2
ACAD_DSTYLE_DIMTALN
 70
     0
  0
APPID
  2
ACAD_PSEXT
 70
     0
  0
APPID
  2
ACAD_NAV_VCDISPLAY
 70
     0
  0
ENDTAB
  0
TABLE
  2
DIMSTYLE
 70
     2
  0
DIMSTYLE
  2
STANDARD
 70
     0
  3

  4

  5

  6

  7

 40
1.0
 41
0.18
 42
0.0625
 43
0.38
 44
0.18
 45
0.0
 46
0.0
 47
0.0
 48
0.0
140
0.18
141
0.09
142
0.0
143
25.399999999999999
144
1.0
145
0.0
146
1.0
147
0.09
 71
     0
 72
     0
 73
     1
 74
     1
 75
     0
 76
     0
 77
     0
 78
     0
170
     0
171
     2
172
     0
173
     0
174
     0
175
     0
176
     0
177
     0
178
     0
  0
DIMSTYLE
  2
ANNOTATIVE
 70
     0
  3

  4

  5

  6

  7

 40
1.0
 41
0.18
 42
0.0625
 43
0.38
 44
0.18
 45
0.0
 46
0.0
 47
0.0
 48
0.0
140
0.18
141
0.09
142
0.0
143
25.399999999999999
144
1.0
145
0.0
146
1.0
147
0.09
 71
     0
 72
     0
 73
     1
 74
     1
 75
     0
 76
     0
 77
     0
 78
     0
170
     0
171
     2
172
     0
173
     0
174
     0
175
     0
176
     0
177
     0
178
     0
  0
ENDTAB
  0
ENDSEC
  0
SECTION
  2
BLOCKS
  0
BLOCK
  8
0
  2
$MODEL_SPACE
 70
     0
 10
0.0
 20
0.0
 30
0.0
  3
$MODEL_SPACE
  1

  0
ENDBLK
  5
76
  8
0
  0
BLOCK
 67
     1
  8
0
  2
$PAPER_SPACE
 70
     0
 10
0.0
 20
0.0
 30
0.0
  3
$PAPER_SPACE
  1

  0
ENDBLK
  5
72
 67
     1
  8
0
  0
BLOCK
  8
0
  2
*D0
 70
     1
 10
0.0
 20
0.0
 30
0.0
  3
*D0
  1

  0
LINE
  5
185
  8
LAYER01
 62
     7
 10
10719.835456999999
 20
16482.152049
 30
0.0
 11
13019.835456999999
 21
16482.152049
 31
0.0
  0
LINE
  5
186
  8
LAYER01
 62
     7
 10
10719.835456999999
 20
16351.814915000001
 30
0.0
 11
10719.835456999999
 21
16504.652049
 31
0.0
  0
LINE
  5
187
  8
LAYER01
 62
     7
 10
13019.835456999999
 20
16351.814915000001
 30
0.0
 11
13019.835456999999
 21
16504.652049
 31
0.0
  0
SOLID
  5
188
  8
LAYER01
 62
     7
 10
10743.835456999999
 20
16478.152209
 30
0.0
 11
10719.835456999999
 21
16482.152049
 31
0.0
 12
10743.835456999999
 22
16486.151889000001
 32
0.0
 13
10743.835456999999
 23
16486.151889000001
 33
0.0
  0
SOLID
  5
189
  8
LAYER01
 62
     7
 10
12995.835456999999
 20
16478.152209
 30
0.0
 11
13019.835456999999
 21
16482.152049
 31
0.0
 12
12995.835456999999
 22
16486.151889000001
 32
0.0
 13
12995.835456999999
 23
16486.151889000001
 33
0.0
  0
TEXT
  5
18A
  8
LAYER01
  6
VERDECKT
 62
     7
 10
11820.855469
 20
16504.652049
 30
0.0
 40
45.0
  1
Länge
  0
POINT
  5
18B
  8
LAYER01
 62
     7
 10
10719.835456999999
 20
16333.814915000001
 30
0.0
  0
POINT
  5
18C
  8
LAYER01
 62
     7
 10
13019.835456999999
 20
16333.814915000001
 30
0.0
  0
POINT
  5
18D
  8
LAYER01
 62
     7
 10
13019.835456999999
 20
16482.152049
 30
0.0
  0
ENDBLK
  5
18E
  8
0
  0
BLOCK
  8
0
  2
*D1
 70
     1
 10
0.0
 20
0.0
 30
0.0
  3
*D1
  1

  0
LINE
  5
191
  8
LAYER01
 62
     7
 10
12194.835456999999
 20
16251.716458999999
 30
0.0
 11
12694.835456999999
 21
16251.716458999999
 31
0.0
  0
LINE
  5
192
  8
LAYER01
 62
     7
 10
12194.835456999999
 20
16188.877415999999
 30
0.0
 11
12194.835456999999
 21
16274.216458999999
 31
0.0
  0
LINE
  5
193
  8
LAYER01
 62
     7
 10
12694.835456999999
 20
16188.877415999999
 30
0.0
 11
12694.835456999999
 21
16274.216458999999
 31
0.0
  0
SOLID
  5
194
  8
LAYER01
 62
     7
 10
12218.835456999999
 20
16247.716619000001
 30
0.0
 11
12194.835456999999
 21
16251.716458999999
 31
0.0
 12
12218.835456999999
 22
16255.716299
 32
0.0
 13
12218.835456999999
 23
16255.716299
 33
0.0
  0
SOLID
  5
195
  8
LAYER01
 62
     7
 10
12670.835456999999
 20
16247.716619000001
 30
0.0
 11
12694.835456999999
 21
16251.716458999999
 31
0.0
 12
12670.835456999999
 22
16255.716299
 32
0.0
 13
12670.835456999999
 23
16255.716299
 33
0.0
  0
TEXT
  5
196
  8
LAYER01
  6
VERDECKT
 62
     7
 10
12408.100466
 20
16274.216458999999
 30
0.0
 40
45.0
  1
C3=
  0
POINT
  5
197
  8
LAYER01
 62
     7
 10
12194.835456999999
 20
16170.877415999999
 30
0.0
  0
POINT
  5
198
  8
LAYER01
 62
     7
 10
12694.835456999999
 20
16170.877415999999
 30
0.0
  0
POINT
  5
199
  8
LAYER01
 62
     7
 10
12694.835456999999
 20
16251.716458999999
 30
0.0
  0
ENDBLK
  5
19A
  8
0
  0
BLOCK
  8
0
  2
*D2
 70
     1
 10
0.0
 20
0.0
 30
0.0
  3
*D2
  1

  0
LINE
  5
19D
  8
LAYER01
 62
     7
 10
13019.835456999999
 20
15371.088913
 30
0.0
 11
11857.835456999999
 21
15371.088913
 31
0.0
  0
LINE
  5
19E
  8
LAYER01
 62
     7
 10
13019.835456999999
 20
15283.051153
 30
0.0
 11
13019.835456999999
 21
15393.588913
 31
0.0
  0
LINE
  5
19F
  8
LAYER01
 62
     7
 10
11857.835456999999
 20
15283.051153
 30
0.0
 11
11857.835456999999
 21
15393.588913
 31
0.0
  0
SOLID
  5
1A0
  8
LAYER01
 62
     7
 10
12995.835456999999
 20
15375.088753
 30
0.0
 11
13019.835456999999
 21
15371.088913
 31
0.0
 12
12995.835456999999
 22
15367.089072999999
 32
0.0
 13
12995.835456999999
 23
15367.089072999999
 33
0.0
  0
SOLID
  5
1A1
  8
LAYER01
 62
     7
 10
11881.835456999999
 20
15375.088753
 30
0.0
 11
11857.835456999999
 21
15371.088913
 31
0.0
 12
11881.835456999999
 22
15367.089072999999
 32
0.0
 13
11881.835456999999
 23
15367.089072999999
 33
0.0
  0
TEXT
  5
1A2
  8
LAYER01
  6
VERDECKT
 62
     7
 10
12389.855469
 20
15393.588913
 30
0.0
 40
45.0
  1
L2=
  0
POINT
  5
1A3
  8
LAYER01
 62
     7
 10
13019.835456999999
 20
15265.051153
 30
0.0
  0
POINT
  5
1A4
  8
LAYER01
 62
     7
 10
11857.835456999999
 20
15265.051153
 30
0.0
  0
POINT
  5
1A5
  8
LAYER01
 62
     7
 10
11857.835456999999
 20
15371.088913
 30
0.0
  0
ENDBLK
  5
1A6
  8
0
  0
BLOCK
  8
0
  2
*D3
 70
     1
 10
0.0
 20
0.0
 30
0.0
  3
*D3
  1

  0
LINE
  5
1A9
  8
LAYER01
 62
     7
 10
10527.764402999999
 20
16170.877415999999
 30
0.0
 11
10527.764402999999
 21
15690.877415999999
 31
0.0
  0
LINE
  5
1AA
  8
LAYER01
 62
     7
 10
10701.835456999999
 20
16170.877415999999
 30
0.0
 11
10505.264402999999
 21
16170.877415999999
 31
0.0
  0
LINE
  5
1AB
  8
LAYER01
 62
     7
 10
10701.835456999999
 20
15690.877415999999
 30
0.0
 11
10505.264402999999
 21
15690.877415999999
 31
0.0
  0
SOLID
  5
1AC
  8
LAYER01
 62
     7
 10
10523.764563000001
 20
16146.877415999999
 30
0.0
 11
10527.764402999999
 21
16170.877415999999
 31
0.0
 12
10531.764243
 22
16146.877415999999
 32
0.0
 13
10531.764243
 23
16146.877415999999
 33
0.0
  0
SOLID
  5
1AD
  8
LAYER01
 62
     7
 10
10523.764563000001
 20
15714.877415999999
 30
0.0
 11
10527.764402999999
 21
15690.877415999999
 31
0.0
 12
10531.764243
 22
15714.877415999999
 32
0.0
 13
10531.764243
 23
15714.877415999999
 33
0.0
  0
TEXT
  5
1AE
  8
LAYER01
  6
VERDECKT
 62
     7
 10
10505.264402999999
 20
15894.142425
 30
0.0
 40
45.0
  1
480
 50
90.0
  0
POINT
  5
1AF
  8
LAYER01
 62
     7
 10
10719.835456999999
 20
16170.877415999999
 30
0.0
  0
POINT
  5
1B0
  8
LAYER01
 62
     7
 10
10719.835456999999
 20
15690.877415999999
 30
0.0
  0
POINT
  5
1B1
  8
LAYER01
 62
     7
 10
10527.764402999999
 20
15690.877415999999
 30
0.0
  0
ENDBLK
  5
1B2
  8
0
  0
BLOCK
  8
0
  2
STWR-G6
 70
     0
 10
0.0
 20
0.0
 30
0.0
  3
STWR-G6
  1

  0
TEXT
  5
1B5
  8
LAYER01
  6
VERDECKT
 62
     1
 10
13093.410061
 20
14267.329037
 30
0.0
 40
12.0
  1
A. Sprenger GmbH
  7
SIMPLEX
  0
TEXT
  5
1B6
  8
LAYER01
  6
VERDECKT
 62
     1
 10
13093.410061
 20
14246.757609
 30
0.0
 40
12.0
  1
Berner Str. 10
  7
SIMPLEX
  0
TEXT
  5
1B7
  8
LAYER01
  6
VERDECKT
 62
     1
 10
13093.410061
 20
14226.186180000001
 30
0.0
 40
12.0
  1
60437 Frankfurt
  7
SIMPLEX
  0
TEXT
  5
1B8
  8
LAYER01
  6
VERDECKT
 62
     1
 10
13093.410061
 20
14205.614751999999
 30
0.0
 40
12.0
  1
Tel.: 069 - 507 27 41
  7
SIMPLEX
  0
TEXT
  5
1B9
  8
LAYER01
  6
VERDECKT
 62
     1
 10
13093.410061
 20
14185.043323
 30
0.0
 40
12.0
  1
Fax: 069 - 507 72 91
  7
SIMPLEX
  0
TEXT
  5
1BA
  8
LAYER01
  6
VERDECKT
 62
     1
 10
13093.410061
 20
14164.471894
 30
0.0
 40
12.0
  1
info@varicor.org
  7
SIMPLEX
  0
ENDBLK
  5
1BB
  8
0
  0
BLOCK
  8
0
  2
STWR-G5
 70
     0
 10
0.0
 20
0.0
 30
0.0
  3
STWR-G5
  1

  0
TEXT
  5
1BE
  8
LAYER01
  6
CONTINUOUS
 62
     1
 10
14354.392207000001
 20
13985.232813000001
 30
0.0
 40
12.0
  1
Blatt
  7
SIMPLEX
  0
LINE
  5
1BF
  8
LAYER01
  6
CONTINUOUS
 62
     1
 10
13076.392207000001
 20
14069.232813000001
 30
0.0
 11
13796.392207000001
 21
14069.232813000001
 31
0.0
  0
LINE
  5
1C0
  8
LAYER01
  6
CONTINUOUS
 62
     1
 10
13076.392207000001
 20
14039.232813000001
 30
0.0
 11
13796.392207000001
 21
14039.232813000001
 31
0.0
  0
LINE
  5
1C1
  8
LAYER01
  6
CONTINUOUS
 62
     1
 10
13076.392207000001
 20
14009.232813000001
 30
0.0
 11
14432.392207000001
 21
14009.232813000001
 31
0.0
  0
LINE
  5
1C2
  8
LAYER01
  6
CONTINUOUS
 62
     1
 10
13076.392207000001
 20
13919.232813000001
 30
0.0
 11
14432.392207000001
 21
13919.232813000001
 31
0.0
  0
LINE
  5
1C3
  8
LAYER01
  6
CONTINUOUS
 62
     1
 10
13076.392207000001
 20
14159.232813000001
 30
0.0
 11
14432.392207000001
 21
14159.232813000001
 31
0.0
  0
POLYLINE
  5
1C4
  8
LAYER01
  6
CONTINUOUS
 62
     1
 66
     1
 10
0.0
 20
0.0
 30
0.0
 70
     1
  0
VERTEX
  5
9DB
  8
LAYER01
  6
CONTINUOUS
 62
     1
 10
13076.392207000001
 20
13883.232813000001
 30
0.0
  0
VERTEX
  5
9DC
  8
LAYER01
  6
CONTINUOUS
 62
     1
 10
13076.392207000001
 20
14285.232813000001
 30
0.0
  0
VERTEX
  5
9DD
  8
LAYER01
  6
CONTINUOUS
 62
     1
 10
14432.392207000001
 20
14285.232813000001
 30
0.0
  0
VERTEX
  5
9DE
  8
LAYER01
  6
CONTINUOUS
 62
     1
 10
14432.392207000001
 20
13883.232813000001
 30
0.0
  0
SEQEND
  5
9DF
  8
LAYER01
  6
CONTINUOUS
 62
     1
  0
LINE
  5
1CA
  8
LAYER01
  6
CONTINUOUS
 62
     1
 10
13076.392207000001
 20
14129.232813000001
 30
0.0
 11
13796.392207000001
 21
14129.232813000001
 31
0.0
  0
LINE
  5
1CB
  8
LAYER01
  6
CONTINUOUS
 62
     1
 10
13076.392207000001
 20
14099.232813000001
 30
0.0
 11
13796.392207000001
 21
14099.232813000001
 31
0.0
  0
LINE
  5
1CC
  8
LAYER01
  6
CONTINUOUS
 62
     1
 10
13466.392207000001
 20
14285.232813000001
 30
0.0
 11
13466.392207000001
 21
13883.232813000001
 31
0.0
  0
INSERT
  5
1CD
  8
LAYER01
  2
STWR-G6
 10
0.0
 20
0.0
 30
0.0
  0
LINE
  5
1CE
  8
LAYER01
  6
CONTINUOUS
 62
     1
 10
13076.392207000001
 20
13949.232813000001
 30
0.0
 11
13466.392207000001
 21
13949.232813000001
 31
0.0
  0
LINE
  5
1CF
  8
LAYER01
  6
CONTINUOUS
 62
     1
 10
13076.392207000001
 20
13979.232813000001
 30
0.0
 11
13466.392207000001
 21
13979.232813000001
 31
0.0
  0
LINE
  5
1D0
  8
LAYER01
  6
CONTINUOUS
 62
     1
 10
13130.392207000001
 20
14159.232813000001
 30
0.0
 11
13130.392207000001
 21
13883.232813000001
 31
0.0
  0
TEXT
  5
1D1
  8
LAYER01
  6
CONTINUOUS
 62
     1
 10
13086.471325
 20
13895.232813000001
 30
0.0
 40
11.4
  1
Zust
  7
SIMPLEX
  0
LINE
  5
1D2
  8
LAYER01
  6
CONTINUOUS
 62
     1
 10
13319.733745
 20
13883.232813000001
 30
0.0
 11
13319.733745
 21
14159.232813000001
 31
0.0
  0
LINE
  5
1D3
  8
LAYER01
  6
CONTINUOUS
 62
     1
 10
13412.392207000001
 20
14159.232813000001
 30
0.0
 11
13412.392207000001
 21
13883.232813000001
 31
0.0
  0
TEXT
  5
1D4
  8
LAYER01
  6
CONTINUOUS
 62
     1
 10
13183.346458
 20
13895.232813000001
 30
0.0
 40
11.4
  1
Änderung
  7
SIMPLEX
  0
TEXT
  5
1D5
  8
LAYER01
  6
CONTINUOUS
 62
     1
 10
13336.617181
 20
13895.232813000001
 30
0.0
 40
11.4
  1
Datum
  7
SIMPLEX
  0
TEXT
  5
1D6
  8
LAYER01
  6
CONTINUOUS
 62
     1
 10
13416.908890999999
 20
13895.232813000001
 30
0.0
 40
11.4
  1
Name
  7
SIMPLEX
  0
LINE
  5
1D7
  8
LAYER01
  6
CONTINUOUS
 62
     1
 10
14432.392207000001
 20
14237.232813000001
 30
0.0
 11
13796.392207000001
 21
14237.232813000001
 31
0.0
  0
LINE
  5
1D8
  8
LAYER01
  6
CONTINUOUS
 62
     1
 10
13544.392207000001
 20
14039.232813000001
 30
0.0
 11
13544.392207000001
 21
14159.232813000001
 31
0.0
  0
TEXT
  5
1D9
  8
LAYER01
  6
CONTINUOUS
 62
     1
 10
13478.392207000001
 20
14105.232813000001
 30
0.0
 40
12.0
  1
Bearb.
  7
SIMPLEX
  0
TEXT
  5
1DA
  8
LAYER01
  6
CONTINUOUS
 62
     1
 10
13478.392207000001
 20
14045.232813000001
 30
0.0
 40
12.0
  1
Norm
  7
SIMPLEX
  0
TEXT
  5
1DB
  8
LAYER01
  6
CONTINUOUS
 62
     1
 10
13478.392207000001
 20
14075.232813000001
 30
0.0
 40
12.0
  1
Gepr.
  7
SIMPLEX
  0
TEXT
  5
1DC
  8
LAYER01
  6
CONTINUOUS
 62
     1
 10
13574.392207000001
 20
14135.232813000001
 30
0.0
 40
12.0
  1
Datum
  7
SIMPLEX
  0
TEXT
  5
1DD
  8
LAYER01
  6
CONTINUOUS
 62
     1
 10
13694.392207000001
 20
14135.232813000001
 30
0.0
 40
12.0
  1
Name
  7
SIMPLEX
  0
TEXT
  5
1DE
  8
LAYER01
  6
CONTINUOUS
 62
     1
 10
14402.392207000001
 20
13925.232813000001
 30
0.0
 40
12.0
  1
Bl.
  7
SIMPLEX
  0
LINE
  5
1DF
  8
LAYER01
  6
CONTINUOUS
 62
     1
 10
13796.392207000001
 20
13883.232813000001
 30
0.0
 11
13796.392207000001
 21
14285.232813000001
 31
0.0
  0
LINE
  5
1E0
  8
LAYER01
  6
CONTINUOUS
 62
     1
 10
13658.392207000001
 20
14009.232813000001
 30
0.0
 11
13658.392207000001
 21
14285.232813000001
 31
0.0
  0
LINE
  5
1E1
  8
LAYER01
  6
CONTINUOUS
 62
     1
 10
14174.392207000001
 20
14285.232813000001
 30
0.0
 11
14174.392207000001
 21
14237.232813000001
 31
0.0
  0
TEXT
  5
1E2
  8
LAYER01
  6
CONTINUOUS
 62
     1
 10
13809.465006
 20
14254.596809999999
 30
0.0
 40
12.0
  1
Maßstab
  7
SIMPLEX
  0
LINE
  5
1E3
  8
LAYER01
  6
CONTINUOUS
 62
     1
 10
14342.392207000001
 20
14009.232813000001
 30
0.0
 11
14342.392207000001
 21
13919.232813000001
 31
0.0
  0
LINE
  5
1E4
  8
LAYER01
  6
CONTINUOUS
 62
     1
 10
14342.392207000001
 20
13949.232813000001
 30
0.0
 11
14432.392207000001
 21
13949.232813000001
 31
0.0
  0
ENDBLK
  5
1E5
  8
0
  0
BLOCK
  8
0
  2
*D6
 70
     1
 10
0.0
 20
0.0
 30
0.0
  3
*D6
  1

  0
LINE
  5
1E8
  8
LAYER01
 62
     7
 10
10593.753822000001
 20
15740.877415999999
 30
0.0
 11
10593.753822000001
 21
16040.877415999999
 31
0.0
  0
LINE
  5
1E9
  8
LAYER01
 62
     7
 10
10701.835456999999
 20
15740.877415999999
 30
0.0
 11
10571.253822000001
 21
15740.877415999999
 31
0.0
  0
LINE
  5
1EA
  8
LAYER01
 62
     7
 10
10701.835456999999
 20
16040.877415999999
 30
0.0
 11
10571.253822000001
 21
16040.877415999999
 31
0.0
  0
SOLID
  5
1EB
  8
LAYER01
 62
     7
 10
10597.753661999999
 20
15764.877415999999
 30
0.0
 11
10593.753822000001
 21
15740.877415999999
 31
0.0
 12
10589.753982
 22
15764.877415999999
 32
0.0
 13
10589.753982
 23
15764.877415999999
 33
0.0
  0
SOLID
  5
1EC
  8
LAYER01
 62
     7
 10
10597.753661999999
 20
16016.877415999999
 30
0.0
 11
10593.753822000001
 21
16040.877415999999
 31
0.0
 12
10589.753982
 22
16016.877415999999
 32
0.0
 13
10589.753982
 23
16016.877415999999
 33
0.0
  0
TEXT
  5
1ED
  8
LAYER01
  6
VERDECKT
 62
     7
 10
10571.253822000001
 20
15854.142425
 30
0.0
 40
45.0
  1
300
 50
90.0
  0
POINT
  5
1EE
  8
LAYER01
 62
     7
 10
10719.835456999999
 20
15740.877415999999
 30
0.0
  0
POINT
  5
1EF
  8
LAYER01
 62
     7
 10
10719.835456999999
 20
16040.877415999999
 30
0.0
  0
POINT
  5
1F0
  8
LAYER01
 62
     7
 10
10593.753822000001
 20
16040.877415999999
 30
0.0
  0
ENDBLK
  5
1F1
  8
0
  0
BLOCK
  8
0
  2
*D7
 70
     1
 10
0.0
 20
0.0
 30
0.0
  3
*D7
  1

  0
LINE
  5
1F4
  8
LAYER01
 62
     7
 10
11857.835456999999
 20
15373.301545
 30
0.0
 11
10719.835456999999
 21
15373.301545
 31
0.0
  0
LINE
  5
1F5
  8
LAYER01
 62
     7
 10
11857.835456999999
 20
15283.051153
 30
0.0
 11
11857.835456999999
 21
15395.801545
 31
0.0
  0
LINE
  5
1F6
  8
LAYER01
 62
     7
 10
10719.835456999999
 20
15283.051153
 30
0.0
 11
10719.835456999999
 21
15395.801545
 31
0.0
  0
SOLID
  5
1F7
  8
LAYER01
 62
     7
 10
11833.835456999999
 20
15377.301385000001
 30
0.0
 11
11857.835456999999
 21
15373.301545
 31
0.0
 12
11833.835456999999
 22
15369.301705
 32
0.0
 13
11833.835456999999
 23
15369.301705
 33
0.0
  0
SOLID
  5
1F8
  8
LAYER01
 62
     7
 10
10743.835456999999
 20
15377.301385000001
 30
0.0
 11
10719.835456999999
 21
15373.301545
 31
0.0
 12
10743.835456999999
 22
15369.301705
 32
0.0
 13
10743.835456999999
 23
15369.301705
 33
0.0
  0
TEXT
  5
1F9
  8
LAYER01
  6
VERDECKT
 62
     7
 10
11239.855469
 20
15395.801545
 30
0.0
 40
45.0
  1
L1=
  0
POINT
  5
1FA
  8
LAYER01
 62
     7
 10
11857.835456999999
 20
15265.051153
 30
0.0
  0
POINT
  5
1FB
  8
LAYER01
 62
     7
 10
10719.835456999999
 20
15265.051153
 30
0.0
  0
POINT
  5
1FC
  8
LAYER01
 62
     7
 10
10719.835456999999
 20
15373.301545
 30
0.0
  0
ENDBLK
  5
1FD
  8
0
  0
BLOCK
  8
0
  2
*D8
 70
     1
 10
0.0
 20
0.0
 30
0.0
  3
*D8
  1

  0
LINE
  5
200
  8
LAYER01
 62
     7
 10
10619.835456999999
 20
15135.051153
 30
0.0
 11
10619.835456999999
 21
14935.051153
 31
0.0
  0
LINE
  5
201
  8
LAYER01
 62
     7
 10
10701.835456999999
 20
15135.051153
 30
0.0
 11
10597.335456999999
 21
15135.051153
 31
0.0
  0
LINE
  5
202
  8
LAYER01
 62
     7
 10
10701.835456999999
 20
14935.051153
 30
0.0
 11
10597.335456999999
 21
14935.051153
 31
0.0
  0
SOLID
  5
203
  8
LAYER01
 62
     7
 10
10613.835697
 20
15099.051153
 30
0.0
 11
10619.835456999999
 21
15135.051153
 31
0.0
 12
10625.835217
 22
15099.051153
 32
0.0
 13
10625.835217
 23
15099.051153
 33
0.0
  0
SOLID
  5
204
  8
LAYER01
 62
     7
 10
10613.835697
 20
14971.051153
 30
0.0
 11
10619.835456999999
 21
14935.051153
 31
0.0
 12
10625.835217
 22
14971.051153
 32
0.0
 13
10625.835217
 23
14971.051153
 33
0.0
  0
TEXT
  5
205
  8
LAYER01
  6
VERDECKT
 62
     7
 10
10597.335456999999
 20
14998.780108000001
 30
0.0
 40
45.0
  1
200
 50
90.0
  0
POINT
  5
206
  8
LAYER01
 62
     7
 10
10719.835456999999
 20
15135.051153
 30
0.0
  0
POINT
  5
207
  8
LAYER01
 62
     7
 10
10719.835456999999
 20
14935.051153
 30
0.0
  0
POINT
  5
208
  8
LAYER01
 62
     7
 10
10619.835456999999
 20
14935.051153
 30
0.0
  0
ENDBLK
  5
209
  8
0
  0
BLOCK
  8
0
  2
*D9
 70
     1
 10
0.0
 20
0.0
 30
0.0
  3
*D9
  1

  0
LINE
  5
20C
  8
LAYER01
 62
     7
 10
10620.669549
 20
15135.051153
 30
0.0
 11
10620.669549
 21
15265.051153
 31
0.0
  0
LINE
  5
20D
  8
LAYER01
 62
     7
 10
10701.835456999999
 20
15135.051153
 30
0.0
 11
10598.169549
 21
15135.051153
 31
0.0
  0
LINE
  5
20E
  8
LAYER01
 62
     7
 10
10701.835456999999
 20
15265.051153
 30
0.0
 11
10598.169549
 21
15265.051153
 31
0.0
  0
SOLID
  5
20F
  8
LAYER01
 62
     7
 10
10626.669309000001
 20
15171.051153
 30
0.0
 11
10620.669549
 21
15135.051153
 31
0.0
 12
10614.669789
 22
15171.051153
 32
0.0
 13
10614.669789
 23
15171.051153
 33
0.0
  0
SOLID
  5
210
  8
LAYER01
 62
     7
 10
10626.669309000001
 20
15229.051153
 30
0.0
 11
10620.669549
 21
15265.051153
 31
0.0
 12
10614.669789
 22
15229.051153
 32
0.0
 13
10614.669789
 23
15229.051153
 33
0.0
  0
TEXT
  5
211
  8
LAYER01
  6
VERDECKT
 62
     7
 10
10598.169549
 20
15163.780108000001
 30
0.0
 40
45.0
  1
~100
 50
90.0
  0
POINT
  5
212
  8
LAYER01
 62
     7
 10
10719.835456999999
 20
15135.051153
 30
0.0
  0
POINT
  5
213
  8
LAYER01
 62
     7
 10
10719.835456999999
 20
15265.051153
 30
0.0
  0
POINT
  5
214
  8
LAYER01
 62
     7
 10
10620.669549
 20
15265.051153
 30
0.0
  0
ENDBLK
  5
215
  8
0
  0
BLOCK
  8
0
  2
*D10
 70
     1
 10
0.0
 20
0.0
 30
0.0
  3
*D10
  1

  0
LINE
  5
218
  8
LAYER01
 62
     7
 10
10659.12191
 20
15690.877415999999
 30
0.0
 11
10659.12191
 21
15740.877415999999
 31
0.0
  0
LINE
  5
219
  8
LAYER01
 62
     7
 10
10701.835456999999
 20
15690.877415999999
 30
0.0
 11
10636.62191
 21
15690.877415999999
 31
0.0
  0
LINE
  5
21A
  8
LAYER01
 62
     7
 10
10701.835456999999
 20
15740.877415999999
 30
0.0
 11
10636.62191
 21
15740.877415999999
 31
0.0
  0
SOLID
  5
21B
  8
LAYER01
 62
     7
 10
10663.12175
 20
15714.877415999999
 30
0.0
 11
10659.12191
 21
15690.877415999999
 31
0.0
 12
10655.122069999999
 22
15714.877415999999
 32
0.0
 13
10655.122069999999
 23
15714.877415999999
 33
0.0
  0
SOLID
  5
21C
  8
LAYER01
 62
     7
 10
10663.12175
 20
15716.877415999999
 30
0.0
 11
10659.12191
 21
15740.877415999999
 31
0.0
 12
10655.122069999999
 22
15716.877415999999
 32
0.0
 13
10655.122069999999
 23
15716.877415999999
 33
0.0
  0
TEXT
  5
21D
  8
LAYER01
  6
VERDECKT
 62
     7
 10
10636.62191
 20
15691.387422
 30
0.0
 40
45.0
  1
50
 50
90.0
  0
POINT
  5
21E
  8
LAYER01
 62
     7
 10
10719.835456999999
 20
15690.877415999999
 30
0.0
  0
POINT
  5
21F
  8
LAYER01
 62
     7
 10
10719.835456999999
 20
15740.877415999999
 30
0.0
  0
POINT
  5
220
  8
LAYER01
 62
     7
 10
10659.12191
 20
15740.877415999999
 30
0.0
  0
ENDBLK
  5
221
  8
0
  0
BLOCK
  8
0
  2
*D11
 70
     1
 10
0.0
 20
0.0
 30
0.0
  3
*D11
  1

  0
LINE
  5
224
  8
LAYER01
 62
     7
 10
11144.835456999999
 20
16251.716458999999
 30
0.0
 11
11644.835456999999
 21
16251.716458999999
 31
0.0
  0
LINE
  5
225
  8
LAYER01
 62
     7
 10
11144.835456999999
 20
16188.877415999999
 30
0.0
 11
11144.835456999999
 21
16274.216458999999
 31
0.0
  0
LINE
  5
226
  8
LAYER01
 62
     7
 10
11644.835456999999
 20
16188.877415999999
 30
0.0
 11
11644.835456999999
 21
16274.216458999999
 31
0.0
  0
SOLID
  5
227
  8
LAYER01
 62
     7
 10
11168.835456999999
 20
16247.716619000001
 30
0.0
 11
11144.835456999999
 21
16251.716458999999
 31
0.0
 12
11168.835456999999
 22
16255.716299
 32
0.0
 13
11168.835456999999
 23
16255.716299
 33
0.0
  0
SOLID
  5
228
  8
LAYER01
 62
     7
 10
11620.835456999999
 20
16247.716619000001
 30
0.0
 11
11644.835456999999
 21
16251.716458999999
 31
0.0
 12
11620.835456999999
 22
16255.716299
 32
0.0
 13
11620.835456999999
 23
16255.716299
 33
0.0
  0
TEXT
  5
229
  8
LAYER01
  6
VERDECKT
 62
     7
 10
11358.100466
 20
16274.216458999999
 30
0.0
 40
45.0
  1
C1=
  0
POINT
  5
22A
  8
LAYER01
 62
     7
 10
11144.835456999999
 20
16170.877415999999
 30
0.0
  0
POINT
  5
22B
  8
LAYER01
 62
     7
 10
11644.835456999999
 20
16170.877415999999
 30
0.0
  0
POINT
  5
22C
  8
LAYER01
 62
     7
 10
11644.835456999999
 20
16251.716458999999
 30
0.0
  0
ENDBLK
  5
22D
  8
0
  0
BLOCK
  8
0
  2
*D12
 70
     1
 10
0.0
 20
0.0
 30
0.0
  3
*D12
  1

  0
LINE
  5
230
  8
LAYER01
 62
     7
 10
10819.835456999999
 20
16399.428266999999
 30
0.0
 11
10719.835456999999
 21
16399.428266999999
 31
0.0
  0
LINE
  5
231
  8
LAYER01
 62
     7
 10
10819.835456999999
 20
16351.814915000001
 30
0.0
 11
10819.835456999999
 21
16421.928266999999
 31
0.0
  0
LINE
  5
232
  8
LAYER01
 62
     7
 10
10719.835456999999
 20
16351.814915000001
 30
0.0
 11
10719.835456999999
 21
16421.928266999999
 31
0.0
  0
SOLID
  5
233
  8
LAYER01
 62
     7
 10
10795.835456999999
 20
16403.428107
 30
0.0
 11
10819.835456999999
 21
16399.428266999999
 31
0.0
 12
10795.835456999999
 22
16395.428426999999
 32
0.0
 13
10795.835456999999
 23
16395.428426999999
 33
0.0
  0
SOLID
  5
234
  8
LAYER01
 62
     7
 10
10743.835456999999
 20
16403.428107
 30
0.0
 11
10719.835456999999
 21
16399.428266999999
 31
0.0
 12
10743.835456999999
 22
16395.428426999999
 32
0.0
 13
10743.835456999999
 23
16395.428426999999
 33
0.0
  0
TEXT
  5
235
  8
LAYER01
  6
VERDECKT
 62
     7
 10
10733.100466
 20
16421.928266999999
 30
0.0
 40
45.0
  1
100
  0
POINT
  5
236
  8
LAYER01
 62
     7
 10
10819.835456999999
 20
16333.814915000001
 30
0.0
  0
POINT
  5
237
  8
LAYER01
 62
     7
 10
10719.835456999999
 20
16333.814915000001
 30
0.0
  0
POINT
  5
238
  8
LAYER01
 62
     7
 10
10719.835456999999
 20
16399.428266999999
 30
0.0
  0
ENDBLK
  5
239
  8
0
  0
BLOCK
  8
0
  2
*D13
 70
     1
 10
0.0
 20
0.0
 30
0.0
  3
*D13
  1

  0
LINE
  5
23C
  8
LAYER01
 62
     7
 10
10719.835456999999
 20
16249.503827
 30
0.0
 11
11144.835456999999
 21
16249.503827
 31
0.0
  0
LINE
  5
23D
  8
LAYER01
 62
     7
 10
10719.835456999999
 20
16188.877415999999
 30
0.0
 11
10719.835456999999
 21
16272.003827
 31
0.0
  0
LINE
  5
23E
  8
LAYER01
 62
     7
 10
11144.835456999999
 20
16188.877415999999
 30
0.0
 11
11144.835456999999
 21
16272.003827
 31
0.0
  0
SOLID
  5
23F
  8
LAYER01
 62
     7
 10
10743.835456999999
 20
16245.503987
 30
0.0
 11
10719.835456999999
 21
16249.503827
 31
0.0
 12
10743.835456999999
 22
16253.503667000001
 32
0.0
 13
10743.835456999999
 23
16253.503667000001
 33
0.0
  0
SOLID
  5
240
  8
LAYER01
 62
     7
 10
11120.835456999999
 20
16245.503987
 30
0.0
 11
11144.835456999999
 21
16249.503827
 31
0.0
 12
11120.835456999999
 22
16253.503667000001
 32
0.0
 13
11120.835456999999
 23
16253.503667000001
 33
0.0
  0
TEXT
  5
241
  8
LAYER01
  6
VERDECKT
 62
     7
 10
10895.600466
 20
16272.003827
 30
0.0
 40
45.0
  1
A=
  0
POINT
  5
242
  8
LAYER01
 62
     7
 10
10719.835456999999
 20
16170.877415999999
 30
0.0
  0
POINT
  5
243
  8
LAYER01
 62
     7
 10
11144.835456999999
 20
16170.877415999999
 30
0.0
  0
POINT
  5
244
  8
LAYER01
 62
     7
 10
11144.835456999999
 20
16249.503827
 30
0.0
  0
ENDBLK
  5
245
  8
0
  0
BLOCK
  8
0
  2
*D14
 70
     1
 10
0.0
 20
0.0
 30
0.0
  3
*D14
  1

  0
LINE
  5
248
  8
LAYER01
 62
     7
 10
10659.12191
 20
16040.877415999999
 30
0.0
 11
10659.12191
 21
16170.877415999999
 31
0.0
  0
LINE
  5
249
  8
LAYER01
 62
     7
 10
10701.835456999999
 20
16040.877415999999
 30
0.0
 11
10636.62191
 21
16040.877415999999
 31
0.0
  0
LINE
  5
24A
  8
LAYER01
 62
     7
 10
10701.835456999999
 20
16170.877415999999
 30
0.0
 11
10636.62191
 21
16170.877415999999
 31
0.0
  0
SOLID
  5
24B
  8
LAYER01
 62
     7
 10
10663.12175
 20
16064.877415999999
 30
0.0
 11
10659.12191
 21
16040.877415999999
 31
0.0
 12
10655.122069999999
 22
16064.877415999999
 32
0.0
 13
10655.122069999999
 23
16064.877415999999
 33
0.0
  0
SOLID
  5
24C
  8
LAYER01
 62
     7
 10
10663.12175
 20
16146.877415999999
 30
0.0
 11
10659.12191
 21
16170.877415999999
 31
0.0
 12
10655.122069999999
 22
16146.877415999999
 32
0.0
 13
10655.122069999999
 23
16146.877415999999
 33
0.0
  0
TEXT
  5
24D
  8
LAYER01
  6
VERDECKT
 62
     7
 10
10636.62191
 20
16069.142425
 30
0.0
 40
45.0
  1
130
 50
90.0
  0
POINT
  5
24E
  8
LAYER01
 62
     7
 10
10719.835456999999
 20
16040.877415999999
 30
0.0
  0
POINT
  5
24F
  8
LAYER01
 62
     7
 10
10719.835456999999
 20
16170.877415999999
 30
0.0
  0
POINT
  5
250
  8
LAYER01
 62
     7
 10
10659.12191
 20
16170.877415999999
 30
0.0
  0
ENDBLK
  5
251
  8
0
  0
BLOCK
  8
0
  2
*D15
 70
     1
 10
0.0
 20
0.0
 30
0.0
  3
*D15
  1

  0
LINE
  5
254
  8
LAYER01
 62
     7
 10
11644.835456999999
 20
16251.716458999999
 30
0.0
 11
12194.835456999999
 21
16251.716458999999
 31
0.0
  0
LINE
  5
255
  8
LAYER01
 62
     7
 10
11644.835456999999
 20
16188.877415999999
 30
0.0
 11
11644.835456999999
 21
16274.216458999999
 31
0.0
  0
LINE
  5
256
  8
LAYER01
 62
     7
 10
12194.835456999999
 20
16188.877415999999
 30
0.0
 11
12194.835456999999
 21
16274.216458999999
 31
0.0
  0
SOLID
  5
257
  8
LAYER01
 62
     7
 10
11668.835456999999
 20
16247.716619000001
 30
0.0
 11
11644.835456999999
 21
16251.716458999999
 31
0.0
 12
11668.835456999999
 22
16255.716299
 32
0.0
 13
11668.835456999999
 23
16255.716299
 33
0.0
  0
SOLID
  5
258
  8
LAYER01
 62
     7
 10
12170.835456999999
 20
16247.716619000001
 30
0.0
 11
12194.835456999999
 21
16251.716458999999
 31
0.0
 12
12170.835456999999
 22
16255.716299
 32
0.0
 13
12170.835456999999
 23
16255.716299
 33
0.0
  0
TEXT
  5
259
  8
LAYER01
  6
VERDECKT
 62
     7
 10
11883.100466
 20
16274.216458999999
 30
0.0
 40
45.0
  1
C2=
  0
POINT
  5
25A
  8
LAYER01
 62
     7
 10
11644.835456999999
 20
16170.877415999999
 30
0.0
  0
POINT
  5
25B
  8
LAYER01
 62
     7
 10
12194.835456999999
 20
16170.877415999999
 30
0.0
  0
POINT
  5
25C
  8
LAYER01
 62
     7
 10
12194.835456999999
 20
16251.716458999999
 30
0.0
  0
ENDBLK
  5
25D
  8
0
  0
BLOCK
  8
0
  2
STWR-G17
 70
     0
 10
0.0
 20
0.0
 30
0.0
  3
STWR-G17
  1

  0
ENDBLK
  5
260
  8
0
  0
BLOCK
  8
0
  2
*D17
 70
     1
 10
0.0
 20
0.0
 30
0.0
  3
*D17
  1

  0
LINE
  5
263
  8
LAYER01
 62
     7
 10
13169.930098000001
 20
15265.051153
 30
0.0
 11
13169.930098000001
 21
15065.051153
 31
0.0
  0
LINE
  5
264
  8
LAYER01
 62
     7
 10
13037.835456999999
 20
15265.051153
 30
0.0
 11
13192.430098000001
 21
15265.051153
 31
0.0
  0
LINE
  5
265
  8
LAYER01
 62
     7
 10
13037.835456999999
 20
15065.051153
 30
0.0
 11
13192.430098000001
 21
15065.051153
 31
0.0
  0
SOLID
  5
266
  8
LAYER01
 62
     7
 10
13165.930258
 20
15241.051153
 30
0.0
 11
13169.930098000001
 21
15265.051153
 31
0.0
 12
13173.929937999999
 22
15241.051153
 32
0.0
 13
13173.929937999999
 23
15241.051153
 33
0.0
  0
SOLID
  5
267
  8
LAYER01
 62
     7
 10
13165.930258
 20
15089.051153
 30
0.0
 11
13169.930098000001
 21
15065.051153
 31
0.0
 12
13173.929937999999
 22
15089.051153
 32
0.0
 13
13173.929937999999
 23
15089.051153
 33
0.0
  0
TEXT
  5
268
  8
LAYER01
  6
VERDECKT
 62
     7
 10
13147.430098000001
 20
15128.316161999999
 30
0.0
 40
45.0
  1
200
 50
90.0
  0
POINT
  5
269
  8
LAYER01
 62
     7
 10
13019.835456999999
 20
15265.051153
 30
0.0
  0
POINT
  5
26A
  8
LAYER01
 62
     7
 10
13019.835456999999
 20
15065.051153
 30
0.0
  0
POINT
  5
26B
  8
LAYER01
 62
     7
 10
13169.930098000001
 20
15065.051153
 30
0.0
  0
ENDBLK
  5
26C
  8
0
  0
BLOCK
  8
0
  2
*D18
 70
     1
 10
0.0
 20
0.0
 30
0.0
  3
*D18
  1

  0
LINE
  5
26F
  8
LAYER01
 62
     7
 10
13673.352973999999
 20
15065.051153
 30
0.0
 11
13673.352973999999
 21
15265.051153
 31
0.0
  0
LINE
  5
270
  8
LAYER01
 62
     7
 10
13689.868815
 20
15065.051153
 30
0.0
 11
13650.852973999999
 21
15065.051153
 31
0.0
  0
LINE
  5
271
  8
LAYER01
 62
     7
 10
13689.868815
 20
15265.051153
 30
0.0
 11
13650.852973999999
 21
15265.051153
 31
0.0
  0
SOLID
  5
272
  8
LAYER01
 62
     7
 10
13677.352814
 20
15089.051153
 30
0.0
 11
13673.352973999999
 21
15065.051153
 31
0.0
 12
13669.353134000001
 22
15089.051153
 32
0.0
 13
13669.353134000001
 23
15089.051153
 33
0.0
  0
SOLID
  5
273
  8
LAYER01
 62
     7
 10
13677.352814
 20
15241.051153
 30
0.0
 11
13673.352973999999
 21
15265.051153
 31
0.0
 12
13669.353134000001
 22
15241.051153
 32
0.0
 13
13669.353134000001
 23
15241.051153
 33
0.0
  0
TEXT
  5
274
  8
LAYER01
  6
VERDECKT
 62
     7
 10
13650.852973999999
 20
15128.316161999999
 30
0.0
 40
45.0
  1
200
 50
90.0
  0
POINT
  5
275
  8
LAYER01
 62
     7
 10
13707.868815
 20
15065.051153
 30
0.0
  0
POINT
  5
276
  8
LAYER01
 62
     7
 10
13707.868815
 20
15265.051153
 30
0.0
  0
POINT
  5
277
  8
LAYER01
 62
     7
 10
13673.352973999999
 20
15265.051153
 30
0.0
  0
ENDBLK
  5
278
  8
0
  0
BLOCK
  8
0
  2
*D19
 70
     1
 10
0.0
 20
0.0
 30
0.0
  3
*D19
  1

  0
LINE
  5
27B
  8
LAYER01
 62
     7
 10
14187.868815
 20
14928.147558000001
 30
0.0
 11
13707.868815
 21
14928.147558000001
 31
0.0
  0
LINE
  5
27C
  8
LAYER01
 62
     7
 10
14187.868815
 20
14947.495551
 30
0.0
 11
14187.868815
 21
14905.647558000001
 31
0.0
  0
LINE
  5
27D
  8
LAYER01
 62
     7
 10
13707.868815
 20
14947.495551
 30
0.0
 11
13707.868815
 21
14905.647558000001
 31
0.0
  0
SOLID
  5
27E
  8
LAYER01
 62
     7
 10
14163.868815
 20
14932.147397999999
 30
0.0
 11
14187.868815
 21
14928.147558000001
 31
0.0
 12
14163.868815
 22
14924.147718
 32
0.0
 13
14163.868815
 23
14924.147718
 33
0.0
  0
SOLID
  5
27F
  8
LAYER01
 62
     7
 10
13731.868815
 20
14932.147397999999
 30
0.0
 11
13707.868815
 21
14928.147558000001
 31
0.0
 12
13731.868815
 22
14924.147718
 32
0.0
 13
13731.868815
 23
14924.147718
 33
0.0
  0
TEXT
  5
280
  8
LAYER01
  6
VERDECKT
 62
     7
 10
13911.133825000001
 20
14950.647558000001
 30
0.0
 40
45.0
  1
480
  0
POINT
  5
281
  8
LAYER01
 62
     7
 10
14187.868815
 20
14965.495551
 30
0.0
  0
POINT
  5
282
  8
LAYER01
 62
     7
 10
13707.868815
 20
14965.495551
 30
0.0
  0
POINT
  5
283
  8
LAYER01
 62
     7
 10
13707.868815
 20
14928.147558000001
 30
0.0
  0
ENDBLK
  5
284
  8
0
  0
BLOCK
  8
0
  2
STWR-G24
 70
     0
 10
0.0
 20
0.0
 30
0.0
  3
STWR-G24
  1

  0
LINE
  5
287
  8
LAYER01
  6
CONTINUOUS
 62
     1
 10
13791.97846
 20
15072.093371000001
 30
0.0
 11
13795.330694
 21
15069.220026999999
 31
0.0
  0
LINE
  5
288
  8
LAYER01
  6
CONTINUOUS
 62
     1
 10
13800.406935000001
 20
15069.220026999999
 30
0.0
 11
13803.759169999999
 21
15072.093371000001
 31
0.0
  0
LINE
  5
289
  8
LAYER01
  6
CONTINUOUS
 62
     1
 10
13805.387398000001
 20
15072.093371000001
 30
0.0
 11
13805.387398000001
 21
15073.051153
 31
0.0
  0
LINE
  5
28A
  8
LAYER01
  6
CONTINUOUS
 62
     1
 10
13790.350232000001
 20
15073.051153
 30
0.0
 11
13805.387398000001
 21
15073.051153
 31
0.0
  0
LINE
  5
28B
  8
LAYER01
  6
CONTINUOUS
 62
     1
 10
13790.350232000001
 20
15072.093371000001
 30
0.0
 11
13790.350232000001
 21
15073.051153
 31
0.0
  0
LINE
  5
28C
  8
LAYER01
  6
CONTINUOUS
 62
     1
 10
13790.350232000001
 20
15072.093371000001
 30
0.0
 11
13805.387398000001
 21
15072.093371000001
 31
0.0
  0
LINE
  5
28D
  8
LAYER01
  6
CONTINUOUS
 62
     1
 10
13795.330694
 20
15069.220026999999
 30
0.0
 11
13800.406935000001
 21
15069.220026999999
 31
0.0
  0
ENDBLK
  5
28E
  8
0
  0
BLOCK
  8
0
  2
STWR-G23
 70
     0
 10
0.0
 20
0.0
 30
0.0
  3
STWR-G23
  1

  0
LINE
  5
291
  8
LAYER01
  6
CONTINUOUS
 62
     1
 10
13800.406935000001
 20
15069.220026999999
 30
0.0
 11
13800.406935000001
 21
15011.753148
 31
0.0
  0
LINE
  5
292
  8
LAYER01
  6
CONTINUOUS
 62
     1
 10
13795.330694
 20
15069.220026999999
 30
0.0
 11
13795.330694
 21
15011.753148
 31
0.0
  0
INSERT
  5
293
  8
LAYER01
  2
STWR-G24
 10
0.0
 20
0.0
 30
0.0
  0
LINE
  5
294
  8
LAYER01
  6
CONTINUOUS
 62
     1
 10
13795.330694
 20
15011.753148
 30
0.0
 11
13800.406935000001
 21
15011.753148
 31
0.0
  0
ENDBLK
  5
295
  8
0
  0
BLOCK
  8
0
  2
STWR-G25
 70
     0
 10
0.0
 20
0.0
 30
0.0
  3
STWR-G25
  1

  0
LINE
  5
298
  8
THICK
  6
CONTINUOUS
 62
     7
 10
13801.621592
 20
15031.52059
 30
0.0
 11
13801.621592
 21
15037.781714999999
 31
0.0
  0
LINE
  5
299
  8
THICK
  6
CONTINUOUS
 62
     7
 10
13799.749696000001
 20
15031.322604000001
 30
0.0
 11
13801.621592
 21
15031.52059
 31
0.0
  0
LINE
  5
29A
  8
THICK
  6
CONTINUOUS
 62
     7
 10
13801.621592
 20
15037.781714999999
 30
0.0
 11
13799.749696000001
 21
15037.979701
 31
0.0
  0
LINE
  5
29B
  8
THICK
  6
CONTINUOUS
 62
     7
 10
13799.749696000001
 20
15037.979701
 30
0.0
 11
13797.868815
 21
15038.051153
 31
0.0
  0
LINE
  5
29C
  8
THICK
  6
CONTINUOUS
 62
     7
 10
13797.868815
 20
15038.051153
 30
0.0
 11
13795.987934000001
 21
15037.979701
 31
0.0
  0
LINE
  5
29D
  8
THICK
  6
CONTINUOUS
 62
     7
 10
13795.987934000001
 20
15031.322604000001
 30
0.0
 11
13797.868815
 21
15031.251152999999
 31
0.0
  0
LINE
  5
29E
  8
THICK
  6
CONTINUOUS
 62
     7
 10
13795.987934000001
 20
15037.979701
 30
0.0
 11
13794.116038
 21
15037.781714999999
 31
0.0
  0
LINE
  5
29F
  8
THICK
  6
CONTINUOUS
 62
     7
 10
13794.116038
 20
15037.781714999999
 30
0.0
 11
13794.116038
 21
15031.52059
 31
0.0
  0
LINE
  5
2A0
  8
THICK
  6
CONTINUOUS
 62
     7
 10
13794.116038
 20
15031.52059
 30
0.0
 11
13795.987934000001
 21
15031.322604000001
 31
0.0
  0
LINE
  5
2A1
  8
THICK
  6
CONTINUOUS
 62
     7
 10
13797.868815
 20
15031.251152999999
 30
0.0
 11
13799.749696000001
 21
15031.322604000001
 31
0.0
  0
LINE
  5
2A2
  8
THICK
  6
CONTINUOUS
 62
     7
 10
13805.374368000001
 20
15031.52059
 30
0.0
 11
13805.374368000001
 21
15037.781714999999
 31
0.0
  0
LINE
  5
2A3
  8
THICK
  6
CONTINUOUS
 62
     7
 10
13804.438421000001
 20
15031.322604000001
 30
0.0
 11
13805.374368000001
 21
15031.52059
 31
0.0
  0
LINE
  5
2A4
  8
THICK
  6
CONTINUOUS
 62
     7
 10
13805.374368000001
 20
15037.781714999999
 30
0.0
 11
13804.438421000001
 21
15037.979701
 31
0.0
  0
LINE
  5
2A5
  8
THICK
  6
CONTINUOUS
 62
     7
 10
13804.438421000001
 20
15037.979701
 30
0.0
 11
13803.49798
 21
15038.051153
 31
0.0
  0
LINE
  5
2A6
  8
THICK
  6
CONTINUOUS
 62
     7
 10
13803.49798
 20
15038.051153
 30
0.0
 11
13802.55754
 21
15037.979701
 31
0.0
  0
LINE
  5
2A7
  8
THICK
  6
CONTINUOUS
 62
     7
 10
13802.55754
 20
15031.322604000001
 30
0.0
 11
13803.49798
 21
15031.251152999999
 31
0.0
  0
LINE
  5
2A8
  8
THICK
  6
CONTINUOUS
 62
     7
 10
13802.55754
 20
15037.979701
 30
0.0
 11
13801.621592
 21
15037.781714999999
 31
0.0
  0
LINE
  5
2A9
  8
THICK
  6
CONTINUOUS
 62
     7
 10
13801.621592
 20
15031.52059
 30
0.0
 11
13802.55754
 21
15031.322604000001
 31
0.0
  0
LINE
  5
2AA
  8
THICK
  6
CONTINUOUS
 62
     7
 10
13803.49798
 20
15031.251152999999
 30
0.0
 11
13804.438421000001
 21
15031.322604000001
 31
0.0
  0
LINE
  5
2AB
  8
THICK
  6
CONTINUOUS
 62
     7
 10
13790.363261
 20
15031.52059
 30
0.0
 11
13791.299209000001
 21
15031.322604000001
 31
0.0
  0
LINE
  5
2AC
  8
THICK
  6
CONTINUOUS
 62
     7
 10
13790.363261
 20
15037.781714999999
 30
0.0
 11
13790.363261
 21
15031.52059
 31
0.0
  0
LINE
  5
2AD
  8
THICK
  6
CONTINUOUS
 62
     7
 10
13791.299209000001
 20
15037.979701
 30
0.0
 11
13790.363261
 21
15037.781714999999
 31
0.0
  0
LINE
  5
2AE
  8
THICK
  6
CONTINUOUS
 62
     7
 10
13791.299209000001
 20
15031.322604000001
 30
0.0
 11
13792.23965
 21
15031.251152999999
 31
0.0
  0
LINE
  5
2AF
  8
THICK
  6
CONTINUOUS
 62
     7
 10
13793.18009
 20
15037.979701
 30
0.0
 11
13792.23965
 21
15038.051153
 31
0.0
  0
LINE
  5
2B0
  8
THICK
  6
CONTINUOUS
 62
     7
 10
13792.23965
 20
15038.051153
 30
0.0
 11
13791.299209000001
 21
15037.979701
 31
0.0
  0
LINE
  5
2B1
  8
THICK
  6
CONTINUOUS
 62
     7
 10
13792.23965
 20
15031.251152999999
 30
0.0
 11
13793.18009
 21
15031.322604000001
 31
0.0
  0
LINE
  5
2B2
  8
THICK
  6
CONTINUOUS
 62
     7
 10
13794.116038
 20
15037.781714999999
 30
0.0
 11
13793.18009
 21
15037.979701
 31
0.0
  0
LINE
  5
2B3
  8
THICK
  6
CONTINUOUS
 62
     7
 10
13793.18009
 20
15031.322604000001
 30
0.0
 11
13794.116038
 21
15031.52059
 31
0.0
  0
LINE
  5
2B4
  8
THICK
  6
CONTINUOUS
 62
     7
 10
13791.404422999991
 20
15031.251152999999
 30
0.0
 11
13791.686948
 21
15031.251152999999
 31
0.0
  0
LINE
  5
2B5
  8
THICK
  6
CONTINUOUS
 62
     7
 10
13791.686948
 20
15031.251152999999
 30
0.0
 11
13792.23965
 21
15031.251152999999
 31
0.0
  0
LINE
  5
2B6
  8
THICK
  6
CONTINUOUS
 62
     7
 10
13790.363261
 20
15031.52059
 30
0.0
 11
13791.404422999991
 21
15031.251152999999
 31
0.0
  0
LINE
  5
2B7
  8
THICK
  6
CONTINUOUS
 62
     7
 10
13804.333207
 20
15031.251152999999
 30
0.0
 11
13805.374368000001
 21
15031.52059
 31
0.0
  0
LINE
  5
2B8
  8
THICK
  6
CONTINUOUS
 62
     7
 10
13803.49798
 20
15031.251152999999
 30
0.0
 11
13804.050681999999
 21
15031.251152999999
 31
0.0
  0
LINE
  5
2B9
  8
THICK
  6
CONTINUOUS
 62
     7
 10
13804.050681999999
 20
15031.251152999999
 30
0.0
 11
13804.333207
 21
15031.251152999999
 31
0.0
  0
LINE
  5
2BA
  8
THICK
  6
CONTINUOUS
 62
     7
 10
13802.699256
 20
15031.251152999999
 30
0.0
 11
13803.49798
 21
15031.251152999999
 31
0.0
  0
LINE
  5
2BB
  8
THICK
  6
CONTINUOUS
 62
     7
 10
13801.689419
 20
15031.251152999999
 30
0.0
 11
13802.699256
 21
15031.251152999999
 31
0.0
  0
LINE
  5
2BC
  8
THICK
  6
CONTINUOUS
 62
     7
 10
13797.868815
 20
15031.251152999999
 30
0.0
 11
13799.220241000001
 21
15031.251152999999
 31
0.0
  0
LINE
  5
2BD
  8
THICK
  6
CONTINUOUS
 62
     7
 10
13799.220241000001
 20
15031.251152999999
 30
0.0
 11
13800.512602999999
 21
15031.251152999999
 31
0.0
  0
LINE
  5
2BE
  8
THICK
  6
CONTINUOUS
 62
     7
 10
13800.512602999999
 20
15031.251152999999
 30
0.0
 11
13801.689419
 21
15031.251152999999
 31
0.0
  0
LINE
  5
2BF
  8
THICK
  6
CONTINUOUS
 62
     7
 10
13796.517389000001
 20
15031.251152999999
 30
0.0
 11
13797.868815
 21
15031.251152999999
 31
0.0
  0
LINE
  5
2C0
  8
THICK
  6
CONTINUOUS
 62
     7
 10
13795.225027
 20
15031.251152999999
 30
0.0
 11
13796.517389000001
 21
15031.251152999999
 31
0.0
  0
LINE
  5
2C1
  8
THICK
  6
CONTINUOUS
 62
     7
 10
13792.23965
 20
15031.251152999999
 30
0.0
 11
13793.038374
 21
15031.251152999999
 31
0.0
  0
LINE
  5
2C2
  8
THICK
  6
CONTINUOUS
 62
     7
 10
13793.038374
 20
15031.251152999999
 30
0.0
 11
13794.048210999999
 21
15031.251152999999
 31
0.0
  0
LINE
  5
2C3
  8
THICK
  6
CONTINUOUS
 62
     7
 10
13794.048210999999
 20
15031.251152999999
 30
0.0
 11
13795.225027
 21
15031.251152999999
 31
0.0
  0
LINE
  5
2C4
  8
THICK
  6
CONTINUOUS
 62
     7
 10
13804.333207
 20
15038.051153
 30
0.0
 11
13804.050681999999
 21
15038.051153
 31
0.0
  0
LINE
  5
2C5
  8
THICK
  6
CONTINUOUS
 62
     7
 10
13804.050681999999
 20
15038.051153
 30
0.0
 11
13803.49798
 21
15038.051153
 31
0.0
  0
LINE
  5
2C6
  8
THICK
  6
CONTINUOUS
 62
     7
 10
13805.374368000001
 20
15037.781714999999
 30
0.0
 11
13804.333207
 21
15038.051153
 31
0.0
  0
LINE
  5
2C7
  8
THICK
  6
CONTINUOUS
 62
     7
 10
13791.404422999991
 20
15038.051153
 30
0.0
 11
13790.363261
 21
15037.781714999999
 31
0.0
  0
LINE
  5
2C8
  8
THICK
  6
CONTINUOUS
 62
     7
 10
13792.23965
 20
15038.051153
 30
0.0
 11
13791.686948
 21
15038.051153
 31
0.0
  0
LINE
  5
2C9
  8
THICK
  6
CONTINUOUS
 62
     7
 10
13791.686948
 20
15038.051153
 30
0.0
 11
13791.404422999991
 21
15038.051153
 31
0.0
  0
LINE
  5
2CA
  8
THICK
  6
CONTINUOUS
 62
     7
 10
13793.038374
 20
15038.051153
 30
0.0
 11
13792.23965
 21
15038.051153
 31
0.0
  0
LINE
  5
2CB
  8
THICK
  6
CONTINUOUS
 62
     7
 10
13794.048210999999
 20
15038.051153
 30
0.0
 11
13793.038374
 21
15038.051153
 31
0.0
  0
LINE
  5
2CC
  8
THICK
  6
CONTINUOUS
 62
     7
 10
13797.868815
 20
15038.051153
 30
0.0
 11
13796.517389000001
 21
15038.051153
 31
0.0
  0
LINE
  5
2CD
  8
THICK
  6
CONTINUOUS
 62
     7
 10
13796.517389000001
 20
15038.051153
 30
0.0
 11
13795.225027
 21
15038.051153
 31
0.0
  0
LINE
  5
2CE
  8
THICK
  6
CONTINUOUS
 62
     7
 10
13795.225027
 20
15038.051153
 30
0.0
 11
13794.048210999999
 21
15038.051153
 31
0.0
  0
LINE
  5
2CF
  8
THICK
  6
CONTINUOUS
 62
     7
 10
13799.220241000001
 20
15038.051153
 30
0.0
 11
13797.868815
 21
15038.051153
 31
0.0
  0
LINE
  5
2D0
  8
THICK
  6
CONTINUOUS
 62
     7
 10
13800.512602999999
 20
15038.051153
 30
0.0
 11
13799.220241000001
 21
15038.051153
 31
0.0
  0
LINE
  5
2D1
  8
THICK
  6
CONTINUOUS
 62
     7
 10
13803.49798
 20
15038.051153
 30
0.0
 11
13802.699256
 21
15038.051153
 31
0.0
  0
LINE
  5
2D2
  8
THICK
  6
CONTINUOUS
 62
     7
 10
13802.699256
 20
15038.051153
 30
0.0
 11
13801.689419
 21
15038.051153
 31
0.0
  0
LINE
  5
2D3
  8
THICK
  6
CONTINUOUS
 62
     7
 10
13801.689419
 20
15038.051153
 30
0.0
 11
13800.512602999999
 21
15038.051153
 31
0.0
  0
LINE
  5
2D4
  8
HIDDEN
  6
CONTINUOUS
 62
     7
 10
13797.868815
 20
15037.374653000001
 30
0.0
 11
13797.00863
 21
15037.374653000001
 31
0.0
  0
LINE
  5
2D5
  8
HIDDEN
  6
CONTINUOUS
 62
     7
 10
13796.207065000001
 20
15031.927653000001
 30
0.0
 11
13797.00863
 21
15031.927653000001
 31
0.0
  0
LINE
  5
2D6
  8
HIDDEN
  6
CONTINUOUS
 62
     7
 10
13797.00863
 20
15037.374653000001
 30
0.0
 11
13796.207065000001
 21
15037.374653000001
 31
0.0
  0
LINE
  5
2D7
  8
HIDDEN
  6
CONTINUOUS
 62
     7
 10
13795.518746
 20
15031.927653000001
 30
0.0
 11
13796.207065000001
 21
15031.927653000001
 31
0.0
  0
LINE
  5
2D8
  8
HIDDEN
  6
CONTINUOUS
 62
     7
 10
13796.207065000001
 20
15037.374653000001
 30
0.0
 11
13795.518746
 21
15037.374653000001
 31
0.0
  0
LINE
  5
2D9
  8
HIDDEN
  6
CONTINUOUS
 62
     7
 10
13795.518746
 20
15037.374653000001
 30
0.0
 11
13794.99058
 21
15037.374653000001
 31
0.0
  0
LINE
  5
2DA
  8
HIDDEN
  6
CONTINUOUS
 62
     7
 10
13794.99058
 20
15037.374653000001
 30
0.0
 11
13794.65856
 21
15037.374653000001
 31
0.0
  0
LINE
  5
2DB
  8
HIDDEN
  6
CONTINUOUS
 62
     7
 10
13794.65856
 20
15037.374653000001
 30
0.0
 11
13794.545314999999
 21
15037.374653000001
 31
0.0
  0
LINE
  5
2DC
  8
HIDDEN
  6
CONTINUOUS
 62
     7
 10
13794.545314999999
 20
15037.374653000001
 30
0.0
 11
13794.545314999999
 21
15031.927653000001
 31
0.0
  0
LINE
  5
2DD
  8
HIDDEN
  6
CONTINUOUS
 62
     7
 10
13801.192315
 20
15037.374653000001
 30
0.0
 11
13801.079068999999
 21
15037.374653000001
 31
0.0
  0
LINE
  5
2DE
  8
HIDDEN
  6
CONTINUOUS
 62
     7
 10
13801.079068999999
 20
15037.374653000001
 30
0.0
 11
13800.74705
 21
15037.374653000001
 31
0.0
  0
LINE
  5
2DF
  8
HIDDEN
  6
CONTINUOUS
 62
     7
 10
13800.74705
 20
15037.374653000001
 30
0.0
 11
13800.218884
 21
15037.374653000001
 31
0.0
  0
LINE
  5
2E0
  8
HIDDEN
  6
CONTINUOUS
 62
     7
 10
13800.218884
 20
15037.374653000001
 30
0.0
 11
13799.530564999999
 21
15037.374653000001
 31
0.0
  0
LINE
  5
2E1
  8
HIDDEN
  6
CONTINUOUS
 62
     7
 10
13799.530564999999
 20
15037.374653000001
 30
0.0
 11
13798.728999999999
 21
15037.374653000001
 31
0.0
  0
LINE
  5
2E2
  8
HIDDEN
  6
CONTINUOUS
 62
     7
 10
13798.728999999999
 20
15037.374653000001
 30
0.0
 11
13797.868815
 21
15037.374653000001
 31
0.0
  0
LINE
  5
2E3
  8
HIDDEN
  6
CONTINUOUS
 62
     7
 10
13797.00863
 20
15031.927653000001
 30
0.0
 11
13797.868815
 21
15031.927653000001
 31
0.0
  0
LINE
  5
2E4
  8
HIDDEN
  6
CONTINUOUS
 62
     7
 10
13797.868815
 20
15031.927653000001
 30
0.0
 11
13798.728999999999
 21
15031.927653000001
 31
0.0
  0
LINE
  5
2E5
  8
HIDDEN
  6
CONTINUOUS
 62
     7
 10
13798.728999999999
 20
15031.927653000001
 30
0.0
 11
13799.530564999999
 21
15031.927653000001
 31
0.0
  0
LINE
  5
2E6
  8
HIDDEN
  6
CONTINUOUS
 62
     7
 10
13799.530564999999
 20
15031.927653000001
 30
0.0
 11
13800.218884
 21
15031.927653000001
 31
0.0
  0
LINE
  5
2E7
  8
HIDDEN
  6
CONTINUOUS
 62
     7
 10
13800.218884
 20
15031.927653000001
 30
0.0
 11
13800.74705
 21
15031.927653000001
 31
0.0
  0
LINE
  5
2E8
  8
HIDDEN
  6
CONTINUOUS
 62
     7
 10
13800.74705
 20
15031.927653000001
 30
0.0
 11
13801.079068999999
 21
15031.927653000001
 31
0.0
  0
LINE
  5
2E9
  8
HIDDEN
  6
CONTINUOUS
 62
     7
 10
13801.079068999999
 20
15031.927653000001
 30
0.0
 11
13801.192315
 21
15031.927653000001
 31
0.0
  0
LINE
  5
2EA
  8
HIDDEN
  6
CONTINUOUS
 62
     7
 10
13801.192315
 20
15031.927653000001
 30
0.0
 11
13801.192315
 21
15037.374653000001
 31
0.0
  0
LINE
  5
2EB
  8
HIDDEN
  6
CONTINUOUS
 62
     7
 10
13794.545314999999
 20
15031.927653000001
 30
0.0
 11
13794.65856
 21
15031.927653000001
 31
0.0
  0
LINE
  5
2EC
  8
HIDDEN
  6
CONTINUOUS
 62
     7
 10
13794.65856
 20
15031.927653000001
 30
0.0
 11
13794.99058
 21
15031.927653000001
 31
0.0
  0
LINE
  5
2ED
  8
HIDDEN
  6
CONTINUOUS
 62
     7
 10
13794.99058
 20
15031.927653000001
 30
0.0
 11
13795.518746
 21
15031.927653000001
 31
0.0
  0
LINE
  5
2EE
  8
HIDDEN
  6
CONTINUOUS
 62
     7
 10
13797.868815
 20
15038.051153
 30
0.0
 11
13796.833538999999
 21
15038.051153
 31
0.0
  0
LINE
  5
2EF
  8
HIDDEN
  6
CONTINUOUS
 62
     7
 10
13796.833538999999
 20
15038.051153
 30
0.0
 11
13796.517389000001
 21
15038.051153
 31
0.0
  0
LINE
  5
2F0
  8
THICK
  6
CONTINUOUS
 62
     7
 10
13796.517389000001
 20
15038.051153
 30
0.0
 11
13795.868815
 21
15038.051153
 31
0.0
  0
LINE
  5
2F1
  8
THICK
  6
CONTINUOUS
 62
     7
 10
13795.868815
 20
15038.051153
 30
0.0
 11
13795.040387999999
 21
15038.051153
 31
0.0
  0
LINE
  5
2F2
  8
THICK
  6
CONTINUOUS
 62
     7
 10
13795.040387999999
 20
15038.051153
 30
0.0
 11
13794.404713
 21
15038.051153
 31
0.0
  0
LINE
  5
2F3
  8
THICK
  6
CONTINUOUS
 62
     7
 10
13794.404713
 20
15038.051153
 30
0.0
 11
13794.005112000001
 21
15038.051153
 31
0.0
  0
LINE
  5
2F4
  8
THICK
  6
CONTINUOUS
 62
     7
 10
13794.005112000001
 20
15038.051153
 30
0.0
 11
13793.868815
 21
15038.051153
 31
0.0
  0
LINE
  5
2F5
  8
HIDDEN
  6
CONTINUOUS
 62
     7
 10
13793.868815
 20
15038.051153
 30
0.0
 11
13794.545314999999
 21
15037.374653000001
 31
0.0
  0
LINE
  5
2F6
  8
THICK
  6
CONTINUOUS
 62
     7
 10
13801.868815
 20
15038.051153
 30
0.0
 11
13801.732518000001
 21
15038.051153
 31
0.0
  0
LINE
  5
2F7
  8
THICK
  6
CONTINUOUS
 62
     7
 10
13801.732518000001
 20
15038.051153
 30
0.0
 11
13801.332916999991
 21
15038.051153
 31
0.0
  0
LINE
  5
2F8
  8
THICK
  6
CONTINUOUS
 62
     7
 10
13801.332916999991
 20
15038.051153
 30
0.0
 11
13800.697242
 21
15038.051153
 31
0.0
  0
LINE
  5
2F9
  8
THICK
  6
CONTINUOUS
 62
     7
 10
13800.697242
 20
15038.051153
 30
0.0
 11
13799.868815
 21
15038.051153
 31
0.0
  0
LINE
  5
2FA
  8
THICK
  6
CONTINUOUS
 62
     7
 10
13799.868815
 20
15038.051153
 30
0.0
 11
13799.220241000001
 21
15038.051153
 31
0.0
  0
LINE
  5
2FB
  8
HIDDEN
  6
CONTINUOUS
 62
     7
 10
13799.220241000001
 20
15038.051153
 30
0.0
 11
13798.904091
 21
15038.051153
 31
0.0
  0
LINE
  5
2FC
  8
HIDDEN
  6
CONTINUOUS
 62
     7
 10
13798.904091
 20
15038.051153
 30
0.0
 11
13797.868815
 21
15038.051153
 31
0.0
  0
LINE
  5
2FD
  8
HIDDEN
  6
CONTINUOUS
 62
     7
 10
13801.192315
 20
15037.374653000001
 30
0.0
 11
13801.868815
 21
15038.051153
 31
0.0
  0
LINE
  5
2FE
  8
HIDDEN
  6
CONTINUOUS
 62
     7
 10
13795.868815
 20
15031.251152999999
 30
0.0
 11
13796.833538999999
 21
15031.251152999999
 31
0.0
  0
LINE
  5
2FF
  8
HIDDEN
  6
CONTINUOUS
 62
     7
 10
13795.040387999999
 20
15031.251152999999
 30
0.0
 11
13795.868815
 21
15031.251152999999
 31
0.0
  0
LINE
  5
300
  8
HIDDEN
  6
CONTINUOUS
 62
     7
 10
13794.545314999999
 20
15031.927653000001
 30
0.0
 11
13793.868815
 21
15031.251152999999
 31
0.0
  0
LINE
  5
301
  8
HIDDEN
  6
CONTINUOUS
 62
     7
 10
13796.833538999999
 20
15031.251152999999
 30
0.0
 11
13797.868815
 21
15031.251152999999
 31
0.0
  0
LINE
  5
302
  8
HIDDEN
  6
CONTINUOUS
 62
     7
 10
13797.868815
 20
15031.251152999999
 30
0.0
 11
13798.904091
 21
15031.251152999999
 31
0.0
  0
LINE
  5
303
  8
HIDDEN
  6
CONTINUOUS
 62
     7
 10
13798.904091
 20
15031.251152999999
 30
0.0
 11
13799.868815
 21
15031.251152999999
 31
0.0
  0
LINE
  5
304
  8
HIDDEN
  6
CONTINUOUS
 62
     7
 10
13799.868815
 20
15031.251152999999
 30
0.0
 11
13800.697242
 21
15031.251152999999
 31
0.0
  0
LINE
  5
305
  8
HIDDEN
  6
CONTINUOUS
 62
     7
 10
13800.697242
 20
15031.251152999999
 30
0.0
 11
13801.332916999991
 21
15031.251152999999
 31
0.0
  0
LINE
  5
306
  8
HIDDEN
  6
CONTINUOUS
 62
     7
 10
13801.332916999991
 20
15031.251152999999
 30
0.0
 11
13801.732518000001
 21
15031.251152999999
 31
0.0
  0
LINE
  5
307
  8
HIDDEN
  6
CONTINUOUS
 62
     7
 10
13801.732518000001
 20
15031.251152999999
 30
0.0
 11
13801.868815
 21
15031.251152999999
 31
0.0
  0
LINE
  5
308
  8
HIDDEN
  6
CONTINUOUS
 62
     7
 10
13801.868815
 20
15031.251152999999
 30
0.0
 11
13801.192315
 21
15031.927653000001
 31
0.0
  0
LINE
  5
309
  8
HIDDEN
  6
CONTINUOUS
 62
     7
 10
13793.868815
 20
15031.251152999999
 30
0.0
 11
13794.005112000001
 21
15031.251152999999
 31
0.0
  0
LINE
  5
30A
  8
HIDDEN
  6
CONTINUOUS
 62
     7
 10
13794.005112000001
 20
15031.251152999999
 30
0.0
 11
13794.404713
 21
15031.251152999999
 31
0.0
  0
LINE
  5
30B
  8
HIDDEN
  6
CONTINUOUS
 62
     7
 10
13794.404713
 20
15031.251152999999
 30
0.0
 11
13795.040387999999
 21
15031.251152999999
 31
0.0
  0
LINE
  5
30C
  8
HIDDEN
  6
CONTINUOUS
 62
     7
 10
13801.621592
 20
15031.52059
 30
0.0
 11
13801.621592
 21
15037.781714999999
 31
0.0
  0
LINE
  5
30D
  8
HIDDEN
  6
CONTINUOUS
 62
     7
 10
13802.55754
 20
15031.322604000001
 30
0.0
 11
13801.621592
 21
15031.52059
 31
0.0
  0
LINE
  5
30E
  8
HIDDEN
  6
CONTINUOUS
 62
     7
 10
13801.621592
 20
15037.781714999999
 30
0.0
 11
13802.55754
 21
15037.979701
 31
0.0
  0
LINE
  5
30F
  8
HIDDEN
  6
CONTINUOUS
 62
     7
 10
13802.55754
 20
15037.979701
 30
0.0
 11
13803.49798
 21
15038.051153
 31
0.0
  0
LINE
  5
310
  8
HIDDEN
  6
CONTINUOUS
 62
     7
 10
13803.49798
 20
15038.051153
 30
0.0
 11
13804.438421000001
 21
15037.979701
 31
0.0
  0
LINE
  5
311
  8
HIDDEN
  6
CONTINUOUS
 62
     7
 10
13804.438421000001
 20
15031.322604000001
 30
0.0
 11
13803.49798
 21
15031.251152999999
 31
0.0
  0
LINE
  5
312
  8
HIDDEN
  6
CONTINUOUS
 62
     7
 10
13804.438421000001
 20
15037.979701
 30
0.0
 11
13805.374368000001
 21
15037.781714999999
 31
0.0
  0
LINE
  5
313
  8
HIDDEN
  6
CONTINUOUS
 62
     7
 10
13805.374368000001
 20
15031.52059
 30
0.0
 11
13804.438421000001
 21
15031.322604000001
 31
0.0
  0
LINE
  5
314
  8
HIDDEN
  6
CONTINUOUS
 62
     7
 10
13803.49798
 20
15031.251152999999
 30
0.0
 11
13802.55754
 21
15031.322604000001
 31
0.0
  0
LINE
  5
315
  8
HIDDEN
  6
CONTINUOUS
 62
     7
 10
13794.116038
 20
15031.52059
 30
0.0
 11
13793.18009
 21
15031.322604000001
 31
0.0
  0
LINE
  5
316
  8
HIDDEN
  6
CONTINUOUS
 62
     7
 10
13794.116038
 20
15037.781714999999
 30
0.0
 11
13794.116038
 21
15031.52059
 31
0.0
  0
LINE
  5
317
  8
HIDDEN
  6
CONTINUOUS
 62
     7
 10
13793.18009
 20
15037.979701
 30
0.0
 11
13794.116038
 21
15037.781714999999
 31
0.0
  0
LINE
  5
318
  8
HIDDEN
  6
CONTINUOUS
 62
     7
 10
13793.18009
 20
15031.322604000001
 30
0.0
 11
13792.23965
 21
15031.251152999999
 31
0.0
  0
LINE
  5
319
  8
HIDDEN
  6
CONTINUOUS
 62
     7
 10
13791.299209000001
 20
15037.979701
 30
0.0
 11
13792.23965
 21
15038.051153
 31
0.0
  0
LINE
  5
31A
  8
HIDDEN
  6
CONTINUOUS
 62
     7
 10
13792.23965
 20
15038.051153
 30
0.0
 11
13793.18009
 21
15037.979701
 31
0.0
  0
LINE
  5
31B
  8
HIDDEN
  6
CONTINUOUS
 62
     7
 10
13792.23965
 20
15031.251152999999
 30
0.0
 11
13791.299209000001
 21
15031.322604000001
 31
0.0
  0
LINE
  5
31C
  8
HIDDEN
  6
CONTINUOUS
 62
     7
 10
13790.363261
 20
15037.781714999999
 30
0.0
 11
13791.299209000001
 21
15037.979701
 31
0.0
  0
LINE
  5
31D
  8
HIDDEN
  6
CONTINUOUS
 62
     7
 10
13791.299209000001
 20
15031.322604000001
 30
0.0
 11
13790.363261
 21
15031.52059
 31
0.0
  0
LINE
  5
31E
  8
HIDDEN
  6
CONTINUOUS
 62
     7
 10
13801.621592
 20
15031.52059
 30
0.0
 11
13799.749696000001
 21
15031.322604000001
 31
0.0
  0
LINE
  5
31F
  8
HIDDEN
  6
CONTINUOUS
 62
     7
 10
13799.749696000001
 20
15037.979701
 30
0.0
 11
13801.621592
 21
15037.781714999999
 31
0.0
  0
LINE
  5
320
  8
HIDDEN
  6
CONTINUOUS
 62
     7
 10
13799.749696000001
 20
15031.322604000001
 30
0.0
 11
13797.868815
 21
15031.251152999999
 31
0.0
  0
LINE
  5
321
  8
HIDDEN
  6
CONTINUOUS
 62
     7
 10
13795.987934000001
 20
15037.979701
 30
0.0
 11
13797.868815
 21
15038.051153
 31
0.0
  0
LINE
  5
322
  8
HIDDEN
  6
CONTINUOUS
 62
     7
 10
13797.868815
 20
15038.051153
 30
0.0
 11
13799.749696000001
 21
15037.979701
 31
0.0
  0
LINE
  5
323
  8
HIDDEN
  6
CONTINUOUS
 62
     7
 10
13797.868815
 20
15031.251152999999
 30
0.0
 11
13795.987934000001
 21
15031.322604000001
 31
0.0
  0
LINE
  5
324
  8
HIDDEN
  6
CONTINUOUS
 62
     7
 10
13794.116038
 20
15037.781714999999
 30
0.0
 11
13795.987934000001
 21
15037.979701
 31
0.0
  0
LINE
  5
325
  8
HIDDEN
  6
CONTINUOUS
 62
     7
 10
13795.987934000001
 20
15031.322604000001
 30
0.0
 11
13794.116038
 21
15031.52059
 31
0.0
  0
LINE
  5
326
  8
HIDDEN
  6
CONTINUOUS
 62
     7
 10
13792.23965
 20
15031.251152999999
 30
0.0
 11
13791.686948
 21
15031.251152999999
 31
0.0
  0
LINE
  5
327
  8
HIDDEN
  6
CONTINUOUS
 62
     7
 10
13791.686948
 20
15031.251152999999
 30
0.0
 11
13791.404422999991
 21
15031.251152999999
 31
0.0
  0
LINE
  5
328
  8
HIDDEN
  6
CONTINUOUS
 62
     7
 10
13791.404422999991
 20
15031.251152999999
 30
0.0
 11
13791.404422999991
 21
15031.251152999999
 31
0.0
  0
LINE
  5
329
  8
HIDDEN
  6
CONTINUOUS
 62
     7
 10
13797.868815
 20
15031.251152999999
 30
0.0
 11
13796.517389000001
 21
15031.251152999999
 31
0.0
  0
LINE
  5
32A
  8
HIDDEN
  6
CONTINUOUS
 62
     7
 10
13796.517389000001
 20
15031.251152999999
 30
0.0
 11
13795.225027
 21
15031.251152999999
 31
0.0
  0
LINE
  5
32B
  8
HIDDEN
  6
CONTINUOUS
 62
     7
 10
13795.225027
 20
15031.251152999999
 30
0.0
 11
13794.048210999999
 21
15031.251152999999
 31
0.0
  0
LINE
  5
32C
  8
HIDDEN
  6
CONTINUOUS
 62
     7
 10
13794.048210999999
 20
15031.251152999999
 30
0.0
 11
13793.038374
 21
15031.251152999999
 31
0.0
  0
LINE
  5
32D
  8
HIDDEN
  6
CONTINUOUS
 62
     7
 10
13793.038374
 20
15031.251152999999
 30
0.0
 11
13792.23965
 21
15031.251152999999
 31
0.0
  0
LINE
  5
32E
  8
HIDDEN
  6
CONTINUOUS
 62
     7
 10
13803.49798
 20
15031.251152999999
 30
0.0
 11
13802.699256
 21
15031.251152999999
 31
0.0
  0
LINE
  5
32F
  8
HIDDEN
  6
CONTINUOUS
 62
     7
 10
13802.699256
 20
15031.251152999999
 30
0.0
 11
13801.689419
 21
15031.251152999999
 31
0.0
  0
LINE
  5
330
  8
HIDDEN
  6
CONTINUOUS
 62
     7
 10
13801.689419
 20
15031.251152999999
 30
0.0
 11
13800.512602999999
 21
15031.251152999999
 31
0.0
  0
LINE
  5
331
  8
HIDDEN
  6
CONTINUOUS
 62
     7
 10
13800.512602999999
 20
15031.251152999999
 30
0.0
 11
13799.220241000001
 21
15031.251152999999
 31
0.0
  0
LINE
  5
332
  8
HIDDEN
  6
CONTINUOUS
 62
     7
 10
13799.220241000001
 20
15031.251152999999
 30
0.0
 11
13797.868815
 21
15031.251152999999
 31
0.0
  0
LINE
  5
333
  8
HIDDEN
  6
CONTINUOUS
 62
     7
 10
13804.050681999999
 20
15031.251152999999
 30
0.0
 11
13803.49798
 21
15031.251152999999
 31
0.0
  0
LINE
  5
334
  8
HIDDEN
  6
CONTINUOUS
 62
     7
 10
13804.333207
 20
15031.251152999999
 30
0.0
 11
13804.050681999999
 21
15031.251152999999
 31
0.0
  0
LINE
  5
335
  8
HIDDEN
  6
CONTINUOUS
 62
     7
 10
13804.333207
 20
15031.251152999999
 30
0.0
 11
13804.333207
 21
15031.251152999999
 31
0.0
  0
LINE
  5
336
  8
HIDDEN
  6
CONTINUOUS
 62
     7
 10
13803.49798
 20
15038.051153
 30
0.0
 11
13804.050681999999
 21
15038.051153
 31
0.0
  0
LINE
  5
337
  8
HIDDEN
  6
CONTINUOUS
 62
     7
 10
13804.050681999999
 20
15038.051153
 30
0.0
 11
13804.333207
 21
15038.051153
 31
0.0
  0
LINE
  5
338
  8
HIDDEN
  6
CONTINUOUS
 62
     7
 10
13804.333207
 20
15038.051153
 30
0.0
 11
13804.333207
 21
15038.051153
 31
0.0
  0
LINE
  5
339
  8
HIDDEN
  6
CONTINUOUS
 62
     7
 10
13797.868815
 20
15038.051153
 30
0.0
 11
13799.220241000001
 21
15038.051153
 31
0.0
  0
LINE
  5
33A
  8
HIDDEN
  6
CONTINUOUS
 62
     7
 10
13799.220241000001
 20
15038.051153
 30
0.0
 11
13800.512602999999
 21
15038.051153
 31
0.0
  0
LINE
  5
33B
  8
HIDDEN
  6
CONTINUOUS
 62
     7
 10
13800.512602999999
 20
15038.051153
 30
0.0
 11
13801.689419
 21
15038.051153
 31
0.0
  0
LINE
  5
33C
  8
HIDDEN
  6
CONTINUOUS
 62
     7
 10
13801.689419
 20
15038.051153
 30
0.0
 11
13802.699256
 21
15038.051153
 31
0.0
  0
LINE
  5
33D
  8
HIDDEN
  6
CONTINUOUS
 62
     7
 10
13802.699256
 20
15038.051153
 30
0.0
 11
13803.49798
 21
15038.051153
 31
0.0
  0
LINE
  5
33E
  8
HIDDEN
  6
CONTINUOUS
 62
     7
 10
13792.23965
 20
15038.051153
 30
0.0
 11
13793.038374
 21
15038.051153
 31
0.0
  0
LINE
  5
33F
  8
HIDDEN
  6
CONTINUOUS
 62
     7
 10
13793.038374
 20
15038.051153
 30
0.0
 11
13794.048210999999
 21
15038.051153
 31
0.0
  0
LINE
  5
340
  8
HIDDEN
  6
CONTINUOUS
 62
     7
 10
13794.048210999999
 20
15038.051153
 30
0.0
 11
13795.225027
 21
15038.051153
 31
0.0
  0
LINE
  5
341
  8
HIDDEN
  6
CONTINUOUS
 62
     7
 10
13795.225027
 20
15038.051153
 30
0.0
 11
13796.517389000001
 21
15038.051153
 31
0.0
  0
LINE
  5
342
  8
HIDDEN
  6
CONTINUOUS
 62
     7
 10
13796.517389000001
 20
15038.051153
 30
0.0
 11
13797.868815
 21
15038.051153
 31
0.0
  0
LINE
  5
343
  8
HIDDEN
  6
CONTINUOUS
 62
     7
 10
13791.686948
 20
15038.051153
 30
0.0
 11
13792.23965
 21
15038.051153
 31
0.0
  0
LINE
  5
344
  8
HIDDEN
  6
CONTINUOUS
 62
     7
 10
13791.404422999991
 20
15038.051153
 30
0.0
 11
13791.686948
 21
15038.051153
 31
0.0
  0
LINE
  5
345
  8
HIDDEN
  6
CONTINUOUS
 62
     7
 10
13791.404422999991
 20
15038.051153
 30
0.0
 11
13791.404422999991
 21
15038.051153
 31
0.0
  0
LINE
  5
346
  8
HIDDEN
  6
CONTINUOUS
 62
     7
 10
13794.545314999999
 20
15037.374653000001
 30
0.0
 11
13794.65856
 21
15037.374653000001
 31
0.0
  0
LINE
  5
347
  8
HIDDEN
  6
CONTINUOUS
 62
     7
 10
13794.65856
 20
15037.374653000001
 30
0.0
 11
13794.99058
 21
15037.374653000001
 31
0.0
  0
LINE
  5
348
  8
HIDDEN
  6
CONTINUOUS
 62
     7
 10
13794.99058
 20
15037.374653000001
 30
0.0
 11
13795.518746
 21
15037.374653000001
 31
0.0
  0
LINE
  5
349
  8
HIDDEN
  6
CONTINUOUS
 62
     7
 10
13795.518746
 20
15037.374653000001
 30
0.0
 11
13796.207065000001
 21
15037.374653000001
 31
0.0
  0
LINE
  5
34A
  8
HIDDEN
  6
CONTINUOUS
 62
     7
 10
13796.207065000001
 20
15037.374653000001
 30
0.0
 11
13797.00863
 21
15037.374653000001
 31
0.0
  0
LINE
  5
34B
  8
HIDDEN
  6
CONTINUOUS
 62
     7
 10
13797.00863
 20
15037.374653000001
 30
0.0
 11
13797.868815
 21
15037.374653000001
 31
0.0
  0
LINE
  5
34C
  8
HIDDEN
  6
CONTINUOUS
 62
     7
 10
13797.868815
 20
15037.374653000001
 30
0.0
 11
13798.728999999999
 21
15037.374653000001
 31
0.0
  0
LINE
  5
34D
  8
HIDDEN
  6
CONTINUOUS
 62
     7
 10
13798.728999999999
 20
15037.374653000001
 30
0.0
 11
13799.530564999999
 21
15037.374653000001
 31
0.0
  0
LINE
  5
34E
  8
HIDDEN
  6
CONTINUOUS
 62
     7
 10
13799.530564999999
 20
15037.374653000001
 30
0.0
 11
13800.218884
 21
15037.374653000001
 31
0.0
  0
LINE
  5
34F
  8
HIDDEN
  6
CONTINUOUS
 62
     7
 10
13800.218884
 20
15037.374653000001
 30
0.0
 11
13800.74705
 21
15037.374653000001
 31
0.0
  0
LINE
  5
350
  8
HIDDEN
  6
CONTINUOUS
 62
     7
 10
13800.74705
 20
15037.374653000001
 30
0.0
 11
13801.079068999999
 21
15037.374653000001
 31
0.0
  0
LINE
  5
351
  8
HIDDEN
  6
CONTINUOUS
 62
     7
 10
13801.079068999999
 20
15037.374653000001
 30
0.0
 11
13801.192315
 21
15037.374653000001
 31
0.0
  0
LINE
  5
352
  8
HIDDEN
  6
CONTINUOUS
 62
     7
 10
13801.192315
 20
15031.927653000001
 30
0.0
 11
13801.079068999999
 21
15031.927653000001
 31
0.0
  0
LINE
  5
353
  8
HIDDEN
  6
CONTINUOUS
 62
     7
 10
13801.079068999999
 20
15031.927653000001
 30
0.0
 11
13800.74705
 21
15031.927653000001
 31
0.0
  0
LINE
  5
354
  8
HIDDEN
  6
CONTINUOUS
 62
     7
 10
13800.74705
 20
15031.927653000001
 30
0.0
 11
13800.218884
 21
15031.927653000001
 31
0.0
  0
LINE
  5
355
  8
HIDDEN
  6
CONTINUOUS
 62
     7
 10
13800.218884
 20
15031.927653000001
 30
0.0
 11
13799.530564999999
 21
15031.927653000001
 31
0.0
  0
LINE
  5
356
  8
HIDDEN
  6
CONTINUOUS
 62
     7
 10
13799.530564999999
 20
15031.927653000001
 30
0.0
 11
13798.728999999999
 21
15031.927653000001
 31
0.0
  0
LINE
  5
357
  8
HIDDEN
  6
CONTINUOUS
 62
     7
 10
13798.728999999999
 20
15031.927653000001
 30
0.0
 11
13797.868815
 21
15031.927653000001
 31
0.0
  0
LINE
  5
358
  8
HIDDEN
  6
CONTINUOUS
 62
     7
 10
13797.868815
 20
15031.927653000001
 30
0.0
 11
13797.00863
 21
15031.927653000001
 31
0.0
  0
LINE
  5
359
  8
HIDDEN
  6
CONTINUOUS
 62
     7
 10
13797.00863
 20
15031.927653000001
 30
0.0
 11
13796.207065000001
 21
15031.927653000001
 31
0.0
  0
LINE
  5
35A
  8
HIDDEN
  6
CONTINUOUS
 62
     7
 10
13796.207065000001
 20
15031.927653000001
 30
0.0
 11
13795.518746
 21
15031.927653000001
 31
0.0
  0
LINE
  5
35B
  8
HIDDEN
  6
CONTINUOUS
 62
     7
 10
13795.518746
 20
15031.927653000001
 30
0.0
 11
13794.99058
 21
15031.927653000001
 31
0.0
  0
LINE
  5
35C
  8
HIDDEN
  6
CONTINUOUS
 62
     7
 10
13794.99058
 20
15031.927653000001
 30
0.0
 11
13794.65856
 21
15031.927653000001
 31
0.0
  0
LINE
  5
35D
  8
HIDDEN
  6
CONTINUOUS
 62
     7
 10
13794.65856
 20
15031.927653000001
 30
0.0
 11
13794.545314999999
 21
15031.927653000001
 31
0.0
  0
LINE
  5
35E
  8
HIDDEN
  6
CONTINUOUS
 62
     7
 10
13793.868815
 20
15038.051153
 30
0.0
 11
13794.005112000001
 21
15038.051153
 31
0.0
  0
LINE
  5
35F
  8
HIDDEN
  6
CONTINUOUS
 62
     7
 10
13794.005112000001
 20
15038.051153
 30
0.0
 11
13794.404713
 21
15038.051153
 31
0.0
  0
LINE
  5
360
  8
HIDDEN
  6
CONTINUOUS
 62
     7
 10
13794.404713
 20
15038.051153
 30
0.0
 11
13795.040387999999
 21
15038.051153
 31
0.0
  0
LINE
  5
361
  8
HIDDEN
  6
CONTINUOUS
 62
     7
 10
13795.040387999999
 20
15038.051153
 30
0.0
 11
13795.868815
 21
15038.051153
 31
0.0
  0
LINE
  5
362
  8
HIDDEN
  6
CONTINUOUS
 62
     7
 10
13795.868815
 20
15038.051153
 30
0.0
 11
13796.833538999999
 21
15038.051153
 31
0.0
  0
LINE
  5
363
  8
HIDDEN
  6
CONTINUOUS
 62
     7
 10
13796.833538999999
 20
15038.051153
 30
0.0
 11
13797.868815
 21
15038.051153
 31
0.0
  0
LINE
  5
364
  8
HIDDEN
  6
CONTINUOUS
 62
     7
 10
13797.868815
 20
15038.051153
 30
0.0
 11
13798.904091
 21
15038.051153
 31
0.0
  0
LINE
  5
365
  8
HIDDEN
  6
CONTINUOUS
 62
     7
 10
13798.904091
 20
15038.051153
 30
0.0
 11
13799.868815
 21
15038.051153
 31
0.0
  0
LINE
  5
366
  8
HIDDEN
  6
CONTINUOUS
 62
     7
 10
13799.868815
 20
15038.051153
 30
0.0
 11
13800.697242
 21
15038.051153
 31
0.0
  0
LINE
  5
367
  8
HIDDEN
  6
CONTINUOUS
 62
     7
 10
13800.697242
 20
15038.051153
 30
0.0
 11
13801.332916999991
 21
15038.051153
 31
0.0
  0
LINE
  5
368
  8
HIDDEN
  6
CONTINUOUS
 62
     7
 10
13801.332916999991
 20
15038.051153
 30
0.0
 11
13801.732518000001
 21
15038.051153
 31
0.0
  0
LINE
  5
369
  8
HIDDEN
  6
CONTINUOUS
 62
     7
 10
13801.732518000001
 20
15038.051153
 30
0.0
 11
13801.868815
 21
15038.051153
 31
0.0
  0
LINE
  5
36A
  8
HIDDEN
  6
CONTINUOUS
 62
     7
 10
13793.868815
 20
15031.251152999999
 30
0.0
 11
13794.005112000001
 21
15031.251152999999
 31
0.0
  0
LINE
  5
36B
  8
HIDDEN
  6
CONTINUOUS
 62
     7
 10
13794.005112000001
 20
15031.251152999999
 30
0.0
 11
13794.404713
 21
15031.251152999999
 31
0.0
  0
LINE
  5
36C
  8
HIDDEN
  6
CONTINUOUS
 62
     7
 10
13794.404713
 20
15031.251152999999
 30
0.0
 11
13795.040387999999
 21
15031.251152999999
 31
0.0
  0
LINE
  5
36D
  8
HIDDEN
  6
CONTINUOUS
 62
     7
 10
13795.040387999999
 20
15031.251152999999
 30
0.0
 11
13795.868815
 21
15031.251152999999
 31
0.0
  0
LINE
  5
36E
  8
HIDDEN
  6
CONTINUOUS
 62
     7
 10
13795.868815
 20
15031.251152999999
 30
0.0
 11
13796.833538999999
 21
15031.251152999999
 31
0.0
  0
LINE
  5
36F
  8
HIDDEN
  6
CONTINUOUS
 62
     7
 10
13796.833538999999
 20
15031.251152999999
 30
0.0
 11
13797.868815
 21
15031.251152999999
 31
0.0
  0
LINE
  5
370
  8
HIDDEN
  6
CONTINUOUS
 62
     7
 10
13797.868815
 20
15031.251152999999
 30
0.0
 11
13798.904091
 21
15031.251152999999
 31
0.0
  0
LINE
  5
371
  8
HIDDEN
  6
CONTINUOUS
 62
     7
 10
13798.904091
 20
15031.251152999999
 30
0.0
 11
13799.868815
 21
15031.251152999999
 31
0.0
  0
LINE
  5
372
  8
HIDDEN
  6
CONTINUOUS
 62
     7
 10
13799.868815
 20
15031.251152999999
 30
0.0
 11
13800.697242
 21
15031.251152999999
 31
0.0
  0
LINE
  5
373
  8
HIDDEN
  6
CONTINUOUS
 62
     7
 10
13800.697242
 20
15031.251152999999
 30
0.0
 11
13801.332916999991
 21
15031.251152999999
 31
0.0
  0
LINE
  5
374
  8
HIDDEN
  6
CONTINUOUS
 62
     7
 10
13801.332916999991
 20
15031.251152999999
 30
0.0
 11
13801.732518000001
 21
15031.251152999999
 31
0.0
  0
LINE
  5
375
  8
HIDDEN
  6
CONTINUOUS
 62
     7
 10
13801.732518000001
 20
15031.251152999999
 30
0.0
 11
13801.868815
 21
15031.251152999999
 31
0.0
  0
ENDBLK
  5
376
  8
0
  0
BLOCK
  8
0
  2
STWR-G22
 70
     0
 10
0.0
 20
0.0
 30
0.0
  3
STWR-G22
  1

  0
LINE
  5
379
  8
LAYER01
  6
STRICHPUNKTIERT
 62
     5
 10
13797.868815
 20
14997.099093999999
 30
0.0
 11
13797.868815
 21
15085.310753
 31
0.0
  0
INSERT
  5
37A
  8
LAYER01
  2
STWR-G23
 10
0.0
 20
0.0
 30
0.0
  0
INSERT
  5
37B
  8
LAYER01
  2
STWR-G25
 10
0.0
 20
0.0
 30
0.0
  0
ENDBLK
  5
37C
  8
0
  0
BLOCK
  8
0
  2
STWR-G26
 70
     0
 10
0.0
 20
0.0
 30
0.0
  3
STWR-G26
  1

  0
LINE
  5
37F
  8
LAYER01
  6
CONTINUOUS
 62
     1
 10
13791.403791000001
 20
15057.772525
 30
0.0
 11
13793.415132
 21
15053.932693000001
 31
0.0
  0
LINE
  5
380
  8
LAYER01
  6
CONTINUOUS
 62
     1
 10
13793.415132
 20
15053.932693000001
 30
0.0
 11
13793.415132
 21
15058.051153
 31
0.0
  0
LINE
  5
381
  8
LAYER01
  6
CONTINUOUS
 62
     1
 10
13802.322498
 20
15058.051153
 30
0.0
 11
13793.415132
 21
15058.051153
 31
0.0
  0
LINE
  5
382
  8
LAYER01
  6
CONTINUOUS
 62
     1
 10
13802.322498
 20
15053.932693000001
 30
0.0
 11
13802.322498
 21
15058.051153
 31
0.0
  0
LINE
  5
383
  8
LAYER01
  6
CONTINUOUS
 62
     1
 10
13804.333839000001
 20
15057.772525
 30
0.0
 11
13802.322498
 21
15053.932693000001
 31
0.0
  0
LINE
  5
384
  8
LAYER01
  6
CONTINUOUS
 62
     1
 10
13804.333839000001
 20
15059.008933999999
 30
0.0
 11
13804.333839000001
 21
15057.772525
 31
0.0
  0
LINE
  5
385
  8
LAYER01
  6
CONTINUOUS
 62
     1
 10
13791.403791000001
 20
15059.008933999999
 30
0.0
 11
13804.333839000001
 21
15059.008933999999
 31
0.0
  0
LINE
  5
386
  8
LAYER01
  6
CONTINUOUS
 62
     1
 10
13791.403791000001
 20
15059.008933999999
 30
0.0
 11
13791.403791000001
 21
15057.772525
 31
0.0
  0
ENDBLK
  5
387
  8
0
  0
BLOCK
  8
0
  2
STWR-G21
 70
     0
 10
0.0
 20
0.0
 30
0.0
  3
STWR-G21
  1

  0
INSERT
  5
38A
  8
LAYER01
  2
STWR-G22
 10
0.0
 20
0.0
 30
0.0
  0
INSERT
  5
38B
  8
LAYER01
  2
STWR-G26
 10
0.0
 20
0.0
 30
0.0
  0
ENDBLK
  5
38C
  8
0
  0
BLOCK
  8
0
  2
STWR-G28
 70
     0
 10
0.0
 20
0.0
 30
0.0
  3
STWR-G28
  1

  0
LINE
  5
38F
  8
THICK
  6
CONTINUOUS
 62
     7
 10
14041.621592
 20
15031.52059
 30
0.0
 11
14041.621592
 21
15037.781714999999
 31
0.0
  0
LINE
  5
390
  8
THICK
  6
CONTINUOUS
 62
     7
 10
14039.749696000001
 20
15031.322604000001
 30
0.0
 11
14041.621592
 21
15031.52059
 31
0.0
  0
LINE
  5
391
  8
THICK
  6
CONTINUOUS
 62
     7
 10
14041.621592
 20
15037.781714999999
 30
0.0
 11
14039.749696000001
 21
15037.979701
 31
0.0
  0
LINE
  5
392
  8
THICK
  6
CONTINUOUS
 62
     7
 10
14039.749696000001
 20
15037.979701
 30
0.0
 11
14037.868815
 21
15038.051153
 31
0.0
  0
LINE
  5
393
  8
THICK
  6
CONTINUOUS
 62
     7
 10
14037.868815
 20
15038.051153
 30
0.0
 11
14035.987934000001
 21
15037.979701
 31
0.0
  0
LINE
  5
394
  8
THICK
  6
CONTINUOUS
 62
     7
 10
14035.987934000001
 20
15031.322604000001
 30
0.0
 11
14037.868815
 21
15031.251152999999
 31
0.0
  0
LINE
  5
395
  8
THICK
  6
CONTINUOUS
 62
     7
 10
14035.987934000001
 20
15037.979701
 30
0.0
 11
14034.116038
 21
15037.781714999999
 31
0.0
  0
LINE
  5
396
  8
THICK
  6
CONTINUOUS
 62
     7
 10
14034.116038
 20
15037.781714999999
 30
0.0
 11
14034.116038
 21
15031.52059
 31
0.0
  0
LINE
  5
397
  8
THICK
  6
CONTINUOUS
 62
     7
 10
14034.116038
 20
15031.52059
 30
0.0
 11
14035.987934000001
 21
15031.322604000001
 31
0.0
  0
LINE
  5
398
  8
THICK
  6
CONTINUOUS
 62
     7
 10
14037.868815
 20
15031.251152999999
 30
0.0
 11
14039.749696000001
 21
15031.322604000001
 31
0.0
  0
LINE
  5
399
  8
THICK
  6
CONTINUOUS
 62
     7
 10
14045.374368000001
 20
15031.52059
 30
0.0
 11
14045.374368000001
 21
15037.781714999999
 31
0.0
  0
LINE
  5
39A
  8
THICK
  6
CONTINUOUS
 62
     7
 10
14044.438421000001
 20
15031.322604000001
 30
0.0
 11
14045.374368000001
 21
15031.52059
 31
0.0
  0
LINE
  5
39B
  8
THICK
  6
CONTINUOUS
 62
     7
 10
14045.374368000001
 20
15037.781714999999
 30
0.0
 11
14044.438421000001
 21
15037.979701
 31
0.0
  0
LINE
  5
39C
  8
THICK
  6
CONTINUOUS
 62
     7
 10
14044.438421000001
 20
15037.979701
 30
0.0
 11
14043.49798
 21
15038.051153
 31
0.0
  0
LINE
  5
39D
  8
THICK
  6
CONTINUOUS
 62
     7
 10
14043.49798
 20
15038.051153
 30
0.0
 11
14042.55754
 21
15037.979701
 31
0.0
  0
LINE
  5
39E
  8
THICK
  6
CONTINUOUS
 62
     7
 10
14042.55754
 20
15031.322604000001
 30
0.0
 11
14043.49798
 21
15031.251152999999
 31
0.0
  0
LINE
  5
39F
  8
THICK
  6
CONTINUOUS
 62
     7
 10
14042.55754
 20
15037.979701
 30
0.0
 11
14041.621592
 21
15037.781714999999
 31
0.0
  0
LINE
  5
3A0
  8
THICK
  6
CONTINUOUS
 62
     7
 10
14041.621592
 20
15031.52059
 30
0.0
 11
14042.55754
 21
15031.322604000001
 31
0.0
  0
LINE
  5
3A1
  8
THICK
  6
CONTINUOUS
 62
     7
 10
14043.49798
 20
15031.251152999999
 30
0.0
 11
14044.438421000001
 21
15031.322604000001
 31
0.0
  0
LINE
  5
3A2
  8
THICK
  6
CONTINUOUS
 62
     7
 10
14030.363261
 20
15031.52059
 30
0.0
 11
14031.299209000001
 21
15031.322604000001
 31
0.0
  0
LINE
  5
3A3
  8
THICK
  6
CONTINUOUS
 62
     7
 10
14030.363261
 20
15037.781714999999
 30
0.0
 11
14030.363261
 21
15031.52059
 31
0.0
  0
LINE
  5
3A4
  8
THICK
  6
CONTINUOUS
 62
     7
 10
14031.299209000001
 20
15037.979701
 30
0.0
 11
14030.363261
 21
15037.781714999999
 31
0.0
  0
LINE
  5
3A5
  8
THICK
  6
CONTINUOUS
 62
     7
 10
14031.299209000001
 20
15031.322604000001
 30
0.0
 11
14032.23965
 21
15031.251152999999
 31
0.0
  0
LINE
  5
3A6
  8
THICK
  6
CONTINUOUS
 62
     7
 10
14033.18009
 20
15037.979701
 30
0.0
 11
14032.23965
 21
15038.051153
 31
0.0
  0
LINE
  5
3A7
  8
THICK
  6
CONTINUOUS
 62
     7
 10
14032.23965
 20
15038.051153
 30
0.0
 11
14031.299209000001
 21
15037.979701
 31
0.0
  0
LINE
  5
3A8
  8
THICK
  6
CONTINUOUS
 62
     7
 10
14032.23965
 20
15031.251152999999
 30
0.0
 11
14033.18009
 21
15031.322604000001
 31
0.0
  0
LINE
  5
3A9
  8
THICK
  6
CONTINUOUS
 62
     7
 10
14034.116038
 20
15037.781714999999
 30
0.0
 11
14033.18009
 21
15037.979701
 31
0.0
  0
LINE
  5
3AA
  8
THICK
  6
CONTINUOUS
 62
     7
 10
14033.18009
 20
15031.322604000001
 30
0.0
 11
14034.116038
 21
15031.52059
 31
0.0
  0
LINE
  5
3AB
  8
THICK
  6
CONTINUOUS
 62
     7
 10
14031.404422999991
 20
15031.251152999999
 30
0.0
 11
14031.686948
 21
15031.251152999999
 31
0.0
  0
LINE
  5
3AC
  8
THICK
  6
CONTINUOUS
 62
     7
 10
14031.686948
 20
15031.251152999999
 30
0.0
 11
14032.23965
 21
15031.251152999999
 31
0.0
  0
LINE
  5
3AD
  8
THICK
  6
CONTINUOUS
 62
     7
 10
14030.363261
 20
15031.52059
 30
0.0
 11
14031.404422999991
 21
15031.251152999999
 31
0.0
  0
LINE
  5
3AE
  8
THICK
  6
CONTINUOUS
 62
     7
 10
14044.333207
 20
15031.251152999999
 30
0.0
 11
14045.374368000001
 21
15031.52059
 31
0.0
  0
LINE
  5
3AF
  8
THICK
  6
CONTINUOUS
 62
     7
 10
14043.49798
 20
15031.251152999999
 30
0.0
 11
14044.050681999999
 21
15031.251152999999
 31
0.0
  0
LINE
  5
3B0
  8
THICK
  6
CONTINUOUS
 62
     7
 10
14044.050681999999
 20
15031.251152999999
 30
0.0
 11
14044.333207
 21
15031.251152999999
 31
0.0
  0
LINE
  5
3B1
  8
THICK
  6
CONTINUOUS
 62
     7
 10
14042.699256
 20
15031.251152999999
 30
0.0
 11
14043.49798
 21
15031.251152999999
 31
0.0
  0
LINE
  5
3B2
  8
THICK
  6
CONTINUOUS
 62
     7
 10
14041.689419
 20
15031.251152999999
 30
0.0
 11
14042.699256
 21
15031.251152999999
 31
0.0
  0
LINE
  5
3B3
  8
THICK
  6
CONTINUOUS
 62
     7
 10
14037.868815
 20
15031.251152999999
 30
0.0
 11
14039.220241000001
 21
15031.251152999999
 31
0.0
  0
LINE
  5
3B4
  8
THICK
  6
CONTINUOUS
 62
     7
 10
14039.220241000001
 20
15031.251152999999
 30
0.0
 11
14040.512602999999
 21
15031.251152999999
 31
0.0
  0
LINE
  5
3B5
  8
THICK
  6
CONTINUOUS
 62
     7
 10
14040.512602999999
 20
15031.251152999999
 30
0.0
 11
14041.689419
 21
15031.251152999999
 31
0.0
  0
LINE
  5
3B6
  8
THICK
  6
CONTINUOUS
 62
     7
 10
14036.517389000001
 20
15031.251152999999
 30
0.0
 11
14037.868815
 21
15031.251152999999
 31
0.0
  0
LINE
  5
3B7
  8
THICK
  6
CONTINUOUS
 62
     7
 10
14035.225027
 20
15031.251152999999
 30
0.0
 11
14036.517389000001
 21
15031.251152999999
 31
0.0
  0
LINE
  5
3B8
  8
THICK
  6
CONTINUOUS
 62
     7
 10
14032.23965
 20
15031.251152999999
 30
0.0
 11
14033.038374
 21
15031.251152999999
 31
0.0
  0
LINE
  5
3B9
  8
THICK
  6
CONTINUOUS
 62
     7
 10
14033.038374
 20
15031.251152999999
 30
0.0
 11
14034.048210999999
 21
15031.251152999999
 31
0.0
  0
LINE
  5
3BA
  8
THICK
  6
CONTINUOUS
 62
     7
 10
14034.048210999999
 20
15031.251152999999
 30
0.0
 11
14035.225027
 21
15031.251152999999
 31
0.0
  0
LINE
  5
3BB
  8
THICK
  6
CONTINUOUS
 62
     7
 10
14044.333207
 20
15038.051153
 30
0.0
 11
14044.050681999999
 21
15038.051153
 31
0.0
  0
LINE
  5
3BC
  8
THICK
  6
CONTINUOUS
 62
     7
 10
14044.050681999999
 20
15038.051153
 30
0.0
 11
14043.49798
 21
15038.051153
 31
0.0
  0
LINE
  5
3BD
  8
THICK
  6
CONTINUOUS
 62
     7
 10
14045.374368000001
 20
15037.781714999999
 30
0.0
 11
14044.333207
 21
15038.051153
 31
0.0
  0
LINE
  5
3BE
  8
THICK
  6
CONTINUOUS
 62
     7
 10
14031.404422999991
 20
15038.051153
 30
0.0
 11
14030.363261
 21
15037.781714999999
 31
0.0
  0
LINE
  5
3BF
  8
THICK
  6
CONTINUOUS
 62
     7
 10
14032.23965
 20
15038.051153
 30
0.0
 11
14031.686948
 21
15038.051153
 31
0.0
  0
LINE
  5
3C0
  8
THICK
  6
CONTINUOUS
 62
     7
 10
14031.686948
 20
15038.051153
 30
0.0
 11
14031.404422999991
 21
15038.051153
 31
0.0
  0
LINE
  5
3C1
  8
THICK
  6
CONTINUOUS
 62
     7
 10
14033.038374
 20
15038.051153
 30
0.0
 11
14032.23965
 21
15038.051153
 31
0.0
  0
LINE
  5
3C2
  8
THICK
  6
CONTINUOUS
 62
     7
 10
14034.048210999999
 20
15038.051153
 30
0.0
 11
14033.038374
 21
15038.051153
 31
0.0
  0
LINE
  5
3C3
  8
THICK
  6
CONTINUOUS
 62
     7
 10
14037.868815
 20
15038.051153
 30
0.0
 11
14036.517389000001
 21
15038.051153
 31
0.0
  0
LINE
  5
3C4
  8
THICK
  6
CONTINUOUS
 62
     7
 10
14036.517389000001
 20
15038.051153
 30
0.0
 11
14035.225027
 21
15038.051153
 31
0.0
  0
LINE
  5
3C5
  8
THICK
  6
CONTINUOUS
 62
     7
 10
14035.225027
 20
15038.051153
 30
0.0
 11
14034.048210999999
 21
15038.051153
 31
0.0
  0
LINE
  5
3C6
  8
THICK
  6
CONTINUOUS
 62
     7
 10
14039.220241000001
 20
15038.051153
 30
0.0
 11
14037.868815
 21
15038.051153
 31
0.0
  0
LINE
  5
3C7
  8
THICK
  6
CONTINUOUS
 62
     7
 10
14040.512602999999
 20
15038.051153
 30
0.0
 11
14039.220241000001
 21
15038.051153
 31
0.0
  0
LINE
  5
3C8
  8
THICK
  6
CONTINUOUS
 62
     7
 10
14043.49798
 20
15038.051153
 30
0.0
 11
14042.699256
 21
15038.051153
 31
0.0
  0
LINE
  5
3C9
  8
THICK
  6
CONTINUOUS
 62
     7
 10
14042.699256
 20
15038.051153
 30
0.0
 11
14041.689419
 21
15038.051153
 31
0.0
  0
LINE
  5
3CA
  8
THICK
  6
CONTINUOUS
 62
     7
 10
14041.689419
 20
15038.051153
 30
0.0
 11
14040.512602999999
 21
15038.051153
 31
0.0
  0
LINE
  5
3CB
  8
HIDDEN
  6
CONTINUOUS
 62
     7
 10
14037.868815
 20
15037.374653000001
 30
0.0
 11
14037.00863
 21
15037.374653000001
 31
0.0
  0
LINE
  5
3CC
  8
HIDDEN
  6
CONTINUOUS
 62
     7
 10
14036.207065000001
 20
15031.927653000001
 30
0.0
 11
14037.00863
 21
15031.927653000001
 31
0.0
  0
LINE
  5
3CD
  8
HIDDEN
  6
CONTINUOUS
 62
     7
 10
14037.00863
 20
15037.374653000001
 30
0.0
 11
14036.207065000001
 21
15037.374653000001
 31
0.0
  0
LINE
  5
3CE
  8
HIDDEN
  6
CONTINUOUS
 62
     7
 10
14035.518746
 20
15031.927653000001
 30
0.0
 11
14036.207065000001
 21
15031.927653000001
 31
0.0
  0
LINE
  5
3CF
  8
HIDDEN
  6
CONTINUOUS
 62
     7
 10
14036.207065000001
 20
15037.374653000001
 30
0.0
 11
14035.518746
 21
15037.374653000001
 31
0.0
  0
LINE
  5
3D0
  8
HIDDEN
  6
CONTINUOUS
 62
     7
 10
14035.518746
 20
15037.374653000001
 30
0.0
 11
14034.99058
 21
15037.374653000001
 31
0.0
  0
LINE
  5
3D1
  8
HIDDEN
  6
CONTINUOUS
 62
     7
 10
14034.99058
 20
15037.374653000001
 30
0.0
 11
14034.65856
 21
15037.374653000001
 31
0.0
  0
LINE
  5
3D2
  8
HIDDEN
  6
CONTINUOUS
 62
     7
 10
14034.65856
 20
15037.374653000001
 30
0.0
 11
14034.545314999999
 21
15037.374653000001
 31
0.0
  0
LINE
  5
3D3
  8
HIDDEN
  6
CONTINUOUS
 62
     7
 10
14034.545314999999
 20
15037.374653000001
 30
0.0
 11
14034.545314999999
 21
15031.927653000001
 31
0.0
  0
LINE
  5
3D4
  8
HIDDEN
  6
CONTINUOUS
 62
     7
 10
14041.192315
 20
15037.374653000001
 30
0.0
 11
14041.079068999999
 21
15037.374653000001
 31
0.0
  0
LINE
  5
3D5
  8
HIDDEN
  6
CONTINUOUS
 62
     7
 10
14041.079068999999
 20
15037.374653000001
 30
0.0
 11
14040.74705
 21
15037.374653000001
 31
0.0
  0
LINE
  5
3D6
  8
HIDDEN
  6
CONTINUOUS
 62
     7
 10
14040.74705
 20
15037.374653000001
 30
0.0
 11
14040.218884
 21
15037.374653000001
 31
0.0
  0
LINE
  5
3D7
  8
HIDDEN
  6
CONTINUOUS
 62
     7
 10
14040.218884
 20
15037.374653000001
 30
0.0
 11
14039.530564999999
 21
15037.374653000001
 31
0.0
  0
LINE
  5
3D8
  8
HIDDEN
  6
CONTINUOUS
 62
     7
 10
14039.530564999999
 20
15037.374653000001
 30
0.0
 11
14038.728999999999
 21
15037.374653000001
 31
0.0
  0
LINE
  5
3D9
  8
HIDDEN
  6
CONTINUOUS
 62
     7
 10
14038.728999999999
 20
15037.374653000001
 30
0.0
 11
14037.868815
 21
15037.374653000001
 31
0.0
  0
LINE
  5
3DA
  8
HIDDEN
  6
CONTINUOUS
 62
     7
 10
14037.00863
 20
15031.927653000001
 30
0.0
 11
14037.868815
 21
15031.927653000001
 31
0.0
  0
LINE
  5
3DB
  8
HIDDEN
  6
CONTINUOUS
 62
     7
 10
14037.868815
 20
15031.927653000001
 30
0.0
 11
14038.728999999999
 21
15031.927653000001
 31
0.0
  0
LINE
  5
3DC
  8
HIDDEN
  6
CONTINUOUS
 62
     7
 10
14038.728999999999
 20
15031.927653000001
 30
0.0
 11
14039.530564999999
 21
15031.927653000001
 31
0.0
  0
LINE
  5
3DD
  8
HIDDEN
  6
CONTINUOUS
 62
     7
 10
14039.530564999999
 20
15031.927653000001
 30
0.0
 11
14040.218884
 21
15031.927653000001
 31
0.0
  0
LINE
  5
3DE
  8
HIDDEN
  6
CONTINUOUS
 62
     7
 10
14040.218884
 20
15031.927653000001
 30
0.0
 11
14040.74705
 21
15031.927653000001
 31
0.0
  0
LINE
  5
3DF
  8
HIDDEN
  6
CONTINUOUS
 62
     7
 10
14040.74705
 20
15031.927653000001
 30
0.0
 11
14041.079068999999
 21
15031.927653000001
 31
0.0
  0
LINE
  5
3E0
  8
HIDDEN
  6
CONTINUOUS
 62
     7
 10
14041.079068999999
 20
15031.927653000001
 30
0.0
 11
14041.192315
 21
15031.927653000001
 31
0.0
  0
LINE
  5
3E1
  8
HIDDEN
  6
CONTINUOUS
 62
     7
 10
14041.192315
 20
15031.927653000001
 30
0.0
 11
14041.192315
 21
15037.374653000001
 31
0.0
  0
LINE
  5
3E2
  8
HIDDEN
  6
CONTINUOUS
 62
     7
 10
14034.545314999999
 20
15031.927653000001
 30
0.0
 11
14034.65856
 21
15031.927653000001
 31
0.0
  0
LINE
  5
3E3
  8
HIDDEN
  6
CONTINUOUS
 62
     7
 10
14034.65856
 20
15031.927653000001
 30
0.0
 11
14034.99058
 21
15031.927653000001
 31
0.0
  0
LINE
  5
3E4
  8
HIDDEN
  6
CONTINUOUS
 62
     7
 10
14034.99058
 20
15031.927653000001
 30
0.0
 11
14035.518746
 21
15031.927653000001
 31
0.0
  0
LINE
  5
3E5
  8
HIDDEN
  6
CONTINUOUS
 62
     7
 10
14037.868815
 20
15038.051153
 30
0.0
 11
14036.833538999999
 21
15038.051153
 31
0.0
  0
LINE
  5
3E6
  8
HIDDEN
  6
CONTINUOUS
 62
     7
 10
14036.833538999999
 20
15038.051153
 30
0.0
 11
14036.517389000001
 21
15038.051153
 31
0.0
  0
LINE
  5
3E7
  8
THICK
  6
CONTINUOUS
 62
     7
 10
14036.517389000001
 20
15038.051153
 30
0.0
 11
14035.868815
 21
15038.051153
 31
0.0
  0
LINE
  5
3E8
  8
THICK
  6
CONTINUOUS
 62
     7
 10
14035.868815
 20
15038.051153
 30
0.0
 11
14035.040387999999
 21
15038.051153
 31
0.0
  0
LINE
  5
3E9
  8
THICK
  6
CONTINUOUS
 62
     7
 10
14035.040387999999
 20
15038.051153
 30
0.0
 11
14034.404713
 21
15038.051153
 31
0.0
  0
LINE
  5
3EA
  8
THICK
  6
CONTINUOUS
 62
     7
 10
14034.404713
 20
15038.051153
 30
0.0
 11
14034.005112000001
 21
15038.051153
 31
0.0
  0
LINE
  5
3EB
  8
THICK
  6
CONTINUOUS
 62
     7
 10
14034.005112000001
 20
15038.051153
 30
0.0
 11
14033.868815
 21
15038.051153
 31
0.0
  0
LINE
  5
3EC
  8
HIDDEN
  6
CONTINUOUS
 62
     7
 10
14033.868815
 20
15038.051153
 30
0.0
 11
14034.545314999999
 21
15037.374653000001
 31
0.0
  0
LINE
  5
3ED
  8
THICK
  6
CONTINUOUS
 62
     7
 10
14041.868815
 20
15038.051153
 30
0.0
 11
14041.732518000001
 21
15038.051153
 31
0.0
  0
LINE
  5
3EE
  8
THICK
  6
CONTINUOUS
 62
     7
 10
14041.732518000001
 20
15038.051153
 30
0.0
 11
14041.332917
 21
15038.051153
 31
0.0
  0
LINE
  5
3EF
  8
THICK
  6
CONTINUOUS
 62
     7
 10
14041.332917
 20
15038.051153
 30
0.0
 11
14040.697242
 21
15038.051153
 31
0.0
  0
LINE
  5
3F0
  8
THICK
  6
CONTINUOUS
 62
     7
 10
14040.697242
 20
15038.051153
 30
0.0
 11
14039.868815
 21
15038.051153
 31
0.0
  0
LINE
  5
3F1
  8
THICK
  6
CONTINUOUS
 62
     7
 10
14039.868815
 20
15038.051153
 30
0.0
 11
14039.220241000001
 21
15038.051153
 31
0.0
  0
LINE
  5
3F2
  8
HIDDEN
  6
CONTINUOUS
 62
     7
 10
14039.220241000001
 20
15038.051153
 30
0.0
 11
14038.904091
 21
15038.051153
 31
0.0
  0
LINE
  5
3F3
  8
HIDDEN
  6
CONTINUOUS
 62
     7
 10
14038.904091
 20
15038.051153
 30
0.0
 11
14037.868815
 21
15038.051153
 31
0.0
  0
LINE
  5
3F4
  8
HIDDEN
  6
CONTINUOUS
 62
     7
 10
14041.192315
 20
15037.374653000001
 30
0.0
 11
14041.868815
 21
15038.051153
 31
0.0
  0
LINE
  5
3F5
  8
HIDDEN
  6
CONTINUOUS
 62
     7
 10
14035.868815
 20
15031.251152999999
 30
0.0
 11
14036.833538999999
 21
15031.251152999999
 31
0.0
  0
LINE
  5
3F6
  8
HIDDEN
  6
CONTINUOUS
 62
     7
 10
14035.040387999999
 20
15031.251152999999
 30
0.0
 11
14035.868815
 21
15031.251152999999
 31
0.0
  0
LINE
  5
3F7
  8
HIDDEN
  6
CONTINUOUS
 62
     7
 10
14034.545314999999
 20
15031.927653000001
 30
0.0
 11
14033.868815
 21
15031.251152999999
 31
0.0
  0
LINE
  5
3F8
  8
HIDDEN
  6
CONTINUOUS
 62
     7
 10
14036.833538999999
 20
15031.251152999999
 30
0.0
 11
14037.868815
 21
15031.251152999999
 31
0.0
  0
LINE
  5
3F9
  8
HIDDEN
  6
CONTINUOUS
 62
     7
 10
14037.868815
 20
15031.251152999999
 30
0.0
 11
14038.904091
 21
15031.251152999999
 31
0.0
  0
LINE
  5
3FA
  8
HIDDEN
  6
CONTINUOUS
 62
     7
 10
14038.904091
 20
15031.251152999999
 30
0.0
 11
14039.868815
 21
15031.251152999999
 31
0.0
  0
LINE
  5
3FB
  8
HIDDEN
  6
CONTINUOUS
 62
     7
 10
14039.868815
 20
15031.251152999999
 30
0.0
 11
14040.697242
 21
15031.251152999999
 31
0.0
  0
LINE
  5
3FC
  8
HIDDEN
  6
CONTINUOUS
 62
     7
 10
14040.697242
 20
15031.251152999999
 30
0.0
 11
14041.332917
 21
15031.251152999999
 31
0.0
  0
LINE
  5
3FD
  8
HIDDEN
  6
CONTINUOUS
 62
     7
 10
14041.332917
 20
15031.251152999999
 30
0.0
 11
14041.732518000001
 21
15031.251152999999
 31
0.0
  0
LINE
  5
3FE
  8
HIDDEN
  6
CONTINUOUS
 62
     7
 10
14041.732518000001
 20
15031.251152999999
 30
0.0
 11
14041.868815
 21
15031.251152999999
 31
0.0
  0
LINE
  5
3FF
  8
HIDDEN
  6
CONTINUOUS
 62
     7
 10
14041.868815
 20
15031.251152999999
 30
0.0
 11
14041.192315
 21
15031.927653000001
 31
0.0
  0
LINE
  5
400
  8
HIDDEN
  6
CONTINUOUS
 62
     7
 10
14033.868815
 20
15031.251152999999
 30
0.0
 11
14034.005112000001
 21
15031.251152999999
 31
0.0
  0
LINE
  5
401
  8
HIDDEN
  6
CONTINUOUS
 62
     7
 10
14034.005112000001
 20
15031.251152999999
 30
0.0
 11
14034.404713
 21
15031.251152999999
 31
0.0
  0
LINE
  5
402
  8
HIDDEN
  6
CONTINUOUS
 62
     7
 10
14034.404713
 20
15031.251152999999
 30
0.0
 11
14035.040387999999
 21
15031.251152999999
 31
0.0
  0
LINE
  5
403
  8
HIDDEN
  6
CONTINUOUS
 62
     7
 10
14041.621592
 20
15031.52059
 30
0.0
 11
14041.621592
 21
15037.781714999999
 31
0.0
  0
LINE
  5
404
  8
HIDDEN
  6
CONTINUOUS
 62
     7
 10
14042.55754
 20
15031.322604000001
 30
0.0
 11
14041.621592
 21
15031.52059
 31
0.0
  0
LINE
  5
405
  8
HIDDEN
  6
CONTINUOUS
 62
     7
 10
14041.621592
 20
15037.781714999999
 30
0.0
 11
14042.55754
 21
15037.979701
 31
0.0
  0
LINE
  5
406
  8
HIDDEN
  6
CONTINUOUS
 62
     7
 10
14042.55754
 20
15037.979701
 30
0.0
 11
14043.49798
 21
15038.051153
 31
0.0
  0
LINE
  5
407
  8
HIDDEN
  6
CONTINUOUS
 62
     7
 10
14043.49798
 20
15038.051153
 30
0.0
 11
14044.438421000001
 21
15037.979701
 31
0.0
  0
LINE
  5
408
  8
HIDDEN
  6
CONTINUOUS
 62
     7
 10
14044.438421000001
 20
15031.322604000001
 30
0.0
 11
14043.49798
 21
15031.251152999999
 31
0.0
  0
LINE
  5
409
  8
HIDDEN
  6
CONTINUOUS
 62
     7
 10
14044.438421000001
 20
15037.979701
 30
0.0
 11
14045.374368000001
 21
15037.781714999999
 31
0.0
  0
LINE
  5
40A
  8
HIDDEN
  6
CONTINUOUS
 62
     7
 10
14045.374368000001
 20
15031.52059
 30
0.0
 11
14044.438421000001
 21
15031.322604000001
 31
0.0
  0
LINE
  5
40B
  8
HIDDEN
  6
CONTINUOUS
 62
     7
 10
14043.49798
 20
15031.251152999999
 30
0.0
 11
14042.55754
 21
15031.322604000001
 31
0.0
  0
LINE
  5
40C
  8
HIDDEN
  6
CONTINUOUS
 62
     7
 10
14034.116038
 20
15031.52059
 30
0.0
 11
14033.18009
 21
15031.322604000001
 31
0.0
  0
LINE
  5
40D
  8
HIDDEN
  6
CONTINUOUS
 62
     7
 10
14034.116038
 20
15037.781714999999
 30
0.0
 11
14034.116038
 21
15031.52059
 31
0.0
  0
LINE
  5
40E
  8
HIDDEN
  6
CONTINUOUS
 62
     7
 10
14033.18009
 20
15037.979701
 30
0.0
 11
14034.116038
 21
15037.781714999999
 31
0.0
  0
LINE
  5
40F
  8
HIDDEN
  6
CONTINUOUS
 62
     7
 10
14033.18009
 20
15031.322604000001
 30
0.0
 11
14032.23965
 21
15031.251152999999
 31
0.0
  0
LINE
  5
410
  8
HIDDEN
  6
CONTINUOUS
 62
     7
 10
14031.299209000001
 20
15037.979701
 30
0.0
 11
14032.23965
 21
15038.051153
 31
0.0
  0
LINE
  5
411
  8
HIDDEN
  6
CONTINUOUS
 62
     7
 10
14032.23965
 20
15038.051153
 30
0.0
 11
14033.18009
 21
15037.979701
 31
0.0
  0
LINE
  5
412
  8
HIDDEN
  6
CONTINUOUS
 62
     7
 10
14032.23965
 20
15031.251152999999
 30
0.0
 11
14031.299209000001
 21
15031.322604000001
 31
0.0
  0
LINE
  5
413
  8
HIDDEN
  6
CONTINUOUS
 62
     7
 10
14030.363261
 20
15037.781714999999
 30
0.0
 11
14031.299209000001
 21
15037.979701
 31
0.0
  0
LINE
  5
414
  8
HIDDEN
  6
CONTINUOUS
 62
     7
 10
14031.299209000001
 20
15031.322604000001
 30
0.0
 11
14030.363261
 21
15031.52059
 31
0.0
  0
LINE
  5
415
  8
HIDDEN
  6
CONTINUOUS
 62
     7
 10
14041.621592
 20
15031.52059
 30
0.0
 11
14039.749696000001
 21
15031.322604000001
 31
0.0
  0
LINE
  5
416
  8
HIDDEN
  6
CONTINUOUS
 62
     7
 10
14039.749696000001
 20
15037.979701
 30
0.0
 11
14041.621592
 21
15037.781714999999
 31
0.0
  0
LINE
  5
417
  8
HIDDEN
  6
CONTINUOUS
 62
     7
 10
14039.749696000001
 20
15031.322604000001
 30
0.0
 11
14037.868815
 21
15031.251152999999
 31
0.0
  0
LINE
  5
418
  8
HIDDEN
  6
CONTINUOUS
 62
     7
 10
14035.987934000001
 20
15037.979701
 30
0.0
 11
14037.868815
 21
15038.051153
 31
0.0
  0
LINE
  5
419
  8
HIDDEN
  6
CONTINUOUS
 62
     7
 10
14037.868815
 20
15038.051153
 30
0.0
 11
14039.749696000001
 21
15037.979701
 31
0.0
  0
LINE
  5
41A
  8
HIDDEN
  6
CONTINUOUS
 62
     7
 10
14037.868815
 20
15031.251152999999
 30
0.0
 11
14035.987934000001
 21
15031.322604000001
 31
0.0
  0
LINE
  5
41B
  8
HIDDEN
  6
CONTINUOUS
 62
     7
 10
14034.116038
 20
15037.781714999999
 30
0.0
 11
14035.987934000001
 21
15037.979701
 31
0.0
  0
LINE
  5
41C
  8
HIDDEN
  6
CONTINUOUS
 62
     7
 10
14035.987934000001
 20
15031.322604000001
 30
0.0
 11
14034.116038
 21
15031.52059
 31
0.0
  0
LINE
  5
41D
  8
HIDDEN
  6
CONTINUOUS
 62
     7
 10
14032.23965
 20
15031.251152999999
 30
0.0
 11
14031.686948
 21
15031.251152999999
 31
0.0
  0
LINE
  5
41E
  8
HIDDEN
  6
CONTINUOUS
 62
     7
 10
14031.686948
 20
15031.251152999999
 30
0.0
 11
14031.404422999991
 21
15031.251152999999
 31
0.0
  0
LINE
  5
41F
  8
HIDDEN
  6
CONTINUOUS
 62
     7
 10
14031.404422999991
 20
15031.251152999999
 30
0.0
 11
14031.404422999991
 21
15031.251152999999
 31
0.0
  0
LINE
  5
420
  8
HIDDEN
  6
CONTINUOUS
 62
     7
 10
14037.868815
 20
15031.251152999999
 30
0.0
 11
14036.517389000001
 21
15031.251152999999
 31
0.0
  0
LINE
  5
421
  8
HIDDEN
  6
CONTINUOUS
 62
     7
 10
14036.517389000001
 20
15031.251152999999
 30
0.0
 11
14035.225027
 21
15031.251152999999
 31
0.0
  0
LINE
  5
422
  8
HIDDEN
  6
CONTINUOUS
 62
     7
 10
14035.225027
 20
15031.251152999999
 30
0.0
 11
14034.048210999999
 21
15031.251152999999
 31
0.0
  0
LINE
  5
423
  8
HIDDEN
  6
CONTINUOUS
 62
     7
 10
14034.048210999999
 20
15031.251152999999
 30
0.0
 11
14033.038374
 21
15031.251152999999
 31
0.0
  0
LINE
  5
424
  8
HIDDEN
  6
CONTINUOUS
 62
     7
 10
14033.038374
 20
15031.251152999999
 30
0.0
 11
14032.23965
 21
15031.251152999999
 31
0.0
  0
LINE
  5
425
  8
HIDDEN
  6
CONTINUOUS
 62
     7
 10
14043.49798
 20
15031.251152999999
 30
0.0
 11
14042.699256
 21
15031.251152999999
 31
0.0
  0
LINE
  5
426
  8
HIDDEN
  6
CONTINUOUS
 62
     7
 10
14042.699256
 20
15031.251152999999
 30
0.0
 11
14041.689419
 21
15031.251152999999
 31
0.0
  0
LINE
  5
427
  8
HIDDEN
  6
CONTINUOUS
 62
     7
 10
14041.689419
 20
15031.251152999999
 30
0.0
 11
14040.512602999999
 21
15031.251152999999
 31
0.0
  0
LINE
  5
428
  8
HIDDEN
  6
CONTINUOUS
 62
     7
 10
14040.512602999999
 20
15031.251152999999
 30
0.0
 11
14039.220241000001
 21
15031.251152999999
 31
0.0
  0
LINE
  5
429
  8
HIDDEN
  6
CONTINUOUS
 62
     7
 10
14039.220241000001
 20
15031.251152999999
 30
0.0
 11
14037.868815
 21
15031.251152999999
 31
0.0
  0
LINE
  5
42A
  8
HIDDEN
  6
CONTINUOUS
 62
     7
 10
14044.050681999999
 20
15031.251152999999
 30
0.0
 11
14043.49798
 21
15031.251152999999
 31
0.0
  0
LINE
  5
42B
  8
HIDDEN
  6
CONTINUOUS
 62
     7
 10
14044.333207
 20
15031.251152999999
 30
0.0
 11
14044.050681999999
 21
15031.251152999999
 31
0.0
  0
LINE
  5
42C
  8
HIDDEN
  6
CONTINUOUS
 62
     7
 10
14044.333207
 20
15031.251152999999
 30
0.0
 11
14044.333207
 21
15031.251152999999
 31
0.0
  0
LINE
  5
42D
  8
HIDDEN
  6
CONTINUOUS
 62
     7
 10
14043.49798
 20
15038.051153
 30
0.0
 11
14044.050681999999
 21
15038.051153
 31
0.0
  0
LINE
  5
42E
  8
HIDDEN
  6
CONTINUOUS
 62
     7
 10
14044.050681999999
 20
15038.051153
 30
0.0
 11
14044.333207
 21
15038.051153
 31
0.0
  0
LINE
  5
42F
  8
HIDDEN
  6
CONTINUOUS
 62
     7
 10
14044.333207
 20
15038.051153
 30
0.0
 11
14044.333207
 21
15038.051153
 31
0.0
  0
LINE
  5
430
  8
HIDDEN
  6
CONTINUOUS
 62
     7
 10
14037.868815
 20
15038.051153
 30
0.0
 11
14039.220241000001
 21
15038.051153
 31
0.0
  0
LINE
  5
431
  8
HIDDEN
  6
CONTINUOUS
 62
     7
 10
14039.220241000001
 20
15038.051153
 30
0.0
 11
14040.512602999999
 21
15038.051153
 31
0.0
  0
LINE
  5
432
  8
HIDDEN
  6
CONTINUOUS
 62
     7
 10
14040.512602999999
 20
15038.051153
 30
0.0
 11
14041.689419
 21
15038.051153
 31
0.0
  0
LINE
  5
433
  8
HIDDEN
  6
CONTINUOUS
 62
     7
 10
14041.689419
 20
15038.051153
 30
0.0
 11
14042.699256
 21
15038.051153
 31
0.0
  0
LINE
  5
434
  8
HIDDEN
  6
CONTINUOUS
 62
     7
 10
14042.699256
 20
15038.051153
 30
0.0
 11
14043.49798
 21
15038.051153
 31
0.0
  0
LINE
  5
435
  8
HIDDEN
  6
CONTINUOUS
 62
     7
 10
14032.23965
 20
15038.051153
 30
0.0
 11
14033.038374
 21
15038.051153
 31
0.0
  0
LINE
  5
436
  8
HIDDEN
  6
CONTINUOUS
 62
     7
 10
14033.038374
 20
15038.051153
 30
0.0
 11
14034.048210999999
 21
15038.051153
 31
0.0
  0
LINE
  5
437
  8
HIDDEN
  6
CONTINUOUS
 62
     7
 10
14034.048210999999
 20
15038.051153
 30
0.0
 11
14035.225027
 21
15038.051153
 31
0.0
  0
LINE
  5
438
  8
HIDDEN
  6
CONTINUOUS
 62
     7
 10
14035.225027
 20
15038.051153
 30
0.0
 11
14036.517389000001
 21
15038.051153
 31
0.0
  0
LINE
  5
439
  8
HIDDEN
  6
CONTINUOUS
 62
     7
 10
14036.517389000001
 20
15038.051153
 30
0.0
 11
14037.868815
 21
15038.051153
 31
0.0
  0
LINE
  5
43A
  8
HIDDEN
  6
CONTINUOUS
 62
     7
 10
14031.686948
 20
15038.051153
 30
0.0
 11
14032.23965
 21
15038.051153
 31
0.0
  0
LINE
  5
43B
  8
HIDDEN
  6
CONTINUOUS
 62
     7
 10
14031.404422999991
 20
15038.051153
 30
0.0
 11
14031.686948
 21
15038.051153
 31
0.0
  0
LINE
  5
43C
  8
HIDDEN
  6
CONTINUOUS
 62
     7
 10
14031.404422999991
 20
15038.051153
 30
0.0
 11
14031.404422999991
 21
15038.051153
 31
0.0
  0
LINE
  5
43D
  8
HIDDEN
  6
CONTINUOUS
 62
     7
 10
14034.545314999999
 20
15037.374653000001
 30
0.0
 11
14034.65856
 21
15037.374653000001
 31
0.0
  0
LINE
  5
43E
  8
HIDDEN
  6
CONTINUOUS
 62
     7
 10
14034.65856
 20
15037.374653000001
 30
0.0
 11
14034.99058
 21
15037.374653000001
 31
0.0
  0
LINE
  5
43F
  8
HIDDEN
  6
CONTINUOUS
 62
     7
 10
14034.99058
 20
15037.374653000001
 30
0.0
 11
14035.518746
 21
15037.374653000001
 31
0.0
  0
LINE
  5
440
  8
HIDDEN
  6
CONTINUOUS
 62
     7
 10
14035.518746
 20
15037.374653000001
 30
0.0
 11
14036.207065000001
 21
15037.374653000001
 31
0.0
  0
LINE
  5
441
  8
HIDDEN
  6
CONTINUOUS
 62
     7
 10
14036.207065000001
 20
15037.374653000001
 30
0.0
 11
14037.00863
 21
15037.374653000001
 31
0.0
  0
LINE
  5
442
  8
HIDDEN
  6
CONTINUOUS
 62
     7
 10
14037.00863
 20
15037.374653000001
 30
0.0
 11
14037.868815
 21
15037.374653000001
 31
0.0
  0
LINE
  5
443
  8
HIDDEN
  6
CONTINUOUS
 62
     7
 10
14037.868815
 20
15037.374653000001
 30
0.0
 11
14038.728999999999
 21
15037.374653000001
 31
0.0
  0
LINE
  5
444
  8
HIDDEN
  6
CONTINUOUS
 62
     7
 10
14038.728999999999
 20
15037.374653000001
 30
0.0
 11
14039.530564999999
 21
15037.374653000001
 31
0.0
  0
LINE
  5
445
  8
HIDDEN
  6
CONTINUOUS
 62
     7
 10
14039.530564999999
 20
15037.374653000001
 30
0.0
 11
14040.218884
 21
15037.374653000001
 31
0.0
  0
LINE
  5
446
  8
HIDDEN
  6
CONTINUOUS
 62
     7
 10
14040.218884
 20
15037.374653000001
 30
0.0
 11
14040.74705
 21
15037.374653000001
 31
0.0
  0
LINE
  5
447
  8
HIDDEN
  6
CONTINUOUS
 62
     7
 10
14040.74705
 20
15037.374653000001
 30
0.0
 11
14041.079068999999
 21
15037.374653000001
 31
0.0
  0
LINE
  5
448
  8
HIDDEN
  6
CONTINUOUS
 62
     7
 10
14041.079068999999
 20
15037.374653000001
 30
0.0
 11
14041.192315
 21
15037.374653000001
 31
0.0
  0
LINE
  5
449
  8
HIDDEN
  6
CONTINUOUS
 62
     7
 10
14041.192315
 20
15031.927653000001
 30
0.0
 11
14041.079068999999
 21
15031.927653000001
 31
0.0
  0
LINE
  5
44A
  8
HIDDEN
  6
CONTINUOUS
 62
     7
 10
14041.079068999999
 20
15031.927653000001
 30
0.0
 11
14040.74705
 21
15031.927653000001
 31
0.0
  0
LINE
  5
44B
  8
HIDDEN
  6
CONTINUOUS
 62
     7
 10
14040.74705
 20
15031.927653000001
 30
0.0
 11
14040.218884
 21
15031.927653000001
 31
0.0
  0
LINE
  5
44C
  8
HIDDEN
  6
CONTINUOUS
 62
     7
 10
14040.218884
 20
15031.927653000001
 30
0.0
 11
14039.530564999999
 21
15031.927653000001
 31
0.0
  0
LINE
  5
44D
  8
HIDDEN
  6
CONTINUOUS
 62
     7
 10
14039.530564999999
 20
15031.927653000001
 30
0.0
 11
14038.728999999999
 21
15031.927653000001
 31
0.0
  0
LINE
  5
44E
  8
HIDDEN
  6
CONTINUOUS
 62
     7
 10
14038.728999999999
 20
15031.927653000001
 30
0.0
 11
14037.868815
 21
15031.927653000001
 31
0.0
  0
LINE
  5
44F
  8
HIDDEN
  6
CONTINUOUS
 62
     7
 10
14037.868815
 20
15031.927653000001
 30
0.0
 11
14037.00863
 21
15031.927653000001
 31
0.0
  0
LINE
  5
450
  8
HIDDEN
  6
CONTINUOUS
 62
     7
 10
14037.00863
 20
15031.927653000001
 30
0.0
 11
14036.207065000001
 21
15031.927653000001
 31
0.0
  0
LINE
  5
451
  8
HIDDEN
  6
CONTINUOUS
 62
     7
 10
14036.207065000001
 20
15031.927653000001
 30
0.0
 11
14035.518746
 21
15031.927653000001
 31
0.0
  0
LINE
  5
452
  8
HIDDEN
  6
CONTINUOUS
 62
     7
 10
14035.518746
 20
15031.927653000001
 30
0.0
 11
14034.99058
 21
15031.927653000001
 31
0.0
  0
LINE
  5
453
  8
HIDDEN
  6
CONTINUOUS
 62
     7
 10
14034.99058
 20
15031.927653000001
 30
0.0
 11
14034.65856
 21
15031.927653000001
 31
0.0
  0
LINE
  5
454
  8
HIDDEN
  6
CONTINUOUS
 62
     7
 10
14034.65856
 20
15031.927653000001
 30
0.0
 11
14034.545314999999
 21
15031.927653000001
 31
0.0
  0
LINE
  5
455
  8
HIDDEN
  6
CONTINUOUS
 62
     7
 10
14033.868815
 20
15038.051153
 30
0.0
 11
14034.005112000001
 21
15038.051153
 31
0.0
  0
LINE
  5
456
  8
HIDDEN
  6
CONTINUOUS
 62
     7
 10
14034.005112000001
 20
15038.051153
 30
0.0
 11
14034.404713
 21
15038.051153
 31
0.0
  0
LINE
  5
457
  8
HIDDEN
  6
CONTINUOUS
 62
     7
 10
14034.404713
 20
15038.051153
 30
0.0
 11
14035.040387999999
 21
15038.051153
 31
0.0
  0
LINE
  5
458
  8
HIDDEN
  6
CONTINUOUS
 62
     7
 10
14035.040387999999
 20
15038.051153
 30
0.0
 11
14035.868815
 21
15038.051153
 31
0.0
  0
LINE
  5
459
  8
HIDDEN
  6
CONTINUOUS
 62
     7
 10
14035.868815
 20
15038.051153
 30
0.0
 11
14036.833538999999
 21
15038.051153
 31
0.0
  0
LINE
  5
45A
  8
HIDDEN
  6
CONTINUOUS
 62
     7
 10
14036.833538999999
 20
15038.051153
 30
0.0
 11
14037.868815
 21
15038.051153
 31
0.0
  0
LINE
  5
45B
  8
HIDDEN
  6
CONTINUOUS
 62
     7
 10
14037.868815
 20
15038.051153
 30
0.0
 11
14038.904091
 21
15038.051153
 31
0.0
  0
LINE
  5
45C
  8
HIDDEN
  6
CONTINUOUS
 62
     7
 10
14038.904091
 20
15038.051153
 30
0.0
 11
14039.868815
 21
15038.051153
 31
0.0
  0
LINE
  5
45D
  8
HIDDEN
  6
CONTINUOUS
 62
     7
 10
14039.868815
 20
15038.051153
 30
0.0
 11
14040.697242
 21
15038.051153
 31
0.0
  0
LINE
  5
45E
  8
HIDDEN
  6
CONTINUOUS
 62
     7
 10
14040.697242
 20
15038.051153
 30
0.0
 11
14041.332917
 21
15038.051153
 31
0.0
  0
LINE
  5
45F
  8
HIDDEN
  6
CONTINUOUS
 62
     7
 10
14041.332917
 20
15038.051153
 30
0.0
 11
14041.732518000001
 21
15038.051153
 31
0.0
  0
LINE
  5
460
  8
HIDDEN
  6
CONTINUOUS
 62
     7
 10
14041.732518000001
 20
15038.051153
 30
0.0
 11
14041.868815
 21
15038.051153
 31
0.0
  0
LINE
  5
461
  8
HIDDEN
  6
CONTINUOUS
 62
     7
 10
14033.868815
 20
15031.251152999999
 30
0.0
 11
14034.005112000001
 21
15031.251152999999
 31
0.0
  0
LINE
  5
462
  8
HIDDEN
  6
CONTINUOUS
 62
     7
 10
14034.005112000001
 20
15031.251152999999
 30
0.0
 11
14034.404713
 21
15031.251152999999
 31
0.0
  0
LINE
  5
463
  8
HIDDEN
  6
CONTINUOUS
 62
     7
 10
14034.404713
 20
15031.251152999999
 30
0.0
 11
14035.040387999999
 21
15031.251152999999
 31
0.0
  0
LINE
  5
464
  8
HIDDEN
  6
CONTINUOUS
 62
     7
 10
14035.040387999999
 20
15031.251152999999
 30
0.0
 11
14035.868815
 21
15031.251152999999
 31
0.0
  0
LINE
  5
465
  8
HIDDEN
  6
CONTINUOUS
 62
     7
 10
14035.868815
 20
15031.251152999999
 30
0.0
 11
14036.833538999999
 21
15031.251152999999
 31
0.0
  0
LINE
  5
466
  8
HIDDEN
  6
CONTINUOUS
 62
     7
 10
14036.833538999999
 20
15031.251152999999
 30
0.0
 11
14037.868815
 21
15031.251152999999
 31
0.0
  0
LINE
  5
467
  8
HIDDEN
  6
CONTINUOUS
 62
     7
 10
14037.868815
 20
15031.251152999999
 30
0.0
 11
14038.904091
 21
15031.251152999999
 31
0.0
  0
LINE
  5
468
  8
HIDDEN
  6
CONTINUOUS
 62
     7
 10
14038.904091
 20
15031.251152999999
 30
0.0
 11
14039.868815
 21
15031.251152999999
 31
0.0
  0
LINE
  5
469
  8
HIDDEN
  6
CONTINUOUS
 62
     7
 10
14039.868815
 20
15031.251152999999
 30
0.0
 11
14040.697242
 21
15031.251152999999
 31
0.0
  0
LINE
  5
46A
  8
HIDDEN
  6
CONTINUOUS
 62
     7
 10
14040.697242
 20
15031.251152999999
 30
0.0
 11
14041.332917
 21
15031.251152999999
 31
0.0
  0
LINE
  5
46B
  8
HIDDEN
  6
CONTINUOUS
 62
     7
 10
14041.332917
 20
15031.251152999999
 30
0.0
 11
14041.732518000001
 21
15031.251152999999
 31
0.0
  0
LINE
  5
46C
  8
HIDDEN
  6
CONTINUOUS
 62
     7
 10
14041.732518000001
 20
15031.251152999999
 30
0.0
 11
14041.868815
 21
15031.251152999999
 31
0.0
  0
ENDBLK
  5
46D
  8
0
  0
BLOCK
  8
0
  2
STWR-G30
 70
     0
 10
0.0
 20
0.0
 30
0.0
  3
STWR-G30
  1

  0
LINE
  5
470
  8
LAYER01
  6
CONTINUOUS
 62
     1
 10
14031.97846
 20
15072.093371000001
 30
0.0
 11
14035.330694
 21
15069.220026999999
 31
0.0
  0
LINE
  5
471
  8
LAYER01
  6
CONTINUOUS
 62
     1
 10
14040.406935000001
 20
15069.220026999999
 30
0.0
 11
14043.759169999999
 21
15072.093371000001
 31
0.0
  0
LINE
  5
472
  8
LAYER01
  6
CONTINUOUS
 62
     1
 10
14045.387398000001
 20
15072.093371000001
 30
0.0
 11
14045.387398000001
 21
15073.051153
 31
0.0
  0
LINE
  5
473
  8
LAYER01
  6
CONTINUOUS
 62
     1
 10
14030.350232000001
 20
15073.051153
 30
0.0
 11
14045.387398000001
 21
15073.051153
 31
0.0
  0
LINE
  5
474
  8
LAYER01
  6
CONTINUOUS
 62
     1
 10
14030.350232000001
 20
15072.093371000001
 30
0.0
 11
14030.350232000001
 21
15073.051153
 31
0.0
  0
LINE
  5
475
  8
LAYER01
  6
CONTINUOUS
 62
     1
 10
14030.350232000001
 20
15072.093371000001
 30
0.0
 11
14045.387398000001
 21
15072.093371000001
 31
0.0
  0
LINE
  5
476
  8
LAYER01
  6
CONTINUOUS
 62
     1
 10
14035.330694
 20
15069.220026999999
 30
0.0
 11
14040.406935000001
 21
15069.220026999999
 31
0.0
  0
ENDBLK
  5
477
  8
0
  0
BLOCK
  8
0
  2
STWR-G29
 70
     0
 10
0.0
 20
0.0
 30
0.0
  3
STWR-G29
  1

  0
LINE
  5
47A
  8
LAYER01
  6
CONTINUOUS
 62
     1
 10
14040.406935000001
 20
15069.220026999999
 30
0.0
 11
14040.406935000001
 21
15011.753148
 31
0.0
  0
LINE
  5
47B
  8
LAYER01
  6
CONTINUOUS
 62
     1
 10
14035.330694
 20
15069.220026999999
 30
0.0
 11
14035.330694
 21
15011.753148
 31
0.0
  0
INSERT
  5
47C
  8
LAYER01
  2
STWR-G30
 10
0.0
 20
0.0
 30
0.0
  0
LINE
  5
47D
  8
LAYER01
  6
CONTINUOUS
 62
     1
 10
14035.330694
 20
15011.753148
 30
0.0
 11
14040.406935000001
 21
15011.753148
 31
0.0
  0
ENDBLK
  5
47E
  8
0
  0
BLOCK
  8
0
  2
STWR-G31
 70
     0
 10
0.0
 20
0.0
 30
0.0
  3
STWR-G31
  1

  0
LINE
  5
481
  8
LAYER01
  6
CONTINUOUS
 62
     1
 10
14031.403791000001
 20
15057.772525
 30
0.0
 11
14033.415132
 21
15053.932693000001
 31
0.0
  0
LINE
  5
482
  8
LAYER01
  6
CONTINUOUS
 62
     1
 10
14033.415132
 20
15053.932693000001
 30
0.0
 11
14033.415132
 21
15058.051153
 31
0.0
  0
LINE
  5
483
  8
LAYER01
  6
CONTINUOUS
 62
     1
 10
14042.322498
 20
15058.051153
 30
0.0
 11
14033.415132
 21
15058.051153
 31
0.0
  0
LINE
  5
484
  8
LAYER01
  6
CONTINUOUS
 62
     1
 10
14042.322498
 20
15053.932693000001
 30
0.0
 11
14042.322498
 21
15058.051153
 31
0.0
  0
LINE
  5
485
  8
LAYER01
  6
CONTINUOUS
 62
     1
 10
14044.333839000001
 20
15057.772525
 30
0.0
 11
14042.322498
 21
15053.932693000001
 31
0.0
  0
LINE
  5
486
  8
LAYER01
  6
CONTINUOUS
 62
     1
 10
14044.333839000001
 20
15059.008933999999
 30
0.0
 11
14044.333839000001
 21
15057.772525
 31
0.0
  0
LINE
  5
487
  8
LAYER01
  6
CONTINUOUS
 62
     1
 10
14031.403791000001
 20
15059.008933999999
 30
0.0
 11
14044.333839000001
 21
15059.008933999999
 31
0.0
  0
LINE
  5
488
  8
LAYER01
  6
CONTINUOUS
 62
     1
 10
14031.403791000001
 20
15059.008933999999
 30
0.0
 11
14031.403791000001
 21
15057.772525
 31
0.0
  0
ENDBLK
  5
489
  8
0
  0
BLOCK
  8
0
  2
STWR-G27
 70
     0
 10
0.0
 20
0.0
 30
0.0
  3
STWR-G27
  1

  0
INSERT
  5
48C
  8
LAYER01
  2
STWR-G28
 10
0.0
 20
0.0
 30
0.0
  0
LINE
  5
48D
  8
LAYER01
  6
STRICHPUNKTIERT
 62
     5
 10
14037.868815
 20
14997.099093999999
 30
0.0
 11
14037.868815
 21
15085.310753
 31
0.0
  0
INSERT
  5
48E
  8
LAYER01
  2
STWR-G29
 10
0.0
 20
0.0
 30
0.0
  0
INSERT
  5
48F
  8
LAYER01
  2
STWR-G31
 10
0.0
 20
0.0
 30
0.0
  0
ENDBLK
  5
490
  8
0
  0
BLOCK
  8
0
  2
*D31
 70
     1
 10
0.0
 20
0.0
 30
0.0
  3
*D31
  1

  0
LINE
  5
493
  8
LAYER01
 62
     7
 10
12919.835456999999
 20
16400.238847000001
 30
0.0
 11
13019.835456999999
 21
16400.238847000001
 31
0.0
  0
LINE
  5
494
  8
LAYER01
 62
     7
 10
12919.835456999999
 20
16351.814915000001
 30
0.0
 11
12919.835456999999
 21
16422.738847000001
 31
0.0
  0
LINE
  5
495
  8
LAYER01
 62
     7
 10
13019.835456999999
 20
16351.814915000001
 30
0.0
 11
13019.835456999999
 21
16422.738847000001
 31
0.0
  0
SOLID
  5
496
  8
LAYER01
 62
     7
 10
12943.835456999999
 20
16396.239007
 30
0.0
 11
12919.835456999999
 21
16400.238847000001
 31
0.0
 12
12943.835456999999
 22
16404.238687000001
 32
0.0
 13
12943.835456999999
 23
16404.238687000001
 33
0.0
  0
SOLID
  5
497
  8
LAYER01
 62
     7
 10
12995.835456999999
 20
16396.239007
 30
0.0
 11
13019.835456999999
 21
16400.238847000001
 31
0.0
 12
12995.835456999999
 22
16404.238687000001
 32
0.0
 13
12995.835456999999
 23
16404.238687000001
 33
0.0
  0
TEXT
  5
498
  8
LAYER01
  6
VERDECKT
 62
     7
 10
12933.564412
 20
16422.738847000001
 30
0.0
 40
45.0
  1
100
  0
POINT
  5
499
  8
LAYER01
 62
     7
 10
12919.835456999999
 20
16333.814915000001
 30
0.0
  0
POINT
  5
49A
  8
LAYER01
 62
     7
 10
13019.835456999999
 20
16333.814915000001
 30
0.0
  0
POINT
  5
49B
  8
LAYER01
 62
     7
 10
13019.835456999999
 20
16400.238847000001
 30
0.0
  0
ENDBLK
  5
49C
  8
0
  0
BLOCK
  8
0
  2
*D32
 70
     1
 10
0.0
 20
0.0
 30
0.0
  3
*D32
  1

  0
LINE
  5
49F
  8
LAYER01
 62
     7
 10
12694.835456999999
 20
16251.093414000001
 30
0.0
 11
13019.835456999999
 21
16251.093414000001
 31
0.0
  0
LINE
  5
4A0
  8
LAYER01
 62
     7
 10
12694.835456999999
 20
16188.877415999999
 30
0.0
 11
12694.835456999999
 21
16273.593414000001
 31
0.0
  0
LINE
  5
4A1
  8
LAYER01
 62
     7
 10
13019.835456999999
 20
16188.877415999999
 30
0.0
 11
13019.835456999999
 21
16273.593414000001
 31
0.0
  0
SOLID
  5
4A2
  8
LAYER01
 62
     7
 10
12718.835456999999
 20
16247.093574
 30
0.0
 11
12694.835456999999
 21
16251.093414000001
 31
0.0
 12
12718.835456999999
 22
16255.093253999999
 32
0.0
 13
12718.835456999999
 23
16255.093253999999
 33
0.0
  0
SOLID
  5
4A3
  8
LAYER01
 62
     7
 10
12995.835456999999
 20
16247.093574
 30
0.0
 11
13019.835456999999
 21
16251.093414000001
 31
0.0
 12
12995.835456999999
 22
16255.093253999999
 32
0.0
 13
12995.835456999999
 23
16255.093253999999
 33
0.0
  0
TEXT
  5
4A4
  8
LAYER01
  6
VERDECKT
 62
     7
 10
12820.600466
 20
16273.593414000001
 30
0.0
 40
45.0
  1
B=
  0
POINT
  5
4A5
  8
LAYER01
 62
     7
 10
12694.835456999999
 20
16170.877415999999
 30
0.0
  0
POINT
  5
4A6
  8
LAYER01
 62
     7
 10
13019.835456999999
 20
16170.877415999999
 30
0.0
  0
POINT
  5
4A7
  8
LAYER01
 62
     7
 10
13019.835456999999
 20
16251.093414000001
 30
0.0
  0
ENDBLK
  5
4A8
  8
0
  0
BLOCK
  8
0
  2
*D33
 70
     1
 10
0.0
 20
0.0
 30
0.0
  3
*D33
  1

  0
LINE
  5
4AB
  8
LAYER01
 62
     7
 10
13118.984603000001
 20
16105.877415999999
 30
0.0
 11
13118.984603000001
 21
16040.877415999999
 31
0.0
  0
LINE
  5
4AC
  8
LAYER01
 62
     7
 10
13037.835456999999
 20
16105.877415999999
 30
0.0
 11
13141.484603000001
 21
16105.877415999999
 31
0.0
  0
LINE
  5
4AD
  8
LAYER01
 62
     7
 10
13037.835456999999
 20
16040.877415999999
 30
0.0
 11
13141.484603000001
 21
16040.877415999999
 31
0.0
  0
SOLID
  5
4AE
  8
LAYER01
 62
     7
 10
13114.984763
 20
16081.877415999999
 30
0.0
 11
13118.984603000001
 21
16105.877415999999
 31
0.0
 12
13122.984442999999
 22
16081.877415999999
 32
0.0
 13
13122.984442999999
 23
16081.877415999999
 33
0.0
  0
SOLID
  5
4AF
  8
LAYER01
 62
     7
 10
13114.984763
 20
16064.877415999999
 30
0.0
 11
13118.984603000001
 21
16040.877415999999
 31
0.0
 12
13122.984442999999
 22
16064.877415999999
 32
0.0
 13
13122.984442999999
 23
16064.877415999999
 33
0.0
  0
TEXT
  5
4B0
  8
LAYER01
  6
VERDECKT
 62
     7
 10
13096.484603000001
 20
16050.524221
 30
0.0
 40
45.0
  1
65
 50
90.0
  0
POINT
  5
4B1
  8
LAYER01
 62
     7
 10
13019.835456999999
 20
16105.877415999999
 30
0.0
  0
POINT
  5
4B2
  8
LAYER01
 62
     7
 10
13019.835456999999
 20
16040.877415999999
 30
0.0
  0
POINT
  5
4B3
  8
LAYER01
 62
     7
 10
13118.984603000001
 20
16040.877415999999
 30
0.0
  0
ENDBLK
  5
4B4
  8
0
  0
BLOCK
  8
0
  2
*D34
 70
     1
 10
0.0
 20
0.0
 30
0.0
  3
*D34
  1

  0
LINE
  5
4B7
  8
LAYER01
 62
     7
 10
13118.984603000001
 20
16170.877415999999
 30
0.0
 11
13118.984603000001
 21
16105.877415999999
 31
0.0
  0
LINE
  5
4B8
  8
LAYER01
 62
     7
 10
13037.835456999999
 20
16170.877415999999
 30
0.0
 11
13141.484603000001
 21
16170.877415999999
 31
0.0
  0
LINE
  5
4B9
  8
LAYER01
 62
     7
 10
13037.835456999999
 20
16105.877415999999
 30
0.0
 11
13141.484603000001
 21
16105.877415999999
 31
0.0
  0
SOLID
  5
4BA
  8
LAYER01
 62
     7
 10
13114.984763
 20
16146.877415999999
 30
0.0
 11
13118.984603000001
 21
16170.877415999999
 31
0.0
 12
13122.984442999999
 22
16146.877415999999
 32
0.0
 13
13122.984442999999
 23
16146.877415999999
 33
0.0
  0
SOLID
  5
4BB
  8
LAYER01
 62
     7
 10
13114.984763
 20
16129.877415999999
 30
0.0
 11
13118.984603000001
 21
16105.877415999999
 31
0.0
 12
13122.984442999999
 22
16129.877415999999
 32
0.0
 13
13122.984442999999
 23
16129.877415999999
 33
0.0
  0
TEXT
  5
4BC
  8
LAYER01
  6
VERDECKT
 62
     7
 10
13096.484603000001
 20
16115.524221
 30
0.0
 40
45.0
  1
65
 50
90.0
  0
POINT
  5
4BD
  8
LAYER01
 62
     7
 10
13019.835456999999
 20
16170.877415999999
 30
0.0
  0
POINT
  5
4BE
  8
LAYER01
 62
     7
 10
13019.835456999999
 20
16105.877415999999
 30
0.0
  0
POINT
  5
4BF
  8
LAYER01
 62
     7
 10
13118.984603000001
 20
16105.877415999999
 30
0.0
  0
ENDBLK
  5
4C0
  8
0
  0
BLOCK
  8
0
  2
_DOTSMALL
 70
     0
 10
0.0
 20
0.0
 30
0.0
  3
_DOTSMALL
  1

  0
POLYLINE
  5
5D2
  8
0
  6
BYBLOCK
 62
     0
 66
     1
 10
0.0
 20
0.0
 30
0.0
 70
     1
 40
0.5
 41
0.5
  0
VERTEX
  5
9E5
  8
0
  6
BYBLOCK
 62
     0
 10
-0.0625
 20
0.0
 30
0.0
 42
1.0
  0
VERTEX
  5
9E6
  8
0
  6
BYBLOCK
 62
     0
 10
0.0625
 20
0.0
 30
0.0
 42
1.0
  0
SEQEND
  5
9E7
  8
0
  6
BYBLOCK
 62
     0
  0
ENDBLK
  5
5D3
  8
0
  0
BLOCK
  8
0
 62
     7
  2
WMF0
 70
     0
 10
0.0
 20
0.0
 30
0.0
  3
WMF0
  1

  0
POLYLINE
  5
5D6
  8
LAYER01
 62
     7
 66
     1
 10
0.0
 20
0.0
 30
0.0
 70
     1
  0
VERTEX
  5
5D7
  8
LAYER01
 62
     7
 10
2458.2645046842372
 20
7351.0038575557664
 30
0.0
  0
VERTEX
  5
5D8
  8
LAYER01
 62
     7
 10
2628.7570429123371
 20
7351.0038575557664
 30
0.0
  0
VERTEX
  5
5D9
  8
LAYER01
 62
     7
 10
2842.8639513848352
 20
6863.3158993684092
 30
0.0
  0
VERTEX
  5
5DA
  8
LAYER01
 62
     7
 10
3056.9708598573329
 20
7351.0038575557664
 30
0.0
  0
VERTEX
  5
5DB
  8
LAYER01
 62
     7
 10
3235.3932835844148
 20
7351.0038575557664
 30
0.0
  0
VERTEX
  5
5DC
  8
LAYER01
 62
     7
 10
2842.8639513848352
 20
6478.7164526678107
 30
0.0
  0
VERTEX
  5
5DD
  8
LAYER01
 62
     7
 10
2458.2645046842372
 20
7351.0038575557664
 30
0.0
  0
VERTEX
  5
5DE
  8
LAYER01
 62
     7
 10
2458.2645046842372
 20
7351.0038575557664
 30
0.0
  0
SEQEND
  5
5DF
  8
LAYER01
 62
     7
  0
POLYLINE
  5
5E0
  8
LAYER01
 62
     7
 66
     1
 10
0.0
 20
0.0
 30
0.0
 70
     1
  0
VERTEX
  5
5E1
  8
LAYER01
 62
     7
 10
3041.1110888593698
 20
6756.2624451321599
 30
0.0
  0
VERTEX
  5
5E2
  8
LAYER01
 62
     7
 10
3100.5852301017312
 20
6895.0354413643354
 30
0.0
  0
VERTEX
  5
5E3
  8
LAYER01
 62
     7
 10
3358.3065088186272
 20
6895.0354413643354
 30
0.0
  0
VERTEX
  5
5E4
  8
LAYER01
 62
     7
 10
3227.4633980854328
 20
7180.5113193276648
 30
0.0
  0
VERTEX
  5
5E5
  8
LAYER01
 62
     7
 10
3302.7973103257568
 20
7362.8986858042381
 30
0.0
  0
VERTEX
  5
5E6
  8
LAYER01
 62
     7
 10
3655.67721503043
 20
6617.4894488999853
 30
0.0
  0
VERTEX
  5
5E7
  8
LAYER01
 62
     7
 10
3655.67721503043
 20
7351.0038575557664
 30
0.0
  0
VERTEX
  5
5E8
  8
LAYER01
 62
     7
 10
4127.5054022198219
 20
7351.0038575557664
 30
0.0
  0
VERTEX
  5
5E9
  8
LAYER01
 62
     7
 10
4127.5054022198219
 20
7351.0038575557664
 30
0.0
  0
VERTEX
  5
5EA
  8
LAYER01
 62
     7
 10
4171.1197724642197
 20
7343.0739720567844
 30
0.0
  0
VERTEX
  5
5EB
  8
LAYER01
 62
     7
 10
4210.7691999591279
 20
7327.2142010588213
 30
0.0
  0
VERTEX
  5
5EC
  8
LAYER01
 62
     7
 10
4246.4536847045438
 20
7299.4596018123866
 30
0.0
  0
VERTEX
  5
5ED
  8
LAYER01
 62
     7
 10
4278.1732267004691
 20
7271.705002565951
 30
0.0
  0
VERTEX
  5
5EE
  8
LAYER01
 62
     7
 10
4305.9278259469047
 20
7236.0205178205342
 30
0.0
  0
VERTEX
  5
5EF
  8
LAYER01
 62
     7
 10
4325.7525396943593
 20
7196.3710903256278
 30
0.0
  0
VERTEX
  5
5F0
  8
LAYER01
 62
     7
 10
4341.6123106923224
 20
7148.7917773317413
 30
0.0
  0
VERTEX
  5
5F1
  8
LAYER01
 62
     7
 10
4345.577253441812
 20
7105.1774070873416
 30
0.0
  0
VERTEX
  5
5F2
  8
LAYER01
 62
     7
 10
4345.577253441812
 20
7105.1774070873416
 30
0.0
  0
VERTEX
  5
5F3
  8
LAYER01
 62
     7
 10
4345.577253441812
 20
7057.5980940934542
 30
0.0
  0
VERTEX
  5
5F4
  8
LAYER01
 62
     7
 10
4337.6473679428309
 20
7017.948666598546
 30
0.0
  0
VERTEX
  5
5F5
  8
LAYER01
 62
     7
 10
4321.7875969448678
 20
6978.2992391036396
 30
0.0
  0
VERTEX
  5
5F6
  8
LAYER01
 62
     7
 10
4301.9628831974142
 20
6942.6147543582238
 30
0.0
  0
VERTEX
  5
5F7
  8
LAYER01
 62
     7
 10
4274.2082839509794
 20
6910.8952123622976
 30
0.0
  0
VERTEX
  5
5F8
  8
LAYER01
 62
     7
 10
4242.4887419550541
 20
6883.1406131158628
 30
0.0
  0
VERTEX
  5
5F9
  8
LAYER01
 62
     7
 10
4206.8042572096374
 20
6863.3158993684092
 30
0.0
  0
VERTEX
  5
5FA
  8
LAYER01
 62
     7
 10
4163.1898869652387
 20
6847.4561283704461
 30
0.0
  0
VERTEX
  5
5FB
  8
LAYER01
 62
     7
 10
4416.9462229326446
 20
6510.4359946637369
 30
0.0
  0
VERTEX
  5
5FC
  8
LAYER01
 62
     7
 10
4416.9462229326446
 20
7351.0038575557664
 30
0.0
  0
VERTEX
  5
5FD
  8
LAYER01
 62
     7
 10
4583.4738184112539
 20
7351.0038575557664
 30
0.0
  0
VERTEX
  5
5FE
  8
LAYER01
 62
     7
 10
4583.4738184112539
 20
6502.506109164754
 30
0.0
  0
VERTEX
  5
5FF
  8
LAYER01
 62
     7
 10
4226.628970957091
 20
6502.506109164754
 30
0.0
  0
VERTEX
  5
600
  8
LAYER01
 62
     7
 10
3881.6789517513998
 20
6942.6147543582238
 30
0.0
  0
VERTEX
  5
601
  8
LAYER01
 62
     7
 10
4056.1364327289898
 20
6942.6147543582238
 30
0.0
  0
VERTEX
  5
602
  8
LAYER01
 62
     7
 10
4056.1364327289898
 20
6942.6147543582238
 30
0.0
  0
VERTEX
  5
603
  8
LAYER01
 62
     7
 10
4079.926089225934
 20
6946.5796971077143
 30
0.0
  0
VERTEX
  5
604
  8
LAYER01
 62
     7
 10
4103.7157457228786
 20
6954.5095826066963
 30
0.0
  0
VERTEX
  5
605
  8
LAYER01
 62
     7
 10
4123.5404594703332
 20
6966.404410855168
 30
0.0
  0
VERTEX
  5
606
  8
LAYER01
 62
     7
 10
4143.3651732177859
 20
6982.264181853131
 30
0.0
  0
VERTEX
  5
607
  8
LAYER01
 62
     7
 10
4155.2600014662594
 20
7002.0888956005829
 30
0.0
  0
VERTEX
  5
608
  8
LAYER01
 62
     7
 10
4167.1548297147301
 20
7025.878552097528
 30
0.0
  0
VERTEX
  5
609
  8
LAYER01
 62
     7
 10
4175.0847152137121
 20
7049.6682085944722
 30
0.0
  0
VERTEX
  5
60A
  8
LAYER01
 62
     7
 10
4175.0847152137121
 20
7077.4228078409069
 30
0.0
  0
VERTEX
  5
60B
  8
LAYER01
 62
     7
 10
4175.0847152137121
 20
7077.4228078409069
 30
0.0
  0
VERTEX
  5
60C
  8
LAYER01
 62
     7
 10
4175.0847152137121
 20
7101.212464337852
 30
0.0
  0
VERTEX
  5
60D
  8
LAYER01
 62
     7
 10
4167.1548297147301
 20
7125.0021208347962
 30
0.0
  0
VERTEX
  5
60E
  8
LAYER01
 62
     7
 10
4159.224944215749
 20
7148.7917773317413
 30
0.0
  0
VERTEX
  5
60F
  8
LAYER01
 62
     7
 10
4143.3651732177859
 20
7168.6164910791931
 30
0.0
  0
VERTEX
  5
610
  8
LAYER01
 62
     7
 10
4127.5054022198219
 20
7184.4762620771562
 30
0.0
  0
VERTEX
  5
611
  8
LAYER01
 62
     7
 10
4103.7157457228786
 20
7196.3710903256278
 30
0.0
  0
VERTEX
  5
612
  8
LAYER01
 62
     7
 10
4079.926089225934
 20
7204.3009758246098
 30
0.0
  0
VERTEX
  5
613
  8
LAYER01
 62
     7
 10
4056.1364327289898
 20
7208.2659185741013
 30
0.0
  0
VERTEX
  5
614
  8
LAYER01
 62
     7
 10
3834.099638757511
 20
7208.2659185741013
 30
0.0
  0
VERTEX
  5
615
  8
LAYER01
 62
     7
 10
3834.099638757511
 20
6502.506109164754
 30
0.0
  0
VERTEX
  5
616
  8
LAYER01
 62
     7
 10
3548.6237607941812
 20
6502.506109164754
 30
0.0
  0
VERTEX
  5
617
  8
LAYER01
 62
     7
 10
3429.6754783094589
 20
6756.2624451321599
 30
0.0
  0
VERTEX
  5
618
  8
LAYER01
 62
     7
 10
3041.1110888593698
 20
6756.2624451321599
 30
0.0
  0
VERTEX
  5
619
  8
LAYER01
 62
     7
 10
3041.1110888593698
 20
6756.2624451321599
 30
0.0
  0
SEQEND
  5
61A
  8
LAYER01
 62
     7
  0
POLYLINE
  5
61B
  8
LAYER01
 62
     7
 66
     1
 10
0.0
 20
0.0
 30
0.0
 70
     1
  0
VERTEX
  5
61C
  8
LAYER01
 62
     7
 10
5352.6727118124509
 20
7295.4946590628961
 30
0.0
  0
VERTEX
  5
61D
  8
LAYER01
 62
     7
 10
5245.6192575762007
 20
7160.6866055802111
 30
0.0
  0
VERTEX
  5
61E
  8
LAYER01
 62
     7
 10
5245.6192575762007
 20
7160.6866055802111
 30
0.0
  0
VERTEX
  5
61F
  8
LAYER01
 62
     7
 10
5209.9347728307857
 20
7184.4762620771562
 30
0.0
  0
VERTEX
  5
620
  8
LAYER01
 62
     7
 10
5174.250288085369
 20
7204.3009758246098
 30
0.0
  0
VERTEX
  5
621
  8
LAYER01
 62
     7
 10
5134.6008605904626
 20
7216.1958040730824
 30
0.0
  0
VERTEX
  5
622
  8
LAYER01
 62
     7
 10
5090.9864903460648
 20
7216.1958040730824
 30
0.0
  0
VERTEX
  5
623
  8
LAYER01
 62
     7
 10
5090.9864903460648
 20
7216.1958040730824
 30
0.0
  0
VERTEX
  5
624
  8
LAYER01
 62
     7
 10
5063.2318910996291
 20
7216.1958040730824
 30
0.0
  0
VERTEX
  5
625
  8
LAYER01
 62
     7
 10
5035.4772918531944
 20
7212.2308613235909
 30
0.0
  0
VERTEX
  5
626
  8
LAYER01
 62
     7
 10
5007.7226926067588
 20
7204.3009758246098
 30
0.0
  0
VERTEX
  5
627
  8
LAYER01
 62
     7
 10
4979.9680933603249
 20
7192.4061475761382
 30
0.0
  0
VERTEX
  5
628
  8
LAYER01
 62
     7
 10
4956.1784368633807
 20
7180.5113193276648
 30
0.0
  0
VERTEX
  5
629
  8
LAYER01
 62
     7
 10
4936.3537231159271
 20
7164.6515483297017
 30
0.0
  0
VERTEX
  5
62A
  8
LAYER01
 62
     7
 10
4912.5640666189829
 20
7148.7917773317413
 30
0.0
  0
VERTEX
  5
62B
  8
LAYER01
 62
     7
 10
4896.7042956210198
 20
7128.9670635842867
 30
0.0
  0
VERTEX
  5
62C
  8
LAYER01
 62
     7
 10
4876.8795818735662
 20
7105.1774070873416
 30
0.0
  0
VERTEX
  5
62D
  8
LAYER01
 62
     7
 10
4864.9847536250936
 20
7081.3877505903993
 30
0.0
  0
VERTEX
  5
62E
  8
LAYER01
 62
     7
 10
4849.1249826271314
 20
7057.5980940934542
 30
0.0
  0
VERTEX
  5
62F
  8
LAYER01
 62
     7
 10
4837.2301543786589
 20
7033.8084375965091
 30
0.0
  0
VERTEX
  5
630
  8
LAYER01
 62
     7
 10
4829.3002688796769
 20
7006.0538383500743
 30
0.0
  0
VERTEX
  5
631
  8
LAYER01
 62
     7
 10
4825.3353261301872
 20
6978.2992391036396
 30
0.0
  0
VERTEX
  5
632
  8
LAYER01
 62
     7
 10
4821.3703833806958
 20
6950.5446398572049
 30
0.0
  0
VERTEX
  5
633
  8
LAYER01
 62
     7
 10
4817.4054406312061
 20
6918.8250978612787
 30
0.0
  0
VERTEX
  5
634
  8
LAYER01
 62
     7
 10
4817.4054406312061
 20
6918.8250978612787
 30
0.0
  0
VERTEX
  5
635
  8
LAYER01
 62
     7
 10
4821.3703833806958
 20
6891.0704986148439
 30
0.0
  0
VERTEX
  5
636
  8
LAYER01
 62
     7
 10
4825.3353261301872
 20
6863.3158993684092
 30
0.0
  0
VERTEX
  5
637
  8
LAYER01
 62
     7
 10
4829.3002688796769
 20
6835.5613001219754
 30
0.0
  0
VERTEX
  5
638
  8
LAYER01
 62
     7
 10
4841.1950971281503
 20
6811.7716436250303
 30
0.0
  0
VERTEX
  5
639
  8
LAYER01
 62
     7
 10
4849.1249826271314
 20
6787.9819871280861
 30
0.0
  0
VERTEX
  5
63A
  8
LAYER01
 62
     7
 10
4864.9847536250936
 20
6764.1923306311428
 30
0.0
  0
VERTEX
  5
63B
  8
LAYER01
 62
     7
 10
4880.8445246230567
 20
6740.4026741341977
 30
0.0
  0
VERTEX
  5
63C
  8
LAYER01
 62
     7
 10
4896.7042956210198
 20
6720.5779603867441
 30
0.0
  0
VERTEX
  5
63D
  8
LAYER01
 62
     7
 10
4916.5290093684744
 20
6700.7532466392904
 30
0.0
  0
VERTEX
  5
63E
  8
LAYER01
 62
     7
 10
4936.3537231159271
 20
6684.8934756413273
 30
0.0
  0
VERTEX
  5
63F
  8
LAYER01
 62
     7
 10
4960.1433796128722
 20
6672.9986473928557
 30
0.0
  0
VERTEX
  5
640
  8
LAYER01
 62
     7
 10
4983.9330361098146
 20
6661.103819144384
 30
0.0
  0
VERTEX
  5
641
  8
LAYER01
 62
     7
 10
5011.6876353562502
 20
6649.2089908959106
 30
0.0
  0
VERTEX
  5
642
  8
LAYER01
 62
     7
 10
5035.4772918531944
 20
6641.2791053969304
 30
0.0
  0
VERTEX
  5
643
  8
LAYER01
 62
     7
 10
5063.2318910996291
 20
6637.3141626474389
 30
0.0
  0
VERTEX
  5
644
  8
LAYER01
 62
     7
 10
5094.9514330955553
 20
6637.3141626474389
 30
0.0
  0
VERTEX
  5
645
  8
LAYER01
 62
     7
 10
5094.9514330955553
 20
6637.3141626474389
 30
0.0
  0
VERTEX
  5
646
  8
LAYER01
 62
     7
 10
5138.5658033399532
 20
6641.2791053969304
 30
0.0
  0
VERTEX
  5
647
  8
LAYER01
 62
     7
 10
5174.250288085369
 20
6649.2089908959106
 30
0.0
  0
VERTEX
  5
648
  8
LAYER01
 62
     7
 10
5209.9347728307857
 20
6669.0337046433651
 30
0.0
  0
VERTEX
  5
649
  8
LAYER01
 62
     7
 10
5245.6192575762007
 20
6692.8233611403102
 30
0.0
  0
VERTEX
  5
64A
  8
LAYER01
 62
     7
 10
5348.7077690629603
 20
6554.0503649081338
 30
0.0
  0
VERTEX
  5
64B
  8
LAYER01
 62
     7
 10
5348.7077690629603
 20
6554.0503649081338
 30
0.0
  0
VERTEX
  5
64C
  8
LAYER01
 62
     7
 10
5289.2336278206003
 20
6518.365880162718
 30
0.0
  0
VERTEX
  5
64D
  8
LAYER01
 62
     7
 10
5257.5140858246741
 20
6506.4710519142463
 30
0.0
  0
VERTEX
  5
64E
  8
LAYER01
 62
     7
 10
5229.7594865782394
 20
6494.5762236657738
 30
0.0
  0
VERTEX
  5
64F
  8
LAYER01
 62
     7
 10
5198.0399445823132
 20
6486.6463381667918
 30
0.0
  0
VERTEX
  5
650
  8
LAYER01
 62
     7
 10
5166.3204025863879
 20
6482.6813954173012
 30
0.0
  0
VERTEX
  5
651
  8
LAYER01
 62
     7
 10
5094.9514330955553
 20
6478.7164526678107
 30
0.0
  0
VERTEX
  5
652
  8
LAYER01
 62
     7
 10
5094.9514330955553
 20
6478.7164526678107
 30
0.0
  0
VERTEX
  5
653
  8
LAYER01
 62
     7
 10
5047.372120101667
 20
6482.6813954173012
 30
0.0
  0
VERTEX
  5
654
  8
LAYER01
 62
     7
 10
5003.7577498572691
 20
6490.6112809162832
 30
0.0
  0
VERTEX
  5
655
  8
LAYER01
 62
     7
 10
4960.1433796128722
 20
6498.5411664152653
 30
0.0
  0
VERTEX
  5
656
  8
LAYER01
 62
     7
 10
4920.493952117964
 20
6514.4009374132283
 30
0.0
  0
VERTEX
  5
657
  8
LAYER01
 62
     7
 10
4880.8445246230567
 20
6534.2256511606811
 30
0.0
  0
VERTEX
  5
658
  8
LAYER01
 62
     7
 10
4845.16003987764
 20
6554.0503649081338
 30
0.0
  0
VERTEX
  5
659
  8
LAYER01
 62
     7
 10
4809.4755551322241
 20
6581.8049641545704
 30
0.0
  0
VERTEX
  5
65A
  8
LAYER01
 62
     7
 10
4777.7560131362989
 20
6609.5595634010042
 30
0.0
  0
VERTEX
  5
65B
  8
LAYER01
 62
     7
 10
4746.0364711403727
 20
6641.2791053969304
 30
0.0
  0
VERTEX
  5
65C
  8
LAYER01
 62
     7
 10
4722.2468146434294
 20
6676.9635901423471
 30
0.0
  0
VERTEX
  5
65D
  8
LAYER01
 62
     7
 10
4698.4571581464843
 20
6712.648074887763
 30
0.0
  0
VERTEX
  5
65E
  8
LAYER01
 62
     7
 10
4678.6324443990306
 20
6752.2975023826693
 30
0.0
  0
VERTEX
  5
65F
  8
LAYER01
 62
     7
 10
4666.737616150559
 20
6791.9469298775757
 30
0.0
  0
VERTEX
  5
660
  8
LAYER01
 62
     7
 10
4654.8427879020874
 20
6835.5613001219754
 30
0.0
  0
VERTEX
  5
661
  8
LAYER01
 62
     7
 10
4646.9129024031054
 20
6879.1756703663723
 30
0.0
  0
VERTEX
  5
662
  8
LAYER01
 62
     7
 10
4642.9479596536139
 20
6926.7549833602607
 30
0.0
  0
VERTEX
  5
663
  8
LAYER01
 62
     7
 10
4642.9479596536139
 20
6926.7549833602607
 30
0.0
  0
VERTEX
  5
664
  8
LAYER01
 62
     7
 10
4646.9129024031054
 20
6970.3693536046594
 30
0.0
  0
VERTEX
  5
665
  8
LAYER01
 62
     7
 10
4654.8427879020874
 20
7017.948666598546
 30
0.0
  0
VERTEX
  5
666
  8
LAYER01
 62
     7
 10
4662.7726734010676
 20
7057.5980940934542
 30
0.0
  0
VERTEX
  5
667
  8
LAYER01
 62
     7
 10
4678.6324443990306
 20
7101.212464337852
 30
0.0
  0
VERTEX
  5
668
  8
LAYER01
 62
     7
 10
4698.4571581464843
 20
7140.8618918327593
 30
0.0
  0
VERTEX
  5
669
  8
LAYER01
 62
     7
 10
4718.2818718939379
 20
7176.5463765781742
 30
0.0
  0
VERTEX
  5
66A
  8
LAYER01
 62
     7
 10
4746.0364711403727
 20
7212.2308613235909
 30
0.0
  0
VERTEX
  5
66B
  8
LAYER01
 62
     7
 10
4773.7910703868083
 20
7243.950403319518
 30
0.0
  0
VERTEX
  5
66C
  8
LAYER01
 62
     7
 10
4805.5106123827327
 20
7271.705002565951
 30
0.0
  0
VERTEX
  5
66D
  8
LAYER01
 62
     7
 10
4841.1950971281503
 20
7299.4596018123866
 30
0.0
  0
VERTEX
  5
66E
  8
LAYER01
 62
     7
 10
4876.8795818735662
 20
7319.2843155598412
 30
0.0
  0
VERTEX
  5
66F
  8
LAYER01
 62
     7
 10
4916.5290093684744
 20
7339.1090293072939
 30
0.0
  0
VERTEX
  5
670
  8
LAYER01
 62
     7
 10
4956.1784368633807
 20
7354.968800305257
 30
0.0
  0
VERTEX
  5
671
  8
LAYER01
 62
     7
 10
4999.7928071077786
 20
7366.8636285537286
 30
0.0
  0
VERTEX
  5
672
  8
LAYER01
 62
     7
 10
5047.372120101667
 20
7370.8285713032201
 30
0.0
  0
VERTEX
  5
673
  8
LAYER01
 62
     7
 10
5090.9864903460648
 20
7374.7935140527097
 30
0.0
  0
VERTEX
  5
674
  8
LAYER01
 62
     7
 10
5090.9864903460648
 20
7374.7935140527097
 30
0.0
  0
VERTEX
  5
675
  8
LAYER01
 62
     7
 10
5162.3554598368983
 20
7370.8285713032201
 30
0.0
  0
VERTEX
  5
676
  8
LAYER01
 62
     7
 10
5198.0399445823132
 20
7366.8636285537286
 30
0.0
  0
VERTEX
  5
677
  8
LAYER01
 62
     7
 10
5229.7594865782394
 20
7358.9337430547466
 30
0.0
  0
VERTEX
  5
678
  8
LAYER01
 62
     7
 10
5257.5140858246741
 20
7347.038914806275
 30
0.0
  0
VERTEX
  5
679
  8
LAYER01
 62
     7
 10
5289.2336278206003
 20
7335.1440865578043
 30
0.0
  0
VERTEX
  5
67A
  8
LAYER01
 62
     7
 10
5320.9531698165256
 20
7315.3193728103497
 30
0.0
  0
VERTEX
  5
67B
  8
LAYER01
 62
     7
 10
5352.6727118124509
 20
7295.4946590628961
 30
0.0
  0
VERTEX
  5
67C
  8
LAYER01
 62
     7
 10
5352.6727118124509
 20
7295.4946590628961
 30
0.0
  0
SEQEND
  5
67D
  8
LAYER01
 62
     7
  0
POLYLINE
  5
67E
  8
LAYER01
 62
     7
 66
     1
 10
0.0
 20
0.0
 30
0.0
 70
     1
  0
VERTEX
  5
67F
  8
LAYER01
 62
     7
 10
5737.2721585130494
 20
7370.8285713032201
 30
0.0
  0
VERTEX
  5
680
  8
LAYER01
 62
     7
 10
5737.2721585130494
 20
7370.8285713032201
 30
0.0
  0
VERTEX
  5
681
  8
LAYER01
 62
     7
 10
5693.6577882686524
 20
7366.8636285537286
 30
0.0
  0
VERTEX
  5
682
  8
LAYER01
 62
     7
 10
5646.0784752747632
 20
7362.8986858042381
 30
0.0
  0
VERTEX
  5
683
  8
LAYER01
 62
     7
 10
5606.429047779855
 20
7351.0038575557664
 30
0.0
  0
VERTEX
  5
684
  8
LAYER01
 62
     7
 10
5562.814677535458
 20
7335.1440865578043
 30
0.0
  0
VERTEX
  5
685
  8
LAYER01
 62
     7
 10
5523.1652500405517
 20
7319.2843155598412
 30
0.0
  0
VERTEX
  5
686
  8
LAYER01
 62
     7
 10
5487.4807652951349
 20
7295.4946590628961
 30
0.0
  0
VERTEX
  5
687
  8
LAYER01
 62
     7
 10
5451.7962805497182
 20
7271.705002565951
 30
0.0
  0
VERTEX
  5
688
  8
LAYER01
 62
     7
 10
5420.0767385537929
 20
7239.9854605700266
 30
0.0
  0
VERTEX
  5
689
  8
LAYER01
 62
     7
 10
5392.3221393073582
 20
7208.2659185741013
 30
0.0
  0
VERTEX
  5
68A
  8
LAYER01
 62
     7
 10
5364.5675400609243
 20
7176.5463765781742
 30
0.0
  0
VERTEX
  5
68B
  8
LAYER01
 62
     7
 10
5340.7778835639801
 20
7140.8618918327593
 30
0.0
  0
VERTEX
  5
68C
  8
LAYER01
 62
     7
 10
5320.9531698165256
 20
7101.212464337852
 30
0.0
  0
VERTEX
  5
68D
  8
LAYER01
 62
     7
 10
5309.0583415680539
 20
7057.5980940934542
 30
0.0
  0
VERTEX
  5
68E
  8
LAYER01
 62
     7
 10
5297.1635133195814
 20
7017.948666598546
 30
0.0
  0
VERTEX
  5
68F
  8
LAYER01
 62
     7
 10
5289.2336278206003
 20
6970.3693536046594
 30
0.0
  0
VERTEX
  5
690
  8
LAYER01
 62
     7
 10
5285.2686850711088
 20
6926.7549833602607
 30
0.0
  0
VERTEX
  5
691
  8
LAYER01
 62
     7
 10
5285.2686850711088
 20
6926.7549833602607
 30
0.0
  0
VERTEX
  5
692
  8
LAYER01
 62
     7
 10
5289.2336278206003
 20
6879.1756703663723
 30
0.0
  0
VERTEX
  5
693
  8
LAYER01
 62
     7
 10
5293.1985705700909
 20
6835.5613001219754
 30
0.0
  0
VERTEX
  5
694
  8
LAYER01
 62
     7
 10
5305.0933988185634
 20
6791.9469298775757
 30
0.0
  0
VERTEX
  5
695
  8
LAYER01
 62
     7
 10
5320.9531698165256
 20
6752.2975023826693
 30
0.0
  0
VERTEX
  5
696
  8
LAYER01
 62
     7
 10
5336.8129408144878
 20
6712.648074887763
 30
0.0
  0
VERTEX
  5
697
  8
LAYER01
 62
     7
 10
5360.602597311432
 20
6676.9635901423471
 30
0.0
  0
VERTEX
  5
698
  8
LAYER01
 62
     7
 10
5384.3922538083762
 20
6641.2791053969304
 30
0.0
  0
VERTEX
  5
699
  8
LAYER01
 62
     7
 10
5412.1468530548118
 20
6609.5595634010042
 30
0.0
  0
VERTEX
  5
69A
  8
LAYER01
 62
     7
 10
5443.8663950507362
 20
6577.8400214050789
 30
0.0
  0
VERTEX
  5
69B
  8
LAYER01
 62
     7
 10
5479.5508797961529
 20
6554.0503649081338
 30
0.0
  0
VERTEX
  5
69C
  8
LAYER01
 62
     7
 10
5515.2353645415697
 20
6530.2607084111914
 30
0.0
  0
VERTEX
  5
69D
  8
LAYER01
 62
     7
 10
5554.8847920364769
 20
6510.4359946637369
 30
0.0
  0
VERTEX
  5
69E
  8
LAYER01
 62
     7
 10
5594.5342195313842
 20
6494.5762236657738
 30
0.0
  0
VERTEX
  5
69F
  8
LAYER01
 62
     7
 10
5638.1485897757821
 20
6486.6463381667918
 30
0.0
  0
VERTEX
  5
6A0
  8
LAYER01
 62
     7
 10
5681.762960020179
 20
6478.7164526678107
 30
0.0
  0
VERTEX
  5
6A1
  8
LAYER01
 62
     7
 10
5725.3773302645768
 20
6474.7515099183202
 30
0.0
  0
VERTEX
  5
6A2
  8
LAYER01
 62
     7
 10
5725.3773302645768
 20
6474.7515099183202
 30
0.0
  0
VERTEX
  5
6A3
  8
LAYER01
 62
     7
 10
5772.9566432584652
 20
6478.7164526678107
 30
0.0
  0
VERTEX
  5
6A4
  8
LAYER01
 62
     7
 10
5816.571013502863
 20
6486.6463381667918
 30
0.0
  0
VERTEX
  5
6A5
  8
LAYER01
 62
     7
 10
5860.1853837472609
 20
6498.5411664152653
 30
0.0
  0
VERTEX
  5
6A6
  8
LAYER01
 62
     7
 10
5899.8348112421681
 20
6514.4009374132283
 30
0.0
  0
VERTEX
  5
6A7
  8
LAYER01
 62
     7
 10
5939.4842387370763
 20
6534.2256511606811
 30
0.0
  0
VERTEX
  5
6A8
  8
LAYER01
 62
     7
 10
5975.1687234824913
 20
6558.0153076576253
 30
0.0
  0
VERTEX
  5
6A9
  8
LAYER01
 62
     7
 10
6010.853208227908
 20
6581.8049641545704
 30
0.0
  0
VERTEX
  5
6AA
  8
LAYER01
 62
     7
 10
6042.5727502238333
 20
6613.5245061504938
 30
0.0
  0
VERTEX
  5
6AB
  8
LAYER01
 62
     7
 10
6070.327349470268
 20
6645.2440481464209
 30
0.0
  0
VERTEX
  5
6AC
  8
LAYER01
 62
     7
 10
6094.1170059672131
 20
6680.9285328918368
 30
0.0
  0
VERTEX
  5
6AD
  8
LAYER01
 62
     7
 10
6113.9417197146659
 20
6716.6130176372544
 30
0.0
  0
VERTEX
  5
6AE
  8
LAYER01
 62
     7
 10
6133.7664334621204
 20
6756.2624451321599
 30
0.0
  0
VERTEX
  5
6AF
  8
LAYER01
 62
     7
 10
6149.6262044600826
 20
6799.8768153765577
 30
0.0
  0
VERTEX
  5
6B0
  8
LAYER01
 62
     7
 10
6157.5560899590637
 20
6843.4911856209546
 30
0.0
  0
VERTEX
  5
6B1
  8
LAYER01
 62
     7
 10
6161.5210327085542
 20
6887.1055558653534
 30
0.0
  0
VERTEX
  5
6B2
  8
LAYER01
 62
     7
 10
6165.4859754580457
 20
6934.6848688592418
 30
0.0
  0
VERTEX
  5
6B3
  8
LAYER01
 62
     7
 10
6165.4859754580457
 20
6934.6848688592418
 30
0.0
  0
VERTEX
  5
6B4
  8
LAYER01
 62
     7
 10
6161.5210327085542
 20
6978.2992391036396
 30
0.0
  0
VERTEX
  5
6B5
  8
LAYER01
 62
     7
 10
6153.5911472095731
 20
7021.9136093480374
 30
0.0
  0
VERTEX
  5
6B6
  8
LAYER01
 62
     7
 10
6141.6963189611024
 20
7061.5630368429447
 30
0.0
  0
VERTEX
  5
6B7
  8
LAYER01
 62
     7
 10
6129.8014907126289
 20
7101.212464337852
 30
0.0
  0
VERTEX
  5
6B8
  8
LAYER01
 62
     7
 10
6109.9767769651762
 20
7136.8969490832678
 30
0.0
  0
VERTEX
  5
6B9
  8
LAYER01
 62
     7
 10
6090.1520632177217
 20
7172.5814338286846
 30
0.0
  0
VERTEX
  5
6BA
  8
LAYER01
 62
     7
 10
6066.3624067207766
 20
7208.2659185741013
 30
0.0
  0
VERTEX
  5
6BB
  8
LAYER01
 62
     7
 10
6038.6078074743427
 20
7236.0205178205342
 30
0.0
  0
VERTEX
  5
6BC
  8
LAYER01
 62
     7
 10
6006.8882654784175
 20
7263.7751170669708
 30
0.0
  0
VERTEX
  5
6BD
  8
LAYER01
 62
     7
 10
5975.1687234824913
 20
7291.5297163134046
 30
0.0
  0
VERTEX
  5
6BE
  8
LAYER01
 62
     7
 10
5939.4842387370763
 20
7311.3544300608592
 30
0.0
  0
VERTEX
  5
6BF
  8
LAYER01
 62
     7
 10
5903.7997539916587
 20
7331.1791438083128
 30
0.0
  0
VERTEX
  5
6C0
  8
LAYER01
 62
     7
 10
5864.1503264967514
 20
7347.038914806275
 30
0.0
  0
VERTEX
  5
6C1
  8
LAYER01
 62
     7
 10
5824.5008990018441
 20
7358.9337430547466
 30
0.0
  0
VERTEX
  5
6C2
  8
LAYER01
 62
     7
 10
5780.8865287574472
 20
7366.8636285537286
 30
0.0
  0
VERTEX
  5
6C3
  8
LAYER01
 62
     7
 10
5737.2721585130494
 20
7370.8285713032201
 30
0.0
  0
VERTEX
  5
6C4
  8
LAYER01
 62
     7
 10
5737.2721585130494
 20
7370.8285713032201
 30
0.0
  0
SEQEND
  5
6C5
  8
LAYER01
 62
     7
  0
POLYLINE
  5
6C6
  8
LAYER01
 62
     7
 66
     1
 10
0.0
 20
0.0
 30
0.0
 70
     1
  0
VERTEX
  5
6C7
  8
LAYER01
 62
     7
 10
5725.3773302645768
 20
6637.3141626474389
 30
0.0
  0
VERTEX
  5
6C8
  8
LAYER01
 62
     7
 10
5725.3773302645768
 20
6637.3141626474389
 30
0.0
  0
VERTEX
  5
6C9
  8
LAYER01
 62
     7
 10
5697.6227310181421
 20
6641.2791053969304
 30
0.0
  0
VERTEX
  5
6CA
  8
LAYER01
 62
     7
 10
5669.8681317717073
 20
6645.2440481464209
 30
0.0
  0
VERTEX
  5
6CB
  8
LAYER01
 62
     7
 10
5642.1135325252717
 20
6649.2089908959106
 30
0.0
  0
VERTEX
  5
6CC
  8
LAYER01
 62
     7
 10
5614.3589332788379
 20
6661.103819144384
 30
0.0
  0
VERTEX
  5
6CD
  8
LAYER01
 62
     7
 10
5590.5692767818919
 20
6672.9986473928557
 30
0.0
  0
VERTEX
  5
6CE
  8
LAYER01
 62
     7
 10
5566.7796202849486
 20
6688.8584183908179
 30
0.0
  0
VERTEX
  5
6CF
  8
LAYER01
 62
     7
 10
5546.9549065374968
 20
6704.718189388781
 30
0.0
  0
VERTEX
  5
6D0
  8
LAYER01
 62
     7
 10
5527.1301927900431
 20
6724.5429031362346
 30
0.0
  0
VERTEX
  5
6D1
  8
LAYER01
 62
     7
 10
5507.3054790425886
 20
6744.3676168836892
 30
0.0
  0
VERTEX
  5
6D2
  8
LAYER01
 62
     7
 10
5491.4457080446264
 20
6764.1923306311428
 30
0.0
  0
VERTEX
  5
6D3
  8
LAYER01
 62
     7
 10
5479.5508797961529
 20
6787.9819871280861
 30
0.0
  0
VERTEX
  5
6D4
  8
LAYER01
 62
     7
 10
5467.6560515476813
 20
6815.7365863745208
 30
0.0
  0
VERTEX
  5
6D5
  8
LAYER01
 62
     7
 10
5455.7612232992096
 20
6839.5262428714641
 30
0.0
  0
VERTEX
  5
6D6
  8
LAYER01
 62
     7
 10
5451.7962805497182
 20
6867.2808421178988
 30
0.0
  0
VERTEX
  5
6D7
  8
LAYER01
 62
     7
 10
5443.8663950507362
 20
6895.0354413643354
 30
0.0
  0
VERTEX
  5
6D8
  8
LAYER01
 62
     7
 10
5443.8663950507362
 20
6926.7549833602607
 30
0.0
  0
VERTEX
  5
6D9
  8
LAYER01
 62
     7
 10
5443.8663950507362
 20
6926.7549833602607
 30
0.0
  0
VERTEX
  5
6DA
  8
LAYER01
 62
     7
 10
5447.8313378002267
 20
6954.5095826066963
 30
0.0
  0
VERTEX
  5
6DB
  8
LAYER01
 62
     7
 10
5451.7962805497182
 20
6982.264181853131
 30
0.0
  0
VERTEX
  5
6DC
  8
LAYER01
 62
     7
 10
5459.7261660486993
 20
7010.0187810995658
 30
0.0
  0
VERTEX
  5
6DD
  8
LAYER01
 62
     7
 10
5467.6560515476813
 20
7037.7733803459996
 30
0.0
  0
VERTEX
  5
6DE
  8
LAYER01
 62
     7
 10
5479.5508797961529
 20
7061.5630368429447
 30
0.0
  0
VERTEX
  5
6DF
  8
LAYER01
 62
     7
 10
5495.410650794116
 20
7085.3526933398889
 30
0.0
  0
VERTEX
  5
6E0
  8
LAYER01
 62
     7
 10
5511.27042179208
 20
7105.1774070873416
 30
0.0
  0
VERTEX
  5
6E1
  8
LAYER01
 62
     7
 10
5531.0951355395327
 20
7125.0021208347962
 30
0.0
  0
VERTEX
  5
6E2
  8
LAYER01
 62
     7
 10
5550.9198492869864
 20
7144.826834582248
 30
0.0
  0
VERTEX
  5
6E3
  8
LAYER01
 62
     7
 10
5570.74456303444
 20
7160.6866055802111
 30
0.0
  0
VERTEX
  5
6E4
  8
LAYER01
 62
     7
 10
5594.5342195313842
 20
7176.5463765781742
 30
0.0
  0
VERTEX
  5
6E5
  8
LAYER01
 62
     7
 10
5622.288818777819
 20
7188.4412048266468
 30
0.0
  0
VERTEX
  5
6E6
  8
LAYER01
 62
     7
 10
5646.0784752747632
 20
7196.3710903256278
 30
0.0
  0
VERTEX
  5
6E7
  8
LAYER01
 62
     7
 10
5673.8330745211979
 20
7204.3009758246098
 30
0.0
  0
VERTEX
  5
6E8
  8
LAYER01
 62
     7
 10
5701.5876737676326
 20
7208.2659185741013
 30
0.0
  0
VERTEX
  5
6E9
  8
LAYER01
 62
     7
 10
5733.3072157635588
 20
7208.2659185741013
 30
0.0
  0
VERTEX
  5
6EA
  8
LAYER01
 62
     7
 10
5733.3072157635588
 20
7208.2659185741013
 30
0.0
  0
VERTEX
  5
6EB
  8
LAYER01
 62
     7
 10
5761.0618150099936
 20
7204.3009758246098
 30
0.0
  0
VERTEX
  5
6EC
  8
LAYER01
 62
     7
 10
5788.8164142564283
 20
7200.3360330751193
 30
0.0
  0
VERTEX
  5
6ED
  8
LAYER01
 62
     7
 10
5812.6060707533716
 20
7192.4061475761382
 30
0.0
  0
VERTEX
  5
6EE
  8
LAYER01
 62
     7
 10
5840.3606699998072
 20
7184.4762620771562
 30
0.0
  0
VERTEX
  5
6EF
  8
LAYER01
 62
     7
 10
5860.1853837472609
 20
7172.5814338286846
 30
0.0
  0
VERTEX
  5
6F0
  8
LAYER01
 62
     7
 10
5883.975040244205
 20
7156.7216628307224
 30
0.0
  0
VERTEX
  5
6F1
  8
LAYER01
 62
     7
 10
5903.7997539916587
 20
7140.8618918327593
 30
0.0
  0
VERTEX
  5
6F2
  8
LAYER01
 62
     7
 10
5923.6244677391132
 20
7125.0021208347962
 30
0.0
  0
VERTEX
  5
6F3
  8
LAYER01
 62
     7
 10
5939.4842387370763
 20
7105.1774070873416
 30
0.0
  0
VERTEX
  5
6F4
  8
LAYER01
 62
     7
 10
5955.3440097350367
 20
7081.3877505903993
 30
0.0
  0
VERTEX
  5
6F5
  8
LAYER01
 62
     7
 10
5971.2037807329998
 20
7061.5630368429447
 30
0.0
  0
VERTEX
  5
6F6
  8
LAYER01
 62
     7
 10
5983.0986089814742
 20
7037.7733803459996
 30
0.0
  0
VERTEX
  5
6F7
  8
LAYER01
 62
     7
 10
5991.0284944804544
 20
7010.0187810995658
 30
0.0
  0
VERTEX
  5
6F8
  8
LAYER01
 62
     7
 10
5998.9583799794354
 20
6986.2291246026198
 30
0.0
  0
VERTEX
  5
6F9
  8
LAYER01
 62
     7
 10
6002.923322728926
 20
6958.4745253561859
 30
0.0
  0
VERTEX
  5
6FA
  8
LAYER01
 62
     7
 10
6002.923322728926
 20
6930.7199261097512
 30
0.0
  0
VERTEX
  5
6FB
  8
LAYER01
 62
     7
 10
6002.923322728926
 20
6930.7199261097512
 30
0.0
  0
VERTEX
  5
6FC
  8
LAYER01
 62
     7
 10
6002.923322728926
 20
6899.0003841138259
 30
0.0
  0
VERTEX
  5
6FD
  8
LAYER01
 62
     7
 10
5998.9583799794354
 20
6871.2457848673903
 30
0.0
  0
VERTEX
  5
6FE
  8
LAYER01
 62
     7
 10
5994.9934372299449
 20
6843.4911856209546
 30
0.0
  0
VERTEX
  5
6FF
  8
LAYER01
 62
     7
 10
5983.0986089814742
 20
6819.7015291240123
 30
0.0
  0
VERTEX
  5
700
  8
LAYER01
 62
     7
 10
5975.1687234824913
 20
6791.9469298775757
 30
0.0
  0
VERTEX
  5
701
  8
LAYER01
 62
     7
 10
5959.3089524845291
 20
6768.1572733806324
 30
0.0
  0
VERTEX
  5
702
  8
LAYER01
 62
     7
 10
5943.449181486566
 20
6744.3676168836892
 30
0.0
  0
VERTEX
  5
703
  8
LAYER01
 62
     7
 10
5923.6244677391132
 20
6724.5429031362346
 30
0.0
  0
VERTEX
  5
704
  8
LAYER01
 62
     7
 10
5903.7997539916587
 20
6704.718189388781
 30
0.0
  0
VERTEX
  5
705
  8
LAYER01
 62
     7
 10
5883.975040244205
 20
6688.8584183908179
 30
0.0
  0
VERTEX
  5
706
  8
LAYER01
 62
     7
 10
5860.1853837472609
 20
6672.9986473928557
 30
0.0
  0
VERTEX
  5
707
  8
LAYER01
 62
     7
 10
5836.3957272503167
 20
6661.103819144384
 30
0.0
  0
VERTEX
  5
708
  8
LAYER01
 62
     7
 10
5808.641128003881
 20
6653.173933645402
 30
0.0
  0
VERTEX
  5
709
  8
LAYER01
 62
     7
 10
5780.8865287574472
 20
6645.2440481464209
 30
0.0
  0
VERTEX
  5
70A
  8
LAYER01
 62
     7
 10
5753.1319295110115
 20
6641.2791053969304
 30
0.0
  0
VERTEX
  5
70B
  8
LAYER01
 62
     7
 10
5725.3773302645768
 20
6637.3141626474389
 30
0.0
  0
VERTEX
  5
70C
  8
LAYER01
 62
     7
 10
5725.3773302645768
 20
6637.3141626474389
 30
0.0
  0
SEQEND
  5
70D
  8
LAYER01
 62
     7
  0
POLYLINE
  5
70E
  8
LAYER01
 62
     7
 66
     1
 10
0.0
 20
0.0
 30
0.0
 70
     1
  0
VERTEX
  5
70F
  8
LAYER01
 62
     7
 10
6042.5727502238333
 20
7351.0038575557664
 30
0.0
  0
VERTEX
  5
710
  8
LAYER01
 62
     7
 10
6462.8566816698476
 20
7351.0038575557664
 30
0.0
  0
VERTEX
  5
711
  8
LAYER01
 62
     7
 10
6462.8566816698476
 20
7351.0038575557664
 30
0.0
  0
VERTEX
  5
712
  8
LAYER01
 62
     7
 10
6510.4359946637369
 20
7343.0739720567844
 30
0.0
  0
VERTEX
  5
713
  8
LAYER01
 62
     7
 10
6554.0503649081338
 20
7323.2492583093299
 30
0.0
  0
VERTEX
  5
714
  8
LAYER01
 62
     7
 10
6589.7348496535496
 20
7299.4596018123866
 30
0.0
  0
VERTEX
  5
715
  8
LAYER01
 62
     7
 10
6621.4543916494758
 20
7267.7400598164604
 30
0.0
  0
VERTEX
  5
716
  8
LAYER01
 62
     7
 10
6649.2089908959106
 20
7236.0205178205342
 30
0.0
  0
VERTEX
  5
717
  8
LAYER01
 62
     7
 10
6669.0337046433651
 20
7196.3710903256278
 30
0.0
  0
VERTEX
  5
718
  8
LAYER01
 62
     7
 10
6680.9285328918368
 20
7148.7917773317413
 30
0.0
  0
VERTEX
  5
719
  8
LAYER01
 62
     7
 10
6684.8934756413273
 20
7105.1774070873416
 30
0.0
  0
VERTEX
  5
71A
  8
LAYER01
 62
     7
 10
6684.8934756413273
 20
7105.1774070873416
 30
0.0
  0
VERTEX
  5
71B
  8
LAYER01
 62
     7
 10
6680.9285328918368
 20
7057.5980940934542
 30
0.0
  0
VERTEX
  5
71C
  8
LAYER01
 62
     7
 10
6672.9986473928557
 20
7017.948666598546
 30
0.0
  0
VERTEX
  5
71D
  8
LAYER01
 62
     7
 10
6657.1388763948926
 20
6978.2992391036396
 30
0.0
  0
VERTEX
  5
71E
  8
LAYER01
 62
     7
 10
6637.3141626474389
 20
6942.6147543582238
 30
0.0
  0
VERTEX
  5
71F
  8
LAYER01
 62
     7
 10
6609.5595634010042
 20
6910.8952123622976
 30
0.0
  0
VERTEX
  5
720
  8
LAYER01
 62
     7
 10
6581.8049641545704
 20
6887.1055558653534
 30
0.0
  0
VERTEX
  5
721
  8
LAYER01
 62
     7
 10
6542.1555366596622
 20
6863.3158993684092
 30
0.0
  0
VERTEX
  5
722
  8
LAYER01
 62
     7
 10
6502.506109164754
 20
6847.4561283704461
 30
0.0
  0
VERTEX
  5
723
  8
LAYER01
 62
     7
 10
6760.2273878816522
 20
6502.506109164754
 30
0.0
  0
VERTEX
  5
724
  8
LAYER01
 62
     7
 10
6561.9802504071158
 20
6502.506109164754
 30
0.0
  0
VERTEX
  5
725
  8
LAYER01
 62
     7
 10
6217.0302312014246
 20
6942.6147543582238
 30
0.0
  0
VERTEX
  5
726
  8
LAYER01
 62
     7
 10
6411.3124259264687
 20
6942.6147543582238
 30
0.0
  0
VERTEX
  5
727
  8
LAYER01
 62
     7
 10
6411.3124259264687
 20
6942.6147543582238
 30
0.0
  0
VERTEX
  5
728
  8
LAYER01
 62
     7
 10
6435.102082423412
 20
6950.5446398572049
 30
0.0
  0
VERTEX
  5
729
  8
LAYER01
 62
     7
 10
6454.9267961708656
 20
6958.4745253561859
 30
0.0
  0
VERTEX
  5
72A
  8
LAYER01
 62
     7
 10
6470.7865671688287
 20
6974.334296354149
 30
0.0
  0
VERTEX
  5
72B
  8
LAYER01
 62
     7
 10
6486.6463381667918
 20
6990.1940673521131
 30
0.0
  0
VERTEX
  5
72C
  8
LAYER01
 62
     7
 10
6498.5411664152653
 20
7010.0187810995658
 30
0.0
  0
VERTEX
  5
72D
  8
LAYER01
 62
     7
 10
6510.4359946637369
 20
7029.8434948470176
 30
0.0
  0
VERTEX
  5
72E
  8
LAYER01
 62
     7
 10
6514.4009374132283
 20
7053.6331513439627
 30
0.0
  0
VERTEX
  5
72F
  8
LAYER01
 62
     7
 10
6514.4009374132283
 20
7077.4228078409069
 30
0.0
  0
VERTEX
  5
730
  8
LAYER01
 62
     7
 10
6514.4009374132283
 20
7077.4228078409069
 30
0.0
  0
VERTEX
  5
731
  8
LAYER01
 62
     7
 10
6514.4009374132283
 20
7101.212464337852
 30
0.0
  0
VERTEX
  5
732
  8
LAYER01
 62
     7
 10
6506.4710519142463
 20
7121.0371780853047
 30
0.0
  0
VERTEX
  5
733
  8
LAYER01
 62
     7
 10
6498.5411664152653
 20
7140.8618918327593
 30
0.0
  0
VERTEX
  5
734
  8
LAYER01
 62
     7
 10
6486.6463381667918
 20
7160.6866055802111
 30
0.0
  0
VERTEX
  5
735
  8
LAYER01
 62
     7
 10
6470.7865671688287
 20
7176.5463765781742
 30
0.0
  0
VERTEX
  5
736
  8
LAYER01
 62
     7
 10
6454.9267961708656
 20
7188.4412048266468
 30
0.0
  0
VERTEX
  5
737
  8
LAYER01
 62
     7
 10
6431.1371396739214
 20
7200.3360330751193
 30
0.0
  0
VERTEX
  5
738
  8
LAYER01
 62
     7
 10
6411.3124259264687
 20
7208.2659185741013
 30
0.0
  0
VERTEX
  5
739
  8
LAYER01
 62
     7
 10
6185.3106892054993
 20
7208.2659185741013
 30
0.0
  0
VERTEX
  5
73A
  8
LAYER01
 62
     7
 10
6042.5727502238333
 20
7351.0038575557664
 30
0.0
  0
VERTEX
  5
73B
  8
LAYER01
 62
     7
 10
6042.5727502238333
 20
7351.0038575557664
 30
0.0
  0
SEQEND
  5
73C
  8
LAYER01
 62
     7
  0
POLYLINE
  5
73D
  8
LAYER01
 62
     7
 66
     1
 10
0.0
 20
0.0
 30
0.0
 70
     1
  0
VERTEX
  5
73E
  8
LAYER01
 62
     7
 10
6867.2808421178988
 20
7140.8618918327593
 30
0.0
  0
VERTEX
  5
73F
  8
LAYER01
 62
     7
 10
6867.2808421178988
 20
7140.8618918327593
 30
0.0
  0
VERTEX
  5
740
  8
LAYER01
 62
     7
 10
6887.1055558653534
 20
7144.826834582248
 30
0.0
  0
VERTEX
  5
741
  8
LAYER01
 62
     7
 10
6906.930269612807
 20
7148.7917773317413
 30
0.0
  0
VERTEX
  5
742
  8
LAYER01
 62
     7
 10
6926.7549833602607
 20
7160.6866055802111
 30
0.0
  0
VERTEX
  5
743
  8
LAYER01
 62
     7
 10
6942.6147543582238
 20
7172.5814338286846
 30
0.0
  0
VERTEX
  5
744
  8
LAYER01
 62
     7
 10
6954.5095826066963
 20
7188.4412048266468
 30
0.0
  0
VERTEX
  5
745
  8
LAYER01
 62
     7
 10
6962.4394681056774
 20
7204.3009758246098
 30
0.0
  0
VERTEX
  5
746
  8
LAYER01
 62
     7
 10
6970.3693536046594
 20
7224.1256895720644
 30
0.0
  0
VERTEX
  5
747
  8
LAYER01
 62
     7
 10
6970.3693536046594
 20
7247.9153460690077
 30
0.0
  0
VERTEX
  5
748
  8
LAYER01
 62
     7
 10
6970.3693536046594
 20
7247.9153460690077
 30
0.0
  0
VERTEX
  5
749
  8
LAYER01
 62
     7
 10
6970.3693536046594
 20
7267.7400598164604
 30
0.0
  0
VERTEX
  5
74A
  8
LAYER01
 62
     7
 10
6962.4394681056774
 20
7287.5647735639141
 30
0.0
  0
VERTEX
  5
74B
  8
LAYER01
 62
     7
 10
6954.5095826066963
 20
7303.4245445618772
 30
0.0
  0
VERTEX
  5
74C
  8
LAYER01
 62
     7
 10
6942.6147543582238
 20
7319.2843155598412
 30
0.0
  0
VERTEX
  5
74D
  8
LAYER01
 62
     7
 10
6926.7549833602607
 20
7331.1791438083128
 30
0.0
  0
VERTEX
  5
74E
  8
LAYER01
 62
     7
 10
6906.930269612807
 20
7343.0739720567844
 30
0.0
  0
VERTEX
  5
74F
  8
LAYER01
 62
     7
 10
6887.1055558653534
 20
7347.038914806275
 30
0.0
  0
VERTEX
  5
750
  8
LAYER01
 62
     7
 10
6867.2808421178988
 20
7351.0038575557664
 30
0.0
  0
VERTEX
  5
751
  8
LAYER01
 62
     7
 10
6867.2808421178988
 20
7351.0038575557664
 30
0.0
  0
VERTEX
  5
752
  8
LAYER01
 62
     7
 10
6847.4561283704461
 20
7347.038914806275
 30
0.0
  0
VERTEX
  5
753
  8
LAYER01
 62
     7
 10
6827.6314146229934
 20
7343.0739720567844
 30
0.0
  0
VERTEX
  5
754
  8
LAYER01
 62
     7
 10
6807.8067008755397
 20
7331.1791438083128
 30
0.0
  0
VERTEX
  5
755
  8
LAYER01
 62
     7
 10
6791.9469298775757
 20
7319.2843155598412
 30
0.0
  0
VERTEX
  5
756
  8
LAYER01
 62
     7
 10
6780.0521016291041
 20
7303.4245445618772
 30
0.0
  0
VERTEX
  5
757
  8
LAYER01
 62
     7
 10
6772.122216130123
 20
7287.5647735639141
 30
0.0
  0
VERTEX
  5
758
  8
LAYER01
 62
     7
 10
6764.1923306311428
 20
7267.7400598164604
 30
0.0
  0
VERTEX
  5
759
  8
LAYER01
 62
     7
 10
6764.1923306311428
 20
7247.9153460690077
 30
0.0
  0
VERTEX
  5
75A
  8
LAYER01
 62
     7
 10
6764.1923306311428
 20
7247.9153460690077
 30
0.0
  0
VERTEX
  5
75B
  8
LAYER01
 62
     7
 10
6764.1923306311428
 20
7224.1256895720644
 30
0.0
  0
VERTEX
  5
75C
  8
LAYER01
 62
     7
 10
6772.122216130123
 20
7204.3009758246098
 30
0.0
  0
VERTEX
  5
75D
  8
LAYER01
 62
     7
 10
6780.0521016291041
 20
7188.4412048266468
 30
0.0
  0
VERTEX
  5
75E
  8
LAYER01
 62
     7
 10
6791.9469298775757
 20
7172.5814338286846
 30
0.0
  0
VERTEX
  5
75F
  8
LAYER01
 62
     7
 10
6807.8067008755397
 20
7160.6866055802111
 30
0.0
  0
VERTEX
  5
760
  8
LAYER01
 62
     7
 10
6827.6314146229934
 20
7148.7917773317413
 30
0.0
  0
VERTEX
  5
761
  8
LAYER01
 62
     7
 10
6847.4561283704461
 20
7144.826834582248
 30
0.0
  0
VERTEX
  5
762
  8
LAYER01
 62
     7
 10
6867.2808421178988
 20
7140.8618918327593
 30
0.0
  0
VERTEX
  5
763
  8
LAYER01
 62
     7
 10
6867.2808421178988
 20
7140.8618918327593
 30
0.0
  0
SEQEND
  5
764
  8
LAYER01
 62
     7
  0
POLYLINE
  5
765
  8
LAYER01
 62
     7
 66
     1
 10
0.0
 20
0.0
 30
0.0
 70
     1
  0
VERTEX
  5
766
  8
LAYER01
 62
     7
 10
6867.2808421178988
 20
7335.1440865578043
 30
0.0
  0
VERTEX
  5
767
  8
LAYER01
 62
     7
 10
6867.2808421178988
 20
7335.1440865578043
 30
0.0
  0
VERTEX
  5
768
  8
LAYER01
 62
     7
 10
6883.1406131158628
 20
7331.1791438083128
 30
0.0
  0
VERTEX
  5
769
  8
LAYER01
 62
     7
 10
6899.0003841138259
 20
7327.2142010588213
 30
0.0
  0
VERTEX
  5
76A
  8
LAYER01
 62
     7
 10
6914.8601551117881
 20
7319.2843155598412
 30
0.0
  0
VERTEX
  5
76B
  8
LAYER01
 62
     7
 10
6926.7549833602607
 20
7307.3894873113677
 30
0.0
  0
VERTEX
  5
76C
  8
LAYER01
 62
     7
 10
6938.6498116087323
 20
7295.4946590628961
 30
0.0
  0
VERTEX
  5
76D
  8
LAYER01
 62
     7
 10
6946.5796971077143
 20
7279.634888064933
 30
0.0
  0
VERTEX
  5
76E
  8
LAYER01
 62
     7
 10
6954.5095826066963
 20
7263.7751170669708
 30
0.0
  0
VERTEX
  5
76F
  8
LAYER01
 62
     7
 10
6954.5095826066963
 20
7247.9153460690077
 30
0.0
  0
VERTEX
  5
770
  8
LAYER01
 62
     7
 10
6954.5095826066963
 20
7247.9153460690077
 30
0.0
  0
VERTEX
  5
771
  8
LAYER01
 62
     7
 10
6954.5095826066963
 20
7228.0906323215549
 30
0.0
  0
VERTEX
  5
772
  8
LAYER01
 62
     7
 10
6946.5796971077143
 20
7212.2308613235909
 30
0.0
  0
VERTEX
  5
773
  8
LAYER01
 62
     7
 10
6938.6498116087323
 20
7196.3710903256278
 30
0.0
  0
VERTEX
  5
774
  8
LAYER01
 62
     7
 10
6926.7549833602607
 20
7184.4762620771562
 30
0.0
  0
VERTEX
  5
775
  8
LAYER01
 62
     7
 10
6914.8601551117881
 20
7172.5814338286846
 30
0.0
  0
VERTEX
  5
776
  8
LAYER01
 62
     7
 10
6899.0003841138259
 20
7164.6515483297017
 30
0.0
  0
VERTEX
  5
777
  8
LAYER01
 62
     7
 10
6883.1406131158628
 20
7160.6866055802111
 30
0.0
  0
VERTEX
  5
778
  8
LAYER01
 62
     7
 10
6867.2808421178988
 20
7160.6866055802111
 30
0.0
  0
VERTEX
  5
779
  8
LAYER01
 62
     7
 10
6867.2808421178988
 20
7160.6866055802111
 30
0.0
  0
VERTEX
  5
77A
  8
LAYER01
 62
     7
 10
6851.4210711199376
 20
7160.6866055802111
 30
0.0
  0
VERTEX
  5
77B
  8
LAYER01
 62
     7
 10
6831.5963573724839
 20
7164.6515483297017
 30
0.0
  0
VERTEX
  5
77C
  8
LAYER01
 62
     7
 10
6819.7015291240123
 20
7172.5814338286846
 30
0.0
  0
VERTEX
  5
77D
  8
LAYER01
 62
     7
 10
6803.8417581260492
 20
7184.4762620771562
 30
0.0
  0
VERTEX
  5
77E
  8
LAYER01
 62
     7
 10
6795.9118726270672
 20
7196.3710903256278
 30
0.0
  0
VERTEX
  5
77F
  8
LAYER01
 62
     7
 10
6787.9819871280861
 20
7212.2308613235909
 30
0.0
  0
VERTEX
  5
780
  8
LAYER01
 62
     7
 10
6780.0521016291041
 20
7228.0906323215549
 30
0.0
  0
VERTEX
  5
781
  8
LAYER01
 62
     7
 10
6780.0521016291041
 20
7247.9153460690077
 30
0.0
  0
VERTEX
  5
782
  8
LAYER01
 62
     7
 10
6780.0521016291041
 20
7247.9153460690077
 30
0.0
  0
VERTEX
  5
783
  8
LAYER01
 62
     7
 10
6780.0521016291041
 20
7263.7751170669708
 30
0.0
  0
VERTEX
  5
784
  8
LAYER01
 62
     7
 10
6787.9819871280861
 20
7279.634888064933
 30
0.0
  0
VERTEX
  5
785
  8
LAYER01
 62
     7
 10
6795.9118726270672
 20
7295.4946590628961
 30
0.0
  0
VERTEX
  5
786
  8
LAYER01
 62
     7
 10
6803.8417581260492
 20
7307.3894873113677
 30
0.0
  0
VERTEX
  5
787
  8
LAYER01
 62
     7
 10
6819.7015291240123
 20
7319.2843155598412
 30
0.0
  0
VERTEX
  5
788
  8
LAYER01
 62
     7
 10
6831.5963573724839
 20
7327.2142010588213
 30
0.0
  0
VERTEX
  5
789
  8
LAYER01
 62
     7
 10
6851.4210711199376
 20
7331.1791438083128
 30
0.0
  0
VERTEX
  5
78A
  8
LAYER01
 62
     7
 10
6867.2808421178988
 20
7335.1440865578043
 30
0.0
  0
VERTEX
  5
78B
  8
LAYER01
 62
     7
 10
6867.2808421178988
 20
7335.1440865578043
 30
0.0
  0
SEQEND
  5
78C
  8
LAYER01
 62
     7
  0
POLYLINE
  5
78D
  8
LAYER01
 62
     7
 66
     1
 10
0.0
 20
0.0
 30
0.0
 70
     1
  0
VERTEX
  5
78E
  8
LAYER01
 62
     7
 10
6883.1406131158628
 20
7239.9854605700266
 30
0.0
  0
VERTEX
  5
78F
  8
LAYER01
 62
     7
 10
6883.1406131158628
 20
7239.9854605700266
 30
0.0
  0
VERTEX
  5
790
  8
LAYER01
 62
     7
 10
6895.0354413643354
 20
7243.950403319518
 30
0.0
  0
VERTEX
  5
791
  8
LAYER01
 62
     7
 10
6906.930269612807
 20
7247.9153460690077
 30
0.0
  0
VERTEX
  5
792
  8
LAYER01
 62
     7
 10
6914.8601551117881
 20
7259.8101743174793
 30
0.0
  0
VERTEX
  5
793
  8
LAYER01
 62
     7
 10
6914.8601551117881
 20
7271.705002565951
 30
0.0
  0
VERTEX
  5
794
  8
LAYER01
 62
     7
 10
6914.8601551117881
 20
7271.705002565951
 30
0.0
  0
VERTEX
  5
795
  8
LAYER01
 62
     7
 10
6914.8601551117881
 20
7287.5647735639141
 30
0.0
  0
VERTEX
  5
796
  8
LAYER01
 62
     7
 10
6902.9653268633156
 20
7299.4596018123866
 30
0.0
  0
VERTEX
  5
797
  8
LAYER01
 62
     7
 10
6891.0704986148439
 20
7303.4245445618772
 30
0.0
  0
VERTEX
  5
798
  8
LAYER01
 62
     7
 10
6875.2107276168808
 20
7303.4245445618772
 30
0.0
  0
VERTEX
  5
799
  8
LAYER01
 62
     7
 10
6827.6314146229934
 20
7303.4245445618772
 30
0.0
  0
VERTEX
  5
79A
  8
LAYER01
 62
     7
 10
6827.6314146229934
 20
7188.4412048266468
 30
0.0
  0
VERTEX
  5
79B
  8
LAYER01
 62
     7
 10
6843.4911856209546
 20
7188.4412048266468
 30
0.0
  0
VERTEX
  5
79C
  8
LAYER01
 62
     7
 10
6843.4911856209546
 20
7239.9854605700266
 30
0.0
  0
VERTEX
  5
79D
  8
LAYER01
 62
     7
 10
6867.2808421178988
 20
7239.9854605700266
 30
0.0
  0
VERTEX
  5
79E
  8
LAYER01
 62
     7
 10
6895.0354413643354
 20
7188.4412048266468
 30
0.0
  0
VERTEX
  5
79F
  8
LAYER01
 62
     7
 10
6914.8601551117881
 20
7188.4412048266468
 30
0.0
  0
VERTEX
  5
7A0
  8
LAYER01
 62
     7
 10
6883.1406131158628
 20
7239.9854605700266
 30
0.0
  0
VERTEX
  5
7A1
  8
LAYER01
 62
     7
 10
6883.1406131158628
 20
7239.9854605700266
 30
0.0
  0
SEQEND
  5
7A2
  8
LAYER01
 62
     7
  0
POLYLINE
  5
7A3
  8
LAYER01
 62
     7
 66
     1
 10
0.0
 20
0.0
 30
0.0
 70
     1
  0
VERTEX
  5
7A4
  8
LAYER01
 62
     7
 10
6871.2457848673903
 20
7287.5647735639141
 30
0.0
  0
VERTEX
  5
7A5
  8
LAYER01
 62
     7
 10
6871.2457848673903
 20
7287.5647735639141
 30
0.0
  0
VERTEX
  5
7A6
  8
LAYER01
 62
     7
 10
6891.0704986148439
 20
7283.5998308144244
 30
0.0
  0
VERTEX
  5
7A7
  8
LAYER01
 62
     7
 10
6899.0003841138259
 20
7279.634888064933
 30
0.0
  0
VERTEX
  5
7A8
  8
LAYER01
 62
     7
 10
6899.0003841138259
 20
7271.705002565951
 30
0.0
  0
VERTEX
  5
7A9
  8
LAYER01
 62
     7
 10
6899.0003841138259
 20
7271.705002565951
 30
0.0
  0
VERTEX
  5
7AA
  8
LAYER01
 62
     7
 10
6895.0354413643354
 20
7263.7751170669708
 30
0.0
  0
VERTEX
  5
7AB
  8
LAYER01
 62
     7
 10
6887.1055558653534
 20
7259.8101743174793
 30
0.0
  0
VERTEX
  5
7AC
  8
LAYER01
 62
     7
 10
6863.3158993684092
 20
7255.8452315679879
 30
0.0
  0
VERTEX
  5
7AD
  8
LAYER01
 62
     7
 10
6843.4911856209546
 20
7255.8452315679879
 30
0.0
  0
VERTEX
  5
7AE
  8
LAYER01
 62
     7
 10
6843.4911856209546
 20
7287.5647735639141
 30
0.0
  0
VERTEX
  5
7AF
  8
LAYER01
 62
     7
 10
6871.2457848673903
 20
7287.5647735639141
 30
0.0
  0
VERTEX
  5
7B0
  8
LAYER01
 62
     7
 10
6871.2457848673903
 20
7287.5647735639141
 30
0.0
  0
SEQEND
  5
7B1
  8
LAYER01
 62
     7
  0
ENDBLK
  5
7B2
  8
0
 62
     7
  0
ENDSEC
  0
SECTION
  2
ENTITIES
  0
LINE
  5
4C1
  8
LAYER01
  6
VERDECKT
 62
     7
 10
10731.835456999999
 20
15702.877415999999
 30
0.0
 11
13007.835456999999
 21
15702.877415999999
 31
0.0
  0
LINE
  5
4C2
  8
LAYER01
  6
CONTINUOUS
 62
     7
 10
12039.835456999999
 20
15067.051153
 30
0.0
 11
13019.835456999999
 21
15067.051153
 31
0.0
  0
LINE
  5
4C3
  8
LAYER01
  6
CONTINUOUS
 62
     7
 10
12039.835456999999
 20
15063.051153
 30
0.0
 11
13019.835456999999
 21
15063.051153
 31
0.0
  0
LINE
  5
4C4
  8
LAYER01
  6
CONTINUOUS
 62
     7
 10
12039.835456999999
 20
15067.051153
 30
0.0
 11
12039.835456999999
 21
15063.051153
 31
0.0
  0
LINE
  5
4C5
  8
LAYER01
  6
CONTINUOUS
 62
     7
 10
13019.835456999999
 20
15067.051153
 30
0.0
 11
13019.835456999999
 21
15063.051153
 31
0.0
  0
SOLID
  5
4C6
  8
LAYER01
  6
CONTINUOUS
 62
     7
 10
12039.835456999999
 20
15067.051153
 30
0.0
 11
13019.835456999999
 21
15067.051153
 31
0.0
 12
12039.835456999999
 22
15063.051153
 32
0.0
 13
13019.835456999999
 23
15063.051153
 33
0.0
  0
LINE
  5
4C7
  8
LAYER01
  6
CONTINUOUS
 62
     7
 10
11857.835456999999
 20
15267.051153
 30
0.0
 11
13019.835456999999
 21
15267.051153
 31
0.0
  0
LINE
  5
4C8
  8
LAYER01
  6
CONTINUOUS
 62
     7
 10
11857.835456999999
 20
15263.051153
 30
0.0
 11
13019.835456999999
 21
15263.051153
 31
0.0
  0
LINE
  5
4C9
  8
LAYER01
  6
CONTINUOUS
 62
     7
 10
11857.835456999999
 20
15267.051153
 30
0.0
 11
11857.835456999999
 21
15263.051153
 31
0.0
  0
LINE
  5
4CA
  8
LAYER01
  6
CONTINUOUS
 62
     7
 10
13019.835456999999
 20
15267.051153
 30
0.0
 11
13019.835456999999
 21
15263.051153
 31
0.0
  0
SOLID
  5
4CB
  8
LAYER01
  6
CONTINUOUS
 62
     7
 10
11857.835456999999
 20
15267.051153
 30
0.0
 11
13019.835456999999
 21
15267.051153
 31
0.0
 12
11857.835456999999
 22
15263.051153
 32
0.0
 13
13019.835456999999
 23
15263.051153
 33
0.0
  0
LINE
  5
4CC
  8
LAYER01
  6
CONTINUOUS
 62
     7
 10
10719.835456999999
 20
15692.877415999999
 30
0.0
 11
13019.835456999999
 21
15692.877415999999
 31
0.0
  0
LINE
  5
4CD
  8
LAYER01
  6
CONTINUOUS
 62
     7
 10
10719.835456999999
 20
15688.877415999999
 30
0.0
 11
13019.835456999999
 21
15688.877415999999
 31
0.0
  0
LINE
  5
4CE
  8
LAYER01
  6
CONTINUOUS
 62
     7
 10
10719.835456999999
 20
15692.877415999999
 30
0.0
 11
10719.835456999999
 21
15688.877415999999
 31
0.0
  0
LINE
  5
4CF
  8
LAYER01
  6
CONTINUOUS
 62
     7
 10
13019.835456999999
 20
15692.877415999999
 30
0.0
 11
13019.835456999999
 21
15688.877415999999
 31
0.0
  0
SOLID
  5
4D0
  8
LAYER01
  6
CONTINUOUS
 62
     7
 10
10719.835456999999
 20
15692.877415999999
 30
0.0
 11
13019.835456999999
 21
15692.877415999999
 31
0.0
 12
10719.835456999999
 22
15688.877415999999
 32
0.0
 13
13019.835456999999
 23
15688.877415999999
 33
0.0
  0
LINE
  5
4D1
  8
LAYER01
  6
CONTINUOUS
 62
     7
 10
10719.835456999999
 20
16172.877415999999
 30
0.0
 11
13019.835456999999
 21
16172.877415999999
 31
0.0
  0
LINE
  5
4D2
  8
LAYER01
  6
CONTINUOUS
 62
     7
 10
10719.835456999999
 20
16168.877415999999
 30
0.0
 11
13019.835456999999
 21
16168.877415999999
 31
0.0
  0
LINE
  5
4D3
  8
LAYER01
  6
CONTINUOUS
 62
     7
 10
10719.835456999999
 20
16172.877415999999
 30
0.0
 11
10719.835456999999
 21
16168.877415999999
 31
0.0
  0
LINE
  5
4D4
  8
LAYER01
  6
CONTINUOUS
 62
     7
 10
13019.835456999999
 20
16172.877415999999
 30
0.0
 11
13019.835456999999
 21
16168.877415999999
 31
0.0
  0
SOLID
  5
4D5
  8
LAYER01
  6
CONTINUOUS
 62
     7
 10
10719.835456999999
 20
16172.877415999999
 30
0.0
 11
13019.835456999999
 21
16172.877415999999
 31
0.0
 12
10719.835456999999
 22
16168.877415999999
 32
0.0
 13
13019.835456999999
 23
16168.877415999999
 33
0.0
  0
LINE
  5
4D6
  8
LAYER01
  6
CONTINUOUS
 62
     7
 10
10830.835456999999
 20
15742.877415999999
 30
0.0
 11
12904.487685
 21
15742.877415999999
 31
0.0
  0
LINE
  5
4D7
  8
LAYER01
  6
CONTINUOUS
 62
     7
 10
10830.835456999999
 20
15738.877415999999
 30
0.0
 11
12904.487685
 21
15738.877415999999
 31
0.0
  0
LINE
  5
4D8
  8
LAYER01
  6
CONTINUOUS
 62
     7
 10
10830.835456999999
 20
15742.877415999999
 30
0.0
 11
10830.835456999999
 21
15738.877415999999
 31
0.0
  0
LINE
  5
4D9
  8
LAYER01
  6
CONTINUOUS
 62
     7
 10
12904.487685
 20
15742.877415999999
 30
0.0
 11
12904.487685
 21
15738.877415999999
 31
0.0
  0
SOLID
  5
4DA
  8
LAYER01
  6
CONTINUOUS
 62
     7
 10
10830.835456999999
 20
15742.877415999999
 30
0.0
 11
12904.487685
 21
15742.877415999999
 31
0.0
 12
10830.835456999999
 22
15738.877415999999
 32
0.0
 13
12904.487685
 23
15738.877415999999
 33
0.0
  0
LINE
  5
4DB
  8
LAYER01
  6
CONTINUOUS
 62
     7
 10
10832.897199999999
 20
16042.877415999999
 30
0.0
 11
12910.140512
 21
16042.877415999999
 31
0.0
  0
LINE
  5
4DC
  8
LAYER01
  6
CONTINUOUS
 62
     7
 10
10832.897199999999
 20
16038.877415999999
 30
0.0
 11
12910.140512
 21
16038.877415999999
 31
0.0
  0
LINE
  5
4DD
  8
LAYER01
  6
CONTINUOUS
 62
     7
 10
10832.897199999999
 20
16042.877415999999
 30
0.0
 11
10832.897199999999
 21
16038.877415999999
 31
0.0
  0
LINE
  5
4DE
  8
LAYER01
  6
CONTINUOUS
 62
     7
 10
12910.140512
 20
16042.877415999999
 30
0.0
 11
12910.140512
 21
16038.877415999999
 31
0.0
  0
SOLID
  5
4DF
  8
LAYER01
  6
CONTINUOUS
 62
     7
 10
10832.897199999999
 20
16042.877415999999
 30
0.0
 11
12910.140512
 21
16042.877415999999
 31
0.0
 12
10832.897199999999
 22
16038.877415999999
 32
0.0
 13
12910.140512
 23
16038.877415999999
 33
0.0
  0
LINE
  5
4E0
  8
LAYER01
  6
VERDECKT
 62
     7
 10
11980.261288
 20
15129.090409
 30
0.0
 11
12391.370317000001
 21
15111.568198000001
 31
0.0
  0
DIMENSION
  5
4E1
  8
LAYER01
 62
     7
  2
*D0
 10
13019.835456999999
 20
16482.152049
 30
0.0
 11
11877.277586
 21
16527.152049
 31
0.0
 13
10719.835456999999
 23
16333.814915000001
 33
0.0
 14
13019.835456999999
 24
16333.814915000001
 34
0.0
  0
DIMENSION
  5
4E2
  8
LAYER01
 62
     7
  2
*D1
 10
12694.835456999999
 20
16251.716458999999
 30
0.0
 11
12446.821527
 21
16296.716458999999
 31
0.0
 13
12194.835456999999
 23
16170.877415999999
 33
0.0
 14
12694.835456999999
 24
16170.877415999999
 34
0.0
  0
DIMENSION
  5
4E3
  8
LAYER01
 62
     7
  2
*D2
 10
11857.835456999999
 20
15371.088913
 30
0.0
 11
12425.257582
 21
15416.088913
 31
0.0
 13
13019.835456999999
 23
15265.051153
 33
0.0
 14
11857.835456999999
 24
15265.051153
 34
0.0
  0
DIMENSION
  5
4E4
  8
LAYER01
 62
     7
  2
*D3
 10
10527.764402999999
 20
15690.877415999999
 30
0.0
 11
10482.764402999999
 21
15930.650854
 31
0.0
 53
90.0
 13
10719.835456999999
 23
16170.877415999999
 33
0.0
 14
10719.835456999999
 24
15690.877415999999
 34
0.0
 50
90.0
  0
LINE
  5
4E5
  8
LAYER01
  6
STRICHPUNKTIERT
 62
     7
 10
12526.754868
 20
15890.877415999999
 30
0.0
 11
12370.633664000001
 21
15890.877415999999
 31
0.0
  0
POLYLINE
  5
4E6
  8
LAYER01
  6
CONTINUOUS
 62
     7
 66
     1
 10
0.0
 20
0.0
 30
0.0
 70
     1
  0
VERTEX
  5
9E0
  8
LAYER01
  6
CONTINUOUS
 62
     7
 10
10423.102975
 20
13883.232813000001
 30
0.0
  0
VERTEX
  5
9E1
  8
LAYER01
  6
CONTINUOUS
 62
     7
 10
10423.102975
 20
16671.149165999999
 30
0.0
  0
VERTEX
  5
9E2
  8
LAYER01
  6
CONTINUOUS
 62
     7
 10
14432.392207000001
 20
16671.149165999999
 30
0.0
  0
VERTEX
  5
9E3
  8
LAYER01
  6
CONTINUOUS
 62
     7
 10
14432.392207000001
 20
13883.232813000001
 30
0.0
  0
SEQEND
  5
9E4
  8
LAYER01
  6
CONTINUOUS
 62
     7
  0
INSERT
  5
4EC
  8
LAYER01
  2
STWR-G5
 10
0.0
 20
0.0
 30
0.0
  0
TEXT
  5
4ED
  8
LAYER01
  6
VERDECKT
 62
     1
 10
13832.954927000001
 20
14176.656025
 30
0.0
 40
30.0
  1
A. Sprenger GmbH
  7
SIMPLEX
  0
TEXT
  5
4EE
  8
LAYER01
  6
CONTINUOUS
 62
     7
 10
13823.222739000001
 20
14362.442026999999
 30
0.0
 40
9.0
  1
Diese Zeichnung ist geistiges Eigentum der A. Sprenger GmbH
  7
SIMPLEX
  0
TEXT
  5
4EF
  8
LAYER01
  6
CONTINUOUS
 62
     7
 10
13823.222739000001
 20
14347.013456000001
 30
0.0
 40
9.0
  1
und urheberrechtlich geschützt. Ohne unsere Zustimmung darf 
  7
SIMPLEX
  0
TEXT
  5
4F0
  8
LAYER01
  6
CONTINUOUS
 62
     7
 10
13823.222739000001
 20
14331.584884
 30
0.0
 40
9.0
  1
sie in keiner Form verwendet oder Dritten zugänglich gemacht
  7
SIMPLEX
  0
TEXT
  5
4F1
  8
LAYER01
  6
CONTINUOUS
 62
     7
 10
13823.222739000001
 20
14316.156312999999
 30
0.0
 40
9.0
  1
werden. (§106 Urheberrecht)
  7
SIMPLEX
  0
TEXT
  5
4F2
  8
LAYER01
  6
VERDECKT
 62
     1
 10
13832.954927000001
 20
14058.836563999999
 30
0.0
 40
42.0
  1
Waschrinne STWR
  7
SIMPLEX
  0
TEXT
  5
4F3
  8
LAYER01
  6
VERDECKT
 62
     1
 10
13554.955651
 20
14107.194267000001
 30
0.0
 40
12.0
  1
Juli 2013
  7
SIMPLEX
  0
TEXT
  5
4F4
  8
LAYER01
  6
VERDECKT
 62
     1
 10
13670.344239
 20
14107.150422999999
 30
0.0
 40
12.0
  1
b.s.
  7
SIMPLEX
  0
TEXT
  5
4F5
  8
LAYER01
  6
VERDECKT
 62
     1
 10
13912.0874
 20
14254.029999
 30
0.0
 40
12.0
  1
1 : 10 (DIN A3)
  7
SIMPLEX
  0
TEXT
  5
4F6
  8
LAYER01
  6
VERDECKT
 62
     1
 10
14221.361713
 20
14254.029999
 30
0.0
 40
12.0
  1
stwr.skd
  7
SIMPLEX
  0
LINE
  5
4F7
  8
LAYER01
  6
VERDECKT
 62
     7
 10
10731.835456999999
 20
15702.877415999999
 30
0.0
 11
10731.835456999999
 21
16170.877415999999
 31
0.0
  0
LINE
  5
4F8
  8
LAYER01
  6
CONTINUOUS
 62
     7
 10
10717.835456999999
 20
15690.877415999999
 30
0.0
 11
10717.835456999999
 21
16170.877415999999
 31
0.0
  0
LINE
  5
4F9
  8
LAYER01
  6
CONTINUOUS
 62
     7
 10
10721.835456999999
 20
15690.877415999999
 30
0.0
 11
10721.835456999999
 21
16170.877415999999
 31
0.0
  0
LINE
  5
4FA
  8
LAYER01
  6
CONTINUOUS
 62
     7
 10
10717.835456999999
 20
15690.877415999999
 30
0.0
 11
10721.835456999999
 21
15690.877415999999
 31
0.0
  0
LINE
  5
4FB
  8
LAYER01
  6
CONTINUOUS
 62
     7
 10
10717.835456999999
 20
16170.877415999999
 30
0.0
 11
10721.835456999999
 21
16170.877415999999
 31
0.0
  0
SOLID
  5
4FC
  8
LAYER01
  6
CONTINUOUS
 62
     7
 10
10717.835456999999
 20
15690.877415999999
 30
0.0
 11
10717.835456999999
 21
16170.877415999999
 31
0.0
 12
10721.835456999999
 22
15690.877415999999
 32
0.0
 13
10721.835456999999
 23
16170.877415999999
 33
0.0
  0
LINE
  5
4FD
  8
LAYER01
  6
CONTINUOUS
 62
     7
 10
10817.835456999999
 20
15751.877415999999
 30
0.0
 11
10817.835456999999
 21
16029.877415999999
 31
0.0
  0
LINE
  5
4FE
  8
LAYER01
  6
CONTINUOUS
 62
     7
 10
10821.835456999999
 20
15751.877415999999
 30
0.0
 11
10821.835456999999
 21
16029.877415999999
 31
0.0
  0
LINE
  5
4FF
  8
LAYER01
  6
CONTINUOUS
 62
     7
 10
10817.835456999999
 20
15751.877415999999
 30
0.0
 11
10821.835456999999
 21
15751.877415999999
 31
0.0
  0
LINE
  5
500
  8
LAYER01
  6
CONTINUOUS
 62
     7
 10
10817.835456999999
 20
16029.877415999999
 30
0.0
 11
10821.835456999999
 21
16029.877415999999
 31
0.0
  0
SOLID
  5
501
  8
LAYER01
  6
CONTINUOUS
 62
     7
 10
10817.835456999999
 20
15751.877415999999
 30
0.0
 11
10817.835456999999
 21
16029.877415999999
 31
0.0
 12
10821.835456999999
 22
15751.877415999999
 32
0.0
 13
10821.835456999999
 23
16029.877415999999
 33
0.0
  0
DIMENSION
  5
502
  8
LAYER01
 62
     7
  2
*D6
 10
10593.753822000001
 20
16040.877415999999
 30
0.0
 11
10548.753822000001
 21
15890.650854
 31
0.0
 53
90.0
 13
10719.835456999999
 23
15740.877415999999
 33
0.0
 14
10719.835456999999
 24
16040.877415999999
 34
0.0
 50
90.0
  0
LINE
  5
503
  8
LAYER01
  6
CONTINUOUS
 62
     7
 10
11971.835456999999
 20
16040.877415999999
 30
0.0
 11
11971.835456999999
 21
15740.877415999999
 31
0.0
  0
LINE
  5
504
  8
LAYER01
  6
CONTINUOUS
 62
     7
 10
11967.835456999999
 20
16040.877415999999
 30
0.0
 11
11967.835456999999
 21
15740.877415999999
 31
0.0
  0
LINE
  5
505
  8
LAYER01
  6
CONTINUOUS
 62
     7
 10
11971.835456999999
 20
16040.877415999999
 30
0.0
 11
11967.835456999999
 21
16040.877415999999
 31
0.0
  0
LINE
  5
506
  8
LAYER01
  6
CONTINUOUS
 62
     7
 10
11971.835456999999
 20
15740.877415999999
 30
0.0
 11
11967.835456999999
 21
15740.877415999999
 31
0.0
  0
SOLID
  5
507
  8
LAYER01
  6
CONTINUOUS
 62
     7
 10
11971.835456999999
 20
16040.877415999999
 30
0.0
 11
11971.835456999999
 21
15740.877415999999
 31
0.0
 12
11967.835456999999
 22
16040.877415999999
 32
0.0
 13
11967.835456999999
 23
15740.877415999999
 33
0.0
  0
LINE
  5
508
  8
LAYER01
  6
CONTINUOUS
 62
     7
 10
10719.835456999999
 20
15137.051153
 30
0.0
 11
11857.835456999999
 21
15137.051153
 31
0.0
  0
LINE
  5
509
  8
LAYER01
  6
CONTINUOUS
 62
     7
 10
10719.835456999999
 20
15133.051153
 30
0.0
 11
11857.835456999999
 21
15133.051153
 31
0.0
  0
LINE
  5
50A
  8
LAYER01
  6
CONTINUOUS
 62
     7
 10
10719.835456999999
 20
15137.051153
 30
0.0
 11
10719.835456999999
 21
15133.051153
 31
0.0
  0
LINE
  5
50B
  8
LAYER01
  6
CONTINUOUS
 62
     7
 10
11857.835456999999
 20
15137.051153
 30
0.0
 11
11857.835456999999
 21
15133.051153
 31
0.0
  0
SOLID
  5
50C
  8
LAYER01
  6
CONTINUOUS
 62
     7
 10
10719.835456999999
 20
15137.051153
 30
0.0
 11
11857.835456999999
 21
15137.051153
 31
0.0
 12
10719.835456999999
 22
15133.051153
 32
0.0
 13
11857.835456999999
 23
15133.051153
 33
0.0
  0
LINE
  5
50D
  8
LAYER01
  6
CONTINUOUS
 62
     7
 10
10719.835456999999
 20
14937.051153
 30
0.0
 11
12039.835456999999
 21
14937.051153
 31
0.0
  0
LINE
  5
50E
  8
LAYER01
  6
CONTINUOUS
 62
     7
 10
10719.835456999999
 20
14933.051153
 30
0.0
 11
12039.835456999999
 21
14933.051153
 31
0.0
  0
LINE
  5
50F
  8
LAYER01
  6
CONTINUOUS
 62
     7
 10
10719.835456999999
 20
14937.051153
 30
0.0
 11
10719.835456999999
 21
14933.051153
 31
0.0
  0
LINE
  5
510
  8
LAYER01
  6
CONTINUOUS
 62
     7
 10
12039.835456999999
 20
14937.051153
 30
0.0
 11
12039.835456999999
 21
14933.051153
 31
0.0
  0
SOLID
  5
511
  8
LAYER01
  6
CONTINUOUS
 62
     7
 10
10719.835456999999
 20
14937.051153
 30
0.0
 11
12039.835456999999
 21
14937.051153
 31
0.0
 12
10719.835456999999
 22
14933.051153
 32
0.0
 13
12039.835456999999
 23
14933.051153
 33
0.0
  0
LINE
  5
512
  8
LAYER01
  6
VERDECKT
 62
     7
 10
11350.944486
 20
14946.809399
 30
0.0
 11
11438.726427
 21
14946.809399
 31
0.0
  0
LINE
  5
513
  8
LAYER01
  6
VERDECKT
 62
     7
 10
11350.944486
 20
14983.909362
 30
0.0
 11
11438.560635
 21
14983.909362
 31
0.0
  0
LINE
  5
514
  8
LAYER01
  6
VERDECKT
 62
     7
 10
11350.944486
 20
14993.081678
 30
0.0
 11
11438.560635
 21
14993.081678
 31
0.0
  0
DIMENSION
  5
515
  8
LAYER01
 62
     7
  2
*D7
 10
10719.835456999999
 20
15373.301545
 30
0.0
 11
11275.257582
 21
15418.301545
 31
0.0
 13
11857.835456999999
 23
15265.051153
 33
0.0
 14
10719.835456999999
 24
15265.051153
 34
0.0
  0
LINE
  5
516
  8
LAYER01
  6
CONTINUOUS
 62
     7
 10
10717.835456999999
 20
14935.051153
 30
0.0
 11
10717.835456999999
 21
15135.051153
 31
0.0
  0
LINE
  5
517
  8
LAYER01
  6
CONTINUOUS
 62
     7
 10
10721.835456999999
 20
14935.051153
 30
0.0
 11
10721.835456999999
 21
15135.051153
 31
0.0
  0
LINE
  5
518
  8
LAYER01
  6
CONTINUOUS
 62
     7
 10
10717.835456999999
 20
14935.051153
 30
0.0
 11
10721.835456999999
 21
14935.051153
 31
0.0
  0
LINE
  5
519
  8
LAYER01
  6
CONTINUOUS
 62
     7
 10
10717.835456999999
 20
15135.051153
 30
0.0
 11
10721.835456999999
 21
15135.051153
 31
0.0
  0
SOLID
  5
51A
  8
LAYER01
  6
CONTINUOUS
 62
     7
 10
10717.835456999999
 20
14935.051153
 30
0.0
 11
10717.835456999999
 21
15135.051153
 31
0.0
 12
10721.835456999999
 22
14935.051153
 32
0.0
 13
10721.835456999999
 23
15135.051153
 33
0.0
  0
DIMENSION
  5
51B
  8
LAYER01
 62
     7
  2
*D8
 10
10619.835456999999
 20
14935.051153
 30
0.0
 11
10574.835456999999
 21
15035.288536
 31
0.0
 53
90.0
 13
10719.835456999999
 23
15135.051153
 33
0.0
 14
10719.835456999999
 24
14935.051153
 34
0.0
 50
90.0
  0
LINE
  5
51C
  8
LAYER01
  6
VERDECKT
 62
     7
 10
10819.835456999999
 20
15135.051153
 30
0.0
 11
10819.835456999999
 21
15014.135765000001
 31
0.0
  0
LINE
  5
51D
  8
LAYER01
  6
VERDECKT
 62
     7
 10
10829.409625
 20
15004.144835999999
 30
0.0
 11
11341.370317000001
 21
14982.324144
 31
0.0
  0
ARC
  5
51E
  8
LAYER01
  6
VERDECKT
 62
     7
 10
10829.835456999999
 20
15014.135765000001
 30
0.0
 40
10.0
 50
180.0
 51
267.55942700000003
  0
ARC
  5
51F
  8
LAYER01
  6
VERDECKT
 62
     7
 10
11340.944486
 20
14971.577268999999
 30
0.0
 40
10.0
 50
0.0
 51
87.559426999999999
  0
LINE
  5
520
  8
LAYER01
  6
VERDECKT
 62
     7
 10
11350.944486
 20
14946.809399
 30
0.0
 11
11350.944486
 21
14971.577268999999
 31
0.0
  0
LINE
  5
521
  8
LAYER01
  6
VERDECKT
 62
     7
 10
11370.79502
 20
14983.909362
 30
0.0
 11
11370.79502
 21
14946.809399
 31
0.0
  0
LINE
  5
522
  8
LAYER01
  6
VERDECKT
 62
     7
 10
11394.835456999999
 20
15077.290016999999
 30
0.0
 11
11394.835456999999
 21
14939.476667000001
 31
0.0
  0
LINE
  5
523
  8
LAYER01
  6
VERDECKT
 62
     7
 10
11418.875893
 20
14946.809399
 30
0.0
 11
11418.875893
 21
14983.909362
 31
0.0
  0
DIMENSION
  5
524
  8
LAYER01
 62
     7
  2
*D9
 10
10620.669549
 20
15265.051153
 30
0.0
 11
10575.669549
 21
15210.24538
 31
0.0
 53
90.0
 13
10719.835456999999
 23
15135.051153
 33
0.0
 14
10719.835456999999
 24
15265.051153
 34
0.0
 50
90.0
  0
DIMENSION
  5
525
  8
LAYER01
 62
     7
  2
*D10
 10
10659.12191
 20
15740.877415999999
 30
0.0
 11
10614.12191
 21
15715.726375
 31
0.0
 53
90.0
 13
10719.835456999999
 23
15690.877415999999
 33
0.0
 14
10719.835456999999
 24
15740.877415999999
 34
0.0
 50
90.0
  0
ARC
  5
526
  8
LAYER01
  6
CONTINUOUS
 62
     7
 10
10830.835456999999
 20
15751.877415999999
 30
0.0
 40
9.0
 50
180.0
 51
270.0
  0
ARC
  5
527
  8
LAYER01
  6
CONTINUOUS
 62
     7
 10
10830.835456999999
 20
15751.877415999999
 30
0.0
 40
13.0
 50
180.0
 51
270.0
  0
LINE
  5
528
  8
LAYER01
  6
CONTINUOUS
 62
     7
 10
10817.835456999999
 20
15751.877415999999
 30
0.0
 11
10821.835456999999
 21
15751.877415999999
 31
0.0
  0
LINE
  5
529
  8
LAYER01
  6
CONTINUOUS
 62
     7
 10
10830.835456999999
 20
15738.877415999999
 30
0.0
 11
10830.835456999999
 21
15742.877415999999
 31
0.0
  0
LINE
  5
52A
  8
LAYER01
  6
VERDECKT
 62
     7
 10
11969.835456999999
 20
15014.135765000001
 30
0.0
 11
11969.835456999999
 21
15119.099480000001
 31
0.0
  0
LINE
  5
52B
  8
LAYER01
  6
VERDECKT
 62
     7
 10
11960.261288
 20
15004.144835999999
 30
0.0
 11
11448.300595999999
 21
14982.324144
 31
0.0
  0
LINE
  5
52C
  8
LAYER01
  6
VERDECKT
 62
     7
 10
11438.726427
 20
14946.809399
 30
0.0
 11
11438.726427
 21
14971.577268999999
 31
0.0
  0
ARC
  5
52D
  8
LAYER01
  6
VERDECKT
 62
     7
 10
11448.726427
 20
14971.577268999999
 30
0.0
 40
10.0
 50
92.440572999999986
 51
180.0
  0
LINE
  5
52E
  8
LAYER01
  6
CONTINUOUS
 62
     7
 10
12037.835456999999
 20
14935.051153
 30
0.0
 11
12037.835456999999
 21
15065.051153
 31
0.0
  0
LINE
  5
52F
  8
LAYER01
  6
CONTINUOUS
 62
     7
 10
12041.835456999999
 20
14935.051153
 30
0.0
 11
12041.835456999999
 21
15065.051153
 31
0.0
  0
LINE
  5
530
  8
LAYER01
  6
CONTINUOUS
 62
     7
 10
12037.835456999999
 20
14935.051153
 30
0.0
 11
12041.835456999999
 21
14935.051153
 31
0.0
  0
LINE
  5
531
  8
LAYER01
  6
CONTINUOUS
 62
     7
 10
12037.835456999999
 20
15065.051153
 30
0.0
 11
12041.835456999999
 21
15065.051153
 31
0.0
  0
SOLID
  5
532
  8
LAYER01
  6
CONTINUOUS
 62
     7
 10
12037.835456999999
 20
14935.051153
 30
0.0
 11
12037.835456999999
 21
15065.051153
 31
0.0
 12
12041.835456999999
 22
14935.051153
 32
0.0
 13
12041.835456999999
 23
15065.051153
 33
0.0
  0
ARC
  5
533
  8
LAYER01
  6
VERDECKT
 62
     7
 10
11959.835456999999
 20
15014.135765000001
 30
0.0
 40
10.0
 50
272.44057299999997
 51
0.0
  0
LINE
  5
534
  8
LAYER01
  6
CONTINUOUS
 62
     7
 10
11855.835456999999
 20
15135.051153
 30
0.0
 11
11855.835456999999
 21
15265.051153
 31
0.0
  0
LINE
  5
535
  8
LAYER01
  6
CONTINUOUS
 62
     7
 10
11859.835456999999
 20
15135.051153
 30
0.0
 11
11859.835456999999
 21
15265.051153
 31
0.0
  0
LINE
  5
536
  8
LAYER01
  6
CONTINUOUS
 62
     7
 10
11855.835456999999
 20
15135.051153
 30
0.0
 11
11859.835456999999
 21
15135.051153
 31
0.0
  0
LINE
  5
537
  8
LAYER01
  6
CONTINUOUS
 62
     7
 10
11855.835456999999
 20
15265.051153
 30
0.0
 11
11859.835456999999
 21
15265.051153
 31
0.0
  0
SOLID
  5
538
  8
LAYER01
  6
CONTINUOUS
 62
     7
 10
11855.835456999999
 20
15135.051153
 30
0.0
 11
11855.835456999999
 21
15265.051153
 31
0.0
 12
11859.835456999999
 22
15135.051153
 32
0.0
 13
11859.835456999999
 23
15265.051153
 33
0.0
  0
LINE
  5
539
  8
LAYER01
  6
CONTINUOUS
 62
     7
 10
11859.835456999999
 20
15740.877415999999
 30
0.0
 11
11859.835456999999
 21
15690.877415999999
 31
0.0
  0
LINE
  5
53A
  8
LAYER01
  6
CONTINUOUS
 62
     7
 10
11855.835456999999
 20
15740.877415999999
 30
0.0
 11
11855.835456999999
 21
15690.877415999999
 31
0.0
  0
LINE
  5
53B
  8
LAYER01
  6
CONTINUOUS
 62
     7
 10
11859.835456999999
 20
15740.877415999999
 30
0.0
 11
11855.835456999999
 21
15740.877415999999
 31
0.0
  0
LINE
  5
53C
  8
LAYER01
  6
CONTINUOUS
 62
     7
 10
11859.835456999999
 20
15690.877415999999
 30
0.0
 11
11855.835456999999
 21
15690.877415999999
 31
0.0
  0
SOLID
  5
53D
  8
LAYER01
  6
CONTINUOUS
 62
     7
 10
11859.835456999999
 20
15740.877415999999
 30
0.0
 11
11859.835456999999
 21
15690.877415999999
 31
0.0
 12
11855.835456999999
 22
15740.877415999999
 32
0.0
 13
11855.835456999999
 23
15690.877415999999
 33
0.0
  0
ARC
  5
53E
  8
LAYER01
  6
VERDECKT
 62
     7
 10
11979.835456999999
 20
15119.099480000001
 30
0.0
 40
10.0
 50
87.559426999999999
 51
180.0
  0
LINE
  5
53F
  8
LAYER01
  6
STRICHPUNKTIERT
 62
     7
 10
11312.916045
 20
15890.877415999999
 30
0.0
 11
11469.037249000001
 21
15890.877415999999
 31
0.0
  0
DIMENSION
  5
540
  8
LAYER01
 62
     7
  2
*D11
 10
11644.835456999999
 20
16251.716458999999
 30
0.0
 11
11396.821527
 21
16296.716458999999
 31
0.0
 13
11144.835456999999
 23
16170.877415999999
 33
0.0
 14
11644.835456999999
 24
16170.877415999999
 34
0.0
  0
DIMENSION
  5
541
  8
LAYER01
 62
     7
  2
*D12
 10
10719.835456999999
 20
16399.428266999999
 30
0.0
 11
10769.608894999999
 21
16444.428266999999
 31
0.0
 13
10819.835456999999
 23
16333.814915000001
 33
0.0
 14
10719.835456999999
 24
16333.814915000001
 34
0.0
  0
DIMENSION
  5
542
  8
LAYER01
 62
     7
  2
*D13
 10
11144.835456999999
 20
16249.503827
 30
0.0
 11
10922.152050999999
 21
16294.503827
 31
0.0
 13
10719.835456999999
 23
16170.877415999999
 33
0.0
 14
11144.835456999999
 24
16170.877415999999
 34
0.0
  0
DIMENSION
  5
543
  8
LAYER01
 62
     7
  2
*D14
 10
10659.12191
 20
16170.877415999999
 30
0.0
 11
10614.12191
 21
16105.650854
 31
0.0
 53
90.0
 13
10719.835456999999
 23
16040.877415999999
 33
0.0
 14
10719.835456999999
 24
16170.877415999999
 34
0.0
 50
90.0
  0
ARC
  5
544
  8
LAYER01
  6
CONTINUOUS
 62
     7
 10
10830.835456999999
 20
16029.877415999999
 30
0.0
 40
9.0
 50
90.0
 51
180.0
  0
ARC
  5
545
  8
LAYER01
  6
CONTINUOUS
 62
     7
 10
10830.835456999999
 20
16029.877415999999
 30
0.0
 40
13.0
 50
90.0
 51
180.0
  0
LINE
  5
546
  8
LAYER01
  6
CONTINUOUS
 62
     7
 10
10830.835456999999
 20
16042.877415999999
 30
0.0
 11
10830.835456999999
 21
16038.877415999999
 31
0.0
  0
LINE
  5
547
  8
LAYER01
  6
CONTINUOUS
 62
     7
 10
10817.835456999999
 20
16029.877415999999
 30
0.0
 11
10821.835456999999
 21
16029.877415999999
 31
0.0
  0
LINE
  5
548
  8
LAYER01
  6
STRICHPUNKTIERT
 62
     7
 10
11144.835456999999
 20
16042.331901
 30
0.0
 11
11144.835456999999
 21
16144.167837999999
 31
0.0
  0
CIRCLE
  5
549
  8
LAYER01
  6
CONTINUOUS
 62
     7
 10
11144.835456999999
 20
16105.877415999999
 30
0.0
 40
17.5
  0
CIRCLE
  5
54A
  8
LAYER01
  6
CONTINUOUS
 62
     7
 10
11394.835456999999
 20
15890.877415999999
 30
0.0
 40
24.0
  0
CIRCLE
  5
54B
  8
LAYER01
  6
CONTINUOUS
 62
     7
 10
11394.835456999999
 20
15890.877415999999
 30
0.0
 40
30.0
  0
LINE
  5
54C
  8
LAYER01
  6
STRICHPUNKTIERT
 62
     7
 10
11394.835456999999
 20
15958.992157999999
 30
0.0
 11
11394.835456999999
 21
15822.386103999999
 31
0.0
  0
LINE
  5
54D
  8
LAYER01
  6
STRICHPUNKTIERT
 62
     7
 10
11098.928194
 20
16105.877415999999
 30
0.0
 11
11186.746372
 21
16105.877415999999
 31
0.0
  0
DIMENSION
  5
54E
  8
LAYER01
 62
     7
  2
*D15
 10
12194.835456999999
 20
16251.716458999999
 30
0.0
 11
11921.821527
 21
16296.716458999999
 31
0.0
 13
11644.835456999999
 23
16170.877415999999
 33
0.0
 14
12194.835456999999
 24
16170.877415999999
 34
0.0
  0
LINE
  5
54F
  8
LAYER01
  6
CONTINUOUS
 62
     7
 10
11859.835456999999
 20
16170.877415999999
 30
0.0
 11
11859.835456999999
 21
16040.877415999999
 31
0.0
  0
LINE
  5
550
  8
LAYER01
  6
CONTINUOUS
 62
     7
 10
11855.835456999999
 20
16170.877415999999
 30
0.0
 11
11855.835456999999
 21
16040.877415999999
 31
0.0
  0
LINE
  5
551
  8
LAYER01
  6
CONTINUOUS
 62
     7
 10
11859.835456999999
 20
16170.877415999999
 30
0.0
 11
11855.835456999999
 21
16170.877415999999
 31
0.0
  0
LINE
  5
552
  8
LAYER01
  6
CONTINUOUS
 62
     7
 10
11859.835456999999
 20
16040.877415999999
 30
0.0
 11
11855.835456999999
 21
16040.877415999999
 31
0.0
  0
SOLID
  5
553
  8
LAYER01
  6
CONTINUOUS
 62
     7
 10
11859.835456999999
 20
16170.877415999999
 30
0.0
 11
11859.835456999999
 21
16040.877415999999
 31
0.0
 12
11855.835456999999
 22
16170.877415999999
 32
0.0
 13
11855.835456999999
 23
16040.877415999999
 33
0.0
  0
LINE
  5
554
  8
LAYER01
  6
STRICHPUNKTIERT
 62
     7
 10
11644.835456999999
 20
16042.331901
 30
0.0
 11
11644.835456999999
 21
16144.167837999999
 31
0.0
  0
CIRCLE
  5
555
  8
LAYER01
  6
CONTINUOUS
 62
     7
 10
11644.835456999999
 20
16105.877415999999
 30
0.0
 40
17.5
  0
LINE
  5
556
  8
LAYER01
  6
STRICHPUNKTIERT
 62
     7
 10
11598.928194
 20
16105.877415999999
 30
0.0
 11
11686.746372
 21
16105.877415999999
 31
0.0
  0
LINE
  5
557
  8
LAYER01
  6
STRICHPUNKTIERT
 62
     7
 10
12194.835456999999
 20
16042.331901
 30
0.0
 11
12194.835456999999
 21
16144.167837999999
 31
0.0
  0
CIRCLE
  5
558
  8
LAYER01
  6
CONTINUOUS
 62
     7
 10
12194.835456999999
 20
16105.877415999999
 30
0.0
 40
17.5
  0
LINE
  5
559
  8
LAYER01
  6
STRICHPUNKTIERT
 62
     7
 10
12148.928194
 20
16105.877415999999
 30
0.0
 11
12236.746372
 21
16105.877415999999
 31
0.0
  0
LINE
  5
55A
  8
LAYER01
  6
VERDECKT
 62
     7
 10
13007.835456999999
 20
15702.877415999999
 30
0.0
 11
13007.835456999999
 21
16170.877415999999
 31
0.0
  0
LINE
  5
55B
  8
LAYER01
  6
CONTINUOUS
 62
     7
 10
13017.835456999999
 20
15690.877415999999
 30
0.0
 11
13017.835456999999
 21
16170.877415999999
 31
0.0
  0
LINE
  5
55C
  8
LAYER01
  6
CONTINUOUS
 62
     7
 10
13021.835456999999
 20
15690.877415999999
 30
0.0
 11
13021.835456999999
 21
16170.877415999999
 31
0.0
  0
LINE
  5
55D
  8
LAYER01
  6
CONTINUOUS
 62
     7
 10
13017.835456999999
 20
15690.877415999999
 30
0.0
 11
13021.835456999999
 21
15690.877415999999
 31
0.0
  0
LINE
  5
55E
  8
LAYER01
  6
CONTINUOUS
 62
     7
 10
13017.835456999999
 20
16170.877415999999
 30
0.0
 11
13021.835456999999
 21
16170.877415999999
 31
0.0
  0
SOLID
  5
55F
  8
LAYER01
  6
CONTINUOUS
 62
     7
 10
13017.835456999999
 20
15690.877415999999
 30
0.0
 11
13017.835456999999
 21
16170.877415999999
 31
0.0
 12
13021.835456999999
 22
15690.877415999999
 32
0.0
 13
13021.835456999999
 23
16170.877415999999
 33
0.0
  0
LINE
  5
560
  8
LAYER01
  6
CONTINUOUS
 62
     7
 10
12917.835456999999
 20
15751.877415999999
 30
0.0
 11
12917.835456999999
 21
16029.877415999999
 31
0.0
  0
LINE
  5
561
  8
LAYER01
  6
CONTINUOUS
 62
     7
 10
12921.835456999999
 20
15751.877415999999
 30
0.0
 11
12921.835456999999
 21
16029.877415999999
 31
0.0
  0
LINE
  5
562
  8
LAYER01
  6
CONTINUOUS
 62
     7
 10
12917.835456999999
 20
15751.877415999999
 30
0.0
 11
12921.835456999999
 21
15751.877415999999
 31
0.0
  0
LINE
  5
563
  8
LAYER01
  6
CONTINUOUS
 62
     7
 10
12917.835456999999
 20
16029.877415999999
 30
0.0
 11
12921.835456999999
 21
16029.877415999999
 31
0.0
  0
SOLID
  5
564
  8
LAYER01
  6
CONTINUOUS
 62
     7
 10
12917.835456999999
 20
15751.877415999999
 30
0.0
 11
12917.835456999999
 21
16029.877415999999
 31
0.0
 12
12921.835456999999
 22
15751.877415999999
 32
0.0
 13
12921.835456999999
 23
16029.877415999999
 33
0.0
  0
INSERT
  5
565
  8
LAYER01
  2
STWR-G17
 10
0.0
 20
0.0
 30
0.0
  0
LINE
  5
566
  8
LAYER01
  6
VERDECKT
 62
     7
 10
12400.944486
 20
15076.809399
 30
0.0
 11
12400.944486
 21
15101.577268999999
 31
0.0
  0
LINE
  5
567
  8
LAYER01
  6
VERDECKT
 62
     7
 10
12444.835456999999
 20
15206.534071
 30
0.0
 11
12444.835456999999
 21
15069.736188000001
 31
0.0
  0
LINE
  5
568
  8
LAYER01
  6
VERDECKT
 62
     7
 10
12468.875893
 20
15076.809399
 30
0.0
 11
12468.875893
 21
15113.909362
 31
0.0
  0
LINE
  5
569
  8
LAYER01
  6
VERDECKT
 62
     7
 10
12488.726427
 20
15076.809399
 30
0.0
 11
12488.726427
 21
15101.577268999999
 31
0.0
  0
LINE
  5
56A
  8
LAYER01
  6
VERDECKT
 62
     7
 10
12420.79502
 20
15113.909362
 30
0.0
 11
12420.79502
 21
15076.809399
 31
0.0
  0
LINE
  5
56B
  8
LAYER01
  6
CONTINUOUS
 62
     7
 10
13017.835456999999
 20
15065.051153
 30
0.0
 11
13017.835456999999
 21
15265.051153
 31
0.0
  0
LINE
  5
56C
  8
LAYER01
  6
CONTINUOUS
 62
     7
 10
13021.835456999999
 20
15065.051153
 30
0.0
 11
13021.835456999999
 21
15265.051153
 31
0.0
  0
LINE
  5
56D
  8
LAYER01
  6
CONTINUOUS
 62
     7
 10
13017.835456999999
 20
15065.051153
 30
0.0
 11
13021.835456999999
 21
15065.051153
 31
0.0
  0
LINE
  5
56E
  8
LAYER01
  6
CONTINUOUS
 62
     7
 10
13017.835456999999
 20
15265.051153
 30
0.0
 11
13021.835456999999
 21
15265.051153
 31
0.0
  0
SOLID
  5
56F
  8
LAYER01
  6
CONTINUOUS
 62
     7
 10
13017.835456999999
 20
15065.051153
 30
0.0
 11
13017.835456999999
 21
15265.051153
 31
0.0
 12
13021.835456999999
 22
15065.051153
 32
0.0
 13
13021.835456999999
 23
15265.051153
 33
0.0
  0
DIMENSION
  5
570
  8
LAYER01
 62
     7
  2
*D17
 10
13169.930098000001
 20
15065.051153
 30
0.0
 11
13124.930098000001
 21
15164.824591000001
 31
0.0
 53
90.0
 13
13019.835456999999
 23
15265.051153
 33
0.0
 14
13019.835456999999
 24
15065.051153
 34
0.0
 50
90.0
  0
LINE
  5
571
  8
LAYER01
  6
VERDECKT
 62
     7
 10
12400.944486
 20
15076.809399
 30
0.0
 11
12488.726427
 21
15076.809399
 31
0.0
  0
LINE
  5
572
  8
LAYER01
  6
VERDECKT
 62
     7
 10
12910.261288
 20
15129.126709
 30
0.0
 11
12498.300595999999
 21
15111.568198000001
 31
0.0
  0
ARC
  5
573
  8
LAYER01
  6
VERDECKT
 62
     7
 10
12390.944486
 20
15101.577268999999
 30
0.0
 40
10.0
 50
0.0
 51
87.559426999999999
  0
LINE
  5
574
  8
LAYER01
  6
VERDECKT
 62
     7
 10
12400.944486
 20
15113.909362
 30
0.0
 11
12488.560635
 21
15113.909362
 31
0.0
  0
LINE
  5
575
  8
LAYER01
  6
VERDECKT
 62
     7
 10
12400.944486
 20
15123.081678
 30
0.0
 11
12488.560635
 21
15123.081678
 31
0.0
  0
ARC
  5
576
  8
LAYER01
  6
VERDECKT
 62
     7
 10
12498.726427
 20
15101.577268999999
 30
0.0
 40
10.0
 50
92.440572999999986
 51
180.0
  0
LINE
  5
577
  8
LAYER01
  6
VERDECKT
 62
     7
 10
12919.835456999999
 20
15139.117638
 30
0.0
 11
12919.835456999999
 21
15265.051153
 31
0.0
  0
ARC
  5
578
  8
LAYER01
  6
VERDECKT
 62
     7
 10
12909.835456999999
 20
15139.117638
 30
0.0
 40
10.0
 50
272.44057299999997
 51
0.0
  0
ARC
  5
579
  8
LAYER01
  6
CONTINUOUS
 62
     7
 10
12908.835456999999
 20
15751.877415999999
 30
0.0
 40
9.0
 50
270.0
 51
0.0
  0
ARC
  5
57A
  8
LAYER01
  6
CONTINUOUS
 62
     7
 10
12908.835456999999
 20
15751.877415999999
 30
0.0
 40
13.0
 50
270.0
 51
0.0
  0
LINE
  5
57B
  8
LAYER01
  6
CONTINUOUS
 62
     7
 10
12908.835456999999
 20
15738.877415999999
 30
0.0
 11
12908.835456999999
 21
15742.877415999999
 31
0.0
  0
LINE
  5
57C
  8
LAYER01
  6
CONTINUOUS
 62
     7
 10
12921.835456999999
 20
15751.877415999999
 30
0.0
 11
12917.835456999999
 21
15751.877415999999
 31
0.0
  0
LINE
  5
57D
  8
LAYER01
  6
STRICHPUNKTIERT
 62
     7
 10
13907.868407
 20
15043.187242
 30
0.0
 11
13907.868407
 21
15197.037763
 31
0.0
  0
LINE
  5
57E
  8
LAYER01
  6
CONTINUOUS
 62
     7
 10
14187.868815
 20
15038.051153
 30
0.0
 11
14187.868815
 21
15208.051153
 31
0.0
  0
LINE
  5
57F
  8
LAYER01
  6
CONTINUOUS
 62
     7
 10
14185.868815
 20
15038.051153
 30
0.0
 11
14185.868815
 21
15208.051153
 31
0.0
  0
LINE
  5
580
  8
LAYER01
  6
CONTINUOUS
 62
     7
 10
13707.868815
 20
15069.051153
 30
0.0
 11
13707.868815
 21
15257.051153
 31
0.0
  0
LINE
  5
581
  8
LAYER01
  6
CONTINUOUS
 62
     7
 10
13719.868815
 20
15065.051153
 30
0.0
 11
13719.868815
 21
15253.051153
 31
0.0
  0
LINE
  5
582
  8
LAYER01
  6
CONTINUOUS
 62
     7
 10
13764.183212
 20
15073.051153
 30
0.0
 11
13764.183212
 21
15091.051153
 31
0.0
  0
DIMENSION
  5
583
  8
LAYER01
 62
     7
  2
*D18
 10
13673.352973999999
 20
15265.051153
 30
0.0
 11
13628.352973999999
 21
15164.824591000001
 31
0.0
 53
90.0
 13
13707.868815
 23
15065.051153
 33
0.0
 14
13707.868815
 24
15265.051153
 34
0.0
 50
90.0
  0
LINE
  5
584
  8
LAYER01
  6
CONTINUOUS
 62
     7
 10
13883.868407
 20
15071.051153
 30
0.0
 11
13883.868407
 21
15098.051153
 31
0.0
  0
ARC
  5
585
  8
LAYER01
  6
CONTINUOUS
 62
     7
 10
13855.868407
 20
15083.051153
 30
0.0
 40
8.0
 50
0.0
 51
90.0
  0
LINE
  5
586
  8
LAYER01
  6
CONTINUOUS
 62
     7
 10
13931.868407
 20
15071.051153
 30
0.0
 11
13931.868407
 21
15098.051153
 31
0.0
  0
ARC
  5
587
  8
LAYER01
  6
CONTINUOUS
 62
     7
 10
13959.868407
 20
15083.051153
 30
0.0
 40
8.0
 50
90.0
 51
180.0
  0
LINE
  5
588
  8
LAYER01
  6
CONTINUOUS
 62
     7
 10
14051.412211000001
 20
15073.051153
 30
0.0
 11
14051.412211000001
 21
15091.051153
 31
0.0
  0
LINE
  5
589
  8
LAYER01
  6
CONTINUOUS
 62
     7
 10
14157.868815
 20
15058.051153
 30
0.0
 11
14157.868815
 21
15208.051153
 31
0.0
  0
LINE
  5
58A
  8
LAYER01
  6
CONTINUOUS
 62
     7
 10
13755.868815
 20
15038.051153
 30
0.0
 11
14187.868815
 21
15038.051153
 31
0.0
  0
DIMENSION
  5
58B
  8
LAYER01
 62
     7
  2
*D19
 10
13707.868815
 20
14928.147558000001
 30
0.0
 11
13947.642253
 21
14973.147558000001
 31
0.0
 13
14187.868815
 23
14965.495551
 33
0.0
 14
13707.868815
 24
14965.495551
 34
0.0
  0
LINE
  5
58C
  8
LAYER01
  6
CONTINUOUS
 62
     7
 10
13755.868815
 20
15058.051153
 30
0.0
 11
14185.868815
 21
15058.051153
 31
0.0
  0
LINE
  5
58D
  8
LAYER01
  6
CONTINUOUS
 62
     7
 10
13764.183212
 20
15073.051153
 30
0.0
 11
13863.868407
 21
15073.051153
 31
0.0
  0
TEXT
  5
58E
  8
LAYER01
  6
CONTINUOUS
 62
     7
 10
13810.10673
 20
15076.622042999999
 30
0.0
 40
5.0
  1
MPX18
  7
SIMPLEX
  0
LINE
  5
58F
  8
LAYER01
  6
CONTINUOUS
 62
     7
 10
13757.868815
 20
15038.051153
 30
0.0
 11
13757.868815
 21
15058.051153
 31
0.0
  0
LINE
  5
590
  8
LAYER01
  6
CONTINUOUS
 62
     7
 10
13755.868815
 20
15038.051153
 30
0.0
 11
13755.868815
 21
15058.051153
 31
0.0
  0
INSERT
  5
591
  8
LAYER01
  2
STWR-G21
 10
0.0
 20
0.0
 30
0.0
  0
LINE
  5
592
  8
LAYER01
  6
CONTINUOUS
 62
     7
 10
13719.868815
 20
15065.051153
 30
0.0
 11
13711.868815
 21
15065.051153
 31
0.0
  0
ARC
  5
593
  8
LAYER01
  6
CONTINUOUS
 62
     7
 10
13711.868815
 20
15069.051153
 30
0.0
 40
4.0
 50
180.00000499999999
 51
270.000001
  0
INSERT
  5
594
  8
LAYER01
  2
STWR-G27
 10
0.0
 20
0.0
 30
0.0
  0
LINE
  5
595
  8
LAYER01
 62
     1
 10
14034.906395
 20
15031.421597
 30
0.0
 11
14043.328545
 21
15013.208087000001
 31
0.0
  0
LINE
  5
596
  8
LAYER01
 62
     1
 10
14043.328545
 20
15013.208087000001
 30
0.0
 11
14055.741142000001
 21
15013.208087000001
 31
0.0
  0
SOLID
  5
597
  8
LAYER01
 62
     1
 10
14037.053927999999
 20
15023.600745
 30
0.0
 11
14034.906395
 21
15031.421597
 31
0.0
 12
14039.474251
 22
15024.719932
 32
0.0
 13
14039.474251
 23
15024.719932
 33
0.0
  0
TEXT
  5
598
  8
LAYER01
  6
CONTINUOUS
 62
     1
 10
14060.741142000001
 20
15008.208087000001
 30
0.0
 40
10.0
  1
M8
  7
SIMPLEX
  0
LINE
  5
599
  8
LAYER01
  6
CONTINUOUS
 62
     7
 10
13863.868407
 20
15071.051153
 30
0.0
 11
13951.868407
 21
15071.051153
 31
0.0
  0
LINE
  5
59A
  8
LAYER01
  6
CONTINUOUS
 62
     7
 10
13863.868407
 20
15071.051153
 30
0.0
 11
13863.868407
 21
15083.051153
 31
0.0
  0
LINE
  5
59B
  8
LAYER01
  6
CONTINUOUS
 62
     7
 10
13951.868407
 20
15071.051153
 30
0.0
 11
13951.868407
 21
15083.051153
 31
0.0
  0
LINE
  5
59C
  8
LAYER01
  6
CONTINUOUS
 62
     7
 10
13951.868407
 20
15073.051153
 30
0.0
 11
14051.412211000001
 21
15073.051153
 31
0.0
  0
LINE
  5
59D
  8
LAYER01
  6
CONTINUOUS
 62
     7
 10
13764.145404000001
 20
15091.051153
 30
0.0
 11
13855.868407
 21
15091.051153
 31
0.0
  0
LINE
  5
59E
  8
LAYER01
  6
CONTINUOUS
 62
     7
 10
13757.711547999999
 20
15265.051153
 30
0.0
 11
14057.736395
 21
15265.051153
 31
0.0
  0
LINE
  5
59F
  8
LAYER01
  6
CONTINUOUS
 62
     7
 10
13775.366183
 20
15103.051153
 30
0.0
 11
13878.868407
 21
15103.051153
 31
0.0
  0
ARC
  5
5A0
  8
LAYER01
  6
CONTINUOUS
 62
     7
 10
13775.366183
 20
15111.051153
 30
0.0
 40
8.0
 50
183.71528900000001
 51
270.0
  0
ARC
  5
5A1
  8
LAYER01
  6
CONTINUOUS
 62
     7
 10
13749.868815
 20
15257.051153
 30
0.0
 40
8.0
 50
0.0
 51
90.0
  0
ARC
  5
5A2
  8
LAYER01
  6
CONTINUOUS
 62
     7
 10
13715.868815
 20
15257.051153
 30
0.0
 40
8.0
 50
90.000003000000007
 51
180.00000499999999
  0
LINE
  5
5A3
  8
LAYER01
  6
CONTINUOUS
 62
     7
 10
13756.162216999999
 20
15098.532764
 30
0.0
 11
13746.972711
 21
15240.051153
 31
0.0
  0
LINE
  5
5A4
  8
LAYER01
  6
CONTINUOUS
 62
     7
 10
13757.868815
 20
15257.051153
 30
0.0
 11
13767.382996
 21
15110.532764
 31
0.0
  0
ARC
  5
5A5
  8
LAYER01
  6
CONTINUOUS
 62
     7
 10
13764.145404000001
 20
15099.051153
 30
0.0
 40
8.0
 50
183.71528900000001
 51
270.0
  0
LINE
  5
5A6
  8
LAYER01
  6
CONTINUOUS
 62
     7
 10
13719.868815
 20
15253.051153
 30
0.0
 11
13758.128554999999
 21
15253.051153
 31
0.0
  0
LINE
  5
5A7
  8
LAYER01
  6
CONTINUOUS
 62
     7
 10
13733.128554999999
 20
15253.051153
 30
0.0
 11
13733.972711
 21
15240.051153
 31
0.0
  0
LINE
  5
5A8
  8
LAYER01
  6
CONTINUOUS
 62
     7
 10
13746.972711
 20
15240.051153
 30
0.0
 11
13733.972711
 21
15240.051153
 31
0.0
  0
LINE
  5
5A9
  8
LAYER01
  6
CONTINUOUS
 62
     7
 10
13715.868815
 20
15265.051153
 30
0.0
 11
13749.868815
 21
15265.051153
 31
0.0
  0
ARC
  5
5AA
  8
LAYER01
  6
CONTINUOUS
 62
     7
 10
14065.868815
 20
15257.051153
 30
0.0
 40
8.0
 50
90.0
 51
180.0
  0
LINE
  5
5AB
  8
LAYER01
  6
CONTINUOUS
 62
     7
 10
14187.868815
 20
15253.051153
 30
0.0
 11
14187.868815
 21
15265.051153
 31
0.0
  0
LINE
  5
5AC
  8
LAYER01
  6
CONTINUOUS
 62
     7
 10
13883.868407
 20
15098.051153
 30
0.0
 11
13931.868407
 21
15098.051153
 31
0.0
  0
LINE
  5
5AD
  8
LAYER01
  6
CONTINUOUS
 62
     7
 10
13878.868407
 20
15103.051153
 30
0.0
 11
13936.868407
 21
15103.051153
 31
0.0
  0
LINE
  5
5AE
  8
LAYER01
  6
CONTINUOUS
 62
     7
 10
13878.868407
 20
15103.051153
 30
0.0
 11
13883.868407
 21
15098.051153
 31
0.0
  0
LINE
  5
5AF
  8
LAYER01
  6
CONTINUOUS
 62
     7
 10
14057.609075
 20
15253.051153
 30
0.0
 11
14187.868815
 21
15253.051153
 31
0.0
  0
LINE
  5
5B0
  8
LAYER01
  6
CONTINUOUS
 62
     7
 10
14048.353874
 20
15110.533631
 30
0.0
 11
14057.885571999999
 21
15257.568675
 31
0.0
  0
LINE
  5
5B1
  8
LAYER01
  6
CONTINUOUS
 62
     7
 10
14059.575962000001
 20
15098.533631
 30
0.0
 11
14068.749981000001
 21
15240.051153
 31
0.0
  0
LINE
  5
5B2
  8
LAYER01
  6
CONTINUOUS
 62
     7
 10
13936.868407
 20
15103.051153
 30
0.0
 11
14040.370631
 21
15103.051153
 31
0.0
  0
LINE
  5
5B3
  8
LAYER01
  6
CONTINUOUS
 62
     7
 10
13931.868407
 20
15098.051153
 30
0.0
 11
13936.868407
 21
15103.051153
 31
0.0
  0
LINE
  5
5B4
  8
LAYER01
  6
CONTINUOUS
 62
     7
 10
13959.868407
 20
15091.051153
 30
0.0
 11
14051.592719
 21
15091.051153
 31
0.0
  0
ARC
  5
5B5
  8
LAYER01
  6
CONTINUOUS
 62
     7
 10
14051.592719
 20
15099.051153
 30
0.0
 40
8.0
 50
270.0
 51
356.290932
  0
ARC
  5
5B6
  8
LAYER01
  6
CONTINUOUS
 62
     7
 10
14040.370631
 20
15111.051153
 30
0.0
 40
8.0
 50
270.0
 51
356.290932
  0
LINE
  5
5B7
  8
LAYER01
  6
CONTINUOUS
 62
     7
 10
14068.764918999999
 20
15240.051153
 30
0.0
 11
14081.764918999999
 21
15240.051153
 31
0.0
  0
LINE
  5
5B8
  8
LAYER01
  6
CONTINUOUS
 62
     7
 10
14082.609075
 20
15253.051153
 30
0.0
 11
14081.764918999999
 21
15240.051153
 31
0.0
  0
LINE
  5
5B9
  8
LAYER01
  6
VERDECKT
 62
     5
 10
14185.868815
 20
15093.051153
 30
0.0
 11
14187.868815
 21
15093.051153
 31
0.0
  0
LINE
  5
5BA
  8
LAYER01
  6
VERDECKT
 62
     5
 10
14185.868815
 20
15115.051153
 30
0.0
 11
14187.868815
 21
15115.051153
 31
0.0
  0
LINE
  5
5BB
  8
LAYER01
  6
VERDECKT
 62
     5
 10
14185.868815
 20
15171.051153
 30
0.0
 11
14187.868815
 21
15171.051153
 31
0.0
  0
LINE
  5
5BC
  8
LAYER01
  6
VERDECKT
 62
     5
 10
14185.868815
 20
15193.051153
 30
0.0
 11
14187.868815
 21
15193.051153
 31
0.0
  0
LINE
  5
5BD
  8
LAYER01
  6
CONTINUOUS
 62
     7
 10
14157.868815
 20
15208.051153
 30
0.0
 11
14187.868815
 21
15208.051153
 31
0.0
  0
LINE
  5
5BE
  8
LAYER01
  6
CONTINUOUS
 62
     7
 10
14065.868815
 20
15265.051153
 30
0.0
 11
14187.868815
 21
15265.051153
 31
0.0
  0
DIMENSION
  5
5BF
  8
LAYER01
 62
     7
  2
*D31
 10
13019.835456999999
 20
16400.238847000001
 30
0.0
 11
12970.072840000001
 21
16445.238847000001
 31
0.0
 13
12919.835456999999
 23
16333.814915000001
 33
0.0
 14
13019.835456999999
 24
16333.814915000001
 34
0.0
  0
DIMENSION
  5
5C0
  8
LAYER01
 62
     7
  2
*D32
 10
13019.835456999999
 20
16251.093414000001
 30
0.0
 11
12847.152050999999
 21
16296.093414000001
 31
0.0
 13
12694.835456999999
 23
16170.877415999999
 33
0.0
 14
13019.835456999999
 24
16170.877415999999
 34
0.0
  0
LINE
  5
5C1
  8
LAYER01
  6
STRICHPUNKTIERT
 62
     7
 10
12694.835456999999
 20
16042.331901
 30
0.0
 11
12694.835456999999
 21
16144.167837999999
 31
0.0
  0
CIRCLE
  5
5C2
  8
LAYER01
  6
CONTINUOUS
 62
     7
 10
12694.835456999999
 20
16105.877415999999
 30
0.0
 40
17.5
  0
CIRCLE
  5
5C3
  8
LAYER01
  6
CONTINUOUS
 62
     7
 10
12444.835456999999
 20
15890.877415999999
 30
0.0
 40
24.0
  0
CIRCLE
  5
5C4
  8
LAYER01
  6
CONTINUOUS
 62
     7
 10
12444.835456999999
 20
15890.877415999999
 30
0.0
 40
30.0
  0
LINE
  5
5C5
  8
LAYER01
  6
STRICHPUNKTIERT
 62
     7
 10
12444.835456999999
 20
15958.992157999999
 30
0.0
 11
12444.835456999999
 21
15822.386103999999
 31
0.0
  0
LINE
  5
5C6
  8
LAYER01
  6
STRICHPUNKTIERT
 62
     7
 10
12648.928194
 20
16105.877415999999
 30
0.0
 11
12736.746372
 21
16105.877415999999
 31
0.0
  0
DIMENSION
  5
5C7
  8
LAYER01
 62
     7
  2
*D33
 10
13118.984603000001
 20
16040.877415999999
 30
0.0
 11
13073.984603000001
 21
16074.863173
 31
0.0
 53
90.0
 13
13019.835456999999
 23
16105.877415999999
 33
0.0
 14
13019.835456999999
 24
16040.877415999999
 34
0.0
 50
90.0
  0
ARC
  5
5C8
  8
LAYER01
  6
CONTINUOUS
 62
     7
 10
12908.835456999999
 20
16029.877415999999
 30
0.0
 40
9.0
 50
0.0
 51
90.0
  0
ARC
  5
5C9
  8
LAYER01
  6
CONTINUOUS
 62
     7
 10
12908.835456999999
 20
16029.877415999999
 30
0.0
 40
13.0
 50
0.0
 51
90.0
  0
LINE
  5
5CA
  8
LAYER01
  6
CONTINUOUS
 62
     7
 10
12921.835456999999
 20
16029.877415999999
 30
0.0
 11
12917.835456999999
 21
16029.877415999999
 31
0.0
  0
LINE
  5
5CB
  8
LAYER01
  6
CONTINUOUS
 62
     7
 10
12908.835456999999
 20
16042.877415999999
 30
0.0
 11
12908.835456999999
 21
16038.877415999999
 31
0.0
  0
DIMENSION
  5
5CC
  8
LAYER01
 62
     7
  2
*D34
 10
13118.984603000001
 20
16105.877415999999
 30
0.0
 11
13073.984603000001
 21
16139.863173
 31
0.0
 53
90.0
 13
13019.835456999999
 23
16170.877415999999
 33
0.0
 14
13019.835456999999
 24
16105.877415999999
 34
0.0
 50
90.0
  0
INSERT
  5
7BE
  8
LAYER01
  6
CONTINUOUS
 62
     7
  2
WMF0
 10
12472.56695662974
 20
12898.52709386523
 30
0.0
 41
0.25
 42
0.25
 43
0.25
  0
ENDSEC
  0
EOF
