  0
SECTION
  2
HEADER
  9
$ACADVER
  1
AC1009
  9
$INSBASE
 10
0.0
 20
0.0
 30
0.0
  9
$EXTMIN
 10
42.622780418210823
 20
-439.92722485284128
 30
-0.0015258207003583
  9
$EXTMAX
 10
5198.4150178590253
 20
2322.6948452182392
 30
0.0000000349246037
  9
$LIMMIN
 10
-63.633332999999993
 20
-547.01509199999998
  9
$LIMMAX
 10
4136.3666669999993
 20
2422.9849079999999
  9
$ORTHOMODE
 70
     1
  9
$REGENMODE
 70
     1
  9
$FILLMODE
 70
     1
  9
$QTEXTMODE
 70
     0
  9
$MIRRTEXT
 70
     0
  9
$DRAGMODE
 70
     2
  9
$LTSCALE
 40
5.0
  9
$OSMODE
 70
    37
  9
$ATTMODE
 70
     1
  9
$TEXTSIZE
 40
0.0
  9
$TRACEWID
 40
0.05
  9
$TEXTSTYLE
  7
STANDARD
  9
$CLAYER
  8
LAYER01
  9
$CELTYPE
  6
CONTINUOUS
  9
$CECOLOR
 62
     7
  9
$DIMSCALE
 40
1.0
  9
$DIMASZ
 40
0.18
  9
$DIMEXO
 40
0.0625
  9
$DIMDLI
 40
0.38
  9
$DIMRND
 40
0.0
  9
$DIMDLE
 40
0.0
  9
$DIMEXE
 40
0.18
  9
$DIMTP
 40
0.0
  9
$DIMTM
 40
0.0
  9
$DIMTXT
 40
0.18
  9
$DIMCEN
 40
0.09
  9
$DIMTSZ
 40
0.0
  9
$DIMTOL
 70
     0
  9
$DIMLIM
 70
     0
  9
$DIMTIH
 70
     1
  9
$DIMTOH
 70
     1
  9
$DIMSE1
 70
     0
  9
$DIMSE2
 70
     0
  9
$DIMTAD
 70
     0
  9
$DIMZIN
 70
     0
  9
$DIMBLK
  1

  9
$DIMASO
 70
     1
  9
$DIMSHO
 70
     1
  9
$DIMPOST
  1

  9
$DIMAPOST
  1

  9
$DIMALT
 70
     0
  9
$DIMALTD
 70
     2
  9
$DIMALTF
 40
25.399999999999999
  9
$DIMLFAC
 40
1.0
  9
$DIMTOFL
 70
     0
  9
$DIMTVP
 40
0.0
  9
$DIMTIX
 70
     0
  9
$DIMSOXD
 70
     0
  9
$DIMSAH
 70
     0
  9
$DIMBLK1
  1

  9
$DIMBLK2
  1

  9
$DIMSTYLE
  2
STANDARD
  9
$DIMCLRD
 70
     0
  9
$DIMCLRE
 70
     0
  9
$DIMCLRT
 70
     0
  9
$DIMTFAC
 40
1.0
  9
$DIMGAP
 40
0.09
  9
$LUNITS
 70
     2
  9
$LUPREC
 70
     4
  9
$SKETCHINC
 40
0.1
  9
$FILLETRAD
 40
11.0
  9
$AUNITS
 70
     0
  9
$AUPREC
 70
     0
  9
$MENU
  1
acad
  9
$ELEVATION
 40
0.0
  9
$PELEVATION
 40
0.0
  9
$THICKNESS
 40
0.0
  9
$LIMCHECK
 70
     0
  9
$BLIPMODE
 70
     0
  9
$CHAMFERA
 40
0.0
  9
$CHAMFERB
 40
0.0
  9
$SKPOLY
 70
     0
  9
$TDCREATE
 40
11478202.473554781
  9
$TDUPDATE
 40
2459502.4810670828
  9
$TDINDWG
 40
0.0013794676
  9
$TDUSRTIMER
 40
0.0013793981
  9
$USRTIMER
 70
     1
  9
$ANGBASE
 50
0.0
  9
$ANGDIR
 70
     0
  9
$PDMODE
 70
     0
  9
$PDSIZE
 40
0.0
  9
$PLINEWID
 40
0.0
  9
$COORDS
 70
     0
  9
$SPLFRAME
 70
     0
  9
$SPLINETYPE
 70
     6
  9
$SPLINESEGS
 70
    10
  9
$ATTDIA
 70
     0
  9
$ATTREQ
 70
     1
  9
$HANDLING
 70
     1
  9
$HANDSEED
  5
6FC
  9
$SURFTAB1
 70
     6
  9
$SURFTAB2
 70
     6
  9
$SURFTYPE
 70
     6
  9
$SURFU
 70
     6
  9
$SURFV
 70
     6
  9
$UCSNAME
  2

  9
$UCSORG
 10
0.0
 20
0.0
 30
0.0
  9
$UCSXDIR
 10
1.0
 20
0.0
 30
0.0
  9
$UCSYDIR
 10
0.0
 20
1.0
 30
0.0
  9
$PUCSNAME
  2

  9
$PUCSORG
 10
0.0
 20
0.0
 30
0.0
  9
$PUCSXDIR
 10
1.0
 20
0.0
 30
0.0
  9
$PUCSYDIR
 10
0.0
 20
1.0
 30
0.0
  9
$USERI1
 70
     0
  9
$USERI2
 70
     0
  9
$USERI3
 70
     0
  9
$USERI4
 70
     0
  9
$USERI5
 70
     0
  9
$USERR1
 40
0.0
  9
$USERR2
 40
0.0
  9
$USERR3
 40
0.0
  9
$USERR4
 40
0.0
  9
$USERR5
 40
0.0
  9
$WORLDVIEW
 70
     1
  9
$SHADEDGE
 70
     3
  9
$SHADEDIF
 70
    70
  9
$TILEMODE
 70
     1
  9
$MAXACTVP
 70
    64
  9
$PLIMCHECK
 70
     0
  9
$PEXTMIN
 10
1.0000000000000000E+020
 20
1.0000000000000000E+020
 30
1.0000000000000000E+020
  9
$PEXTMAX
 10
-1.0000000000000000E+020
 20
-1.0000000000000000E+020
 30
-1.0000000000000000E+020
  9
$PLIMMIN
 10
0.0
 20
0.0
  9
$PLIMMAX
 10
12.0
 20
9.0
  9
$UNITMODE
 70
     0
  9
$VISRETAIN
 70
     1
  9
$PLINEGEN
 70
     0
  9
$PSLTSCALE
 70
     1
  0
ENDSEC
  0
SECTION
  2
TABLES
  0
TABLE
  2
VPORT
 70
     1
  0
VPORT
  2
*ACTIVE
 70
     0
 10
0.0
 20
0.0
 11
1.0
 21
1.0
 12
2567.3908424295118
 22
937.9849079999999
 13
0.0
 23
0.0
 14
1.0
 24
1.0
 15
0.0
 25
0.0
 16
0.0
 26
0.0
 36
1.0
 17
0.0
 27
0.0
 37
0.0
 40
3007.8343949044579
 41
2.1234042553191479
 42
50.0
 43
0.0
 44
0.0
 50
0.0
 51
0.0
 71
     0
 72
   100
 73
     1
 74
     1
 75
     0
 76
     0
 77
     0
 78
     0
  0
ENDTAB
  0
TABLE
  2
LTYPE
 70
    11
  0
LTYPE
  2
CONTINUOUS
 70
     0
  3
Solid line
 72
    65
 73
     0
 40
0.0
  0
LTYPE
  2
GESTRICHELT
 70
     0
  3
__ __ __ __ __ __ __ __ __ __ __ __ __ __ __
 72
    65
 73
     2
 40
0.75
 49
0.5
 49
-0.25
  0
LTYPE
  2
VERDECKT
 70
     0
  3
_ _ _ _ _ _ _ _ _ _ _ _ _ _ _ _ _ _ _ _ _ _ 
 72
    65
 73
     2
 40
0.25
 49
0.125
 49
-0.125
  0
LTYPE
  2
MITTELLINIE
 70
     0
  3
____ _ ____ _ ____ _ ____ _ ____ _ ____ _ __
 72
    65
 73
     4
 40
2.0
 49
1.25
 49
-0.25
 49
0.25
 49
-0.25
  0
LTYPE
  2
PHANTOM
 70
     0
  3
_____ _ _ _____ _ _ _____ _ _ _____ _ _ ____
 72
    65
 73
     6
 40
2.5
 49
1.25
 49
-0.25
 49
0.25
 49
-0.25
 49
0.25
 49
-0.25
  0
LTYPE
  2
PUNKTIERT
 70
     0
  3
............................................
 72
    65
 73
     2
 40
0.25
 49
0.0
 49
-0.25
  0
LTYPE
  2
STRICHPUNKTIERT
 70
     0
  3
__ . __ . __ . __ . __ . __ . __ . __ . __ .
 72
    65
 73
     4
 40
1.0
 49
0.5
 49
-0.25
 49
0.0
 49
-0.25
  0
LTYPE
  2
RAND
 70
     0
  3
__ __ . __ __ . __ __ . __ __ . __ __ . __ _
 72
    65
 73
     6
 40
1.75
 49
0.5
 49
-0.25
 49
0.5
 49
-0.25
 49
0.0
 49
-0.25
  0
LTYPE
  2
TRENNLINIE
 70
     0
  3
__ . . __ . . __ . . __ . . __ . . __ . . __
 72
    65
 73
     6
 40
1.25
 49
0.5
 49
-0.25
 49
0.0
 49
-0.25
 49
0.0
 49
-0.25
  0
LTYPE
  2
ENG_PUNKTIERT
 70
     0
  3
Schließen                                   
 72
    65
 73
     2
 40
0.1
 49
0.05
 49
-0.05
  0
LTYPE
  2
CLOSE
 70
     0
  3
                                            
 72
    65
 73
     0
 40
0.0
  0
ENDTAB
  0
TABLE
  2
LAYER
 70
   258
  0
LAYER
  2
0
 70
     0
 62
     7
  6
CONTINUOUS
  0
LAYER
  2
LAYER01
 70
     0
 62
     7
  6
CONTINUOUS
  0
LAYER
  2
LAYER02
 70
     0
 62
     7
  6
CONTINUOUS
  0
LAYER
  2
LAYER03
 70
     0
 62
     7
  6
CONTINUOUS
  0
LAYER
  2
LAYER04
 70
     0
 62
     7
  6
CONTINUOUS
  0
LAYER
  2
LAYER05
 70
     0
 62
     7
  6
CONTINUOUS
  0
LAYER
  2
LAYER06
 70
     0
 62
     7
  6
CONTINUOUS
  0
LAYER
  2
LAYER07
 70
     0
 62
     7
  6
CONTINUOUS
  0
LAYER
  2
LAYER08
 70
     0
 62
     7
  6
CONTINUOUS
  0
LAYER
  2
LAYER09
 70
     0
 62
     7
  6
CONTINUOUS
  0
LAYER
  2
LAYER10
 70
     0
 62
     7
  6
CONTINUOUS
  0
LAYER
  2
2
 70
     0
 62
     7
  6
CONTINUOUS
  0
LAYER
  2
5
 70
     0
 62
     7
  6
CONTINUOUS
  0
LAYER
  2
RAUMAUFM
 70
     0
 62
     7
  6
CONTINUOUS
  0
LAYER
  2
EINRICHT
 70
     0
 62
     7
  6
CONTINUOUS
  0
LAYER
  2
HILFE
 70
     0
 62
     7
  6
CONTINUOUS
  0
LAYER
  2
SCHNITTE
 70
     0
 62
     7
  6
CONTINUOUS
  0
LAYER
  2
SCHRAFF1
 70
     0
 62
     7
  6
CONTINUOUS
  0
LAYER
  2
SCHRAFF2
 70
     0
 62
     7
  6
CONTINUOUS
  0
LAYER
  2
BEMASS-1
 70
     0
 62
     7
  6
CONTINUOUS
  0
LAYER
  2
BEMASS-2
 70
     0
 62
     7
  6
CONTINUOUS
  0
LAYER
  2
TEXT
 70
     0
 62
     7
  6
CONTINUOUS
  0
LAYER
  2
SYMBOLE
 70
     0
 62
     7
  6
CONTINUOUS
  0
LAYER
  2
RAHMEN
 70
     0
 62
     7
  6
CONTINUOUS
  0
LAYER
  2
SCHRIFTF
 70
     0
 62
     7
  6
CONTINUOUS
  0
LAYER
  2
ACHSEN
 70
     0
 62
     7
  6
CONTINUOUS
  0
LAYER
  2
ZEICHN
 70
     0
 62
     7
  6
CONTINUOUS
  0
LAYER
  2
7
 70
     0
 62
     7
  6
CONTINUOUS
  0
LAYER
  2
1
 70
     0
 62
     7
  6
CONTINUOUS
  0
LAYER
  2
6
 70
     0
 62
     7
  6
CONTINUOUS
  0
LAYER
  2
4
 70
     0
 62
     7
  6
CONTINUOUS
  0
LAYER
  2
GRUNDEBENE
 70
     0
 62
     7
  6
CONTINUOUS
  0
LAYER
  2
GRUNDRISS
 70
     0
 62
     7
  6
CONTINUOUS
  0
LAYER
  2
BEMASSUNGGRUNDRISS
 70
     0
 62
     7
  6
CONTINUOUS
  0
LAYER
  2
WANDELEMENTE
 70
     0
 62
     7
  6
CONTINUOUS
  0
LAYER
  2
KUECHE
 70
     0
 62
     7
  6
CONTINUOUS
  0
LAYER
  2
THEKEBROETCHEN
 70
     0
 62
     7
  6
CONTINUOUS
  0
LAYER
  2
CENTERLINIE
 70
     0
 62
     7
  6
CONTINUOUS
  0
LAYER
  2
UMRISSE
 70
     0
 62
     7
  6
CONTINUOUS
  0
LAYER
  2
MAUER
 70
     0
 62
     7
  6
CONTINUOUS
  0
LAYER
  2
SCHRAFFUR
 70
     0
 62
     7
  6
CONTINUOUS
  0
LAYER
  2
MASSLINIE
 70
     0
 62
     7
  6
CONTINUOUS
  0
LAYER
  2
PV
 70
     0
 62
     7
  6
CONTINUOUS
  0
LAYER
  2
BESCHRIFTUNG
 70
     0
 62
     7
  6
CONTINUOUS
  0
LAYER
  2
AS
 70
     0
 62
     7
  6
CONTINUOUS
  0
LAYER
  2
PL
 70
     0
 62
     7
  6
CONTINUOUS
  0
LAYER
  2
UK
 70
     0
 62
     7
  6
CONTINUOUS
  0
LAYER
  2
TEXT3
 70
     0
 62
     7
  6
CONTINUOUS
  0
LAYER
  2
TEXT7
 70
     0
 62
     7
  6
CONTINUOUS
  0
LAYER
  2
BEPL1
 70
     0
 62
     7
  6
CONTINUOUS
  0
LAYER
  2
BEPL2
 70
     0
 62
     7
  6
CONTINUOUS
  0
LAYER
  2
BEPL2V
 70
     0
 62
     7
  6
CONTINUOUS
  0
LAYER
  2
BEPL4
 70
     0
 62
     7
  6
CONTINUOUS
  0
LAYER
  2
BEPL
 70
     0
 62
     7
  6
CONTINUOUS
  0
LAYER
  2
UK1
 70
     0
 62
     7
  6
CONTINUOUS
  0
LAYER
  2
UK2
 70
     0
 62
     7
  6
CONTINUOUS
  0
LAYER
  2
UK2V
 70
     0
 62
     7
  6
CONTINUOUS
  0
LAYER
  2
UK3
 70
     0
 62
     7
  6
CONTINUOUS
  0
LAYER
  2
TEXT2
 70
     0
 62
     7
  6
CONTINUOUS
  0
LAYER
  2
HILF2S
 70
     0
 62
     7
  6
CONTINUOUS
  0
LAYER
  2
UK1V
 70
     0
 62
     7
  6
CONTINUOUS
  0
LAYER
  2
GAIN_ZRA
 70
     0
 62
     7
  6
CONTINUOUS
  0
LAYER
  2
GAIN_ZSF
 70
     0
 62
     7
  6
CONTINUOUS
  0
LAYER
  2
RAHM4
 70
     0
 62
     7
  6
CONTINUOUS
  0
LAYER
  2
KORPUSBAND
 70
     0
 62
     7
  6
CONTINUOUS
  0
LAYER
  2
E---LGPL--------
 70
     0
 62
     7
  6
CONTINUOUS
  0
LAYER
  2
E---NPFL--------
 70
     0
 62
     7
  6
CONTINUOUS
  0
LAYER
  2
E---PLNKTXT-----
 70
     0
 62
     7
  6
CONTINUOUS
  0
LAYER
  2
E---PLNK--------
 70
     0
 62
     7
  6
CONTINUOUS
  0
LAYER
  2
E---PLNR--------
 70
     0
 62
     7
  6
CONTINUOUS
  0
LAYER
  2
D547_ARCHICAD
 70
     0
 62
     7
  6
CONTINUOUS
  0
LAYER
  2
D547_E---TEXT--------
 70
     0
 62
     7
  6
CONTINUOUS
  0
LAYER
  2
E---LEGD--------
 70
     0
 62
     7
  6
CONTINUOUS
  0
LAYER
  2
D43_ARCHICAD
 70
     0
 62
     7
  6
CONTINUOUS
  0
LAYER
  2
D43_FENSTER_VON_B---FASS--
 70
     0
 62
     7
  6
CONTINUOUS
  0
LAYER
  2
D43_E---SCHN--------
 70
     0
 62
     7
  6
CONTINUOUS
  0
LAYER
  2
D43_B---MW-N--------
 70
     0
 62
     7
  6
CONTINUOUS
  0
LAYER
  2
D43_B---DECK--------
 70
     0
 62
     7
  6
CONTINUOUS
  0
LAYER
  2
D43_B---MW-S--------
 70
     0
 62
     7
  6
CONTINUOUS
  0
LAYER
  2
D43_B---MW----------
 70
     0
 62
     7
  6
CONTINUOUS
  0
LAYER
  2
D43_B---FASS--------
 70
     0
 62
     7
  6
CONTINUOUS
  0
LAYER
  2
D43_E---RASG--------
 70
     0
 62
     7
  6
CONTINUOUS
  0
LAYER
  2
D40_ARCHICAD
 70
     0
 62
     7
  6
CONTINUOUS
  0
LAYER
  2
D40_E---MW--------
 70
     0
 62
     7
  6
CONTINUOUS
  0
LAYER
  2
D40_E---FASSKON-----
 70
     0
 62
     7
  6
CONTINUOUS
  0
LAYER
  2
D40_TÜREN_VON_B---MW-N----
 70
     0
 62
     7
  6
CONTINUOUS
  0
LAYER
  2
D40_E---MW-L------
 70
     0
 62
     7
  6
CONTINUOUS
  0
LAYER
  2
D40_TÜREN_VON_B---MW------
 70
     0
 62
     7
  6
CONTINUOUS
  0
LAYER
  2
D40_E---VERM--------
 70
     0
 62
     7
  6
CONTINUOUS
  0
LAYER
  2
D40_FENSTER_VON_E---MW-L--
 70
     0
 62
     7
  6
CONTINUOUS
  0
LAYER
  2
D40_FENSTER_VON_B---MW-N--
 70
     0
 62
     7
  6
CONTINUOUS
  0
LAYER
  2
D40_E---SCHN--------
 70
     0
 62
     7
  6
CONTINUOUS
  0
LAYER
  2
D40_E---AUFZ--------
 70
     0
 62
     7
  6
CONTINUOUS
  0
LAYER
  2
D40_E---DECK--------
 70
     0
 62
     7
  6
CONTINUOUS
  0
LAYER
  2
D40_E---RAUMINF-----
 70
     0
 62
     7
  6
CONTINUOUS
  0
LAYER
  2
D40_E---TEXT--------
 70
     0
 62
     7
  6
CONTINUOUS
  0
LAYER
  2
D40_B---TEXT--------
 70
     0
 62
     7
  6
CONTINUOUS
  0
LAYER
  2
D40_B---MW-N--------
 70
     0
 62
     7
  6
CONTINUOUS
  0
LAYER
  2
D40_B---DECK--------
 70
     0
 62
     7
  6
CONTINUOUS
  0
LAYER
  2
D40_B---AUFZ--------
 70
     0
 62
     7
  6
CONTINUOUS
  0
LAYER
  2
D40_B---MW-S--------
 70
     0
 62
     7
  6
CONTINUOUS
  0
LAYER
  2
D40_B---MW----------
 70
     0
 62
     7
  6
CONTINUOUS
  0
LAYER
  2
D40_E---MOEB--------
 70
     0
 62
     7
  6
CONTINUOUS
  0
LAYER
  2
D40_B---UMGB--------
 70
     0
 62
     7
  6
CONTINUOUS
  0
LAYER
  2
D40_B---FASS--------
 70
     0
 62
     7
  6
CONTINUOUS
  0
LAYER
  2
D40_E---DACH--------
 70
     0
 62
     7
  6
CONTINUOUS
  0
LAYER
  2
D40_E---BODE--------
 70
     0
 62
     7
  6
CONTINUOUS
  0
LAYER
  2
D40_E---TREP--------
 70
     0
 62
     7
  6
CONTINUOUS
  0
LAYER
  2
D40_E---RASG--------
 70
     0
 62
     7
  6
CONTINUOUS
  0
LAYER
  2
D40_B---MW-K--------
 70
     0
 62
     7
  6
CONTINUOUS
  0
LAYER
  2
D40_E---FASSGLA-----
 70
     0
 62
     7
  6
CONTINUOUS
  0
LAYER
  2
D40_B---VERM--------
 70
     0
 62
     7
  6
CONTINUOUS
  0
LAYER
  2
D40_E---UMGBGSG-----
 70
     0
 62
     7
  6
CONTINUOUS
  0
LAYER
  2
D40_E---RASF--------
 70
     0
 62
     7
  6
CONTINUOUS
  0
LAYER
  2
D40_E---PFLA--------
 70
     0
 62
     7
  6
CONTINUOUS
  0
LAYER
  2
D40_E---KONS-ST-----
 70
     0
 62
     7
  6
CONTINUOUS
  0
LAYER
  2
D40_E---WERB--------
 70
     0
 62
     7
  6
CONTINUOUS
  0
LAYER
  2
D40_E---TUERINF-----
 70
     0
 62
     7
  6
CONTINUOUS
  0
LAYER
  2
D40_E---WOLK--------
 70
     0
 62
     7
  6
CONTINUOUS
  0
LAYER
  2
D40_B---MW-L--------
 70
     0
 62
     7
  6
CONTINUOUS
  0
LAYER
  2
D40_B---SANI--------
 70
     0
 62
     7
  6
CONTINUOUS
  0
LAYER
  2
D40_E---SANI--------
 70
     0
 62
     7
  6
CONTINUOUS
  0
LAYER
  2
D40_E---MW-K------
 70
     0
 62
     7
  6
CONTINUOUS
  0
LAYER
  2
D40_E---OBJE--------
 70
     0
 62
     7
  6
CONTINUOUS
  0
LAYER
  2
D40_E---ASPR--------
 70
     0
 62
     7
  6
CONTINUOUS
  0
LAYER
  2
D40_E---VERMTGA-----
 70
     0
 62
     7
  6
CONTINUOUS
  0
LAYER
  2
D40_E---PARK--------
 70
     0
 62
     7
  6
CONTINUOUS
  0
LAYER
  2
D40_E---ISOL--------
 70
     0
 62
     7
  6
CONTINUOUS
  0
LAYER
  2
D40_E---TUER--------
 70
     0
 62
     7
  6
CONTINUOUS
  0
LAYER
  2
D40_E---MW--BRA---
 70
     0
 62
     7
  6
CONTINUOUS
  0
LAYER
  2
D41_ARCHICAD
 70
     0
 62
     7
  6
CONTINUOUS
  0
LAYER
  2
D41_E---MW--------
 70
     0
 62
     7
  6
CONTINUOUS
  0
LAYER
  2
D41_E---FASSKON-----
 70
     0
 62
     7
  6
CONTINUOUS
  0
LAYER
  2
D41_TÜREN_VON_B---MW-N----
 70
     0
 62
     7
  6
CONTINUOUS
  0
LAYER
  2
D41_E---MW-L------
 70
     0
 62
     7
  6
CONTINUOUS
  0
LAYER
  2
D41_TÜREN_VON_B---MW------
 70
     0
 62
     7
  6
CONTINUOUS
  0
LAYER
  2
D41_E---VERM--------
 70
     0
 62
     7
  6
CONTINUOUS
  0
LAYER
  2
D41_FENSTER_VON_E---MW-L--
 70
     0
 62
     7
  6
CONTINUOUS
  0
LAYER
  2
D41_FENSTER_VON_B---MW-N--
 70
     0
 62
     7
  6
CONTINUOUS
  0
LAYER
  2
D41_E---SCHN--------
 70
     0
 62
     7
  6
CONTINUOUS
  0
LAYER
  2
D41_E---AUFZ--------
 70
     0
 62
     7
  6
CONTINUOUS
  0
LAYER
  2
D41_E---DECK--------
 70
     0
 62
     7
  6
CONTINUOUS
  0
LAYER
  2
D41_E---RAUMINF-----
 70
     0
 62
     7
  6
CONTINUOUS
  0
LAYER
  2
D41_E---TEXT--------
 70
     0
 62
     7
  6
CONTINUOUS
  0
LAYER
  2
D41_B---TEXT--------
 70
     0
 62
     7
  6
CONTINUOUS
  0
LAYER
  2
D41_B---MW-N--------
 70
     0
 62
     7
  6
CONTINUOUS
  0
LAYER
  2
D41_B---DECK--------
 70
     0
 62
     7
  6
CONTINUOUS
  0
LAYER
  2
D41_B---AUFZ--------
 70
     0
 62
     7
  6
CONTINUOUS
  0
LAYER
  2
D41_B---MW-S--------
 70
     0
 62
     7
  6
CONTINUOUS
  0
LAYER
  2
D41_B---MW----------
 70
     0
 62
     7
  6
CONTINUOUS
  0
LAYER
  2
D41_E---MOEB--------
 70
     0
 62
     7
  6
CONTINUOUS
  0
LAYER
  2
D41_B---UMGB--------
 70
     0
 62
     7
  6
CONTINUOUS
  0
LAYER
  2
D41_B---FASS--------
 70
     0
 62
     7
  6
CONTINUOUS
  0
LAYER
  2
D41_E---DACH--------
 70
     0
 62
     7
  6
CONTINUOUS
  0
LAYER
  2
D41_E---BODE--------
 70
     0
 62
     7
  6
CONTINUOUS
  0
LAYER
  2
D41_E---TREP--------
 70
     0
 62
     7
  6
CONTINUOUS
  0
LAYER
  2
D41_E---RASG--------
 70
     0
 62
     7
  6
CONTINUOUS
  0
LAYER
  2
D41_B---MW-K--------
 70
     0
 62
     7
  6
CONTINUOUS
  0
LAYER
  2
D41_E---FASSGLA-----
 70
     0
 62
     7
  6
CONTINUOUS
  0
LAYER
  2
D41_B---VERM--------
 70
     0
 62
     7
  6
CONTINUOUS
  0
LAYER
  2
D41_E---UMGBGSG-----
 70
     0
 62
     7
  6
CONTINUOUS
  0
LAYER
  2
D41_E---RASF--------
 70
     0
 62
     7
  6
CONTINUOUS
  0
LAYER
  2
D41_E---PFLA--------
 70
     0
 62
     7
  6
CONTINUOUS
  0
LAYER
  2
D41_E---KONS-ST-----
 70
     0
 62
     7
  6
CONTINUOUS
  0
LAYER
  2
D41_E---WERB--------
 70
     0
 62
     7
  6
CONTINUOUS
  0
LAYER
  2
D41_E---TUERINF-----
 70
     0
 62
     7
  6
CONTINUOUS
  0
LAYER
  2
D41_E---WOLK--------
 70
     0
 62
     7
  6
CONTINUOUS
  0
LAYER
  2
D41_B---MW-L--------
 70
     0
 62
     7
  6
CONTINUOUS
  0
LAYER
  2
D41_B---SANI--------
 70
     0
 62
     7
  6
CONTINUOUS
  0
LAYER
  2
D41_E---SANI--------
 70
     0
 62
     7
  6
CONTINUOUS
  0
LAYER
  2
D41_E---MW-K------
 70
     0
 62
     7
  6
CONTINUOUS
  0
LAYER
  2
D41_E---OBJE--------
 70
     0
 62
     7
  6
CONTINUOUS
  0
LAYER
  2
D41_E---ASPR--------
 70
     0
 62
     7
  6
CONTINUOUS
  0
LAYER
  2
D41_E---VERMTGA-----
 70
     0
 62
     7
  6
CONTINUOUS
  0
LAYER
  2
D41_E---PARK--------
 70
     0
 62
     7
  6
CONTINUOUS
  0
LAYER
  2
D41_E---ISOL--------
 70
     0
 62
     7
  6
CONTINUOUS
  0
LAYER
  2
D41_E---TUER--------
 70
     0
 62
     7
  6
CONTINUOUS
  0
LAYER
  2
D41_E---MW--BRA---
 70
     0
 62
     7
  6
CONTINUOUS
  0
LAYER
  2
D42_ARCHICAD
 70
     0
 62
     7
  6
CONTINUOUS
  0
LAYER
  2
D42_FENSTER_VON_B---FASS--
 70
     0
 62
     7
  6
CONTINUOUS
  0
LAYER
  2
D42_E---SCHN--------
 70
     0
 62
     7
  6
CONTINUOUS
  0
LAYER
  2
D42_B---MW-N--------
 70
     0
 62
     7
  6
CONTINUOUS
  0
LAYER
  2
D42_B---DECK--------
 70
     0
 62
     7
  6
CONTINUOUS
  0
LAYER
  2
D42_B---MW-S--------
 70
     0
 62
     7
  6
CONTINUOUS
  0
LAYER
  2
D42_B---MW----------
 70
     0
 62
     7
  6
CONTINUOUS
  0
LAYER
  2
D42_B---FASS--------
 70
     0
 62
     7
  6
CONTINUOUS
  0
LAYER
  2
D42_E---RASG--------
 70
     0
 62
     7
  6
CONTINUOUS
  0
LAYER
  2
CONSTRUCTION_CLASS
 70
     0
 62
     7
  6
CONTINUOUS
  0
LAYER
  2
PATTERN_CLASS
 70
     0
 62
     7
  6
CONTINUOUS
  0
LAYER
  2
KONSTRUKTION
 70
     0
 62
     7
  6
CONTINUOUS
  0
LAYER
  2
BEMAßUNG
 70
     0
 62
     7
  6
CONTINUOUS
  0
LAYER
  2
HILFSGEOMETRIE
 70
     0
 62
     7
  6
CONTINUOUS
  0
LAYER
  2
UNSICHTBAR
 70
     0
 62
     7
  6
CONTINUOUS
  0
LAYER
  2
LOGO
 70
     0
 62
     7
  6
CONTINUOUS
  0
LAYER
  2
VERWALTUNG
 70
     0
 62
     7
  6
CONTINUOUS
  0
LAYER
  2
UNSICHTBARE_GEWINDE
 70
     0
 62
     7
  6
CONTINUOUS
  0
LAYER
  2
SICHTBARE_GEWINDE
 70
     0
 62
     7
  6
CONTINUOUS
  0
LAYER
  2
DEFPOINTS
 70
     0
 62
     7
  6
CONTINUOUS
  0
LAYER
  2
THICK
 70
     0
 62
     7
  6
CONTINUOUS
  0
LAYER
  2
HIDDEN
 70
     0
 62
     7
  6
CONTINUOUS
  0
LAYER
  2
SCHRAFFURGRUNDRISS
 70
     0
 62
     7
  6
CONTINUOUS
  0
LAYER
  2
BEMASSUNG_GRUNDRISS
 70
     0
 62
     7
  6
CONTINUOUS
  0
LAYER
  2
STATIK
 70
     0
 62
     7
  6
CONTINUOUS
  0
LAYER
  2
TÜREN
 70
     0
 62
     7
  6
CONTINUOUS
  0
LAYER
  2
SANITÄR
 70
     0
 62
     7
  6
CONTINUOUS
  0
LAYER
  2
BEMASSUNG_GIPSKARTON
 70
     0
 62
     7
  6
CONTINUOUS
  0
LAYER
  2
EINRICHTUNGEN
 70
     0
 62
     7
  6
CONTINUOUS
  0
LAYER
  2
BECKEN
 70
     0
 62
     7
  6
CONTINUOUS
  0
LAYER
  2
BELEUCHTUNG
 70
     0
 62
     7
  6
CONTINUOUS
  0
LAYER
  2
BESCHRIFTUNGEN
 70
     0
 62
     7
  6
CONTINUOUS
  0
LAYER
  2
ELEKTRO_1__DOSEN_SCHALTER
 70
     0
 62
     7
  6
CONTINUOUS
  0
LAYER
  2
DEFAULT_1
 70
     0
 62
     7
  6
CONTINUOUS
  0
LAYER
  2
AM_0
 70
     0
 62
     7
  6
CONTINUOUS
  0
LAYER
  2
FRAME0_7
 70
     0
 62
     7
  6
CONTINUOUS
  0
LAYER
  2
AM_BOR
 70
     0
 62
     7
  6
CONTINUOUS
  0
LAYER
  2
RAHM2
 70
     0
 62
     7
  6
CONTINUOUS
  0
LAYER
  2
RAHM3
 70
     0
 62
     7
  6
CONTINUOUS
  0
LAYER
  2
FRAME0_5
 70
     0
 62
     7
  6
CONTINUOUS
  0
LAYER
  2
8
 70
     0
 62
     7
  6
CONTINUOUS
  0
LAYER
  2
AM_5
 70
     0
 62
     7
  6
CONTINUOUS
  0
LAYER
  2
AM_7
 70
     0
 62
     7
  6
CONTINUOUS
  0
LAYER
  2
HILFSLINIEN
 70
     0
 62
     7
  6
CONTINUOUS
  0
LAYER
  2
DRAWING_TEMPLATE
 70
     0
 62
     7
  6
CONTINUOUS
  0
LAYER
  2
TECHNOBOX_EXTERNALREFSYMBO
 70
     0
 62
     7
  6
CONTINUOUS
  0
LAYER
  2
TECHNOBOX_POLYCLIPSYMBOL_L
 70
     0
 62
     7
  6
CONTINUOUS
  0
LAYER
  2
100
 70
     0
 62
     7
  6
CONTINUOUS
  0
LAYER
  2
101
 70
     0
 62
     7
  6
CONTINUOUS
  0
LAYER
  2
KONTUR
 70
     0
 62
     7
  6
CONTINUOUS
  0
LAYER
  2
MITTELLINIE
 70
     0
 62
     7
  6
CONTINUOUS
  0
LAYER
  2
GESTRICHELT
 70
     0
 62
     7
  6
CONTINUOUS
  0
LAYER
  2
HILFSLINIE
 70
     0
 62
     7
  6
CONTINUOUS
  0
LAYER
  2
TEXT-25
 70
     0
 62
     7
  6
CONTINUOUS
  0
LAYER
  2
TEXT35
 70
     0
 62
     7
  6
CONTINUOUS
  0
LAYER
  2
TEXT-50
 70
     0
 62
     7
  6
CONTINUOUS
  0
LAYER
  2
TEXT-70
 70
     0
 62
     7
  6
CONTINUOUS
  0
LAYER
  2
ANSICHTSFENSTER
 70
     0
 62
     7
  6
CONTINUOUS
  0
LAYER
  2
KERA0
 70
     0
 62
     7
  6
CONTINUOUS
  0
LAYER
  2
KERA1
 70
     0
 62
     7
  6
CONTINUOUS
  0
LAYER
  2
KERA2
 70
     0
 62
     7
  6
CONTINUOUS
  0
LAYER
  2
KERA3
 70
     0
 62
     7
  6
CONTINUOUS
  0
LAYER
  2
KERA4
 70
     0
 62
     7
  6
CONTINUOUS
  0
LAYER
  2
KERA5
 70
     0
 62
     7
  6
CONTINUOUS
  0
LAYER
  2
KERA6
 70
     0
 62
     7
  6
CONTINUOUS
  0
LAYER
  2
KERA7
 70
     0
 62
     7
  6
CONTINUOUS
  0
LAYER
  2
20
 70
     0
 62
     7
  6
CONTINUOUS
  0
LAYER
  2
50
 70
     0
 62
     7
  6
CONTINUOUS
  0
LAYER
  2
FORMAT
 70
     0
 62
     7
  6
CONTINUOUS
  0
LAYER
  2
KERA4___1
 70
     0
 62
     7
  6
CONTINUOUS
  0
LAYER
  2
ACTIVE_PROFIL
 70
     0
 62
     7
  6
CONTINUOUS
  0
LAYER
  2
ACTIVE_DRAUFSICHT
 70
     0
 62
     7
  6
CONTINUOUS
  0
LAYER
  2
EBENE_1
 70
     0
 62
     7
  6
CONTINUOUS
  0
LAYER
  2
EBENE_2
 70
     0
 62
     7
  6
CONTINUOUS
  0
LAYER
  2
EBENE_5
 70
     0
 62
     7
  6
CONTINUOUS
  0
LAYER
  2
3
 70
     0
 62
     7
  6
CONTINUOUS
  0
LAYER
  2
GEB-KONTUR-A
 70
     0
 62
     7
  6
CONTINUOUS
  0
LAYER
  2
GEB-SYMETRIE
 70
     0
 62
     7
  6
CONTINUOUS
  0
LAYER
  2
GEB-ART-NR
 70
     0
 62
     7
  6
CONTINUOUS
  0
LAYER
  2
PROJECTION
 70
     0
 62
     7
  6
CONTINUOUS
  0
ENDTAB
  0
TABLE
  2
STYLE
 70
     3
  0
STYLE
  2
STANDARD
 70
     0
 40
0.0
 41
1.0
 50
0.0
 71
     0
 42
0.0
  3
txt
  4

  0
STYLE
  2
ANNOTATIVE
 70
     0
 40
0.0
 41
1.0
 50
0.0
 71
     0
 42
0.2
  3
txt
  4

  0
STYLE
  2
SIMPLEX
 70
     0
 40
0.0
 41
1.0
 50
0.0
 71
     0
 42
0.0
  3
simplex
  4

  0
ENDTAB
  0
TABLE
  2
VIEW
 70
     0
  0
ENDTAB
  0
TABLE
  2
UCS
 70
     0
  0
ENDTAB
  0
TABLE
  2
APPID
 70
     7
  0
APPID
  2
ACAD
 70
     0
  0
APPID
  2
ACADANNOTATIVE
 70
     0
  0
APPID
  2
ACAD_MLEADERVER
 70
     0
  0
APPID
  2
ACAD_DSTYLE_DIMJAG
 70
     0
  0
APPID
  2
ACAD_DSTYLE_DIMTALN
 70
     0
  0
APPID
  2
ACAD_PSEXT
 70
     0
  0
APPID
  2
ACAD_NAV_VCDISPLAY
 70
     0
  0
ENDTAB
  0
TABLE
  2
DIMSTYLE
 70
     2
  0
DIMSTYLE
  2
STANDARD
 70
     0
  3

  4

  5

  6

  7

 40
1.0
 41
0.18
 42
0.0625
 43
0.38
 44
0.18
 45
0.0
 46
0.0
 47
0.0
 48
0.0
140
0.18
141
0.09
142
0.0
143
25.399999999999999
144
1.0
145
0.0
146
1.0
147
0.09
 71
     0
 72
     0
 73
     1
 74
     1
 75
     0
 76
     0
 77
     0
 78
     0
170
     0
171
     2
172
     0
173
     0
174
     0
175
     0
176
     0
177
     0
178
     0
  0
DIMSTYLE
  2
ANNOTATIVE
 70
     0
  3

  4

  5

  6

  7

 40
1.0
 41
0.18
 42
0.0625
 43
0.38
 44
0.18
 45
0.0
 46
0.0
 47
0.0
 48
0.0
140
0.18
141
0.09
142
0.0
143
25.399999999999999
144
1.0
145
0.0
146
1.0
147
0.09
 71
     0
 72
     0
 73
     1
 74
     1
 75
     0
 76
     0
 77
     0
 78
     0
170
     0
171
     2
172
     0
173
     0
174
     0
175
     0
176
     0
177
     0
178
     0
  0
ENDTAB
  0
ENDSEC
  0
SECTION
  2
BLOCKS
  0
BLOCK
  8
0
  2
$MODEL_SPACE
 70
     0
 10
0.0
 20
0.0
 30
0.0
  3
$MODEL_SPACE
  1

  0
ENDBLK
  5
76
  8
0
  0
BLOCK
 67
     1
  8
0
  2
$PAPER_SPACE
 70
     0
 10
0.0
 20
0.0
 30
0.0
  3
$PAPER_SPACE
  1

  0
ENDBLK
  5
72
 67
     1
  8
0
  0
BLOCK
  8
0
  2
*D0
 70
     1
 10
0.0
 20
0.0
 30
0.0
  3
*D0
  1

  0
LINE
  5
189
  8
LAYER01
 62
     7
 10
2157.7634159999998
 20
1379.0996769999999
 30
0.0
 11
1787.7634109999999
 21
1379.0996769999999
 31
0.0
  0
LINE
  5
18A
  8
LAYER01
 62
     7
 10
2157.7634159999998
 20
1347.0588210000001
 30
0.0
 11
2157.7634159999998
 21
1394.0996769999999
 31
0.0
  0
LINE
  5
18B
  8
LAYER01
 62
     7
 10
1787.7634109999999
 20
1347.0588210000001
 30
0.0
 11
1787.7634109999999
 21
1394.0996769999999
 31
0.0
  0
SOLID
  5
18C
  8
LAYER01
 62
     7
 10
2133.7634159999998
 20
1383.0995170000001
 30
0.0
 11
2157.7634159999998
 21
1379.0996769999999
 31
0.0
 12
2133.7634159999998
 22
1375.099837
 32
0.0
 13
2133.7634159999998
 23
1375.099837
 33
0.0
  0
SOLID
  5
18D
  8
LAYER01
 62
     7
 10
1811.7634109999999
 20
1383.0995170000001
 30
0.0
 11
1787.7634109999999
 21
1379.0996769999999
 31
0.0
 12
1811.7634109999999
 22
1375.099837
 32
0.0
 13
1811.7634109999999
 23
1375.099837
 33
0.0
  0
TEXT
  5
18E
  8
LAYER01
  6
CONTINUOUS
 62
     7
 10
1934.1919849999999
 20
1394.0996769999999
 30
0.0
 40
30.0
  1
370
  7
SIMPLEX
  0
POINT
  5
18F
  8
LAYER01
 62
     7
 10
2157.7634159999998
 20
1335.0588210000001
 30
0.0
  0
POINT
  5
190
  8
LAYER01
 62
     7
 10
1787.7634109999999
 20
1335.0588210000001
 30
0.0
  0
POINT
  5
191
  8
LAYER01
 62
     7
 10
1787.7634109999999
 20
1379.0996769999999
 30
0.0
  0
ENDBLK
  5
192
  8
0
  0
BLOCK
  8
0
  2
*D1
 70
     1
 10
0.0
 20
0.0
 30
0.0
  3
*D1
  1

  0
LINE
  5
195
  8
LAYER01
 62
     7
 10
2182.7634069999999
 20
1463.6186049999999
 30
0.0
 11
1762.76342
 21
1463.6186049999999
 31
0.0
  0
LINE
  5
196
  8
LAYER01
 62
     7
 10
2182.7634069999999
 20
1347.0588210000001
 30
0.0
 11
2182.7634069999999
 21
1478.6186049999999
 31
0.0
  0
LINE
  5
197
  8
LAYER01
 62
     7
 10
1762.76342
 20
1347.0588210000001
 30
0.0
 11
1762.76342
 21
1478.6186049999999
 31
0.0
  0
SOLID
  5
198
  8
LAYER01
 62
     7
 10
2158.7634069999999
 20
1467.6184450000001
 30
0.0
 11
2182.7634069999999
 21
1463.6186049999999
 31
0.0
 12
2158.7634069999999
 22
1459.6187649999999
 32
0.0
 13
2158.7634069999999
 23
1459.6187649999999
 33
0.0
  0
SOLID
  5
199
  8
LAYER01
 62
     7
 10
1786.76342
 20
1467.6184450000001
 30
0.0
 11
1762.76342
 21
1463.6186049999999
 31
0.0
 12
1786.76342
 22
1459.6187649999999
 32
0.0
 13
1786.76342
 23
1459.6187649999999
 33
0.0
  0
TEXT
  5
19A
  8
LAYER01
  6
CONTINUOUS
 62
     7
 10
1934.1919849999999
 20
1478.6186049999999
 30
0.0
 40
30.0
  1
420
  7
SIMPLEX
  0
POINT
  5
19B
  8
LAYER01
 62
     7
 10
2182.7634069999999
 20
1335.0588210000001
 30
0.0
  0
POINT
  5
19C
  8
LAYER01
 62
     7
 10
1762.76342
 20
1335.0588210000001
 30
0.0
  0
POINT
  5
19D
  8
LAYER01
 62
     7
 10
1762.76342
 20
1463.6186049999999
 30
0.0
  0
ENDBLK
  5
19E
  8
0
  0
BLOCK
  8
0
  2
*D2
 70
     1
 10
0.0
 20
0.0
 30
0.0
  3
*D2
  1

  0
LINE
  5
1A1
  8
LAYER01
 62
     7
 10
1995.763414
 20
1091.7353250000001
 30
0.0
 11
2043.763414
 21
1091.7353250000001
 31
0.0
  0
LINE
  5
1A2
  8
LAYER01
 62
     7
 10
1949.763414
 20
1091.7353250000001
 30
0.0
 11
1901.763414
 21
1091.7353250000001
 31
0.0
  0
LINE
  5
1A3
  8
LAYER01
 62
     7
 10
1995.763414
 20
1153.058816
 30
0.0
 11
1995.763414
 21
1076.7353250000001
 31
0.0
  0
LINE
  5
1A4
  8
LAYER01
 62
     7
 10
1949.763414
 20
1153.058816
 30
0.0
 11
1949.763414
 21
1076.7353250000001
 31
0.0
  0
SOLID
  5
1A5
  8
LAYER01
 62
     7
 10
2019.763414
 20
1095.7351650000001
 30
0.0
 11
1995.763414
 21
1091.7353250000001
 31
0.0
 12
2019.763414
 22
1087.7354849999999
 32
0.0
 13
2019.763414
 23
1087.7354849999999
 33
0.0
  0
SOLID
  5
1A6
  8
LAYER01
 62
     7
 10
1925.763414
 20
1095.7351650000001
 30
0.0
 11
1949.763414
 21
1091.7353250000001
 31
0.0
 12
1925.763414
 22
1087.7354849999999
 32
0.0
 13
1925.763414
 23
1087.7354849999999
 33
0.0
  0
TEXT
  5
1A7
  8
LAYER01
  6
CONTINUOUS
 62
     7
 10
2058.763414
 20
1106.7353250000001
 30
0.0
 40
30.0
  1
46
  7
SIMPLEX
  0
POINT
  5
1A8
  8
LAYER01
 62
     7
 10
1995.763414
 20
1165.058816
 30
0.0
  0
POINT
  5
1A9
  8
LAYER01
 62
     7
 10
1949.763414
 20
1165.058816
 30
0.0
  0
POINT
  5
1AA
  8
LAYER01
 62
     7
 10
1949.763414
 20
1091.7353250000001
 30
0.0
  0
ENDBLK
  5
1AB
  8
0
  0
BLOCK
  8
0
  2
UBS370-G4
 70
     0
 10
0.0
 20
0.0
 30
0.0
  3
UBS370-G4
  1

  0
LINE
  5
1AE
  8
0
  6
CONTINUOUS
 62
     7
 10
2001.5703639999999
 20
1165.058816
 30
0.0
 11
2023.465471
 21
1186.9539219999999
 31
0.0
  0
LINE
  5
1AF
  8
0
  6
CONTINUOUS
 62
     7
 10
2155.8190789999999
 20
1319.30753
 30
0.0
 11
2171.5703640000002
 21
1335.058816
 31
0.0
  0
LINE
  5
1B0
  8
0
  6
CONTINUOUS
 62
     7
 10
2035.4931059999999
 20
1176.530917
 30
0.0
 11
2052.6220979999998
 21
1193.659909
 31
0.0
  0
LINE
  5
1B1
  8
0
  6
CONTINUOUS
 62
     7
 10
2148.9795180000001
 20
1290.017329
 30
0.0
 11
2165.6705179999999
 21
1306.708329
 31
0.0
  0
LINE
  5
1B2
  8
0
  6
CONTINUOUS
 62
     7
 10
2182.0210040000002
 20
1323.058816
 30
0.0
 11
2182.763414
 21
1323.8012249999999
 31
0.0
  0
LINE
  5
1B3
  8
0
  6
CONTINUOUS
 62
     7
 10
2067.2418899999998
 20
1185.8290609999999
 30
0.0
 11
2105.218398
 21
1223.8055690000001
 31
0.0
  0
LINE
  5
1B4
  8
0
  6
CONTINUOUS
 62
     7
 10
2115.6891529999998
 20
1234.2763239999999
 30
0.0
 11
2155.735017
 21
1274.3221880000001
 31
0.0
  0
ENDBLK
  5
1B5
  8
0
  0
BLOCK
  8
0
  2
*D4
 70
     1
 10
0.0
 20
0.0
 30
0.0
  3
*D4
  1

  0
LINE
  5
1B8
  8
LAYER01
 62
     7
 10
1480.758067
 20
922.76411299999995
 30
0.0
 11
1060.7580800000001
 21
922.76411299999995
 31
0.0
  0
LINE
  5
1B9
  8
LAYER01
 62
     7
 10
1480.758067
 20
763.83625199999994
 30
0.0
 11
1480.758067
 21
937.76411299999995
 31
0.0
  0
LINE
  5
1BA
  8
LAYER01
 62
     7
 10
1060.7580800000001
 20
763.83625199999994
 30
0.0
 11
1060.7580800000001
 21
937.76411299999995
 31
0.0
  0
SOLID
  5
1BB
  8
LAYER01
 62
     7
 10
1456.758067
 20
926.76395299999979
 30
0.0
 11
1480.758067
 21
922.76411299999995
 31
0.0
 12
1456.758067
 22
918.764273
 32
0.0
 13
1456.758067
 23
918.764273
 33
0.0
  0
SOLID
  5
1BC
  8
LAYER01
 62
     7
 10
1084.7580800000001
 20
926.76395299999979
 30
0.0
 11
1060.7580800000001
 21
922.76411299999995
 31
0.0
 12
1084.7580800000001
 22
918.764273
 32
0.0
 13
1084.7580800000001
 23
918.764273
 33
0.0
  0
TEXT
  5
1BD
  8
LAYER01
  6
CONTINUOUS
 62
     7
 10
1232.186645
 20
937.76411299999995
 30
0.0
 40
30.0
  1
420
  7
SIMPLEX
  0
POINT
  5
1BE
  8
LAYER01
 62
     7
 10
1480.758067
 20
751.83625199999994
 30
0.0
  0
POINT
  5
1BF
  8
LAYER01
 62
     7
 10
1060.7580800000001
 20
751.83625199999994
 30
0.0
  0
POINT
  5
1C0
  8
LAYER01
 62
     7
 10
1060.7580800000001
 20
922.76411299999995
 30
0.0
  0
ENDBLK
  5
1C1
  8
0
  0
BLOCK
  8
0
  2
UBS370-G6
 70
     0
 10
0.0
 20
0.0
 30
0.0
  3
UBS370-G6
  1

  0
LINE
  5
1C4
  8
0
  6
CONTINUOUS
 62
     7
 10
1060.758073
 20
740.61125199999992
 30
0.0
 11
1071.983068
 21
751.83624599999985
 31
0.0
  0
LINE
  5
1C5
  8
0
  6
CONTINUOUS
 62
     7
 10
1075.7948940000001
 20
733.19743200000005
 30
0.0
 11
1086.510286
 21
743.912824
 31
0.0
  0
LINE
  5
1C6
  8
0
  6
CONTINUOUS
 62
     7
 10
1079.7174970000001
 20
714.66939500000001
 30
0.0
 11
1089.816728
 21
724.76862599999993
 31
0.0
  0
LINE
  5
1C7
  8
0
  6
CONTINUOUS
 62
     7
 10
1085.146567
 20
697.64782500000001
 30
0.0
 11
1094.473301
 21
706.974558
 31
0.0
  0
LINE
  5
1C8
  8
0
  6
CONTINUOUS
 62
     7
 10
1091.597025
 20
681.64764300000002
 30
0.0
 11
1100.677936
 21
690.72855300000003
 31
0.0
  0
LINE
  5
1C9
  8
0
  6
CONTINUOUS
 62
     7
 10
1100.0520100000001
 20
667.65198699999985
 30
0.0
 11
1108.7674280000001
 21
676.36740499999985
 31
0.0
  0
LINE
  5
1CA
  8
0
  6
CONTINUOUS
 62
     7
 10
1108.9761719999999
 20
654.12550899999985
 30
0.0
 11
1117.530855
 21
662.68019200000003
 31
0.0
  0
LINE
  5
1CB
  8
0
  6
CONTINUOUS
 62
     7
 10
1119.6059270000001
 20
642.30462299999988
 30
0.0
 11
1128.077904
 21
650.77660000000003
 31
0.0
  0
LINE
  5
1CC
  8
0
  6
CONTINUOUS
 62
     7
 10
1130.8889059999999
 20
631.13696300000004
 30
0.0
 11
1139.441272
 21
639.68932800000005
 31
0.0
  0
LINE
  5
1CD
  8
0
  6
CONTINUOUS
 62
     7
 10
1143.48578
 20
621.28319599999986
 30
0.0
 11
1152.017439
 21
629.81485399999985
 31
0.0
  0
LINE
  5
1CE
  8
0
  6
CONTINUOUS
 62
     7
 10
1157.162924
 20
612.50969999999995
 30
0.0
 11
1166.02206
 21
621.36883599999987
 31
0.0
  0
LINE
  5
1CF
  8
0
  6
CONTINUOUS
 62
     7
 10
1171.8135709999999
 20
604.70970599999987
 30
0.0
 11
1180.7431750000001
 21
613.63930999999991
 31
0.0
  0
LINE
  5
1D0
  8
0
  6
CONTINUOUS
 62
     7
 10
1188.2614510000001
 20
598.70694600000002
 30
0.0
 11
1197.8123740000001
 21
608.25786900000003
 31
0.0
  0
LINE
  5
1D1
  8
0
  6
CONTINUOUS
 62
     7
 10
1205.6489429999999
 20
593.64379799999995
 30
0.0
 11
1216.219701
 21
604.21455500000002
 31
0.0
  0
LINE
  5
1D2
  8
0
  6
CONTINUOUS
 62
     7
 10
1225.3255959999999
 20
590.86980999999992
 30
0.0
 11
1236.0278000000001
 21
601.57201399999985
 31
0.0
  0
LINE
  5
1D3
  8
0
  6
CONTINUOUS
 62
     7
 10
1238.7426720000001
 20
581.83624599999985
 30
0.0
 11
1247.613202
 21
590.70677599999999
 31
0.0
  0
ENDBLK
  5
1D4
  8
0
  0
BLOCK
  8
0
  2
UBS370-G7
 70
     0
 10
0.0
 20
0.0
 30
0.0
  3
UBS370-G7
  1

  0
LINE
  5
1D7
  8
0
  6
CONTINUOUS
 62
     7
 10
1314.953802
 20
590.69545500000004
 30
0.0
 11
1328.9306469999999
 21
604.67229999999995
 31
0.0
  0
LINE
  5
1D8
  8
0
  6
CONTINUOUS
 62
     7
 10
1452.3134580000001
 20
728.05511100000001
 30
0.0
 11
1476.094593
 21
751.83624599999985
 31
0.0
  0
LINE
  5
1D9
  8
0
  6
CONTINUOUS
 62
     7
 10
1341.6338940000001
 20
594.92490699999996
 30
0.0
 11
1360.1527619999999
 21
613.44377499999996
 31
0.0
  0
LINE
  5
1DA
  8
0
  6
CONTINUOUS
 62
     7
 10
1442.939509
 20
696.23052199999995
 30
0.0
 11
1461.911521
 21
715.20253400000001
 31
0.0
  0
LINE
  5
1DB
  8
0
  6
CONTINUOUS
 62
     7
 10
1378.6135079999999
 20
609.45388000000003
 30
0.0
 11
1449.1819330000001
 21
680.02230499999985
 31
0.0
  0
ENDBLK
  5
1DC
  8
0
  0
BLOCK
  8
0
  2
*D7
 70
     1
 10
0.0
 20
0.0
 30
0.0
  3
*D7
  1

  0
LINE
  5
1DF
  8
LAYER01
 62
     7
 10
1085.758071
 20
853.05941099999995
 30
0.0
 11
1456.1458130000001
 21
853.05941099999995
 31
0.0
  0
LINE
  5
1E0
  8
LAYER01
 62
     7
 10
1085.758071
 20
763.83625199999994
 30
0.0
 11
1085.758071
 21
868.05941099999995
 31
0.0
  0
LINE
  5
1E1
  8
LAYER01
 62
     7
 10
1456.1458130000001
 20
763.83625199999994
 30
0.0
 11
1456.1458130000001
 21
868.05941099999995
 31
0.0
  0
SOLID
  5
1E2
  8
LAYER01
 62
     7
 10
1109.758071
 20
849.05957100000001
 30
0.0
 11
1085.758071
 21
853.05941099999995
 31
0.0
 12
1109.758071
 22
857.05925100000002
 32
0.0
 13
1109.758071
 23
857.05925100000002
 33
0.0
  0
SOLID
  5
1E3
  8
LAYER01
 62
     7
 10
1432.1458130000001
 20
849.05957100000001
 30
0.0
 11
1456.1458130000001
 21
853.05941099999995
 31
0.0
 12
1432.1458130000001
 22
857.05925100000002
 32
0.0
 13
1432.1458130000001
 23
857.05925100000002
 33
0.0
  0
TEXT
  5
1E4
  8
LAYER01
  6
CONTINUOUS
 62
     7
 10
1232.3805130000001
 20
868.05941099999995
 30
0.0
 40
30.0
  1
370
  7
SIMPLEX
  0
POINT
  5
1E5
  8
LAYER01
 62
     7
 10
1085.758071
 20
751.83625199999994
 30
0.0
  0
POINT
  5
1E6
  8
LAYER01
 62
     7
 10
1456.1458130000001
 20
751.83625199999994
 30
0.0
  0
POINT
  5
1E7
  8
LAYER01
 62
     7
 10
1456.1458130000001
 20
853.05941099999995
 30
0.0
  0
ENDBLK
  5
1E8
  8
0
  0
BLOCK
  8
0
  2
*D8
 70
     1
 10
0.0
 20
0.0
 30
0.0
  3
*D8
  1

  0
LINE
  5
1EB
  8
LAYER01
 62
     7
 10
1085.758071
 20
788.80644800000005
 30
0.0
 11
1133.758071
 21
788.80644800000005
 31
0.0
  0
LINE
  5
1EC
  8
LAYER01
 62
     7
 10
1060.7580800000001
 20
788.80644800000005
 30
0.0
 11
1012.7580799999999
 21
788.80644800000005
 31
0.0
  0
LINE
  5
1ED
  8
LAYER01
 62
     7
 10
1085.758071
 20
763.83625199999994
 30
0.0
 11
1085.758071
 21
803.80644800000005
 31
0.0
  0
LINE
  5
1EE
  8
LAYER01
 62
     7
 10
1060.7580800000001
 20
763.83625199999994
 30
0.0
 11
1060.7580800000001
 21
803.80644800000005
 31
0.0
  0
SOLID
  5
1EF
  8
LAYER01
 62
     7
 10
1109.758071
 20
792.80628799999988
 30
0.0
 11
1085.758071
 21
788.80644800000005
 31
0.0
 12
1109.758071
 22
784.80660799999987
 32
0.0
 13
1109.758071
 23
784.80660799999987
 33
0.0
  0
SOLID
  5
1F0
  8
LAYER01
 62
     7
 10
1036.7580800000001
 20
792.80628799999988
 30
0.0
 11
1060.7580800000001
 21
788.80644800000005
 31
0.0
 12
1036.7580800000001
 22
784.80660799999987
 32
0.0
 13
1036.7580800000001
 23
784.80660799999987
 33
0.0
  0
TEXT
  5
1F1
  8
LAYER01
  6
CONTINUOUS
 62
     7
 10
1148.758071
 20
803.80644800000005
 30
0.0
 40
30.0
  1
25
  7
SIMPLEX
  0
POINT
  5
1F2
  8
LAYER01
 62
     7
 10
1085.758071
 20
751.83625199999994
 30
0.0
  0
POINT
  5
1F3
  8
LAYER01
 62
     7
 10
1060.7580800000001
 20
751.83625199999994
 30
0.0
  0
POINT
  5
1F4
  8
LAYER01
 62
     7
 10
1060.7580800000001
 20
788.80644800000005
 30
0.0
  0
ENDBLK
  5
1F5
  8
0
  0
BLOCK
  8
0
  2
UBS370-G10
 70
     0
 10
0.0
 20
0.0
 30
0.0
  3
UBS370-G10
  1

  0
LINE
  5
1F8
  8
0
  6
CONTINUOUS
 62
   255
 10
1270.758073
 20
1225.512725
 30
0.0
 11
1270.758073
 21
1228.012725
 31
0.0
  0
LINE
  5
1F9
  8
0
  6
CONTINUOUS
 62
   255
 10
1270.758073
 20
1225.512725
 30
0.0
 11
1268.258073
 21
1225.512725
 31
0.0
  0
LINE
  5
1FA
  8
0
  6
CONTINUOUS
 62
   255
 10
1270.758073
 20
1225.512725
 30
0.0
 11
1270.758073
 21
1223.012725
 31
0.0
  0
LINE
  5
1FB
  8
0
  6
CONTINUOUS
 62
   255
 10
1270.758073
 20
1225.512725
 30
0.0
 11
1273.258073
 21
1225.512725
 31
0.0
  0
LINE
  5
1FC
  8
0
  6
CONTINUOUS
 62
   255
 10
1270.758073
 20
1230.512725
 30
0.0
 11
1270.758073
 21
1252.7611529999999
 31
0.0
  0
LINE
  5
1FD
  8
0
  6
CONTINUOUS
 62
   255
 10
1265.758073
 20
1225.512725
 30
0.0
 11
1243.5096450000001
 21
1225.512725
 31
0.0
  0
LINE
  5
1FE
  8
0
  6
CONTINUOUS
 62
   255
 10
1270.758073
 20
1220.512725
 30
0.0
 11
1270.758073
 21
1198.2642969999999
 31
0.0
  0
LINE
  5
1FF
  8
0
  6
CONTINUOUS
 62
   255
 10
1275.758073
 20
1225.512725
 30
0.0
 11
1298.0065010000001
 21
1225.512725
 31
0.0
  0
ENDBLK
  5
200
  8
0
  0
BLOCK
  8
0
  2
*D10
 70
     1
 10
0.0
 20
0.0
 30
0.0
  3
*D10
  1

  0
LINE
  5
203
  8
LAYER01
 62
     7
 10
1455.758073
 20
1483.0284380000001
 30
0.0
 11
1085.758073
 21
1483.0284380000001
 31
0.0
  0
LINE
  5
204
  8
LAYER01
 62
     7
 10
1455.758073
 20
1447.7502019999999
 30
0.0
 11
1455.758073
 21
1498.0284380000001
 31
0.0
  0
LINE
  5
205
  8
LAYER01
 62
     7
 10
1085.758073
 20
1447.7502019999999
 30
0.0
 11
1085.758073
 21
1498.0284380000001
 31
0.0
  0
SOLID
  5
206
  8
LAYER01
 62
     7
 10
1431.758073
 20
1487.028278
 30
0.0
 11
1455.758073
 21
1483.0284380000001
 31
0.0
 12
1431.758073
 22
1479.0285980000001
 32
0.0
 13
1431.758073
 23
1479.0285980000001
 33
0.0
  0
SOLID
  5
207
  8
LAYER01
 62
     7
 10
1109.758073
 20
1487.028278
 30
0.0
 11
1085.758073
 21
1483.0284380000001
 31
0.0
 12
1109.758073
 22
1479.0285980000001
 32
0.0
 13
1109.758073
 23
1479.0285980000001
 33
0.0
  0
TEXT
  5
208
  8
LAYER01
  6
CONTINUOUS
 62
     7
 10
1232.186645
 20
1498.0284380000001
 30
0.0
 40
30.0
  1
370
  7
SIMPLEX
  0
POINT
  5
209
  8
LAYER01
 62
     7
 10
1455.758073
 20
1435.7502019999999
 30
0.0
  0
POINT
  5
20A
  8
LAYER01
 62
     7
 10
1085.758073
 20
1435.7502019999999
 30
0.0
  0
POINT
  5
20B
  8
LAYER01
 62
     7
 10
1085.758073
 20
1483.0284380000001
 30
0.0
  0
ENDBLK
  5
20C
  8
0
  0
BLOCK
  8
0
  2
*D11
 70
     1
 10
0.0
 20
0.0
 30
0.0
  3
*D11
  1

  0
LINE
  5
20F
  8
LAYER01
 62
     7
 10
1480.758073
 20
1553.285513
 30
0.0
 11
1060.758073
 21
1553.285513
 31
0.0
  0
LINE
  5
210
  8
LAYER01
 62
     7
 10
1480.758073
 20
1447.7502019999999
 30
0.0
 11
1480.758073
 21
1568.285513
 31
0.0
  0
LINE
  5
211
  8
LAYER01
 62
     7
 10
1060.758073
 20
1447.7502019999999
 30
0.0
 11
1060.758073
 21
1568.285513
 31
0.0
  0
SOLID
  5
212
  8
LAYER01
 62
     7
 10
1456.758073
 20
1557.285353
 30
0.0
 11
1480.758073
 21
1553.285513
 31
0.0
 12
1456.758073
 22
1549.2856730000001
 32
0.0
 13
1456.758073
 23
1549.2856730000001
 33
0.0
  0
SOLID
  5
213
  8
LAYER01
 62
     7
 10
1084.758073
 20
1557.285353
 30
0.0
 11
1060.758073
 21
1553.285513
 31
0.0
 12
1084.758073
 22
1549.2856730000001
 32
0.0
 13
1084.758073
 23
1549.2856730000001
 33
0.0
  0
TEXT
  5
214
  8
LAYER01
  6
CONTINUOUS
 62
     7
 10
1232.186645
 20
1568.285513
 30
0.0
 40
30.0
  1
420
  7
SIMPLEX
  0
POINT
  5
215
  8
LAYER01
 62
     7
 10
1480.758073
 20
1435.7502019999999
 30
0.0
  0
POINT
  5
216
  8
LAYER01
 62
     7
 10
1060.758073
 20
1435.7502019999999
 30
0.0
  0
POINT
  5
217
  8
LAYER01
 62
     7
 10
1060.758073
 20
1553.285513
 30
0.0
  0
ENDBLK
  5
218
  8
0
  0
BLOCK
  8
0
  2
UBS370-G13
 70
     0
 10
0.0
 20
0.0
 30
0.0
  3
UBS370-G13
  1

  0
LINE
  5
21B
  8
0
  6
CONTINUOUS
 62
     7
 10
1762.763414
 20
1330.3633910000001
 30
0.0
 11
1767.4588389999999
 21
1335.058816
 31
0.0
  0
LINE
  5
21C
  8
0
  6
CONTINUOUS
 62
     7
 10
1776.150114
 20
1321.2994510000001
 30
0.0
 11
1787.949486
 21
1333.098823
 31
0.0
  0
LINE
  5
21D
  8
0
  6
CONTINUOUS
 62
     7
 10
1780.581983
 20
1303.2806800000001
 30
0.0
 11
1790.7941519999999
 21
1313.4928480000001
 31
0.0
  0
LINE
  5
21E
  8
0
  6
CONTINUOUS
 62
     7
 10
1785.2758490000001
 20
1285.523905
 30
0.0
 11
1794.674078
 21
1294.9221339999999
 31
0.0
  0
LINE
  5
21F
  8
0
  6
CONTINUOUS
 62
     7
 10
1791.7263069999999
 20
1269.523723
 30
0.0
 11
1800.8787130000001
 21
1278.6761289999999
 31
0.0
  0
LINE
  5
220
  8
0
  6
CONTINUOUS
 62
     7
 10
1799.548708
 20
1254.8954839999999
 30
0.0
 11
1808.3085349999999
 21
1263.6553100000001
 31
0.0
  0
LINE
  5
221
  8
0
  6
CONTINUOUS
 62
     7
 10
1808.17418
 20
1241.0703149999999
 30
0.0
 11
1816.7813189999999
 21
1249.6774539999999
 31
0.0
  0
LINE
  5
222
  8
0
  6
CONTINUOUS
 62
     7
 10
1818.519697
 20
1228.9651919999999
 30
0.0
 11
1827.015729
 21
1237.461223
 31
0.0
  0
LINE
  5
223
  8
0
  6
CONTINUOUS
 62
     7
 10
1829.230558
 20
1217.225412
 30
0.0
 11
1837.7889459999999
 21
1225.783801
 31
0.0
  0
LINE
  5
224
  8
0
  6
CONTINUOUS
 62
     7
 10
1841.8274309999999
 20
1207.3716460000001
 30
0.0
 11
1850.365112
 21
1215.9093270000001
 31
0.0
  0
LINE
  5
225
  8
0
  6
CONTINUOUS
 62
     7
 10
1854.907254
 20
1198.000828
 30
0.0
 11
1863.7531409999999
 21
1206.8467149999999
 31
0.0
  0
LINE
  5
226
  8
0
  6
CONTINUOUS
 62
     7
 10
1869.5579009999999
 20
1190.2008350000001
 30
0.0
 11
1878.4493419999999
 21
1199.0922760000001
 31
0.0
  0
LINE
  5
227
  8
0
  6
CONTINUOUS
 62
     7
 10
1885.3405029999999
 20
1183.5327970000001
 30
0.0
 11
1894.8532889999999
 21
1193.0455830000001
 31
0.0
  0
LINE
  5
228
  8
0
  6
CONTINUOUS
 62
     7
 10
1902.2785759999999
 20
1178.020229
 30
0.0
 11
1912.4259010000001
 21
1188.1675540000001
 31
0.0
  0
LINE
  5
229
  8
0
  6
CONTINUOUS
 62
     7
 10
1921.608156
 20
1174.899169
 30
0.0
 11
1932.365104
 21
1185.6561160000001
 31
0.0
  0
LINE
  5
22A
  8
0
  6
CONTINUOUS
 62
     7
 10
1937.7366950000001
 20
1168.5770669999999
 30
0.0
 11
1946.8011739999999
 21
1177.6415469999999
 31
0.0
  0
ENDBLK
  5
22B
  8
0
  0
BLOCK
  8
0
  2
*D13
 70
     1
 10
0.0
 20
0.0
 30
0.0
  3
*D13
  1

  0
LINE
  5
22E
  8
LAYER01
 62
     7
 10
1618.833527
 20
1335.0588210000001
 30
0.0
 11
1618.833527
 21
1165.058816
 31
0.0
  0
LINE
  5
22F
  8
LAYER01
 62
     7
 10
1750.76342
 20
1335.0588210000001
 30
0.0
 11
1603.833527
 21
1335.0588210000001
 31
0.0
  0
LINE
  5
230
  8
LAYER01
 62
     7
 10
1750.76342
 20
1165.058816
 30
0.0
 11
1603.833527
 21
1165.058816
 31
0.0
  0
SOLID
  5
231
  8
LAYER01
 62
     7
 10
1614.8336870000001
 20
1311.0588210000001
 30
0.0
 11
1618.833527
 21
1335.0588210000001
 31
0.0
 12
1622.833367
 22
1311.0588210000001
 32
0.0
 13
1622.833367
 23
1311.0588210000001
 33
0.0
  0
SOLID
  5
232
  8
LAYER01
 62
     7
 10
1614.8336870000001
 20
1189.058816
 30
0.0
 11
1618.833527
 21
1165.058816
 31
0.0
 12
1622.833367
 22
1189.058816
 32
0.0
 13
1622.833367
 23
1189.058816
 33
0.0
  0
TEXT
  5
233
  8
LAYER01
  6
CONTINUOUS
 62
     7
 10
1603.833527
 20
1214.344533
 30
0.0
 40
30.0
  1
170
 50
90.0
  7
SIMPLEX
  0
POINT
  5
234
  8
LAYER01
 62
     7
 10
1762.76342
 20
1335.0588210000001
 30
0.0
  0
POINT
  5
235
  8
LAYER01
 62
     7
 10
1762.76342
 20
1165.058816
 30
0.0
  0
POINT
  5
236
  8
LAYER01
 62
     7
 10
1618.833527
 20
1165.058816
 30
0.0
  0
ENDBLK
  5
237
  8
0
  0
BLOCK
  8
0
  2
*D14
 70
     1
 10
0.0
 20
0.0
 30
0.0
  3
*D14
  1

  0
LINE
  5
23A
  8
LAYER01
 62
     7
 10
1701.0681589999999
 20
1335.0588210000001
 30
0.0
 11
1701.0681589999999
 21
1183.9556359999999
 31
0.0
  0
LINE
  5
23B
  8
LAYER01
 62
     7
 10
1750.76342
 20
1335.0588210000001
 30
0.0
 11
1686.0681589999999
 21
1335.0588210000001
 31
0.0
  0
LINE
  5
23C
  8
LAYER01
 62
     7
 10
1750.76342
 20
1183.9556359999999
 30
0.0
 11
1686.0681589999999
 21
1183.9556359999999
 31
0.0
  0
SOLID
  5
23D
  8
LAYER01
 62
     7
 10
1697.068319
 20
1311.0588210000001
 30
0.0
 11
1701.0681589999999
 21
1335.0588210000001
 31
0.0
 12
1705.0679990000001
 22
1311.0588210000001
 32
0.0
 13
1705.0679990000001
 23
1311.0588210000001
 33
0.0
  0
SOLID
  5
23E
  8
LAYER01
 62
     7
 10
1697.068319
 20
1207.9556359999999
 30
0.0
 11
1701.0681589999999
 21
1183.9556359999999
 31
0.0
 12
1705.0679990000001
 22
1207.9556359999999
 32
0.0
 13
1705.0679990000001
 23
1207.9556359999999
 33
0.0
  0
TEXT
  5
23F
  8
LAYER01
  6
CONTINUOUS
 62
     7
 10
1686.0681589999999
 20
1230.221515
 30
0.0
 40
30.0
  1
150
 50
90.0
  7
SIMPLEX
  0
POINT
  5
240
  8
LAYER01
 62
     7
 10
1762.76342
 20
1335.0588210000001
 30
0.0
  0
POINT
  5
241
  8
LAYER01
 62
     7
 10
1762.76342
 20
1183.9556359999999
 30
0.0
  0
POINT
  5
242
  8
LAYER01
 62
     7
 10
1701.0681589999999
 20
1183.9556359999999
 30
0.0
  0
ENDBLK
  5
243
  8
0
  0
BLOCK
  8
0
  2
UBS370-G17
 70
     0
 10
0.0
 20
0.0
 30
0.0
  3
UBS370-G17
  1

  0
TEXT
  5
246
  8
LAYER01
  6
VERDECKT
 62
     1
 10
2690.8209550000001
 20
-55.786720999999993
 30
0.0
 40
12.0
  1
A. Sprenger GmbH
  7
SIMPLEX
  0
TEXT
  5
247
  8
LAYER01
  6
VERDECKT
 62
     1
 10
2690.8209550000001
 20
-76.358148999999983
 30
0.0
 40
12.0
  1
Berner Str. 10
  7
SIMPLEX
  0
TEXT
  5
248
  8
LAYER01
  6
VERDECKT
 62
     1
 10
2690.8209550000001
 20
-96.929578000000021
 30
0.0
 40
12.0
  1
60437 Frankfurt
  7
SIMPLEX
  0
TEXT
  5
249
  8
LAYER01
  6
VERDECKT
 62
     1
 10
2690.8209550000001
 20
-117.501006
 30
0.0
 40
12.0
  1
Tel.: 069 - 507 27 41
  7
SIMPLEX
  0
TEXT
  5
24A
  8
LAYER01
  6
VERDECKT
 62
     1
 10
2690.8209550000001
 20
-138.07243500000001
 30
0.0
 40
12.0
  1
Fax: 069 - 507 72 91
  7
SIMPLEX
  0
TEXT
  5
24B
  8
LAYER01
  6
VERDECKT
 62
     1
 10
2690.8209550000001
 20
-158.64386400000001
 30
0.0
 40
12.0
  1
info@varicor.org
  7
SIMPLEX
  0
ENDBLK
  5
24C
  8
0
  0
BLOCK
  8
0
  2
UBS370-G16
 70
     0
 10
0.0
 20
0.0
 30
0.0
  3
UBS370-G16
  1

  0
TEXT
  5
24F
  8
LAYER01
  6
CONTINUOUS
 62
     1
 10
3951.803101
 20
-337.882946
 30
0.0
 40
12.0
  1
Blatt
  7
SIMPLEX
  0
LINE
  5
250
  8
LAYER01
  6
CONTINUOUS
 62
     1
 10
2673.803101
 20
-253.882946
 30
0.0
 11
3393.803101
 21
-253.882946
 31
0.0
  0
LINE
  5
251
  8
LAYER01
  6
CONTINUOUS
 62
     1
 10
2673.803101
 20
-283.882946
 30
0.0
 11
3393.803101
 21
-283.882946
 31
0.0
  0
LINE
  5
252
  8
LAYER01
  6
CONTINUOUS
 62
     1
 10
2673.803101
 20
-313.882946
 30
0.0
 11
4029.803101
 21
-313.882946
 31
0.0
  0
LINE
  5
253
  8
LAYER01
  6
CONTINUOUS
 62
     1
 10
2673.803101
 20
-403.882946
 30
0.0
 11
4029.803101
 21
-403.882946
 31
0.0
  0
LINE
  5
254
  8
LAYER01
  6
CONTINUOUS
 62
     1
 10
2673.803101
 20
-163.882946
 30
0.0
 11
4029.803101
 21
-163.882946
 31
0.0
  0
POLYLINE
  5
255
  8
LAYER01
  6
CONTINUOUS
 62
     1
 66
     1
 10
0.0
 20
0.0
 30
0.0
 70
     1
  0
VERTEX
  5
51D
  8
LAYER01
  6
CONTINUOUS
 62
     1
 10
2673.803101
 20
-439.88294599999989
 30
0.0
  0
VERTEX
  5
51E
  8
LAYER01
  6
CONTINUOUS
 62
     1
 10
2673.803101
 20
-37.882945999999997
 30
0.0
  0
VERTEX
  5
51F
  8
LAYER01
  6
CONTINUOUS
 62
     1
 10
4029.803101
 20
-37.882945999999997
 30
0.0
  0
VERTEX
  5
520
  8
LAYER01
  6
CONTINUOUS
 62
     1
 10
4029.803101
 20
-439.88294599999989
 30
0.0
  0
SEQEND
  5
521
  8
LAYER01
  6
CONTINUOUS
 62
     1
  0
LINE
  5
25B
  8
LAYER01
  6
CONTINUOUS
 62
     1
 10
2673.803101
 20
-193.882946
 30
0.0
 11
3393.803101
 21
-193.882946
 31
0.0
  0
LINE
  5
25C
  8
LAYER01
  6
CONTINUOUS
 62
     1
 10
2673.803101
 20
-223.882946
 30
0.0
 11
3393.803101
 21
-223.882946
 31
0.0
  0
LINE
  5
25D
  8
LAYER01
  6
CONTINUOUS
 62
     1
 10
3063.803101
 20
-37.882945999999997
 30
0.0
 11
3063.803101
 21
-439.88294599999989
 31
0.0
  0
INSERT
  5
25E
  8
LAYER01
  2
UBS370-G17
 10
0.0
 20
0.0
 30
0.0
  0
LINE
  5
25F
  8
LAYER01
  6
CONTINUOUS
 62
     1
 10
2673.803101
 20
-373.882946
 30
0.0
 11
3063.803101
 21
-373.882946
 31
0.0
  0
LINE
  5
260
  8
LAYER01
  6
CONTINUOUS
 62
     1
 10
2673.803101
 20
-343.882946
 30
0.0
 11
3063.803101
 21
-343.882946
 31
0.0
  0
LINE
  5
261
  8
LAYER01
  6
CONTINUOUS
 62
     1
 10
2727.803101
 20
-163.882946
 30
0.0
 11
2727.803101
 21
-439.88294599999989
 31
0.0
  0
TEXT
  5
262
  8
LAYER01
  6
CONTINUOUS
 62
     1
 10
2683.8822190000001
 20
-427.88294599999989
 30
0.0
 40
11.4
  1
Zust
  7
SIMPLEX
  0
LINE
  5
263
  8
LAYER01
  6
CONTINUOUS
 62
     1
 10
2917.1446390000001
 20
-439.88294599999989
 30
0.0
 11
2917.1446390000001
 21
-163.882946
 31
0.0
  0
LINE
  5
264
  8
LAYER01
  6
CONTINUOUS
 62
     1
 10
3009.803101
 20
-163.882946
 30
0.0
 11
3009.803101
 21
-439.88294599999989
 31
0.0
  0
TEXT
  5
265
  8
LAYER01
  6
CONTINUOUS
 62
     1
 10
2780.7573510000002
 20
-427.88294599999989
 30
0.0
 40
11.4
  1
Änderung
  7
SIMPLEX
  0
TEXT
  5
266
  8
LAYER01
  6
CONTINUOUS
 62
     1
 10
2934.0280739999998
 20
-427.88294599999989
 30
0.0
 40
11.4
  1
Datum
  7
SIMPLEX
  0
TEXT
  5
267
  8
LAYER01
  6
CONTINUOUS
 62
     1
 10
3014.3197850000001
 20
-427.88294599999989
 30
0.0
 40
11.4
  1
Name
  7
SIMPLEX
  0
LINE
  5
268
  8
LAYER01
  6
CONTINUOUS
 62
     1
 10
4029.803101
 20
-85.88294599999999
 30
0.0
 11
3393.803101
 21
-85.88294599999999
 31
0.0
  0
LINE
  5
269
  8
LAYER01
  6
CONTINUOUS
 62
     1
 10
3141.803101
 20
-283.882946
 30
0.0
 11
3141.803101
 21
-163.882946
 31
0.0
  0
TEXT
  5
26A
  8
LAYER01
  6
CONTINUOUS
 62
     1
 10
3075.803101
 20
-217.882946
 30
0.0
 40
12.0
  1
Bearb.
  7
SIMPLEX
  0
TEXT
  5
26B
  8
LAYER01
  6
CONTINUOUS
 62
     1
 10
3075.803101
 20
-277.882946
 30
0.0
 40
12.0
  1
Norm
  7
SIMPLEX
  0
TEXT
  5
26C
  8
LAYER01
  6
CONTINUOUS
 62
     1
 10
3075.803101
 20
-247.882946
 30
0.0
 40
12.0
  1
Gepr.
  7
SIMPLEX
  0
TEXT
  5
26D
  8
LAYER01
  6
CONTINUOUS
 62
     1
 10
3171.803101
 20
-187.882946
 30
0.0
 40
12.0
  1
Datum
  7
SIMPLEX
  0
TEXT
  5
26E
  8
LAYER01
  6
CONTINUOUS
 62
     1
 10
3291.803101
 20
-187.882946
 30
0.0
 40
12.0
  1
Name
  7
SIMPLEX
  0
TEXT
  5
26F
  8
LAYER01
  6
CONTINUOUS
 62
     1
 10
3999.803101
 20
-397.882946
 30
0.0
 40
12.0
  1
Bl.
  7
SIMPLEX
  0
LINE
  5
270
  8
LAYER01
  6
CONTINUOUS
 62
     1
 10
3393.803101
 20
-439.88294599999989
 30
0.0
 11
3393.803101
 21
-37.882945999999997
 31
0.0
  0
LINE
  5
271
  8
LAYER01
  6
CONTINUOUS
 62
     1
 10
3255.803101
 20
-313.882946
 30
0.0
 11
3255.803101
 21
-37.882945999999997
 31
0.0
  0
LINE
  5
272
  8
LAYER01
  6
CONTINUOUS
 62
     1
 10
3771.803101
 20
-37.882945999999997
 30
0.0
 11
3771.803101
 21
-85.88294599999999
 31
0.0
  0
TEXT
  5
273
  8
LAYER01
  6
CONTINUOUS
 62
     1
 10
3406.8759
 20
-68.518947999999995
 30
0.0
 40
12.0
  1
Maßstab
  7
SIMPLEX
  0
LINE
  5
274
  8
LAYER01
  6
CONTINUOUS
 62
     1
 10
3939.8031010000009
 20
-313.882946
 30
0.0
 11
3939.8031010000009
 21
-403.882946
 31
0.0
  0
LINE
  5
275
  8
LAYER01
  6
CONTINUOUS
 62
     1
 10
3939.8031010000009
 20
-373.882946
 30
0.0
 11
4029.803101
 21
-373.882946
 31
0.0
  0
ENDBLK
  5
276
  8
0
  0
BLOCK
  8
0
  2
_DOTSMALL
 70
     0
 10
0.0
 20
0.0
 30
0.0
  3
_DOTSMALL
  1

  0
POLYLINE
  5
2DE
  8
0
  6
BYBLOCK
 62
     0
 66
     1
 10
0.0
 20
0.0
 30
0.0
 70
     1
 40
0.5
 41
0.5
  0
VERTEX
  5
527
  8
0
  6
BYBLOCK
 62
     0
 10
-0.0625
 20
0.0
 30
0.0
 42
1.0
  0
VERTEX
  5
528
  8
0
  6
BYBLOCK
 62
     0
 10
0.0625
 20
0.0
 30
0.0
 42
1.0
  0
SEQEND
  5
529
  8
0
  6
BYBLOCK
 62
     0
  0
ENDBLK
  5
2DF
  8
0
  0
BLOCK
  8
0
  2
TRIGO-G1
 70
     0
 10
0.0
 20
0.0
 30
0.0
  3
TRIGO-G1
  1

  0
POLYLINE
  5
2E2
  8
LAYER01
  6
CONTINUOUS
 62
     7
 66
     1
 10
0.0
 20
0.0
 30
0.0
 70
     1
  0
VERTEX
  5
52A
  8
LAYER01
  6
CONTINUOUS
 62
     7
 10
5333.4588920000006
 20
1798.015065
 30
0.0
  0
VERTEX
  5
52B
  8
LAYER01
  6
CONTINUOUS
 62
     7
 10
5376.0820270000004
 20
1798.015065
 30
0.0
  0
VERTEX
  5
52C
  8
LAYER01
  6
CONTINUOUS
 62
     7
 10
5429.6087539999999
 20
1676.0930760000001
 30
0.0
  0
VERTEX
  5
52D
  8
LAYER01
  6
CONTINUOUS
 62
     7
 10
5483.1354810000003
 20
1798.015065
 30
0.0
  0
VERTEX
  5
52E
  8
LAYER01
  6
CONTINUOUS
 62
     7
 10
5527.7410869999994
 20
1798.015065
 30
0.0
  0
VERTEX
  5
52F
  8
LAYER01
  6
CONTINUOUS
 62
     7
 10
5429.6087539999999
 20
1579.9432139999999
 30
0.0
  0
VERTEX
  5
530
  8
LAYER01
  6
CONTINUOUS
 62
     7
 10
5333.4588920000006
 20
1798.015065
 30
0.0
  0
VERTEX
  5
531
  8
LAYER01
  6
CONTINUOUS
 62
     7
 10
5333.4588920000006
 20
1798.015065
 30
0.0
  0
SEQEND
  5
532
  8
LAYER01
  6
CONTINUOUS
 62
     7
  0
POLYLINE
  5
2E3
  8
LAYER01
  6
CONTINUOUS
 62
     7
 66
     1
 10
0.0
 20
0.0
 30
0.0
 70
     1
  0
VERTEX
  5
533
  8
LAYER01
  6
CONTINUOUS
 62
     7
 10
5479.1705380000003
 20
1649.329712
 30
0.0
  0
VERTEX
  5
534
  8
LAYER01
  6
CONTINUOUS
 62
     7
 10
5494.0390740000003
 20
1684.0229609999999
 30
0.0
  0
VERTEX
  5
535
  8
LAYER01
  6
CONTINUOUS
 62
     7
 10
5558.4693930000012
 20
1684.0229609999999
 30
0.0
  0
VERTEX
  5
536
  8
LAYER01
  6
CONTINUOUS
 62
     7
 10
5525.7586160000001
 20
1755.3919310000001
 30
0.0
  0
VERTEX
  5
537
  8
LAYER01
  6
CONTINUOUS
 62
     7
 10
5544.5920939999996
 20
1800.9887719999999
 30
0.0
  0
VERTEX
  5
538
  8
LAYER01
  6
CONTINUOUS
 62
     7
 10
5632.812069999999
 20
1614.636463
 30
0.0
  0
VERTEX
  5
539
  8
LAYER01
  6
CONTINUOUS
 62
     7
 10
5632.812069999999
 20
1798.015065
 30
0.0
  0
VERTEX
  5
53A
  8
LAYER01
  6
CONTINUOUS
 62
     7
 10
5750.7691169999998
 20
1798.015065
 30
0.0
  0
VERTEX
  5
53B
  8
LAYER01
  6
CONTINUOUS
 62
     7
 10
5750.7691169999998
 20
1798.015065
 30
0.0
  0
VERTEX
  5
53C
  8
LAYER01
  6
CONTINUOUS
 62
     7
 10
5761.6727090000004
 20
1796.032594
 30
0.0
  0
VERTEX
  5
53D
  8
LAYER01
  6
CONTINUOUS
 62
     7
 10
5771.5850659999996
 20
1792.0676510000001
 30
0.0
  0
VERTEX
  5
53E
  8
LAYER01
  6
CONTINUOUS
 62
     7
 10
5780.506187
 20
1785.129001
 30
0.0
  0
VERTEX
  5
53F
  8
LAYER01
  6
CONTINUOUS
 62
     7
 10
5788.4360729999989
 20
1778.190351
 30
0.0
  0
VERTEX
  5
540
  8
LAYER01
  6
CONTINUOUS
 62
     7
 10
5795.3747219999996
 20
1769.2692300000001
 30
0.0
  0
VERTEX
  5
541
  8
LAYER01
  6
CONTINUOUS
 62
     7
 10
5800.3309009999994
 20
1759.356873
 30
0.0
  0
VERTEX
  5
542
  8
LAYER01
  6
CONTINUOUS
 62
     7
 10
5804.2958440000011
 20
1747.462045
 30
0.0
  0
VERTEX
  5
543
  8
LAYER01
  6
CONTINUOUS
 62
     7
 10
5805.2870789999997
 20
1736.5584530000001
 30
0.0
  0
VERTEX
  5
544
  8
LAYER01
  6
CONTINUOUS
 62
     7
 10
5805.2870789999997
 20
1736.5584530000001
 30
0.0
  0
VERTEX
  5
545
  8
LAYER01
  6
CONTINUOUS
 62
     7
 10
5805.2870789999997
 20
1724.6636239999989
 30
0.0
  0
VERTEX
  5
546
  8
LAYER01
  6
CONTINUOUS
 62
     7
 10
5803.3046080000004
 20
1714.7512670000001
 30
0.0
  0
VERTEX
  5
547
  8
LAYER01
  6
CONTINUOUS
 62
     7
 10
5799.3396649999986
 20
1704.8389110000001
 30
0.0
  0
VERTEX
  5
548
  8
LAYER01
  6
CONTINUOUS
 62
     7
 10
5794.383487000001
 20
1695.9177890000001
 30
0.0
  0
VERTEX
  5
549
  8
LAYER01
  6
CONTINUOUS
 62
     7
 10
5787.444837
 20
1687.9879040000001
 30
0.0
  0
VERTEX
  5
54A
  8
LAYER01
  6
CONTINUOUS
 62
     7
 10
5779.5149510000001
 20
1681.049254
 30
0.0
  0
VERTEX
  5
54B
  8
LAYER01
  6
CONTINUOUS
 62
     7
 10
5770.5938299999998
 20
1676.0930760000001
 30
0.0
  0
VERTEX
  5
54C
  8
LAYER01
  6
CONTINUOUS
 62
     7
 10
5759.690238000001
 20
1672.1281329999999
 30
0.0
  0
VERTEX
  5
54D
  8
LAYER01
  6
CONTINUOUS
 62
     7
 10
5823.1293219999989
 20
1587.8730989999999
 30
0.0
  0
VERTEX
  5
54E
  8
LAYER01
  6
CONTINUOUS
 62
     7
 10
5823.1293219999989
 20
1798.015065
 30
0.0
  0
VERTEX
  5
54F
  8
LAYER01
  6
CONTINUOUS
 62
     7
 10
5864.7612209999998
 20
1798.015065
 30
0.0
  0
VERTEX
  5
550
  8
LAYER01
  6
CONTINUOUS
 62
     7
 10
5864.7612209999998
 20
1585.8906280000001
 30
0.0
  0
VERTEX
  5
551
  8
LAYER01
  6
CONTINUOUS
 62
     7
 10
5775.5500089999996
 20
1585.8906280000001
 30
0.0
  0
VERTEX
  5
552
  8
LAYER01
  6
CONTINUOUS
 62
     7
 10
5689.3125040000004
 20
1695.9177890000001
 30
0.0
  0
VERTEX
  5
553
  8
LAYER01
  6
CONTINUOUS
 62
     7
 10
5732.9268739999998
 20
1695.9177890000001
 30
0.0
  0
VERTEX
  5
554
  8
LAYER01
  6
CONTINUOUS
 62
     7
 10
5732.9268739999998
 20
1695.9177890000001
 30
0.0
  0
VERTEX
  5
555
  8
LAYER01
  6
CONTINUOUS
 62
     7
 10
5738.874288
 20
1696.9090249999999
 30
0.0
  0
VERTEX
  5
556
  8
LAYER01
  6
CONTINUOUS
 62
     7
 10
5744.8217020000002
 20
1698.891496
 30
0.0
  0
VERTEX
  5
557
  8
LAYER01
  6
CONTINUOUS
 62
     7
 10
5749.7778809999991
 20
1701.8652039999999
 30
0.0
  0
VERTEX
  5
558
  8
LAYER01
  6
CONTINUOUS
 62
     7
 10
5754.7340590000003
 20
1705.830146
 30
0.0
  0
VERTEX
  5
559
  8
LAYER01
  6
CONTINUOUS
 62
     7
 10
5757.7077659999986
 20
1710.786325
 30
0.0
  0
VERTEX
  5
55A
  8
LAYER01
  6
CONTINUOUS
 62
     7
 10
5760.6814729999987
 20
1716.733739
 30
0.0
  0
VERTEX
  5
55B
  8
LAYER01
  6
CONTINUOUS
 62
     7
 10
5762.6639450000002
 20
1722.681153
 30
0.0
  0
VERTEX
  5
55C
  8
LAYER01
  6
CONTINUOUS
 62
     7
 10
5762.6639450000002
 20
1729.619803
 30
0.0
  0
VERTEX
  5
55D
  8
LAYER01
  6
CONTINUOUS
 62
     7
 10
5762.6639450000002
 20
1729.619803
 30
0.0
  0
VERTEX
  5
55E
  8
LAYER01
  6
CONTINUOUS
 62
     7
 10
5762.6639450000002
 20
1735.567217
 30
0.0
  0
VERTEX
  5
55F
  8
LAYER01
  6
CONTINUOUS
 62
     7
 10
5760.6814729999987
 20
1741.514631
 30
0.0
  0
VERTEX
  5
560
  8
LAYER01
  6
CONTINUOUS
 62
     7
 10
5758.6990020000003
 20
1747.462045
 30
0.0
  0
VERTEX
  5
561
  8
LAYER01
  6
CONTINUOUS
 62
     7
 10
5754.7340590000003
 20
1752.418224
 30
0.0
  0
VERTEX
  5
562
  8
LAYER01
  6
CONTINUOUS
 62
     7
 10
5750.7691169999998
 20
1756.3831660000001
 30
0.0
  0
VERTEX
  5
563
  8
LAYER01
  6
CONTINUOUS
 62
     7
 10
5744.8217020000002
 20
1759.356873
 30
0.0
  0
VERTEX
  5
564
  8
LAYER01
  6
CONTINUOUS
 62
     7
 10
5738.874288
 20
1761.3393450000001
 30
0.0
  0
VERTEX
  5
565
  8
LAYER01
  6
CONTINUOUS
 62
     7
 10
5732.9268739999998
 20
1762.3305800000001
 30
0.0
  0
VERTEX
  5
566
  8
LAYER01
  6
CONTINUOUS
 62
     7
 10
5677.4176760000009
 20
1762.3305800000001
 30
0.0
  0
VERTEX
  5
567
  8
LAYER01
  6
CONTINUOUS
 62
     7
 10
5677.4176760000009
 20
1585.8906280000001
 30
0.0
  0
VERTEX
  5
568
  8
LAYER01
  6
CONTINUOUS
 62
     7
 10
5606.0487060000014
 20
1585.8906280000001
 30
0.0
  0
VERTEX
  5
569
  8
LAYER01
  6
CONTINUOUS
 62
     7
 10
5576.3116360000004
 20
1649.329712
 30
0.0
  0
VERTEX
  5
56A
  8
LAYER01
  6
CONTINUOUS
 62
     7
 10
5479.1705380000003
 20
1649.329712
 30
0.0
  0
VERTEX
  5
56B
  8
LAYER01
  6
CONTINUOUS
 62
     7
 10
5479.1705380000003
 20
1649.329712
 30
0.0
  0
SEQEND
  5
56C
  8
LAYER01
  6
CONTINUOUS
 62
     7
  0
POLYLINE
  5
2E4
  8
LAYER01
  6
CONTINUOUS
 62
     7
 66
     1
 10
0.0
 20
0.0
 30
0.0
 70
     1
  0
VERTEX
  5
56D
  8
LAYER01
  6
CONTINUOUS
 62
     7
 10
6057.0609439999989
 20
1784.1377660000001
 30
0.0
  0
VERTEX
  5
56E
  8
LAYER01
  6
CONTINUOUS
 62
     7
 10
6030.2975800000004
 20
1750.4357520000001
 30
0.0
  0
VERTEX
  5
56F
  8
LAYER01
  6
CONTINUOUS
 62
     7
 10
6030.2975800000004
 20
1750.4357520000001
 30
0.0
  0
VERTEX
  5
570
  8
LAYER01
  6
CONTINUOUS
 62
     7
 10
6021.3764590000001
 20
1756.3831660000001
 30
0.0
  0
VERTEX
  5
571
  8
LAYER01
  6
CONTINUOUS
 62
     7
 10
6012.4553380000007
 20
1761.3393450000001
 30
0.0
  0
VERTEX
  5
572
  8
LAYER01
  6
CONTINUOUS
 62
     7
 10
6002.5429810000014
 20
1764.313052
 30
0.0
  0
VERTEX
  5
573
  8
LAYER01
  6
CONTINUOUS
 62
     7
 10
5991.6393889999999
 20
1764.313052
 30
0.0
  0
VERTEX
  5
574
  8
LAYER01
  6
CONTINUOUS
 62
     7
 10
5991.6393889999999
 20
1764.313052
 30
0.0
  0
VERTEX
  5
575
  8
LAYER01
  6
CONTINUOUS
 62
     7
 10
5984.7007389999999
 20
1764.313052
 30
0.0
  0
VERTEX
  5
576
  8
LAYER01
  6
CONTINUOUS
 62
     7
 10
5977.7620889999998
 20
1763.3218159999999
 30
0.0
  0
VERTEX
  5
577
  8
LAYER01
  6
CONTINUOUS
 62
     7
 10
5970.8234389999998
 20
1761.3393450000001
 30
0.0
  0
VERTEX
  5
578
  8
LAYER01
  6
CONTINUOUS
 62
     7
 10
5963.8847889999997
 20
1758.365638
 30
0.0
  0
VERTEX
  5
579
  8
LAYER01
  6
CONTINUOUS
 62
     7
 10
5957.9373750000004
 20
1755.3919310000001
 30
0.0
  0
VERTEX
  5
57A
  8
LAYER01
  6
CONTINUOUS
 62
     7
 10
5952.9811970000001
 20
1751.4269879999999
 30
0.0
  0
VERTEX
  5
57B
  8
LAYER01
  6
CONTINUOUS
 62
     7
 10
5947.0337829999999
 20
1747.462045
 30
0.0
  0
VERTEX
  5
57C
  8
LAYER01
  6
CONTINUOUS
 62
     7
 10
5943.0688399999999
 20
1742.5058670000001
 30
0.0
  0
VERTEX
  5
57D
  8
LAYER01
  6
CONTINUOUS
 62
     7
 10
5938.1126610000001
 20
1736.5584530000001
 30
0.0
  0
VERTEX
  5
57E
  8
LAYER01
  6
CONTINUOUS
 62
     7
 10
5935.138954
 20
1730.611038
 30
0.0
  0
VERTEX
  5
57F
  8
LAYER01
  6
CONTINUOUS
 62
     7
 10
5931.1740119999986
 20
1724.6636239999989
 30
0.0
  0
VERTEX
  5
580
  8
LAYER01
  6
CONTINUOUS
 62
     7
 10
5928.2003049999994
 20
1718.71621
 30
0.0
  0
VERTEX
  5
581
  8
LAYER01
  6
CONTINUOUS
 62
     7
 10
5926.2178329999988
 20
1711.77756
 30
0.0
  0
VERTEX
  5
582
  8
LAYER01
  6
CONTINUOUS
 62
     7
 10
5925.2265980000002
 20
1704.8389110000001
 30
0.0
  0
VERTEX
  5
583
  8
LAYER01
  6
CONTINUOUS
 62
     7
 10
5924.2353620000004
 20
1697.900261
 30
0.0
  0
VERTEX
  5
584
  8
LAYER01
  6
CONTINUOUS
 62
     7
 10
5923.2441259999996
 20
1689.9703750000001
 30
0.0
  0
VERTEX
  5
585
  8
LAYER01
  6
CONTINUOUS
 62
     7
 10
5923.2441259999996
 20
1689.9703750000001
 30
0.0
  0
VERTEX
  5
586
  8
LAYER01
  6
CONTINUOUS
 62
     7
 10
5924.2353620000004
 20
1683.0317250000001
 30
0.0
  0
VERTEX
  5
587
  8
LAYER01
  6
CONTINUOUS
 62
     7
 10
5925.2265980000002
 20
1676.0930760000001
 30
0.0
  0
VERTEX
  5
588
  8
LAYER01
  6
CONTINUOUS
 62
     7
 10
5926.2178329999988
 20
1669.1544260000001
 30
0.0
  0
VERTEX
  5
589
  8
LAYER01
  6
CONTINUOUS
 62
     7
 10
5929.1915399999998
 20
1663.2070120000001
 30
0.0
  0
VERTEX
  5
58A
  8
LAYER01
  6
CONTINUOUS
 62
     7
 10
5931.1740119999986
 20
1657.2595980000001
 30
0.0
  0
VERTEX
  5
58B
  8
LAYER01
  6
CONTINUOUS
 62
     7
 10
5935.138954
 20
1651.312183
 30
0.0
  0
VERTEX
  5
58C
  8
LAYER01
  6
CONTINUOUS
 62
     7
 10
5939.103897
 20
1645.364769
 30
0.0
  0
VERTEX
  5
58D
  8
LAYER01
  6
CONTINUOUS
 62
     7
 10
5943.0688399999999
 20
1640.4085909999999
 30
0.0
  0
VERTEX
  5
58E
  8
LAYER01
  6
CONTINUOUS
 62
     7
 10
5948.0250180000003
 20
1635.4524120000001
 30
0.0
  0
VERTEX
  5
58F
  8
LAYER01
  6
CONTINUOUS
 62
     7
 10
5952.9811970000001
 20
1631.48747
 30
0.0
  0
VERTEX
  5
590
  8
LAYER01
  6
CONTINUOUS
 62
     7
 10
5958.9286110000012
 20
1628.5137629999999
 30
0.0
  0
VERTEX
  5
591
  8
LAYER01
  6
CONTINUOUS
 62
     7
 10
5964.8760249999987
 20
1625.540056
 30
0.0
  0
VERTEX
  5
592
  8
LAYER01
  6
CONTINUOUS
 62
     7
 10
5971.8146749999996
 20
1622.5663489999999
 30
0.0
  0
VERTEX
  5
593
  8
LAYER01
  6
CONTINUOUS
 62
     7
 10
5977.7620889999998
 20
1620.583877
 30
0.0
  0
VERTEX
  5
594
  8
LAYER01
  6
CONTINUOUS
 62
     7
 10
5984.7007389999999
 20
1619.592641
 30
0.0
  0
VERTEX
  5
595
  8
LAYER01
  6
CONTINUOUS
 62
     7
 10
5992.6306240000004
 20
1619.592641
 30
0.0
  0
VERTEX
  5
596
  8
LAYER01
  6
CONTINUOUS
 62
     7
 10
5992.6306240000004
 20
1619.592641
 30
0.0
  0
VERTEX
  5
597
  8
LAYER01
  6
CONTINUOUS
 62
     7
 10
6003.5342170000013
 20
1620.583877
 30
0.0
  0
VERTEX
  5
598
  8
LAYER01
  6
CONTINUOUS
 62
     7
 10
6012.4553380000007
 20
1622.5663489999999
 30
0.0
  0
VERTEX
  5
599
  8
LAYER01
  6
CONTINUOUS
 62
     7
 10
6021.3764590000001
 20
1627.5225270000001
 30
0.0
  0
VERTEX
  5
59A
  8
LAYER01
  6
CONTINUOUS
 62
     7
 10
6030.2975800000004
 20
1633.4699410000001
 30
0.0
  0
VERTEX
  5
59B
  8
LAYER01
  6
CONTINUOUS
 62
     7
 10
6056.069708
 20
1598.7766919999999
 30
0.0
  0
VERTEX
  5
59C
  8
LAYER01
  6
CONTINUOUS
 62
     7
 10
6056.069708
 20
1598.7766919999999
 30
0.0
  0
VERTEX
  5
59D
  8
LAYER01
  6
CONTINUOUS
 62
     7
 10
6041.2011730000004
 20
1589.8555710000001
 30
0.0
  0
VERTEX
  5
59E
  8
LAYER01
  6
CONTINUOUS
 62
     7
 10
6033.2712869999987
 20
1586.881864
 30
0.0
  0
VERTEX
  5
59F
  8
LAYER01
  6
CONTINUOUS
 62
     7
 10
6026.3326379999999
 20
1583.9081570000001
 30
0.0
  0
VERTEX
  5
5A0
  8
LAYER01
  6
CONTINUOUS
 62
     7
 10
6018.402752
 20
1581.9256849999999
 30
0.0
  0
VERTEX
  5
5A1
  8
LAYER01
  6
CONTINUOUS
 62
     7
 10
6010.4728670000004
 20
1580.93445
 30
0.0
  0
VERTEX
  5
5A2
  8
LAYER01
  6
CONTINUOUS
 62
     7
 10
5992.6306240000004
 20
1579.9432139999999
 30
0.0
  0
VERTEX
  5
5A3
  8
LAYER01
  6
CONTINUOUS
 62
     7
 10
5992.6306240000004
 20
1579.9432139999999
 30
0.0
  0
VERTEX
  5
5A4
  8
LAYER01
  6
CONTINUOUS
 62
     7
 10
5980.7357959999999
 20
1580.93445
 30
0.0
  0
VERTEX
  5
5A5
  8
LAYER01
  6
CONTINUOUS
 62
     7
 10
5969.8322029999999
 20
1582.916921
 30
0.0
  0
VERTEX
  5
5A6
  8
LAYER01
  6
CONTINUOUS
 62
     7
 10
5958.9286110000012
 20
1584.899392
 30
0.0
  0
VERTEX
  5
5A7
  8
LAYER01
  6
CONTINUOUS
 62
     7
 10
5949.0162540000001
 20
1588.864335
 30
0.0
  0
VERTEX
  5
5A8
  8
LAYER01
  6
CONTINUOUS
 62
     7
 10
5939.103897
 20
1593.820514
 30
0.0
  0
VERTEX
  5
5A9
  8
LAYER01
  6
CONTINUOUS
 62
     7
 10
5930.1827759999987
 20
1598.7766919999999
 30
0.0
  0
VERTEX
  5
5AA
  8
LAYER01
  6
CONTINUOUS
 62
     7
 10
5921.2616549999993
 20
1605.715342
 30
0.0
  0
VERTEX
  5
5AB
  8
LAYER01
  6
CONTINUOUS
 62
     7
 10
5913.3317690000003
 20
1612.653992
 30
0.0
  0
VERTEX
  5
5AC
  8
LAYER01
  6
CONTINUOUS
 62
     7
 10
5905.4018840000008
 20
1620.583877
 30
0.0
  0
VERTEX
  5
5AD
  8
LAYER01
  6
CONTINUOUS
 62
     7
 10
5899.4544700000006
 20
1629.5049979999999
 30
0.0
  0
VERTEX
  5
5AE
  8
LAYER01
  6
CONTINUOUS
 62
     7
 10
5893.5070560000004
 20
1638.4261200000001
 30
0.0
  0
VERTEX
  5
5AF
  8
LAYER01
  6
CONTINUOUS
 62
     7
 10
5888.5508770000006
 20
1648.3384759999999
 30
0.0
  0
VERTEX
  5
5B0
  8
LAYER01
  6
CONTINUOUS
 62
     7
 10
5885.5771700000014
 20
1658.2508330000001
 30
0.0
  0
VERTEX
  5
5B1
  8
LAYER01
  6
CONTINUOUS
 62
     7
 10
5882.6034630000004
 20
1669.1544260000001
 30
0.0
  0
VERTEX
  5
5B2
  8
LAYER01
  6
CONTINUOUS
 62
     7
 10
5880.6209920000001
 20
1680.0580179999999
 30
0.0
  0
VERTEX
  5
5B3
  8
LAYER01
  6
CONTINUOUS
 62
     7
 10
5879.6297560000003
 20
1691.952847
 30
0.0
  0
VERTEX
  5
5B4
  8
LAYER01
  6
CONTINUOUS
 62
     7
 10
5879.6297560000003
 20
1691.952847
 30
0.0
  0
VERTEX
  5
5B5
  8
LAYER01
  6
CONTINUOUS
 62
     7
 10
5880.6209920000001
 20
1702.8564389999999
 30
0.0
  0
VERTEX
  5
5B6
  8
LAYER01
  6
CONTINUOUS
 62
     7
 10
5882.6034630000004
 20
1714.7512670000001
 30
0.0
  0
VERTEX
  5
5B7
  8
LAYER01
  6
CONTINUOUS
 62
     7
 10
5884.5859339999997
 20
1724.6636239999989
 30
0.0
  0
VERTEX
  5
5B8
  8
LAYER01
  6
CONTINUOUS
 62
     7
 10
5888.5508770000006
 20
1735.567217
 30
0.0
  0
VERTEX
  5
5B9
  8
LAYER01
  6
CONTINUOUS
 62
     7
 10
5893.5070560000004
 20
1745.479574
 30
0.0
  0
VERTEX
  5
5BA
  8
LAYER01
  6
CONTINUOUS
 62
     7
 10
5898.4632340000007
 20
1754.400695
 30
0.0
  0
VERTEX
  5
5BB
  8
LAYER01
  6
CONTINUOUS
 62
     7
 10
5905.4018840000008
 20
1763.3218159999999
 30
0.0
  0
VERTEX
  5
5BC
  8
LAYER01
  6
CONTINUOUS
 62
     7
 10
5912.3405339999999
 20
1771.251702
 30
0.0
  0
VERTEX
  5
5BD
  8
LAYER01
  6
CONTINUOUS
 62
     7
 10
5920.2704190000004
 20
1778.190351
 30
0.0
  0
VERTEX
  5
5BE
  8
LAYER01
  6
CONTINUOUS
 62
     7
 10
5929.1915399999998
 20
1785.129001
 30
0.0
  0
VERTEX
  5
5BF
  8
LAYER01
  6
CONTINUOUS
 62
     7
 10
5938.1126610000001
 20
1790.08518
 30
0.0
  0
VERTEX
  5
5C0
  8
LAYER01
  6
CONTINUOUS
 62
     7
 10
5948.0250180000003
 20
1795.0413579999999
 30
0.0
  0
VERTEX
  5
5C1
  8
LAYER01
  6
CONTINUOUS
 62
     7
 10
5957.9373750000004
 20
1799.0063009999999
 30
0.0
  0
VERTEX
  5
5C2
  8
LAYER01
  6
CONTINUOUS
 62
     7
 10
5968.8409680000004
 20
1801.980008
 30
0.0
  0
VERTEX
  5
5C3
  8
LAYER01
  6
CONTINUOUS
 62
     7
 10
5980.7357959999999
 20
1802.9712440000001
 30
0.0
  0
VERTEX
  5
5C4
  8
LAYER01
  6
CONTINUOUS
 62
     7
 10
5991.6393889999999
 20
1803.962479
 30
0.0
  0
VERTEX
  5
5C5
  8
LAYER01
  6
CONTINUOUS
 62
     7
 10
5991.6393889999999
 20
1803.962479
 30
0.0
  0
VERTEX
  5
5C6
  8
LAYER01
  6
CONTINUOUS
 62
     7
 10
6009.4816309999997
 20
1802.9712440000001
 30
0.0
  0
VERTEX
  5
5C7
  8
LAYER01
  6
CONTINUOUS
 62
     7
 10
6018.402752
 20
1801.980008
 30
0.0
  0
VERTEX
  5
5C8
  8
LAYER01
  6
CONTINUOUS
 62
     7
 10
6026.3326379999999
 20
1799.997537
 30
0.0
  0
VERTEX
  5
5C9
  8
LAYER01
  6
CONTINUOUS
 62
     7
 10
6033.2712869999987
 20
1797.0238300000001
 30
0.0
  0
VERTEX
  5
5CA
  8
LAYER01
  6
CONTINUOUS
 62
     7
 10
6041.2011730000004
 20
1794.050121999999
 30
0.0
  0
VERTEX
  5
5CB
  8
LAYER01
  6
CONTINUOUS
 62
     7
 10
6049.1310579999999
 20
1789.093944
 30
0.0
  0
VERTEX
  5
5CC
  8
LAYER01
  6
CONTINUOUS
 62
     7
 10
6057.0609439999989
 20
1784.1377660000001
 30
0.0
  0
VERTEX
  5
5CD
  8
LAYER01
  6
CONTINUOUS
 62
     7
 10
6057.0609439999989
 20
1784.1377660000001
 30
0.0
  0
SEQEND
  5
5CE
  8
LAYER01
  6
CONTINUOUS
 62
     7
  0
POLYLINE
  5
2E5
  8
LAYER01
  6
CONTINUOUS
 62
     7
 66
     1
 10
0.0
 20
0.0
 30
0.0
 70
     1
  0
VERTEX
  5
5CF
  8
LAYER01
  6
CONTINUOUS
 62
     7
 10
6153.210806
 20
1802.9712440000001
 30
0.0
  0
VERTEX
  5
5D0
  8
LAYER01
  6
CONTINUOUS
 62
     7
 10
6153.210806
 20
1802.9712440000001
 30
0.0
  0
VERTEX
  5
5D1
  8
LAYER01
  6
CONTINUOUS
 62
     7
 10
6142.307213
 20
1801.980008
 30
0.0
  0
VERTEX
  5
5D2
  8
LAYER01
  6
CONTINUOUS
 62
     7
 10
6130.4123849999996
 20
1800.9887719999999
 30
0.0
  0
VERTEX
  5
5D3
  8
LAYER01
  6
CONTINUOUS
 62
     7
 10
6120.5000280000013
 20
1798.015065
 30
0.0
  0
VERTEX
  5
5D4
  8
LAYER01
  6
CONTINUOUS
 62
     7
 10
6109.5964350000004
 20
1794.050121999999
 30
0.0
  0
VERTEX
  5
5D5
  8
LAYER01
  6
CONTINUOUS
 62
     7
 10
6099.6840789999997
 20
1790.08518
 30
0.0
  0
VERTEX
  5
5D6
  8
LAYER01
  6
CONTINUOUS
 62
     7
 10
6090.762956999999
 20
1784.1377660000001
 30
0.0
  0
VERTEX
  5
5D7
  8
LAYER01
  6
CONTINUOUS
 62
     7
 10
6081.8418359999987
 20
1778.190351
 30
0.0
  0
VERTEX
  5
5D8
  8
LAYER01
  6
CONTINUOUS
 62
     7
 10
6073.911951
 20
1770.260466
 30
0.0
  0
VERTEX
  5
5D9
  8
LAYER01
  6
CONTINUOUS
 62
     7
 10
6066.973301
 20
1762.3305800000001
 30
0.0
  0
VERTEX
  5
5DA
  8
LAYER01
  6
CONTINUOUS
 62
     7
 10
6060.0346509999999
 20
1754.400695
 30
0.0
  0
VERTEX
  5
5DB
  8
LAYER01
  6
CONTINUOUS
 62
     7
 10
6054.0872369999997
 20
1745.479574
 30
0.0
  0
VERTEX
  5
5DC
  8
LAYER01
  6
CONTINUOUS
 62
     7
 10
6049.1310579999999
 20
1735.567217
 30
0.0
  0
VERTEX
  5
5DD
  8
LAYER01
  6
CONTINUOUS
 62
     7
 10
6046.1573509999998
 20
1724.6636239999989
 30
0.0
  0
VERTEX
  5
5DE
  8
LAYER01
  6
CONTINUOUS
 62
     7
 10
6043.1836439999988
 20
1714.7512670000001
 30
0.0
  0
VERTEX
  5
5DF
  8
LAYER01
  6
CONTINUOUS
 62
     7
 10
6041.2011730000004
 20
1702.8564389999999
 30
0.0
  0
VERTEX
  5
5E0
  8
LAYER01
  6
CONTINUOUS
 62
     7
 10
6040.2099369999996
 20
1691.952847
 30
0.0
  0
VERTEX
  5
5E1
  8
LAYER01
  6
CONTINUOUS
 62
     7
 10
6040.2099369999996
 20
1691.952847
 30
0.0
  0
VERTEX
  5
5E2
  8
LAYER01
  6
CONTINUOUS
 62
     7
 10
6041.2011730000004
 20
1680.0580179999999
 30
0.0
  0
VERTEX
  5
5E3
  8
LAYER01
  6
CONTINUOUS
 62
     7
 10
6042.1924090000002
 20
1669.1544260000001
 30
0.0
  0
VERTEX
  5
5E4
  8
LAYER01
  6
CONTINUOUS
 62
     7
 10
6045.1661159999994
 20
1658.2508330000001
 30
0.0
  0
VERTEX
  5
5E5
  8
LAYER01
  6
CONTINUOUS
 62
     7
 10
6049.1310579999999
 20
1648.3384759999999
 30
0.0
  0
VERTEX
  5
5E6
  8
LAYER01
  6
CONTINUOUS
 62
     7
 10
6053.0960009999999
 20
1638.4261200000001
 30
0.0
  0
VERTEX
  5
5E7
  8
LAYER01
  6
CONTINUOUS
 62
     7
 10
6059.0434150000001
 20
1629.5049979999999
 30
0.0
  0
VERTEX
  5
5E8
  8
LAYER01
  6
CONTINUOUS
 62
     7
 10
6064.9908290000003
 20
1620.583877
 30
0.0
  0
VERTEX
  5
5E9
  8
LAYER01
  6
CONTINUOUS
 62
     7
 10
6071.9294790000013
 20
1612.653992
 30
0.0
  0
VERTEX
  5
5EA
  8
LAYER01
  6
CONTINUOUS
 62
     7
 10
6079.8593650000003
 20
1604.7241059999999
 30
0.0
  0
VERTEX
  5
5EB
  8
LAYER01
  6
CONTINUOUS
 62
     7
 10
6088.7804859999997
 20
1598.7766919999999
 30
0.0
  0
VERTEX
  5
5EC
  8
LAYER01
  6
CONTINUOUS
 62
     7
 10
6097.701607
 20
1592.8292779999999
 30
0.0
  0
VERTEX
  5
5ED
  8
LAYER01
  6
CONTINUOUS
 62
     7
 10
6107.6139640000001
 20
1587.8730989999999
 30
0.0
  0
VERTEX
  5
5EE
  8
LAYER01
  6
CONTINUOUS
 62
     7
 10
6117.5263210000003
 20
1583.9081570000001
 30
0.0
  0
VERTEX
  5
5EF
  8
LAYER01
  6
CONTINUOUS
 62
     7
 10
6128.4299129999999
 20
1581.9256849999999
 30
0.0
  0
VERTEX
  5
5F0
  8
LAYER01
  6
CONTINUOUS
 62
     7
 10
6139.333505999999
 20
1579.9432139999999
 30
0.0
  0
VERTEX
  5
5F1
  8
LAYER01
  6
CONTINUOUS
 62
     7
 10
6150.2370989999999
 20
1578.9519780000001
 30
0.0
  0
VERTEX
  5
5F2
  8
LAYER01
  6
CONTINUOUS
 62
     7
 10
6150.2370989999999
 20
1578.9519780000001
 30
0.0
  0
VERTEX
  5
5F3
  8
LAYER01
  6
CONTINUOUS
 62
     7
 10
6162.1319270000004
 20
1579.9432139999999
 30
0.0
  0
VERTEX
  5
5F4
  8
LAYER01
  6
CONTINUOUS
 62
     7
 10
6173.035519
 20
1581.9256849999999
 30
0.0
  0
VERTEX
  5
5F5
  8
LAYER01
  6
CONTINUOUS
 62
     7
 10
6183.939112
 20
1584.899392
 30
0.0
  0
VERTEX
  5
5F6
  8
LAYER01
  6
CONTINUOUS
 62
     7
 10
6193.8514690000011
 20
1588.864335
 30
0.0
  0
VERTEX
  5
5F7
  8
LAYER01
  6
CONTINUOUS
 62
     7
 10
6203.7638259999994
 20
1593.820514
 30
0.0
  0
VERTEX
  5
5F8
  8
LAYER01
  6
CONTINUOUS
 62
     7
 10
6212.6849469999988
 20
1599.767928
 30
0.0
  0
VERTEX
  5
5F9
  8
LAYER01
  6
CONTINUOUS
 62
     7
 10
6221.6060680000001
 20
1605.715342
 30
0.0
  0
VERTEX
  5
5FA
  8
LAYER01
  6
CONTINUOUS
 62
     7
 10
6229.5359539999999
 20
1613.645227
 30
0.0
  0
VERTEX
  5
5FB
  8
LAYER01
  6
CONTINUOUS
 62
     7
 10
6236.4746030000006
 20
1621.5751130000001
 30
0.0
  0
VERTEX
  5
5FC
  8
LAYER01
  6
CONTINUOUS
 62
     7
 10
6242.422016999999
 20
1630.496234
 30
0.0
  0
VERTEX
  5
5FD
  8
LAYER01
  6
CONTINUOUS
 62
     7
 10
6247.3781959999988
 20
1639.417355
 30
0.0
  0
VERTEX
  5
5FE
  8
LAYER01
  6
CONTINUOUS
 62
     7
 10
6252.334374
 20
1649.329712
 30
0.0
  0
VERTEX
  5
5FF
  8
LAYER01
  6
CONTINUOUS
 62
     7
 10
6256.2993169999991
 20
1660.233305
 30
0.0
  0
VERTEX
  5
600
  8
LAYER01
  6
CONTINUOUS
 62
     7
 10
6258.2817880000002
 20
1671.1368970000001
 30
0.0
  0
VERTEX
  5
601
  8
LAYER01
  6
CONTINUOUS
 62
     7
 10
6259.2730240000001
 20
1682.0404900000001
 30
0.0
  0
VERTEX
  5
602
  8
LAYER01
  6
CONTINUOUS
 62
     7
 10
6260.2642599999999
 20
1693.9353180000001
 30
0.0
  0
VERTEX
  5
603
  8
LAYER01
  6
CONTINUOUS
 62
     7
 10
6260.2642599999999
 20
1693.9353180000001
 30
0.0
  0
VERTEX
  5
604
  8
LAYER01
  6
CONTINUOUS
 62
     7
 10
6259.2730240000001
 20
1704.8389110000001
 30
0.0
  0
VERTEX
  5
605
  8
LAYER01
  6
CONTINUOUS
 62
     7
 10
6257.2905529999998
 20
1715.7425029999999
 30
0.0
  0
VERTEX
  5
606
  8
LAYER01
  6
CONTINUOUS
 62
     7
 10
6254.3168459999997
 20
1725.6548600000001
 30
0.0
  0
VERTEX
  5
607
  8
LAYER01
  6
CONTINUOUS
 62
     7
 10
6251.3431389999996
 20
1735.567217
 30
0.0
  0
VERTEX
  5
608
  8
LAYER01
  6
CONTINUOUS
 62
     7
 10
6246.3869599999998
 20
1744.4883380000001
 30
0.0
  0
VERTEX
  5
609
  8
LAYER01
  6
CONTINUOUS
 62
     7
 10
6241.4307820000013
 20
1753.409459
 30
0.0
  0
VERTEX
  5
60A
  8
LAYER01
  6
CONTINUOUS
 62
     7
 10
6235.4833680000002
 20
1762.3305800000001
 30
0.0
  0
VERTEX
  5
60B
  8
LAYER01
  6
CONTINUOUS
 62
     7
 10
6228.544718000001
 20
1769.2692300000001
 30
0.0
  0
VERTEX
  5
60C
  8
LAYER01
  6
CONTINUOUS
 62
     7
 10
6220.6148320000002
 20
1776.2078799999999
 30
0.0
  0
VERTEX
  5
60D
  8
LAYER01
  6
CONTINUOUS
 62
     7
 10
6212.6849469999988
 20
1783.14653
 30
0.0
  0
VERTEX
  5
60E
  8
LAYER01
  6
CONTINUOUS
 62
     7
 10
6203.7638259999994
 20
1788.1027079999999
 30
0.0
  0
VERTEX
  5
60F
  8
LAYER01
  6
CONTINUOUS
 62
     7
 10
6194.842705
 20
1793.0588869999999
 30
0.0
  0
VERTEX
  5
610
  8
LAYER01
  6
CONTINUOUS
 62
     7
 10
6184.9303479999999
 20
1797.0238300000001
 30
0.0
  0
VERTEX
  5
611
  8
LAYER01
  6
CONTINUOUS
 62
     7
 10
6175.0179909999997
 20
1799.997537
 30
0.0
  0
VERTEX
  5
612
  8
LAYER01
  6
CONTINUOUS
 62
     7
 10
6164.1143979999988
 20
1801.980008
 30
0.0
  0
VERTEX
  5
613
  8
LAYER01
  6
CONTINUOUS
 62
     7
 10
6153.210806
 20
1802.9712440000001
 30
0.0
  0
VERTEX
  5
614
  8
LAYER01
  6
CONTINUOUS
 62
     7
 10
6153.210806
 20
1802.9712440000001
 30
0.0
  0
SEQEND
  5
615
  8
LAYER01
  6
CONTINUOUS
 62
     7
  0
POLYLINE
  5
2E6
  8
LAYER01
  6
CONTINUOUS
 62
     7
 66
     1
 10
0.0
 20
0.0
 30
0.0
 70
     1
  0
VERTEX
  5
616
  8
LAYER01
  6
CONTINUOUS
 62
     7
 10
6150.2370989999999
 20
1619.592641
 30
0.0
  0
VERTEX
  5
617
  8
LAYER01
  6
CONTINUOUS
 62
     7
 10
6150.2370989999999
 20
1619.592641
 30
0.0
  0
VERTEX
  5
618
  8
LAYER01
  6
CONTINUOUS
 62
     7
 10
6143.2984489999999
 20
1620.583877
 30
0.0
  0
VERTEX
  5
619
  8
LAYER01
  6
CONTINUOUS
 62
     7
 10
6136.3597989999998
 20
1621.5751130000001
 30
0.0
  0
VERTEX
  5
61A
  8
LAYER01
  6
CONTINUOUS
 62
     7
 10
6129.4211489999998
 20
1622.5663489999999
 30
0.0
  0
VERTEX
  5
61B
  8
LAYER01
  6
CONTINUOUS
 62
     7
 10
6122.4824990000006
 20
1625.540056
 30
0.0
  0
VERTEX
  5
61C
  8
LAYER01
  6
CONTINUOUS
 62
     7
 10
6116.5350850000004
 20
1628.5137629999999
 30
0.0
  0
VERTEX
  5
61D
  8
LAYER01
  6
CONTINUOUS
 62
     7
 10
6110.5876710000011
 20
1632.478705
 30
0.0
  0
VERTEX
  5
61E
  8
LAYER01
  6
CONTINUOUS
 62
     7
 10
6105.6314929999999
 20
1636.4436479999999
 30
0.0
  0
VERTEX
  5
61F
  8
LAYER01
  6
CONTINUOUS
 62
     7
 10
6100.6753140000001
 20
1641.399827
 30
0.0
  0
VERTEX
  5
620
  8
LAYER01
  6
CONTINUOUS
 62
     7
 10
6095.7191359999988
 20
1646.3560050000001
 30
0.0
  0
VERTEX
  5
621
  8
LAYER01
  6
CONTINUOUS
 62
     7
 10
6091.7541929999988
 20
1651.312183
 30
0.0
  0
VERTEX
  5
622
  8
LAYER01
  6
CONTINUOUS
 62
     7
 10
6088.7804859999997
 20
1657.2595980000001
 30
0.0
  0
VERTEX
  5
623
  8
LAYER01
  6
CONTINUOUS
 62
     7
 10
6085.8067789999996
 20
1664.198247
 30
0.0
  0
VERTEX
  5
624
  8
LAYER01
  6
CONTINUOUS
 62
     7
 10
6082.8330719999994
 20
1670.1456619999999
 30
0.0
  0
VERTEX
  5
625
  8
LAYER01
  6
CONTINUOUS
 62
     7
 10
6081.8418359999987
 20
1677.0843109999989
 30
0.0
  0
VERTEX
  5
626
  8
LAYER01
  6
CONTINUOUS
 62
     7
 10
6079.8593650000003
 20
1684.0229609999999
 30
0.0
  0
VERTEX
  5
627
  8
LAYER01
  6
CONTINUOUS
 62
     7
 10
6079.8593650000003
 20
1691.952847
 30
0.0
  0
VERTEX
  5
628
  8
LAYER01
  6
CONTINUOUS
 62
     7
 10
6079.8593650000003
 20
1691.952847
 30
0.0
  0
VERTEX
  5
629
  8
LAYER01
  6
CONTINUOUS
 62
     7
 10
6080.8505999999998
 20
1698.891496
 30
0.0
  0
VERTEX
  5
62A
  8
LAYER01
  6
CONTINUOUS
 62
     7
 10
6081.8418359999987
 20
1705.830146
 30
0.0
  0
VERTEX
  5
62B
  8
LAYER01
  6
CONTINUOUS
 62
     7
 10
6083.8243080000002
 20
1712.7687960000001
 30
0.0
  0
VERTEX
  5
62C
  8
LAYER01
  6
CONTINUOUS
 62
     7
 10
6085.8067789999996
 20
1719.7074459999999
 30
0.0
  0
VERTEX
  5
62D
  8
LAYER01
  6
CONTINUOUS
 62
     7
 10
6088.7804859999997
 20
1725.6548600000001
 30
0.0
  0
VERTEX
  5
62E
  8
LAYER01
  6
CONTINUOUS
 62
     7
 10
6092.7454289999996
 20
1731.6022740000001
 30
0.0
  0
VERTEX
  5
62F
  8
LAYER01
  6
CONTINUOUS
 62
     7
 10
6096.7103710000001
 20
1736.5584530000001
 30
0.0
  0
VERTEX
  5
630
  8
LAYER01
  6
CONTINUOUS
 62
     7
 10
6101.6665499999999
 20
1741.514631
 30
0.0
  0
VERTEX
  5
631
  8
LAYER01
  6
CONTINUOUS
 62
     7
 10
6106.6227280000012
 20
1746.4708089999999
 30
0.0
  0
VERTEX
  5
632
  8
LAYER01
  6
CONTINUOUS
 62
     7
 10
6111.578907000001
 20
1750.4357520000001
 30
0.0
  0
VERTEX
  5
633
  8
LAYER01
  6
CONTINUOUS
 62
     7
 10
6117.5263210000003
 20
1754.400695
 30
0.0
  0
VERTEX
  5
634
  8
LAYER01
  6
CONTINUOUS
 62
     7
 10
6124.4649710000003
 20
1757.3744019999999
 30
0.0
  0
VERTEX
  5
635
  8
LAYER01
  6
CONTINUOUS
 62
     7
 10
6130.4123849999996
 20
1759.356873
 30
0.0
  0
VERTEX
  5
636
  8
LAYER01
  6
CONTINUOUS
 62
     7
 10
6137.3510349999997
 20
1761.3393450000001
 30
0.0
  0
VERTEX
  5
637
  8
LAYER01
  6
CONTINUOUS
 62
     7
 10
6144.2896840000003
 20
1762.3305800000001
 30
0.0
  0
VERTEX
  5
638
  8
LAYER01
  6
CONTINUOUS
 62
     7
 10
6152.2195700000002
 20
1762.3305800000001
 30
0.0
  0
VERTEX
  5
639
  8
LAYER01
  6
CONTINUOUS
 62
     7
 10
6152.2195700000002
 20
1762.3305800000001
 30
0.0
  0
VERTEX
  5
63A
  8
LAYER01
  6
CONTINUOUS
 62
     7
 10
6159.1582200000012
 20
1761.3393450000001
 30
0.0
  0
VERTEX
  5
63B
  8
LAYER01
  6
CONTINUOUS
 62
     7
 10
6166.0968700000003
 20
1760.348109
 30
0.0
  0
VERTEX
  5
63C
  8
LAYER01
  6
CONTINUOUS
 62
     7
 10
6172.0442839999996
 20
1758.365638
 30
0.0
  0
VERTEX
  5
63D
  8
LAYER01
  6
CONTINUOUS
 62
     7
 10
6178.9829339999997
 20
1756.3831660000001
 30
0.0
  0
VERTEX
  5
63E
  8
LAYER01
  6
CONTINUOUS
 62
     7
 10
6183.939112
 20
1753.409459
 30
0.0
  0
VERTEX
  5
63F
  8
LAYER01
  6
CONTINUOUS
 62
     7
 10
6189.8865260000002
 20
1749.4445169999999
 30
0.0
  0
VERTEX
  5
640
  8
LAYER01
  6
CONTINUOUS
 62
     7
 10
6194.842705
 20
1745.479574
 30
0.0
  0
VERTEX
  5
641
  8
LAYER01
  6
CONTINUOUS
 62
     7
 10
6199.7988829999986
 20
1741.514631
 30
0.0
  0
VERTEX
  5
642
  8
LAYER01
  6
CONTINUOUS
 62
     7
 10
6203.7638259999994
 20
1736.5584530000001
 30
0.0
  0
VERTEX
  5
643
  8
LAYER01
  6
CONTINUOUS
 62
     7
 10
6207.728767999999
 20
1730.611038
 30
0.0
  0
VERTEX
  5
644
  8
LAYER01
  6
CONTINUOUS
 62
     7
 10
6211.6937109999999
 20
1725.6548600000001
 30
0.0
  0
VERTEX
  5
645
  8
LAYER01
  6
CONTINUOUS
 62
     7
 10
6214.667418
 20
1719.7074459999999
 30
0.0
  0
VERTEX
  5
646
  8
LAYER01
  6
CONTINUOUS
 62
     7
 10
6216.6498899999997
 20
1712.7687960000001
 30
0.0
  0
VERTEX
  5
647
  8
LAYER01
  6
CONTINUOUS
 62
     7
 10
6218.6323609999999
 20
1706.8213820000001
 30
0.0
  0
VERTEX
  5
648
  8
LAYER01
  6
CONTINUOUS
 62
     7
 10
6219.6235969999998
 20
1699.882732
 30
0.0
  0
VERTEX
  5
649
  8
LAYER01
  6
CONTINUOUS
 62
     7
 10
6219.6235969999998
 20
1692.944082
 30
0.0
  0
VERTEX
  5
64A
  8
LAYER01
  6
CONTINUOUS
 62
     7
 10
6219.6235969999998
 20
1692.944082
 30
0.0
  0
VERTEX
  5
64B
  8
LAYER01
  6
CONTINUOUS
 62
     7
 10
6219.6235969999998
 20
1685.014197
 30
0.0
  0
VERTEX
  5
64C
  8
LAYER01
  6
CONTINUOUS
 62
     7
 10
6218.6323609999999
 20
1678.0755469999999
 30
0.0
  0
VERTEX
  5
64D
  8
LAYER01
  6
CONTINUOUS
 62
     7
 10
6217.6411250000001
 20
1671.1368970000001
 30
0.0
  0
VERTEX
  5
64E
  8
LAYER01
  6
CONTINUOUS
 62
     7
 10
6214.667418
 20
1665.1894830000001
 30
0.0
  0
VERTEX
  5
64F
  8
LAYER01
  6
CONTINUOUS
 62
     7
 10
6212.6849469999988
 20
1658.2508330000001
 30
0.0
  0
VERTEX
  5
650
  8
LAYER01
  6
CONTINUOUS
 62
     7
 10
6208.7200039999989
 20
1652.3034190000001
 30
0.0
  0
VERTEX
  5
651
  8
LAYER01
  6
CONTINUOUS
 62
     7
 10
6204.7550609999998
 20
1646.3560050000001
 30
0.0
  0
VERTEX
  5
652
  8
LAYER01
  6
CONTINUOUS
 62
     7
 10
6199.7988829999986
 20
1641.399827
 30
0.0
  0
VERTEX
  5
653
  8
LAYER01
  6
CONTINUOUS
 62
     7
 10
6194.842705
 20
1636.4436479999999
 30
0.0
  0
VERTEX
  5
654
  8
LAYER01
  6
CONTINUOUS
 62
     7
 10
6189.8865260000002
 20
1632.478705
 30
0.0
  0
VERTEX
  5
655
  8
LAYER01
  6
CONTINUOUS
 62
     7
 10
6183.939112
 20
1628.5137629999999
 30
0.0
  0
VERTEX
  5
656
  8
LAYER01
  6
CONTINUOUS
 62
     7
 10
6177.9916979999998
 20
1625.540056
 30
0.0
  0
VERTEX
  5
657
  8
LAYER01
  6
CONTINUOUS
 62
     7
 10
6171.0530479999998
 20
1623.5575839999999
 30
0.0
  0
VERTEX
  5
658
  8
LAYER01
  6
CONTINUOUS
 62
     7
 10
6164.1143979999988
 20
1621.5751130000001
 30
0.0
  0
VERTEX
  5
659
  8
LAYER01
  6
CONTINUOUS
 62
     7
 10
6157.1757479999997
 20
1620.583877
 30
0.0
  0
VERTEX
  5
65A
  8
LAYER01
  6
CONTINUOUS
 62
     7
 10
6150.2370989999999
 20
1619.592641
 30
0.0
  0
VERTEX
  5
65B
  8
LAYER01
  6
CONTINUOUS
 62
     7
 10
6150.2370989999999
 20
1619.592641
 30
0.0
  0
SEQEND
  5
65C
  8
LAYER01
  6
CONTINUOUS
 62
     7
  0
POLYLINE
  5
2E7
  8
LAYER01
  6
CONTINUOUS
 62
     7
 66
     1
 10
0.0
 20
0.0
 30
0.0
 70
     1
  0
VERTEX
  5
65D
  8
LAYER01
  6
CONTINUOUS
 62
     7
 10
6229.5359539999999
 20
1798.015065
 30
0.0
  0
VERTEX
  5
65E
  8
LAYER01
  6
CONTINUOUS
 62
     7
 10
6334.6069360000001
 20
1798.015065
 30
0.0
  0
VERTEX
  5
65F
  8
LAYER01
  6
CONTINUOUS
 62
     7
 10
6334.6069360000001
 20
1798.015065
 30
0.0
  0
VERTEX
  5
660
  8
LAYER01
  6
CONTINUOUS
 62
     7
 10
6346.501765
 20
1796.032594
 30
0.0
  0
VERTEX
  5
661
  8
LAYER01
  6
CONTINUOUS
 62
     7
 10
6357.4053569999996
 20
1791.076415
 30
0.0
  0
VERTEX
  5
662
  8
LAYER01
  6
CONTINUOUS
 62
     7
 10
6366.326478
 20
1785.129001
 30
0.0
  0
VERTEX
  5
663
  8
LAYER01
  6
CONTINUOUS
 62
     7
 10
6374.2563639999998
 20
1777.199116
 30
0.0
  0
VERTEX
  5
664
  8
LAYER01
  6
CONTINUOUS
 62
     7
 10
6381.1950139999999
 20
1769.2692300000001
 30
0.0
  0
VERTEX
  5
665
  8
LAYER01
  6
CONTINUOUS
 62
     7
 10
6386.1511920000003
 20
1759.356873
 30
0.0
  0
VERTEX
  5
666
  8
LAYER01
  6
CONTINUOUS
 62
     7
 10
6389.1248990000013
 20
1747.462045
 30
0.0
  0
VERTEX
  5
667
  8
LAYER01
  6
CONTINUOUS
 62
     7
 10
6390.1161350000002
 20
1736.5584530000001
 30
0.0
  0
VERTEX
  5
668
  8
LAYER01
  6
CONTINUOUS
 62
     7
 10
6390.1161350000002
 20
1736.5584530000001
 30
0.0
  0
VERTEX
  5
669
  8
LAYER01
  6
CONTINUOUS
 62
     7
 10
6389.1248990000013
 20
1724.6636239999989
 30
0.0
  0
VERTEX
  5
66A
  8
LAYER01
  6
CONTINUOUS
 62
     7
 10
6387.1424280000001
 20
1714.7512670000001
 30
0.0
  0
VERTEX
  5
66B
  8
LAYER01
  6
CONTINUOUS
 62
     7
 10
6383.1774850000002
 20
1704.8389110000001
 30
0.0
  0
VERTEX
  5
66C
  8
LAYER01
  6
CONTINUOUS
 62
     7
 10
6378.2213069999998
 20
1695.9177890000001
 30
0.0
  0
VERTEX
  5
66D
  8
LAYER01
  6
CONTINUOUS
 62
     7
 10
6371.2826569999997
 20
1687.9879040000001
 30
0.0
  0
VERTEX
  5
66E
  8
LAYER01
  6
CONTINUOUS
 62
     7
 10
6364.3440069999988
 20
1682.0404900000001
 30
0.0
  0
VERTEX
  5
66F
  8
LAYER01
  6
CONTINUOUS
 62
     7
 10
6354.4316500000014
 20
1676.0930760000001
 30
0.0
  0
VERTEX
  5
670
  8
LAYER01
  6
CONTINUOUS
 62
     7
 10
6344.5192930000012
 20
1672.1281329999999
 30
0.0
  0
VERTEX
  5
671
  8
LAYER01
  6
CONTINUOUS
 62
     7
 10
6408.9496130000007
 20
1585.8906280000001
 30
0.0
  0
VERTEX
  5
672
  8
LAYER01
  6
CONTINUOUS
 62
     7
 10
6359.3878290000002
 20
1585.8906280000001
 30
0.0
  0
VERTEX
  5
673
  8
LAYER01
  6
CONTINUOUS
 62
     7
 10
6273.1503240000002
 20
1695.9177890000001
 30
0.0
  0
VERTEX
  5
674
  8
LAYER01
  6
CONTINUOUS
 62
     7
 10
6321.7208719999999
 20
1695.9177890000001
 30
0.0
  0
VERTEX
  5
675
  8
LAYER01
  6
CONTINUOUS
 62
     7
 10
6321.7208719999999
 20
1695.9177890000001
 30
0.0
  0
VERTEX
  5
676
  8
LAYER01
  6
CONTINUOUS
 62
     7
 10
6327.6682869999986
 20
1697.900261
 30
0.0
  0
VERTEX
  5
677
  8
LAYER01
  6
CONTINUOUS
 62
     7
 10
6332.6244649999999
 20
1699.882732
 30
0.0
  0
VERTEX
  5
678
  8
LAYER01
  6
CONTINUOUS
 62
     7
 10
6336.5894079999998
 20
1703.847675
 30
0.0
  0
VERTEX
  5
679
  8
LAYER01
  6
CONTINUOUS
 62
     7
 10
6340.5543509999998
 20
1707.8126179999999
 30
0.0
  0
VERTEX
  5
67A
  8
LAYER01
  6
CONTINUOUS
 62
     7
 10
6343.5280579999999
 20
1712.7687960000001
 30
0.0
  0
VERTEX
  5
67B
  8
LAYER01
  6
CONTINUOUS
 62
     7
 10
6346.501765
 20
1717.7249750000001
 30
0.0
  0
VERTEX
  5
67C
  8
LAYER01
  6
CONTINUOUS
 62
     7
 10
6347.4930000000004
 20
1723.6723890000001
 30
0.0
  0
VERTEX
  5
67D
  8
LAYER01
  6
CONTINUOUS
 62
     7
 10
6347.4930000000004
 20
1729.619803
 30
0.0
  0
VERTEX
  5
67E
  8
LAYER01
  6
CONTINUOUS
 62
     7
 10
6347.4930000000004
 20
1729.619803
 30
0.0
  0
VERTEX
  5
67F
  8
LAYER01
  6
CONTINUOUS
 62
     7
 10
6347.4930000000004
 20
1735.567217
 30
0.0
  0
VERTEX
  5
680
  8
LAYER01
  6
CONTINUOUS
 62
     7
 10
6345.510529000001
 20
1740.5233949999999
 30
0.0
  0
VERTEX
  5
681
  8
LAYER01
  6
CONTINUOUS
 62
     7
 10
6343.5280579999999
 20
1745.479574
 30
0.0
  0
VERTEX
  5
682
  8
LAYER01
  6
CONTINUOUS
 62
     7
 10
6340.5543509999998
 20
1750.4357520000001
 30
0.0
  0
VERTEX
  5
683
  8
LAYER01
  6
CONTINUOUS
 62
     7
 10
6336.5894079999998
 20
1754.400695
 30
0.0
  0
VERTEX
  5
684
  8
LAYER01
  6
CONTINUOUS
 62
     7
 10
6332.6244649999999
 20
1757.3744019999999
 30
0.0
  0
VERTEX
  5
685
  8
LAYER01
  6
CONTINUOUS
 62
     7
 10
6326.6770509999997
 20
1760.348109
 30
0.0
  0
VERTEX
  5
686
  8
LAYER01
  6
CONTINUOUS
 62
     7
 10
6321.7208719999999
 20
1762.3305800000001
 30
0.0
  0
VERTEX
  5
687
  8
LAYER01
  6
CONTINUOUS
 62
     7
 10
6265.2204380000003
 20
1762.3305800000001
 30
0.0
  0
VERTEX
  5
688
  8
LAYER01
  6
CONTINUOUS
 62
     7
 10
6229.5359539999999
 20
1798.015065
 30
0.0
  0
VERTEX
  5
689
  8
LAYER01
  6
CONTINUOUS
 62
     7
 10
6229.5359539999999
 20
1798.015065
 30
0.0
  0
SEQEND
  5
68A
  8
LAYER01
  6
CONTINUOUS
 62
     7
  0
POLYLINE
  5
2E8
  8
LAYER01
  6
CONTINUOUS
 62
     7
 66
     1
 10
0.0
 20
0.0
 30
0.0
 70
     1
  0
VERTEX
  5
68B
  8
LAYER01
  6
CONTINUOUS
 62
     7
 10
6435.7129770000001
 20
1745.479574
 30
0.0
  0
VERTEX
  5
68C
  8
LAYER01
  6
CONTINUOUS
 62
     7
 10
6435.7129770000001
 20
1745.479574
 30
0.0
  0
VERTEX
  5
68D
  8
LAYER01
  6
CONTINUOUS
 62
     7
 10
6440.6691549999987
 20
1746.4708089999999
 30
0.0
  0
VERTEX
  5
68E
  8
LAYER01
  6
CONTINUOUS
 62
     7
 10
6445.625332999999
 20
1747.462045
 30
0.0
  0
VERTEX
  5
68F
  8
LAYER01
  6
CONTINUOUS
 62
     7
 10
6450.5815119999988
 20
1750.4357520000001
 30
0.0
  0
VERTEX
  5
690
  8
LAYER01
  6
CONTINUOUS
 62
     7
 10
6454.5464549999988
 20
1753.409459
 30
0.0
  0
VERTEX
  5
691
  8
LAYER01
  6
CONTINUOUS
 62
     7
 10
6457.5201619999998
 20
1757.3744019999999
 30
0.0
  0
VERTEX
  5
692
  8
LAYER01
  6
CONTINUOUS
 62
     7
 10
6459.5026329999992
 20
1761.3393450000001
 30
0.0
  0
VERTEX
  5
693
  8
LAYER01
  6
CONTINUOUS
 62
     7
 10
6461.4851040000012
 20
1766.295523
 30
0.0
  0
VERTEX
  5
694
  8
LAYER01
  6
CONTINUOUS
 62
     7
 10
6461.4851040000012
 20
1772.242937
 30
0.0
  0
VERTEX
  5
695
  8
LAYER01
  6
CONTINUOUS
 62
     7
 10
6461.4851040000012
 20
1772.242937
 30
0.0
  0
VERTEX
  5
696
  8
LAYER01
  6
CONTINUOUS
 62
     7
 10
6461.4851040000012
 20
1777.199116
 30
0.0
  0
VERTEX
  5
697
  8
LAYER01
  6
CONTINUOUS
 62
     7
 10
6459.5026329999992
 20
1782.1552939999999
 30
0.0
  0
VERTEX
  5
698
  8
LAYER01
  6
CONTINUOUS
 62
     7
 10
6457.5201619999998
 20
1786.1202370000001
 30
0.0
  0
VERTEX
  5
699
  8
LAYER01
  6
CONTINUOUS
 62
     7
 10
6454.5464549999988
 20
1790.08518
 30
0.0
  0
VERTEX
  5
69A
  8
LAYER01
  6
CONTINUOUS
 62
     7
 10
6450.5815119999988
 20
1793.0588869999999
 30
0.0
  0
VERTEX
  5
69B
  8
LAYER01
  6
CONTINUOUS
 62
     7
 10
6445.625332999999
 20
1796.032594
 30
0.0
  0
VERTEX
  5
69C
  8
LAYER01
  6
CONTINUOUS
 62
     7
 10
6440.6691549999987
 20
1797.0238300000001
 30
0.0
  0
VERTEX
  5
69D
  8
LAYER01
  6
CONTINUOUS
 62
     7
 10
6435.7129770000001
 20
1798.015065
 30
0.0
  0
VERTEX
  5
69E
  8
LAYER01
  6
CONTINUOUS
 62
     7
 10
6435.7129770000001
 20
1798.015065
 30
0.0
  0
VERTEX
  5
69F
  8
LAYER01
  6
CONTINUOUS
 62
     7
 10
6430.7567980000003
 20
1797.0238300000001
 30
0.0
  0
VERTEX
  5
6A0
  8
LAYER01
  6
CONTINUOUS
 62
     7
 10
6425.80062
 20
1796.032594
 30
0.0
  0
VERTEX
  5
6A1
  8
LAYER01
  6
CONTINUOUS
 62
     7
 10
6420.8444409999993
 20
1793.0588869999999
 30
0.0
  0
VERTEX
  5
6A2
  8
LAYER01
  6
CONTINUOUS
 62
     7
 10
6416.8794980000002
 20
1790.08518
 30
0.0
  0
VERTEX
  5
6A3
  8
LAYER01
  6
CONTINUOUS
 62
     7
 10
6413.9057909999992
 20
1786.1202370000001
 30
0.0
  0
VERTEX
  5
6A4
  8
LAYER01
  6
CONTINUOUS
 62
     7
 10
6411.923319999999
 20
1782.1552939999999
 30
0.0
  0
VERTEX
  5
6A5
  8
LAYER01
  6
CONTINUOUS
 62
     7
 10
6409.9408489999996
 20
1777.199116
 30
0.0
  0
VERTEX
  5
6A6
  8
LAYER01
  6
CONTINUOUS
 62
     7
 10
6409.9408489999996
 20
1772.242937
 30
0.0
  0
VERTEX
  5
6A7
  8
LAYER01
  6
CONTINUOUS
 62
     7
 10
6409.9408489999996
 20
1772.242937
 30
0.0
  0
VERTEX
  5
6A8
  8
LAYER01
  6
CONTINUOUS
 62
     7
 10
6409.9408489999996
 20
1766.295523
 30
0.0
  0
VERTEX
  5
6A9
  8
LAYER01
  6
CONTINUOUS
 62
     7
 10
6411.923319999999
 20
1761.3393450000001
 30
0.0
  0
VERTEX
  5
6AA
  8
LAYER01
  6
CONTINUOUS
 62
     7
 10
6413.9057909999992
 20
1757.3744019999999
 30
0.0
  0
VERTEX
  5
6AB
  8
LAYER01
  6
CONTINUOUS
 62
     7
 10
6416.8794980000002
 20
1753.409459
 30
0.0
  0
VERTEX
  5
6AC
  8
LAYER01
  6
CONTINUOUS
 62
     7
 10
6420.8444409999993
 20
1750.4357520000001
 30
0.0
  0
VERTEX
  5
6AD
  8
LAYER01
  6
CONTINUOUS
 62
     7
 10
6425.80062
 20
1747.462045
 30
0.0
  0
VERTEX
  5
6AE
  8
LAYER01
  6
CONTINUOUS
 62
     7
 10
6430.7567980000003
 20
1746.4708089999999
 30
0.0
  0
VERTEX
  5
6AF
  8
LAYER01
  6
CONTINUOUS
 62
     7
 10
6435.7129770000001
 20
1745.479574
 30
0.0
  0
VERTEX
  5
6B0
  8
LAYER01
  6
CONTINUOUS
 62
     7
 10
6435.7129770000001
 20
1745.479574
 30
0.0
  0
SEQEND
  5
6B1
  8
LAYER01
  6
CONTINUOUS
 62
     7
  0
POLYLINE
  5
2E9
  8
LAYER01
  6
CONTINUOUS
 62
     7
 66
     1
 10
0.0
 20
0.0
 30
0.0
 70
     1
  0
VERTEX
  5
6B2
  8
LAYER01
  6
CONTINUOUS
 62
     7
 10
6435.7129770000001
 20
1794.050121999999
 30
0.0
  0
VERTEX
  5
6B3
  8
LAYER01
  6
CONTINUOUS
 62
     7
 10
6435.7129770000001
 20
1794.050121999999
 30
0.0
  0
VERTEX
  5
6B4
  8
LAYER01
  6
CONTINUOUS
 62
     7
 10
6439.6779190000007
 20
1793.0588869999999
 30
0.0
  0
VERTEX
  5
6B5
  8
LAYER01
  6
CONTINUOUS
 62
     7
 10
6443.6428619999997
 20
1792.0676510000001
 30
0.0
  0
VERTEX
  5
6B6
  8
LAYER01
  6
CONTINUOUS
 62
     7
 10
6447.6078049999996
 20
1790.08518
 30
0.0
  0
VERTEX
  5
6B7
  8
LAYER01
  6
CONTINUOUS
 62
     7
 10
6450.5815119999988
 20
1787.1114729999999
 30
0.0
  0
VERTEX
  5
6B8
  8
LAYER01
  6
CONTINUOUS
 62
     7
 10
6453.5552189999999
 20
1784.1377660000001
 30
0.0
  0
VERTEX
  5
6B9
  8
LAYER01
  6
CONTINUOUS
 62
     7
 10
6455.5376899999992
 20
1780.1728230000001
 30
0.0
  0
VERTEX
  5
6BA
  8
LAYER01
  6
CONTINUOUS
 62
     7
 10
6457.5201619999998
 20
1776.2078799999999
 30
0.0
  0
VERTEX
  5
6BB
  8
LAYER01
  6
CONTINUOUS
 62
     7
 10
6457.5201619999998
 20
1772.242937
 30
0.0
  0
VERTEX
  5
6BC
  8
LAYER01
  6
CONTINUOUS
 62
     7
 10
6457.5201619999998
 20
1772.242937
 30
0.0
  0
VERTEX
  5
6BD
  8
LAYER01
  6
CONTINUOUS
 62
     7
 10
6457.5201619999998
 20
1767.2867590000001
 30
0.0
  0
VERTEX
  5
6BE
  8
LAYER01
  6
CONTINUOUS
 62
     7
 10
6455.5376899999992
 20
1763.3218159999999
 30
0.0
  0
VERTEX
  5
6BF
  8
LAYER01
  6
CONTINUOUS
 62
     7
 10
6453.5552189999999
 20
1759.356873
 30
0.0
  0
VERTEX
  5
6C0
  8
LAYER01
  6
CONTINUOUS
 62
     7
 10
6450.5815119999988
 20
1756.3831660000001
 30
0.0
  0
VERTEX
  5
6C1
  8
LAYER01
  6
CONTINUOUS
 62
     7
 10
6447.6078049999996
 20
1753.409459
 30
0.0
  0
VERTEX
  5
6C2
  8
LAYER01
  6
CONTINUOUS
 62
     7
 10
6443.6428619999997
 20
1751.4269879999999
 30
0.0
  0
VERTEX
  5
6C3
  8
LAYER01
  6
CONTINUOUS
 62
     7
 10
6439.6779190000007
 20
1750.4357520000001
 30
0.0
  0
VERTEX
  5
6C4
  8
LAYER01
  6
CONTINUOUS
 62
     7
 10
6435.7129770000001
 20
1750.4357520000001
 30
0.0
  0
VERTEX
  5
6C5
  8
LAYER01
  6
CONTINUOUS
 62
     7
 10
6435.7129770000001
 20
1750.4357520000001
 30
0.0
  0
VERTEX
  5
6C6
  8
LAYER01
  6
CONTINUOUS
 62
     7
 10
6431.7480340000002
 20
1750.4357520000001
 30
0.0
  0
VERTEX
  5
6C7
  8
LAYER01
  6
CONTINUOUS
 62
     7
 10
6426.7918549999986
 20
1751.4269879999999
 30
0.0
  0
VERTEX
  5
6C8
  8
LAYER01
  6
CONTINUOUS
 62
     7
 10
6423.8181479999994
 20
1753.409459
 30
0.0
  0
VERTEX
  5
6C9
  8
LAYER01
  6
CONTINUOUS
 62
     7
 10
6419.8532059999998
 20
1756.3831660000001
 30
0.0
  0
VERTEX
  5
6CA
  8
LAYER01
  6
CONTINUOUS
 62
     7
 10
6417.8707340000001
 20
1759.356873
 30
0.0
  0
VERTEX
  5
6CB
  8
LAYER01
  6
CONTINUOUS
 62
     7
 10
6415.8882629999989
 20
1763.3218159999999
 30
0.0
  0
VERTEX
  5
6CC
  8
LAYER01
  6
CONTINUOUS
 62
     7
 10
6413.9057909999992
 20
1767.2867590000001
 30
0.0
  0
VERTEX
  5
6CD
  8
LAYER01
  6
CONTINUOUS
 62
     7
 10
6413.9057909999992
 20
1772.242937
 30
0.0
  0
VERTEX
  5
6CE
  8
LAYER01
  6
CONTINUOUS
 62
     7
 10
6413.9057909999992
 20
1772.242937
 30
0.0
  0
VERTEX
  5
6CF
  8
LAYER01
  6
CONTINUOUS
 62
     7
 10
6413.9057909999992
 20
1776.2078799999999
 30
0.0
  0
VERTEX
  5
6D0
  8
LAYER01
  6
CONTINUOUS
 62
     7
 10
6415.8882629999989
 20
1780.1728230000001
 30
0.0
  0
VERTEX
  5
6D1
  8
LAYER01
  6
CONTINUOUS
 62
     7
 10
6417.8707340000001
 20
1784.1377660000001
 30
0.0
  0
VERTEX
  5
6D2
  8
LAYER01
  6
CONTINUOUS
 62
     7
 10
6419.8532059999998
 20
1787.1114729999999
 30
0.0
  0
VERTEX
  5
6D3
  8
LAYER01
  6
CONTINUOUS
 62
     7
 10
6423.8181479999994
 20
1790.08518
 30
0.0
  0
VERTEX
  5
6D4
  8
LAYER01
  6
CONTINUOUS
 62
     7
 10
6426.7918549999986
 20
1792.0676510000001
 30
0.0
  0
VERTEX
  5
6D5
  8
LAYER01
  6
CONTINUOUS
 62
     7
 10
6431.7480340000002
 20
1793.0588869999999
 30
0.0
  0
VERTEX
  5
6D6
  8
LAYER01
  6
CONTINUOUS
 62
     7
 10
6435.7129770000001
 20
1794.050121999999
 30
0.0
  0
VERTEX
  5
6D7
  8
LAYER01
  6
CONTINUOUS
 62
     7
 10
6435.7129770000001
 20
1794.050121999999
 30
0.0
  0
SEQEND
  5
6D8
  8
LAYER01
  6
CONTINUOUS
 62
     7
  0
POLYLINE
  5
2EA
  8
LAYER01
  6
CONTINUOUS
 62
     7
 66
     1
 10
0.0
 20
0.0
 30
0.0
 70
     1
  0
VERTEX
  5
6D9
  8
LAYER01
  6
CONTINUOUS
 62
     7
 10
6439.6779190000007
 20
1770.260466
 30
0.0
  0
VERTEX
  5
6DA
  8
LAYER01
  6
CONTINUOUS
 62
     7
 10
6439.6779190000007
 20
1770.260466
 30
0.0
  0
VERTEX
  5
6DB
  8
LAYER01
  6
CONTINUOUS
 62
     7
 10
6442.6516259999989
 20
1771.251702
 30
0.0
  0
VERTEX
  5
6DC
  8
LAYER01
  6
CONTINUOUS
 62
     7
 10
6445.625332999999
 20
1772.242937
 30
0.0
  0
VERTEX
  5
6DD
  8
LAYER01
  6
CONTINUOUS
 62
     7
 10
6447.6078049999996
 20
1775.2166440000001
 30
0.0
  0
VERTEX
  5
6DE
  8
LAYER01
  6
CONTINUOUS
 62
     7
 10
6447.6078049999996
 20
1778.190351
 30
0.0
  0
VERTEX
  5
6DF
  8
LAYER01
  6
CONTINUOUS
 62
     7
 10
6447.6078049999996
 20
1778.190351
 30
0.0
  0
VERTEX
  5
6E0
  8
LAYER01
  6
CONTINUOUS
 62
     7
 10
6447.6078049999996
 20
1782.1552939999999
 30
0.0
  0
VERTEX
  5
6E1
  8
LAYER01
  6
CONTINUOUS
 62
     7
 10
6444.6340980000004
 20
1785.129001
 30
0.0
  0
VERTEX
  5
6E2
  8
LAYER01
  6
CONTINUOUS
 62
     7
 10
6441.6603909999994
 20
1786.1202370000001
 30
0.0
  0
VERTEX
  5
6E3
  8
LAYER01
  6
CONTINUOUS
 62
     7
 10
6437.6954479999986
 20
1786.1202370000001
 30
0.0
  0
VERTEX
  5
6E4
  8
LAYER01
  6
CONTINUOUS
 62
     7
 10
6425.80062
 20
1786.1202370000001
 30
0.0
  0
VERTEX
  5
6E5
  8
LAYER01
  6
CONTINUOUS
 62
     7
 10
6425.80062
 20
1757.3744019999999
 30
0.0
  0
VERTEX
  5
6E6
  8
LAYER01
  6
CONTINUOUS
 62
     7
 10
6429.7655619999996
 20
1757.3744019999999
 30
0.0
  0
VERTEX
  5
6E7
  8
LAYER01
  6
CONTINUOUS
 62
     7
 10
6429.7655619999996
 20
1770.260466
 30
0.0
  0
VERTEX
  5
6E8
  8
LAYER01
  6
CONTINUOUS
 62
     7
 10
6435.7129770000001
 20
1770.260466
 30
0.0
  0
VERTEX
  5
6E9
  8
LAYER01
  6
CONTINUOUS
 62
     7
 10
6442.6516259999989
 20
1757.3744019999999
 30
0.0
  0
VERTEX
  5
6EA
  8
LAYER01
  6
CONTINUOUS
 62
     7
 10
6447.6078049999996
 20
1757.3744019999999
 30
0.0
  0
VERTEX
  5
6EB
  8
LAYER01
  6
CONTINUOUS
 62
     7
 10
6439.6779190000007
 20
1770.260466
 30
0.0
  0
VERTEX
  5
6EC
  8
LAYER01
  6
CONTINUOUS
 62
     7
 10
6439.6779190000007
 20
1770.260466
 30
0.0
  0
SEQEND
  5
6ED
  8
LAYER01
  6
CONTINUOUS
 62
     7
  0
POLYLINE
  5
2EB
  8
LAYER01
  6
CONTINUOUS
 62
     7
 66
     1
 10
0.0
 20
0.0
 30
0.0
 70
     1
  0
VERTEX
  5
6EE
  8
LAYER01
  6
CONTINUOUS
 62
     7
 10
6436.7042119999987
 20
1782.1552939999999
 30
0.0
  0
VERTEX
  5
6EF
  8
LAYER01
  6
CONTINUOUS
 62
     7
 10
6436.7042119999987
 20
1782.1552939999999
 30
0.0
  0
VERTEX
  5
6F0
  8
LAYER01
  6
CONTINUOUS
 62
     7
 10
6441.6603909999994
 20
1781.164059
 30
0.0
  0
VERTEX
  5
6F1
  8
LAYER01
  6
CONTINUOUS
 62
     7
 10
6443.6428619999997
 20
1780.1728230000001
 30
0.0
  0
VERTEX
  5
6F2
  8
LAYER01
  6
CONTINUOUS
 62
     7
 10
6443.6428619999997
 20
1778.190351
 30
0.0
  0
VERTEX
  5
6F3
  8
LAYER01
  6
CONTINUOUS
 62
     7
 10
6443.6428619999997
 20
1778.190351
 30
0.0
  0
VERTEX
  5
6F4
  8
LAYER01
  6
CONTINUOUS
 62
     7
 10
6442.6516259999989
 20
1776.2078799999999
 30
0.0
  0
VERTEX
  5
6F5
  8
LAYER01
  6
CONTINUOUS
 62
     7
 10
6440.6691549999987
 20
1775.2166440000001
 30
0.0
  0
VERTEX
  5
6F6
  8
LAYER01
  6
CONTINUOUS
 62
     7
 10
6434.7217410000003
 20
1774.2254089999999
 30
0.0
  0
VERTEX
  5
6F7
  8
LAYER01
  6
CONTINUOUS
 62
     7
 10
6429.7655619999996
 20
1774.2254089999999
 30
0.0
  0
VERTEX
  5
6F8
  8
LAYER01
  6
CONTINUOUS
 62
     7
 10
6429.7655619999996
 20
1782.1552939999999
 30
0.0
  0
VERTEX
  5
6F9
  8
LAYER01
  6
CONTINUOUS
 62
     7
 10
6436.7042119999987
 20
1782.1552939999999
 30
0.0
  0
VERTEX
  5
6FA
  8
LAYER01
  6
CONTINUOUS
 62
     7
 10
6436.7042119999987
 20
1782.1552939999999
 30
0.0
  0
SEQEND
  5
6FB
  8
LAYER01
  6
CONTINUOUS
 62
     7
  0
ENDBLK
  5
2EC
  8
0
  0
ENDSEC
  0
SECTION
  2
ENTITIES
  0
POLYLINE
  5
277
  8
LAYER01
  6
CONTINUOUS
 62
     7
 66
     1
 10
0.0
 20
0.0
 30
0.0
 70
     1
  0
VERTEX
  5
522
  8
LAYER01
  6
CONTINUOUS
 62
     7
 10
42.652242999999991
 20
-439.88294599999989
 30
0.0
  0
VERTEX
  5
523
  8
LAYER01
  6
CONTINUOUS
 62
     7
 10
42.652242999999991
 20
2322.5512840000001
 30
0.0
  0
VERTEX
  5
524
  8
LAYER01
  6
CONTINUOUS
 62
     7
 10
4029.803101
 20
2322.5512840000001
 30
0.0
  0
VERTEX
  5
525
  8
LAYER01
  6
CONTINUOUS
 62
     7
 10
4029.803101
 20
-439.88294599999989
 30
0.0
  0
SEQEND
  5
526
  8
LAYER01
  6
CONTINUOUS
 62
     7
  0
DIMENSION
  5
27D
  8
LAYER01
 62
     7
  2
*D0
 10
1787.7634109999999
 20
1379.0996769999999
 30
0.0
 11
1972.763414
 21
1409.0996769999999
 31
0.0
 13
2157.7634159999998
 23
1335.0588210000001
 33
0.0
 14
1787.7634109999999
 24
1335.0588210000001
 34
0.0
  0
DIMENSION
  5
27E
  8
LAYER01
 62
     7
  2
*D1
 10
1762.76342
 20
1463.6186049999999
 30
0.0
 11
1972.763414
 21
1493.6186049999999
 31
0.0
 13
2182.7634069999999
 23
1335.0588210000001
 33
0.0
 14
1762.76342
 24
1335.0588210000001
 34
0.0
  0
LINE
  5
27F
  8
0
  6
CONTINUOUS
 62
     7
 10
1787.7634109999999
 20
1335.0588210000001
 30
0.0
 11
2157.7634159999998
 21
1335.0588210000001
 31
0.0
  0
DIMENSION
  5
280
  8
LAYER01
 62
     7
  2
*D2
 10
1949.763414
 20
1091.7353250000001
 30
0.0
 11
2082.3348420000002
 21
1121.7353250000001
 31
0.0
 13
1995.763414
 23
1165.058816
 33
0.0
 14
1949.763414
 24
1165.058816
 34
0.0
  0
ARC
  5
281
  8
0
  6
CONTINUOUS
 62
     7
 10
2003.763414
 20
1338.715044
 30
0.0
 40
153.656229
 50
272.01900599999999
 51
354.57686200000001
  0
ARC
  5
282
  8
0
  6
CONTINUOUS
 62
     7
 10
2003.763414
 20
1338.715044
 30
0.0
 40
165.656229
 50
273.02304400000003
 51
353.04787299999998
  0
INSERT
  5
283
  8
LAYER01
  2
UBS370-G4
 10
0.0
 20
0.0
 30
0.0
  0
DIMENSION
  5
284
  8
LAYER01
 62
     7
  2
*D4
 10
1060.7580800000001
 20
922.76411299999995
 30
0.0
 11
1270.758073
 21
952.76411300000007
 31
0.0
 13
1480.758067
 23
751.83625199999994
 33
0.0
 14
1060.7580800000001
 24
751.83625199999994
 34
0.0
  0
INSERT
  5
285
  8
LAYER01
  2
UBS370-G6
 10
0.0
 20
0.0
 30
0.0
  0
LINE
  5
286
  8
0
  6
CONTINUOUS
 62
     7
 10
1293.758073
 20
589.58156399999984
 30
0.0
 11
1293.758073
 21
581.83624699999984
 31
0.0
  0
LINE
  5
287
  8
0
  6
CONTINUOUS
 62
     7
 10
1247.758073
 20
581.83624699999984
 30
0.0
 11
1247.758073
 21
589.58156399999984
 31
0.0
  0
ARC
  5
288
  8
0
  6
CONTINUOUS
 62
     7
 10
1310.758073
 20
585.07373099999995
 30
0.0
 40
5.0
 50
93.023043999999999
 51
180.0
  0
ARC
  5
289
  8
0
  6
CONTINUOUS
 62
     7
 10
1230.758073
 20
585.07373099999995
 30
0.0
 40
5.0
 50
0.0
 51
86.976956000000015
  0
LINE
  5
28A
  8
0
  6
CONTINUOUS
 62
     7
 10
1305.758073
 20
581.83624699999984
 30
0.0
 11
1305.758073
 21
585.07373099999995
 31
0.0
  0
LINE
  5
28B
  8
0
  6
CONTINUOUS
 62
     7
 10
1235.758073
 20
585.07373099999995
 30
0.0
 11
1235.758073
 21
581.83624699999984
 31
0.0
  0
LINE
  5
28C
  8
0
  6
CONTINUOUS
 62
     7
 10
1247.758073
 20
581.83624699999984
 30
0.0
 11
1293.758073
 21
581.83624699999984
 31
0.0
  0
LINE
  5
28D
  8
0
  6
CONTINUOUS
 62
     7
 10
1235.758073
 20
581.83624699999984
 30
0.0
 11
1247.758073
 21
581.83624699999984
 31
0.0
  0
LINE
  5
28E
  8
0
  6
CONTINUOUS
 62
     7
 10
1293.758073
 20
581.83624699999984
 30
0.0
 11
1305.758073
 21
581.83624699999984
 31
0.0
  0
ARC
  5
28F
  8
0
  6
CONTINUOUS
 62
     7
 10
1301.758073
 20
755.49247500000001
 30
0.0
 40
165.656229
 50
273.02304400000003
 51
353.04787299999998
  0
ARC
  5
290
  8
0
  6
CONTINUOUS
 62
     7
 10
1301.758073
 20
755.49247500000001
 30
0.0
 40
153.656229
 50
272.01900599999999
 51
354.57686200000001
  0
INSERT
  5
291
  8
LAYER01
  2
UBS370-G7
 10
0.0
 20
0.0
 30
0.0
  0
LINE
  5
292
  8
0
  6
CONTINUOUS
 62
     7
 10
1085.758071
 20
751.83625199999994
 30
0.0
 11
1455.7580760000001
 21
751.83625199999994
 31
0.0
  0
DIMENSION
  5
293
  8
LAYER01
 62
     7
  2
*D7
 10
1456.1458130000001
 20
853.05941099999995
 30
0.0
 11
1270.9519419999999
 21
883.05941099999995
 31
0.0
 13
1085.758071
 23
751.83625199999994
 33
0.0
 14
1456.1458130000001
 24
751.83625199999994
 34
0.0
  0
ARC
  5
294
  8
0
  6
CONTINUOUS
 62
     7
 10
1239.758073
 20
755.49247500000001
 30
0.0
 40
165.656229
 50
186.95212699999999
 51
266.97695599999997
  0
ARC
  5
295
  8
0
  6
CONTINUOUS
 62
     7
 10
1239.758073
 20
755.49247500000001
 30
0.0
 40
153.656229
 50
185.42313799999999
 51
267.98099400000001
  0
LINE
  5
296
  8
0
  6
CONTINUOUS
 62
     7
 10
1237.420026
 20
600.73306699999989
 30
0.0
 11
1246.0096450000001
 21
593.37989000000005
 31
0.0
  0
LINE
  5
297
  8
0
  6
CONTINUOUS
 62
     7
 10
1304.096121
 20
600.73306699999989
 30
0.0
 11
1237.420026
 21
600.73306699999989
 31
0.0
  0
LINE
  5
298
  8
0
  6
CONTINUOUS
 62
     7
 10
1295.5065010000001
 20
593.37989000000005
 30
0.0
 11
1304.096121
 21
600.73306699999989
 31
0.0
  0
LINE
  5
299
  8
0
  6
CONTINUOUS
 62
     7
 10
1246.0096450000001
 20
593.37989000000005
 30
0.0
 11
1295.5065010000001
 21
593.37989000000005
 31
0.0
  0
ARC
  5
29A
  8
0
  6
CONTINUOUS
 62
     7
 10
1298.758073
 20
589.58156399999984
 30
0.0
 40
5.0
 50
130.56530799999999
 51
180.0
  0
ARC
  5
29B
  8
0
  6
CONTINUOUS
 62
     7
 10
1242.758073
 20
589.58156399999984
 30
0.0
 40
5.0
 50
0.0
 51
49.434691999999998
  0
ARC
  5
29C
  8
0
  6
CONTINUOUS
 62
     7
 10
1234.1684540000001
 20
596.93474100000003
 30
0.0
 40
5.0
 50
49.434691999999998
 51
87.980993999999995
  0
ARC
  5
29D
  8
0
  6
CONTINUOUS
 62
     7
 10
1307.3476920000001
 20
596.93474100000003
 30
0.0
 40
5.0
 50
92.019006000000005
 51
130.56530799999999
  0
LINE
  5
29E
  8
0
  6
CONTINUOUS
 62
     7
 10
1060.7580800000001
 20
751.83625199999994
 30
0.0
 11
1060.7580800000001
 21
739.83624299999985
 31
0.0
  0
LINE
  5
29F
  8
0
  6
CONTINUOUS
 62
     7
 10
1086.789634
 20
740.97037
 30
0.0
 11
1085.758071
 21
751.83625199999994
 31
0.0
  0
ARC
  5
2A0
  8
0
  6
CONTINUOUS
 62
     7
 10
1070.3565719999999
 20
734.83624599999985
 30
0.0
 40
5.0
 50
6.9521269999999991
 51
90.0
  0
LINE
  5
2A1
  8
0
  6
CONTINUOUS
 62
     7
 10
1060.7580800000001
 20
739.83624299999985
 30
0.0
 11
1070.356573
 21
739.83624299999985
 31
0.0
  0
LINE
  5
2A2
  8
0
  6
CONTINUOUS
 62
     7
 10
1085.758071
 20
751.83625199999994
 30
0.0
 11
1060.7580800000001
 21
751.83625199999994
 31
0.0
  0
DIMENSION
  5
2A3
  8
LAYER01
 62
     7
  2
*D8
 10
1060.7580800000001
 20
788.80644800000005
 30
0.0
 11
1173.0437850000001
 21
818.80644800000005
 31
0.0
 13
1085.758071
 23
751.83625199999994
 33
0.0
 14
1060.7580800000001
 24
751.83625199999994
 34
0.0
  0
LINE
  5
2A4
  8
0
  6
CONTINUOUS
 62
     7
 10
1480.758067
 20
739.83624299999985
 30
0.0
 11
1480.758067
 21
751.83625199999994
 31
0.0
  0
LINE
  5
2A5
  8
0
  6
CONTINUOUS
 62
     7
 10
1455.7580760000001
 20
751.83625199999994
 30
0.0
 11
1454.7265130000001
 21
740.97037
 31
0.0
  0
ARC
  5
2A6
  8
0
  6
CONTINUOUS
 62
     7
 10
1471.1595749999999
 20
734.83624599999985
 30
0.0
 40
5.0
 50
90.0
 51
173.04787300000001
  0
LINE
  5
2A7
  8
0
  6
CONTINUOUS
 62
     7
 10
1471.1595729999999
 20
739.83624299999985
 30
0.0
 11
1480.758067
 21
739.83624299999985
 31
0.0
  0
LINE
  5
2A8
  8
0
  6
CONTINUOUS
 62
     7
 10
1480.758067
 20
751.83625199999994
 30
0.0
 11
1455.7580760000001
 21
751.83625199999994
 31
0.0
  0
CIRCLE
  5
2A9
  8
0
  6
CONTINUOUS
 62
     7
 10
1270.758073
 20
1225.512725
 30
0.0
 40
185.0
  0
CIRCLE
  5
2AA
  8
0
  6
CONTINUOUS
 62
     7
 10
1270.758073
 20
1225.512725
 30
0.0
 40
210.0
  0
CIRCLE
  5
2AB
  8
0
  6
CONTINUOUS
 62
     7
 10
1270.758073
 20
1225.512725
 30
0.0
 40
33.338047000000003
  0
CIRCLE
  5
2AC
  8
0
  6
CONTINUOUS
 62
     7
 10
1270.758073
 20
1225.512725
 30
0.0
 40
24.748428000000001
  0
INSERT
  5
2AD
  8
LAYER01
  2
UBS370-G10
 10
0.0
 20
0.0
 30
0.0
  0
DIMENSION
  5
2AE
  8
LAYER01
 62
     7
  2
*D10
 10
1085.758073
 20
1483.0284380000001
 30
0.0
 11
1270.758073
 21
1513.0284380000001
 31
0.0
 13
1455.758073
 23
1435.7502019999999
 33
0.0
 14
1085.758073
 24
1435.7502019999999
 34
0.0
  0
DIMENSION
  5
2AF
  8
LAYER01
 62
     7
  2
*D11
 10
1060.758073
 20
1553.285513
 30
0.0
 11
1270.758073
 21
1583.285513
 31
0.0
 13
1480.758073
 23
1435.7502019999999
 33
0.0
 14
1060.758073
 24
1435.7502019999999
 34
0.0
  0
ARC
  5
2B0
  8
0
  6
CONTINUOUS
 62
     7
 10
1941.763414
 20
1338.715044
 30
0.0
 40
165.656229
 50
186.95212699999999
 51
266.97695599999997
  0
ARC
  5
2B1
  8
0
  6
CONTINUOUS
 62
     7
 10
1941.763414
 20
1338.715044
 30
0.0
 40
153.656229
 50
185.42313799999999
 51
267.98099400000001
  0
INSERT
  5
2B2
  8
LAYER01
  2
UBS370-G13
 10
0.0
 20
0.0
 30
0.0
  0
DIMENSION
  5
2B3
  8
LAYER01
 62
     7
  2
*D13
 10
1618.833527
 20
1165.058816
 30
0.0
 11
1588.833527
 21
1250.0588190000001
 31
0.0
 53
90.0
 13
1762.76342
 23
1335.0588210000001
 33
0.0
 14
1762.76342
 24
1165.058816
 34
0.0
 50
90.0
  0
DIMENSION
  5
2B4
  8
LAYER01
 62
     7
  2
*D14
 10
1701.0681589999999
 20
1183.9556359999999
 30
0.0
 11
1671.0681589999999
 21
1265.9358
 31
0.0
 53
90.0
 13
1762.76342
 23
1335.0588210000001
 33
0.0
 14
1762.76342
 24
1183.9556359999999
 34
0.0
 50
90.0
  0
LINE
  5
2B5
  8
0
  6
CONTINUOUS
 62
     7
 10
1949.763414
 20
1165.058816
 30
0.0
 11
1995.763414
 21
1165.058816
 31
0.0
  0
LINE
  5
2B6
  8
0
  6
CONTINUOUS
 62
     7
 10
1948.0149859999999
 20
1176.6024600000001
 30
0.0
 11
1997.511841
 21
1176.6024600000001
 31
0.0
  0
LINE
  5
2B7
  8
0
  6
CONTINUOUS
 62
     7
 10
2006.101461
 20
1183.9556359999999
 30
0.0
 11
1939.4253659999999
 21
1183.9556359999999
 31
0.0
  0
LINE
  5
2B8
  8
0
  6
CONTINUOUS
 62
     7
 10
1937.7634129999999
 20
1168.2963
 30
0.0
 11
1937.7634129999999
 21
1165.058816
 31
0.0
  0
ARC
  5
2B9
  8
0
  6
CONTINUOUS
 62
     7
 10
1936.1737949999999
 20
1180.1573100000001
 30
0.0
 40
5.0
 50
49.434691999999998
 51
87.980993999999995
  0
LINE
  5
2BA
  8
0
  6
CONTINUOUS
 62
     7
 10
1939.4253659999999
 20
1183.9556359999999
 30
0.0
 11
1948.0149859999999
 21
1176.6024600000001
 31
0.0
  0
ARC
  5
2BB
  8
0
  6
CONTINUOUS
 62
     7
 10
1944.763414
 20
1172.8041330000001
 30
0.0
 40
5.0
 50
0.0
 51
49.434691999999998
  0
LINE
  5
2BC
  8
0
  6
CONTINUOUS
 62
     7
 10
1949.763414
 20
1165.058816
 30
0.0
 11
1949.763414
 21
1172.8041330000001
 31
0.0
  0
ARC
  5
2BD
  8
0
  6
CONTINUOUS
 62
     7
 10
1932.763414
 20
1168.2963
 30
0.0
 40
5.0
 50
0.0
 51
86.976956000000015
  0
LINE
  5
2BE
  8
0
  6
CONTINUOUS
 62
     7
 10
1937.7634129999999
 20
1165.058816
 30
0.0
 11
1949.763414
 21
1165.058816
 31
0.0
  0
LINE
  5
2BF
  8
0
  6
CONTINUOUS
 62
     7
 10
2007.763414
 20
1165.058816
 30
0.0
 11
2007.763414
 21
1168.2963
 31
0.0
  0
LINE
  5
2C0
  8
0
  6
CONTINUOUS
 62
     7
 10
1995.763414
 20
1172.8041330000001
 30
0.0
 11
1995.763414
 21
1165.058816
 31
0.0
  0
ARC
  5
2C1
  8
0
  6
CONTINUOUS
 62
     7
 10
2000.763414
 20
1172.8041330000001
 30
0.0
 40
5.0
 50
130.56530799999999
 51
180.0
  0
LINE
  5
2C2
  8
0
  6
CONTINUOUS
 62
     7
 10
1997.511841
 20
1176.6024600000001
 30
0.0
 11
2006.101461
 21
1183.9556359999999
 31
0.0
  0
ARC
  5
2C3
  8
0
  6
CONTINUOUS
 62
     7
 10
2009.3530330000001
 20
1180.1573100000001
 30
0.0
 40
5.0
 50
92.019006000000005
 51
130.56530799999999
  0
ARC
  5
2C4
  8
0
  6
CONTINUOUS
 62
     7
 10
2012.763414
 20
1168.2963
 30
0.0
 40
5.0
 50
93.023043999999999
 51
180.0
  0
LINE
  5
2C5
  8
0
  6
CONTINUOUS
 62
     7
 10
1995.763414
 20
1165.058816
 30
0.0
 11
2007.763414
 21
1165.058816
 31
0.0
  0
ARC
  5
2C6
  8
0
  6
CONTINUOUS
 62
     7
 10
1772.3619120000001
 20
1318.058816
 30
0.0
 40
5.0
 50
6.9521269999999991
 51
90.0
  0
LINE
  5
2C7
  8
0
  6
CONTINUOUS
 62
     7
 10
1762.76342
 20
1323.058812
 30
0.0
 11
1772.3619140000001
 21
1323.058812
 31
0.0
  0
LINE
  5
2C8
  8
0
  6
CONTINUOUS
 62
     7
 10
1762.76342
 20
1335.0588210000001
 30
0.0
 11
1762.76342
 21
1323.058812
 31
0.0
  0
LINE
  5
2C9
  8
0
  6
CONTINUOUS
 62
     7
 10
1787.7634109999999
 20
1335.0588210000001
 30
0.0
 11
1762.76342
 21
1335.0588210000001
 31
0.0
  0
LINE
  5
2CA
  8
0
  6
CONTINUOUS
 62
     7
 10
1788.7949739999999
 20
1324.192939
 30
0.0
 11
1787.7634109999999
 21
1335.0588210000001
 31
0.0
  0
INSERT
  5
2CB
  8
LAYER01
  2
UBS370-G16
 10
0.0
 20
0.0
 30
0.0
  0
TEXT
  5
2CC
  8
LAYER01
  6
STRICHPUNKTIERT
 62
     7
 10
2754.5860842471161
 20
126.45330272540789
 30
0.0
 40
46.191599999999987
  1
http://www.mineralwerkstoff.de
  0
TEXT
  5
2CD
  8
LAYER01
  6
VERDECKT
 62
     1
 10
3430.3658209999999
 20
-146.459733
 30
0.0
 40
30.0
  1
A. Sprenger GmbH
  7
SIMPLEX
  0
TEXT
  5
2CE
  8
LAYER01
  6
CONTINUOUS
 62
     7
 10
3420.6336329999999
 20
39.326269000000011
 30
0.0
 40
9.0
  1
Diese Zeichnung ist geistiges Eigentum der A. Sprenger GmbH
  7
SIMPLEX
  0
TEXT
  5
2CF
  8
LAYER01
  6
CONTINUOUS
 62
     7
 10
3420.6336329999999
 20
23.897697999999998
 30
0.0
 40
9.0
  1
und urheberrechtlich geschützt. Ohne unsere Zustimmung darf 
  7
SIMPLEX
  0
TEXT
  5
2D0
  8
LAYER01
  6
CONTINUOUS
 62
     7
 10
3420.6336329999999
 20
8.4691259999999993
 30
0.0
 40
9.0
  1
sie in keiner Form verwendet oder Dritten zugänglich gemacht
  7
SIMPLEX
  0
TEXT
  5
2D1
  8
LAYER01
  6
CONTINUOUS
 62
     7
 10
3420.6336329999999
 20
-6.9594449999999988
 30
0.0
 40
9.0
  1
werden. (§106 Urheberrecht)
  7
SIMPLEX
  0
TEXT
  5
2D2
  8
LAYER01
  6
VERDECKT
 62
     1
 10
3430.3658209999999
 20
-264.27919400000002
 30
0.0
 40
42.0
  1
UBS370
  7
SIMPLEX
  0
TEXT
  5
2D3
  8
LAYER01
  6
VERDECKT
 62
     1
 10
3509.498294
 20
-69.085758999999996
 30
0.0
 40
12.0
  1
1 : 10 (DIN A3)
  7
SIMPLEX
  0
TEXT
  5
2D4
  8
LAYER01
  6
VERDECKT
 62
     1
 10
3152.3665449999999
 20
-215.921491
 30
0.0
 40
12.0
  1
14.10.2021
  7
SIMPLEX
  0
TEXT
  5
2D5
  8
LAYER01
  6
VERDECKT
 62
     1
 10
3267.7551330000001
 20
-215.96533500000001
 30
0.0
 40
12.0
  1
b.s.
  7
SIMPLEX
  0
TEXT
  5
2D6
  8
LAYER01
  6
VERDECKT
 62
     1
 10
3818.7726069999999
 20
-69.085758999999996
 30
0.0
 40
12.0
  1
ubs370.skd
  7
SIMPLEX
  0
LINE
  5
2D7
  8
0
  6
CONTINUOUS
 62
     7
 10
2182.7634069999999
 20
1335.0588210000001
 30
0.0
 11
2157.7634159999998
 21
1335.0588210000001
 31
0.0
  0
LINE
  5
2D8
  8
0
  6
CONTINUOUS
 62
     7
 10
2157.7634159999998
 20
1335.0588210000001
 30
0.0
 11
2156.7318529999998
 21
1324.192939
 31
0.0
  0
LINE
  5
2D9
  8
0
  6
CONTINUOUS
 62
     7
 10
2182.7634069999999
 20
1323.058812
 30
0.0
 11
2182.7634069999999
 21
1335.0588210000001
 31
0.0
  0
LINE
  5
2DA
  8
0
  6
CONTINUOUS
 62
     7
 10
2173.1649130000001
 20
1323.058812
 30
0.0
 11
2182.7634069999999
 21
1323.058812
 31
0.0
  0
ARC
  5
2DB
  8
0
  6
CONTINUOUS
 62
     7
 10
2173.1649149999998
 20
1318.058816
 30
0.0
 40
5.0
 50
90.0
 51
173.04787300000001
  0
INSERT
  5
2F8
  8
LAYER01
  2
TRIGO-G1
 10
-3152.3944824230712
 20
-1520.586210376614
 30
0.0
 41
1.1000000000000221
 42
1.0999999999999941
 43
1.1000000000000001
  0
ENDSEC
  0
EOF
