  0
SECTION
  2
HEADER
  9
$ACADVER
  1
AC1009
  9
$INSBASE
 10
0.0
 20
0.0
 30
0.0
  9
$EXTMIN
 10
-650.25441284986482
 20
-1468.284067902104
 30
-0.0015258207003583
  9
$EXTMAX
 10
4450.4230784330348
 20
1413.7525225716649
 30
0.0000000349246037
  9
$LIMMIN
 10
-687.29665899999986
 20
-1511.2461109999999
  9
$LIMMAX
 10
3512.7033409999999
 20
1458.7538890000001
  9
$ORTHOMODE
 70
     1
  9
$REGENMODE
 70
     1
  9
$FILLMODE
 70
     1
  9
$QTEXTMODE
 70
     0
  9
$MIRRTEXT
 70
     0
  9
$DRAGMODE
 70
     2
  9
$LTSCALE
 40
5.0
  9
$OSMODE
 70
    37
  9
$ATTMODE
 70
     1
  9
$TEXTSIZE
 40
0.0
  9
$TRACEWID
 40
0.05
  9
$TEXTSTYLE
  7
STANDARD
  9
$CLAYER
  8
LAYER01
  9
$CELTYPE
  6
CONTINUOUS
  9
$CECOLOR
 62
     7
  9
$DIMSCALE
 40
1.0
  9
$DIMASZ
 40
0.18
  9
$DIMEXO
 40
0.0625
  9
$DIMDLI
 40
0.38
  9
$DIMRND
 40
0.0
  9
$DIMDLE
 40
0.0
  9
$DIMEXE
 40
0.18
  9
$DIMTP
 40
0.0
  9
$DIMTM
 40
0.0
  9
$DIMTXT
 40
0.18
  9
$DIMCEN
 40
0.09
  9
$DIMTSZ
 40
0.0
  9
$DIMTOL
 70
     0
  9
$DIMLIM
 70
     0
  9
$DIMTIH
 70
     1
  9
$DIMTOH
 70
     1
  9
$DIMSE1
 70
     0
  9
$DIMSE2
 70
     0
  9
$DIMTAD
 70
     0
  9
$DIMZIN
 70
     0
  9
$DIMBLK
  1

  9
$DIMASO
 70
     1
  9
$DIMSHO
 70
     1
  9
$DIMPOST
  1

  9
$DIMAPOST
  1

  9
$DIMALT
 70
     0
  9
$DIMALTD
 70
     2
  9
$DIMALTF
 40
25.399999999999999
  9
$DIMLFAC
 40
1.0
  9
$DIMTOFL
 70
     0
  9
$DIMTVP
 40
0.0
  9
$DIMTIX
 70
     0
  9
$DIMSOXD
 70
     0
  9
$DIMSAH
 70
     0
  9
$DIMBLK1
  1

  9
$DIMBLK2
  1

  9
$DIMSTYLE
  2
STANDARD
  9
$DIMCLRD
 70
     0
  9
$DIMCLRE
 70
     0
  9
$DIMCLRT
 70
     0
  9
$DIMTFAC
 40
1.0
  9
$DIMGAP
 40
0.09
  9
$LUNITS
 70
     2
  9
$LUPREC
 70
     4
  9
$SKETCHINC
 40
0.1
  9
$FILLETRAD
 40
50.0
  9
$AUNITS
 70
     0
  9
$AUPREC
 70
     0
  9
$MENU
  1
acad
  9
$ELEVATION
 40
0.0
  9
$PELEVATION
 40
0.0
  9
$THICKNESS
 40
0.0
  9
$LIMCHECK
 70
     0
  9
$BLIPMODE
 70
     0
  9
$CHAMFERA
 40
0.0
  9
$CHAMFERB
 40
0.0
  9
$SKPOLY
 70
     0
  9
$TDCREATE
 40
11466474.34925355
  9
$TDUPDATE
 40
2459773.3628357062
  9
$TDINDWG
 40
0.0004493287
  9
$TDUSRTIMER
 40
0.0004491435
  9
$USRTIMER
 70
     1
  9
$ANGBASE
 50
0.0
  9
$ANGDIR
 70
     0
  9
$PDMODE
 70
     0
  9
$PDSIZE
 40
0.0
  9
$PLINEWID
 40
0.0
  9
$COORDS
 70
     0
  9
$SPLFRAME
 70
     0
  9
$SPLINETYPE
 70
     6
  9
$SPLINESEGS
 70
    10
  9
$ATTDIA
 70
     0
  9
$ATTREQ
 70
     1
  9
$HANDLING
 70
     1
  9
$HANDSEED
  5
974
  9
$SURFTAB1
 70
     6
  9
$SURFTAB2
 70
     6
  9
$SURFTYPE
 70
     6
  9
$SURFU
 70
     6
  9
$SURFV
 70
     6
  9
$UCSNAME
  2

  9
$UCSORG
 10
0.0
 20
0.0
 30
0.0
  9
$UCSXDIR
 10
1.0
 20
0.0
 30
0.0
  9
$UCSYDIR
 10
0.0
 20
1.0
 30
0.0
  9
$PUCSNAME
  2

  9
$PUCSORG
 10
0.0
 20
0.0
 30
0.0
  9
$PUCSXDIR
 10
1.0
 20
0.0
 30
0.0
  9
$PUCSYDIR
 10
0.0
 20
1.0
 30
0.0
  9
$USERI1
 70
     0
  9
$USERI2
 70
     0
  9
$USERI3
 70
     0
  9
$USERI4
 70
     0
  9
$USERI5
 70
     0
  9
$USERR1
 40
0.0
  9
$USERR2
 40
0.0
  9
$USERR3
 40
0.0
  9
$USERR4
 40
0.0
  9
$USERR5
 40
0.0
  9
$WORLDVIEW
 70
     1
  9
$SHADEDGE
 70
     3
  9
$SHADEDIF
 70
    70
  9
$TILEMODE
 70
     1
  9
$MAXACTVP
 70
    64
  9
$PLIMCHECK
 70
     0
  9
$PEXTMIN
 10
1.0000000000000000E+020
 20
1.0000000000000000E+020
 30
1.0000000000000000E+020
  9
$PEXTMAX
 10
-1.0000000000000000E+020
 20
-1.0000000000000000E+020
 30
-1.0000000000000000E+020
  9
$PLIMMIN
 10
0.0
 20
0.0
  9
$PLIMMAX
 10
12.0
 20
9.0
  9
$UNITMODE
 70
     0
  9
$VISRETAIN
 70
     1
  9
$PLINEGEN
 70
     0
  9
$PSLTSCALE
 70
     1
  0
ENDSEC
  0
SECTION
  2
TABLES
  0
TABLE
  2
VPORT
 70
     1
  0
VPORT
  2
*ACTIVE
 70
     0
 10
0.0
 20
0.0
 11
1.0
 21
1.0
 12
1881.5632097165169
 22
-26.246110999999932
 13
0.0
 23
0.0
 14
1.0
 24
1.0
 15
0.0
 25
0.0
 16
0.0
 26
0.0
 36
1.0
 17
0.0
 27
0.0
 37
0.0
 40
2998.0629921259838
 41
1.9495268138801261
 42
50.0
 43
0.0
 44
0.0
 50
0.0
 51
0.0
 71
     0
 72
   100
 73
     1
 74
     1
 75
     0
 76
     0
 77
     0
 78
     0
  0
ENDTAB
  0
TABLE
  2
LTYPE
 70
    11
  0
LTYPE
  2
CONTINUOUS
 70
     0
  3
Solid line
 72
    65
 73
     0
 40
0.0
  0
LTYPE
  2
GESTRICHELT
 70
     0
  3
__ __ __ __ __ __ __ __ __ __ __ __ __ __ __
 72
    65
 73
     2
 40
0.75
 49
0.5
 49
-0.25
  0
LTYPE
  2
VERDECKT
 70
     0
  3
_ _ _ _ _ _ _ _ _ _ _ _ _ _ _ _ _ _ _ _ _ _ 
 72
    65
 73
     2
 40
0.25
 49
0.125
 49
-0.125
  0
LTYPE
  2
MITTELLINIE
 70
     0
  3
____ _ ____ _ ____ _ ____ _ ____ _ ____ _ __
 72
    65
 73
     4
 40
2.0
 49
1.25
 49
-0.25
 49
0.25
 49
-0.25
  0
LTYPE
  2
PHANTOM
 70
     0
  3
_____ _ _ _____ _ _ _____ _ _ _____ _ _ ____
 72
    65
 73
     6
 40
2.5
 49
1.25
 49
-0.25
 49
0.25
 49
-0.25
 49
0.25
 49
-0.25
  0
LTYPE
  2
PUNKTIERT
 70
     0
  3
............................................
 72
    65
 73
     2
 40
0.25
 49
0.0
 49
-0.25
  0
LTYPE
  2
STRICHPUNKTIERT
 70
     0
  3
__ . __ . __ . __ . __ . __ . __ . __ . __ .
 72
    65
 73
     4
 40
1.0
 49
0.5
 49
-0.25
 49
0.0
 49
-0.25
  0
LTYPE
  2
RAND
 70
     0
  3
__ __ . __ __ . __ __ . __ __ . __ __ . __ _
 72
    65
 73
     6
 40
1.75
 49
0.5
 49
-0.25
 49
0.5
 49
-0.25
 49
0.0
 49
-0.25
  0
LTYPE
  2
TRENNLINIE
 70
     0
  3
__ . . __ . . __ . . __ . . __ . . __ . . __
 72
    65
 73
     6
 40
1.25
 49
0.5
 49
-0.25
 49
0.0
 49
-0.25
 49
0.0
 49
-0.25
  0
LTYPE
  2
ENG_PUNKTIERT
 70
     0
  3
Schließen                                   
 72
    65
 73
     2
 40
0.1
 49
0.05
 49
-0.05
  0
LTYPE
  2
CLOSE
 70
     0
  3
                                            
 72
    65
 73
     0
 40
0.0
  0
ENDTAB
  0
TABLE
  2
LAYER
 70
   256
  0
LAYER
  2
0
 70
     0
 62
     7
  6
CONTINUOUS
  0
LAYER
  2
LAYER01
 70
     0
 62
     7
  6
CONTINUOUS
  0
LAYER
  2
LAYER02
 70
     0
 62
     7
  6
CONTINUOUS
  0
LAYER
  2
LAYER03
 70
     0
 62
     7
  6
CONTINUOUS
  0
LAYER
  2
LAYER04
 70
     0
 62
     7
  6
CONTINUOUS
  0
LAYER
  2
LAYER05
 70
     0
 62
     7
  6
CONTINUOUS
  0
LAYER
  2
LAYER06
 70
     0
 62
     7
  6
CONTINUOUS
  0
LAYER
  2
LAYER07
 70
     0
 62
     7
  6
CONTINUOUS
  0
LAYER
  2
LAYER08
 70
     0
 62
     7
  6
CONTINUOUS
  0
LAYER
  2
LAYER09
 70
     0
 62
     7
  6
CONTINUOUS
  0
LAYER
  2
LAYER10
 70
     0
 62
     7
  6
CONTINUOUS
  0
LAYER
  2
2
 70
     0
 62
     7
  6
CONTINUOUS
  0
LAYER
  2
5
 70
     0
 62
     7
  6
CONTINUOUS
  0
LAYER
  2
RAUMAUFM
 70
     0
 62
     7
  6
CONTINUOUS
  0
LAYER
  2
EINRICHT
 70
     0
 62
     7
  6
CONTINUOUS
  0
LAYER
  2
HILFE
 70
     0
 62
     7
  6
CONTINUOUS
  0
LAYER
  2
SCHNITTE
 70
     0
 62
     7
  6
CONTINUOUS
  0
LAYER
  2
SCHRAFF1
 70
     0
 62
     7
  6
CONTINUOUS
  0
LAYER
  2
SCHRAFF2
 70
     0
 62
     7
  6
CONTINUOUS
  0
LAYER
  2
BEMASS-1
 70
     0
 62
     7
  6
CONTINUOUS
  0
LAYER
  2
BEMASS-2
 70
     0
 62
     7
  6
CONTINUOUS
  0
LAYER
  2
TEXT
 70
     0
 62
     7
  6
CONTINUOUS
  0
LAYER
  2
SYMBOLE
 70
     0
 62
     7
  6
CONTINUOUS
  0
LAYER
  2
RAHMEN
 70
     0
 62
     7
  6
CONTINUOUS
  0
LAYER
  2
SCHRIFTF
 70
     0
 62
     7
  6
CONTINUOUS
  0
LAYER
  2
ACHSEN
 70
     0
 62
     7
  6
CONTINUOUS
  0
LAYER
  2
ZEICHN
 70
     0
 62
     7
  6
CONTINUOUS
  0
LAYER
  2
7
 70
     0
 62
     7
  6
CONTINUOUS
  0
LAYER
  2
1
 70
     0
 62
     7
  6
CONTINUOUS
  0
LAYER
  2
6
 70
     0
 62
     7
  6
CONTINUOUS
  0
LAYER
  2
4
 70
     0
 62
     7
  6
CONTINUOUS
  0
LAYER
  2
GRUNDEBENE
 70
     0
 62
     7
  6
CONTINUOUS
  0
LAYER
  2
GRUNDRISS
 70
     0
 62
     7
  6
CONTINUOUS
  0
LAYER
  2
BEMASSUNGGRUNDRISS
 70
     0
 62
     7
  6
CONTINUOUS
  0
LAYER
  2
WANDELEMENTE
 70
     0
 62
     7
  6
CONTINUOUS
  0
LAYER
  2
KUECHE
 70
     0
 62
     7
  6
CONTINUOUS
  0
LAYER
  2
THEKEBROETCHEN
 70
     0
 62
     7
  6
CONTINUOUS
  0
LAYER
  2
CENTERLINIE
 70
     0
 62
     7
  6
CONTINUOUS
  0
LAYER
  2
UMRISSE
 70
     0
 62
     7
  6
CONTINUOUS
  0
LAYER
  2
MAUER
 70
     0
 62
     7
  6
CONTINUOUS
  0
LAYER
  2
SCHRAFFUR
 70
     0
 62
     7
  6
CONTINUOUS
  0
LAYER
  2
MASSLINIE
 70
     0
 62
     7
  6
CONTINUOUS
  0
LAYER
  2
PV
 70
     0
 62
     7
  6
CONTINUOUS
  0
LAYER
  2
BESCHRIFTUNG
 70
     0
 62
     7
  6
CONTINUOUS
  0
LAYER
  2
AS
 70
     0
 62
     7
  6
CONTINUOUS
  0
LAYER
  2
PL
 70
     0
 62
     7
  6
CONTINUOUS
  0
LAYER
  2
UK
 70
     0
 62
     7
  6
CONTINUOUS
  0
LAYER
  2
TEXT3
 70
     0
 62
     7
  6
CONTINUOUS
  0
LAYER
  2
TEXT7
 70
     0
 62
     7
  6
CONTINUOUS
  0
LAYER
  2
BEPL1
 70
     0
 62
     7
  6
CONTINUOUS
  0
LAYER
  2
BEPL2
 70
     0
 62
     7
  6
CONTINUOUS
  0
LAYER
  2
BEPL2V
 70
     0
 62
     7
  6
CONTINUOUS
  0
LAYER
  2
BEPL4
 70
     0
 62
     7
  6
CONTINUOUS
  0
LAYER
  2
BEPL
 70
     0
 62
     7
  6
CONTINUOUS
  0
LAYER
  2
UK1
 70
     0
 62
     7
  6
CONTINUOUS
  0
LAYER
  2
UK2
 70
     0
 62
     7
  6
CONTINUOUS
  0
LAYER
  2
UK2V
 70
     0
 62
     7
  6
CONTINUOUS
  0
LAYER
  2
UK3
 70
     0
 62
     7
  6
CONTINUOUS
  0
LAYER
  2
TEXT2
 70
     0
 62
     7
  6
CONTINUOUS
  0
LAYER
  2
HILF2S
 70
     0
 62
     7
  6
CONTINUOUS
  0
LAYER
  2
UK1V
 70
     0
 62
     7
  6
CONTINUOUS
  0
LAYER
  2
GAIN_ZRA
 70
     0
 62
     7
  6
CONTINUOUS
  0
LAYER
  2
GAIN_ZSF
 70
     0
 62
     7
  6
CONTINUOUS
  0
LAYER
  2
RAHM4
 70
     0
 62
     7
  6
CONTINUOUS
  0
LAYER
  2
KORPUSBAND
 70
     0
 62
     7
  6
CONTINUOUS
  0
LAYER
  2
E---LGPL--------
 70
     0
 62
     7
  6
CONTINUOUS
  0
LAYER
  2
E---NPFL--------
 70
     0
 62
     7
  6
CONTINUOUS
  0
LAYER
  2
E---PLNKTXT-----
 70
     0
 62
     7
  6
CONTINUOUS
  0
LAYER
  2
E---PLNK--------
 70
     0
 62
     7
  6
CONTINUOUS
  0
LAYER
  2
E---PLNR--------
 70
     0
 62
     7
  6
CONTINUOUS
  0
LAYER
  2
D547_ARCHICAD
 70
     0
 62
     7
  6
CONTINUOUS
  0
LAYER
  2
D547_E---TEXT--------
 70
     0
 62
     7
  6
CONTINUOUS
  0
LAYER
  2
E---LEGD--------
 70
     0
 62
     7
  6
CONTINUOUS
  0
LAYER
  2
D43_ARCHICAD
 70
     0
 62
     7
  6
CONTINUOUS
  0
LAYER
  2
D43_FENSTER_VON_B---FASS--
 70
     0
 62
     7
  6
CONTINUOUS
  0
LAYER
  2
D43_E---SCHN--------
 70
     0
 62
     7
  6
CONTINUOUS
  0
LAYER
  2
D43_B---MW-N--------
 70
     0
 62
     7
  6
CONTINUOUS
  0
LAYER
  2
D43_B---DECK--------
 70
     0
 62
     7
  6
CONTINUOUS
  0
LAYER
  2
D43_B---MW-S--------
 70
     0
 62
     7
  6
CONTINUOUS
  0
LAYER
  2
D43_B---MW----------
 70
     0
 62
     7
  6
CONTINUOUS
  0
LAYER
  2
D43_B---FASS--------
 70
     0
 62
     7
  6
CONTINUOUS
  0
LAYER
  2
D43_E---RASG--------
 70
     0
 62
     7
  6
CONTINUOUS
  0
LAYER
  2
D40_ARCHICAD
 70
     0
 62
     7
  6
CONTINUOUS
  0
LAYER
  2
D40_E---MW--------
 70
     0
 62
     7
  6
CONTINUOUS
  0
LAYER
  2
D40_E---FASSKON-----
 70
     0
 62
     7
  6
CONTINUOUS
  0
LAYER
  2
D40_TÜREN_VON_B---MW-N----
 70
     0
 62
     7
  6
CONTINUOUS
  0
LAYER
  2
D40_E---MW-L------
 70
     0
 62
     7
  6
CONTINUOUS
  0
LAYER
  2
D40_TÜREN_VON_B---MW------
 70
     0
 62
     7
  6
CONTINUOUS
  0
LAYER
  2
D40_E---VERM--------
 70
     0
 62
     7
  6
CONTINUOUS
  0
LAYER
  2
D40_FENSTER_VON_E---MW-L--
 70
     0
 62
     7
  6
CONTINUOUS
  0
LAYER
  2
D40_FENSTER_VON_B---MW-N--
 70
     0
 62
     7
  6
CONTINUOUS
  0
LAYER
  2
D40_E---SCHN--------
 70
     0
 62
     7
  6
CONTINUOUS
  0
LAYER
  2
D40_E---AUFZ--------
 70
     0
 62
     7
  6
CONTINUOUS
  0
LAYER
  2
D40_E---DECK--------
 70
     0
 62
     7
  6
CONTINUOUS
  0
LAYER
  2
D40_E---RAUMINF-----
 70
     0
 62
     7
  6
CONTINUOUS
  0
LAYER
  2
D40_E---TEXT--------
 70
     0
 62
     7
  6
CONTINUOUS
  0
LAYER
  2
D40_B---TEXT--------
 70
     0
 62
     7
  6
CONTINUOUS
  0
LAYER
  2
D40_B---MW-N--------
 70
     0
 62
     7
  6
CONTINUOUS
  0
LAYER
  2
D40_B---DECK--------
 70
     0
 62
     7
  6
CONTINUOUS
  0
LAYER
  2
D40_B---AUFZ--------
 70
     0
 62
     7
  6
CONTINUOUS
  0
LAYER
  2
D40_B---MW-S--------
 70
     0
 62
     7
  6
CONTINUOUS
  0
LAYER
  2
D40_B---MW----------
 70
     0
 62
     7
  6
CONTINUOUS
  0
LAYER
  2
D40_E---MOEB--------
 70
     0
 62
     7
  6
CONTINUOUS
  0
LAYER
  2
D40_B---UMGB--------
 70
     0
 62
     7
  6
CONTINUOUS
  0
LAYER
  2
D40_B---FASS--------
 70
     0
 62
     7
  6
CONTINUOUS
  0
LAYER
  2
D40_E---DACH--------
 70
     0
 62
     7
  6
CONTINUOUS
  0
LAYER
  2
D40_E---BODE--------
 70
     0
 62
     7
  6
CONTINUOUS
  0
LAYER
  2
D40_E---TREP--------
 70
     0
 62
     7
  6
CONTINUOUS
  0
LAYER
  2
D40_E---RASG--------
 70
     0
 62
     7
  6
CONTINUOUS
  0
LAYER
  2
D40_B---MW-K--------
 70
     0
 62
     7
  6
CONTINUOUS
  0
LAYER
  2
D40_E---FASSGLA-----
 70
     0
 62
     7
  6
CONTINUOUS
  0
LAYER
  2
D40_B---VERM--------
 70
     0
 62
     7
  6
CONTINUOUS
  0
LAYER
  2
D40_E---UMGBGSG-----
 70
     0
 62
     7
  6
CONTINUOUS
  0
LAYER
  2
D40_E---RASF--------
 70
     0
 62
     7
  6
CONTINUOUS
  0
LAYER
  2
D40_E---PFLA--------
 70
     0
 62
     7
  6
CONTINUOUS
  0
LAYER
  2
D40_E---KONS-ST-----
 70
     0
 62
     7
  6
CONTINUOUS
  0
LAYER
  2
D40_E---WERB--------
 70
     0
 62
     7
  6
CONTINUOUS
  0
LAYER
  2
D40_E---TUERINF-----
 70
     0
 62
     7
  6
CONTINUOUS
  0
LAYER
  2
D40_E---WOLK--------
 70
     0
 62
     7
  6
CONTINUOUS
  0
LAYER
  2
D40_B---MW-L--------
 70
     0
 62
     7
  6
CONTINUOUS
  0
LAYER
  2
D40_B---SANI--------
 70
     0
 62
     7
  6
CONTINUOUS
  0
LAYER
  2
D40_E---SANI--------
 70
     0
 62
     7
  6
CONTINUOUS
  0
LAYER
  2
D40_E---MW-K------
 70
     0
 62
     7
  6
CONTINUOUS
  0
LAYER
  2
D40_E---OBJE--------
 70
     0
 62
     7
  6
CONTINUOUS
  0
LAYER
  2
D40_E---ASPR--------
 70
     0
 62
     7
  6
CONTINUOUS
  0
LAYER
  2
D40_E---VERMTGA-----
 70
     0
 62
     7
  6
CONTINUOUS
  0
LAYER
  2
D40_E---PARK--------
 70
     0
 62
     7
  6
CONTINUOUS
  0
LAYER
  2
D40_E---ISOL--------
 70
     0
 62
     7
  6
CONTINUOUS
  0
LAYER
  2
D40_E---TUER--------
 70
     0
 62
     7
  6
CONTINUOUS
  0
LAYER
  2
D40_E---MW--BRA---
 70
     0
 62
     7
  6
CONTINUOUS
  0
LAYER
  2
D41_ARCHICAD
 70
     0
 62
     7
  6
CONTINUOUS
  0
LAYER
  2
D41_E---MW--------
 70
     0
 62
     7
  6
CONTINUOUS
  0
LAYER
  2
D41_E---FASSKON-----
 70
     0
 62
     7
  6
CONTINUOUS
  0
LAYER
  2
D41_TÜREN_VON_B---MW-N----
 70
     0
 62
     7
  6
CONTINUOUS
  0
LAYER
  2
D41_E---MW-L------
 70
     0
 62
     7
  6
CONTINUOUS
  0
LAYER
  2
D41_TÜREN_VON_B---MW------
 70
     0
 62
     7
  6
CONTINUOUS
  0
LAYER
  2
D41_E---VERM--------
 70
     0
 62
     7
  6
CONTINUOUS
  0
LAYER
  2
D41_FENSTER_VON_E---MW-L--
 70
     0
 62
     7
  6
CONTINUOUS
  0
LAYER
  2
D41_FENSTER_VON_B---MW-N--
 70
     0
 62
     7
  6
CONTINUOUS
  0
LAYER
  2
D41_E---SCHN--------
 70
     0
 62
     7
  6
CONTINUOUS
  0
LAYER
  2
D41_E---AUFZ--------
 70
     0
 62
     7
  6
CONTINUOUS
  0
LAYER
  2
D41_E---DECK--------
 70
     0
 62
     7
  6
CONTINUOUS
  0
LAYER
  2
D41_E---RAUMINF-----
 70
     0
 62
     7
  6
CONTINUOUS
  0
LAYER
  2
D41_E---TEXT--------
 70
     0
 62
     7
  6
CONTINUOUS
  0
LAYER
  2
D41_B---TEXT--------
 70
     0
 62
     7
  6
CONTINUOUS
  0
LAYER
  2
D41_B---MW-N--------
 70
     0
 62
     7
  6
CONTINUOUS
  0
LAYER
  2
D41_B---DECK--------
 70
     0
 62
     7
  6
CONTINUOUS
  0
LAYER
  2
D41_B---AUFZ--------
 70
     0
 62
     7
  6
CONTINUOUS
  0
LAYER
  2
D41_B---MW-S--------
 70
     0
 62
     7
  6
CONTINUOUS
  0
LAYER
  2
D41_B---MW----------
 70
     0
 62
     7
  6
CONTINUOUS
  0
LAYER
  2
D41_E---MOEB--------
 70
     0
 62
     7
  6
CONTINUOUS
  0
LAYER
  2
D41_B---UMGB--------
 70
     0
 62
     7
  6
CONTINUOUS
  0
LAYER
  2
D41_B---FASS--------
 70
     0
 62
     7
  6
CONTINUOUS
  0
LAYER
  2
D41_E---DACH--------
 70
     0
 62
     7
  6
CONTINUOUS
  0
LAYER
  2
D41_E---BODE--------
 70
     0
 62
     7
  6
CONTINUOUS
  0
LAYER
  2
D41_E---TREP--------
 70
     0
 62
     7
  6
CONTINUOUS
  0
LAYER
  2
D41_E---RASG--------
 70
     0
 62
     7
  6
CONTINUOUS
  0
LAYER
  2
D41_B---MW-K--------
 70
     0
 62
     7
  6
CONTINUOUS
  0
LAYER
  2
D41_E---FASSGLA-----
 70
     0
 62
     7
  6
CONTINUOUS
  0
LAYER
  2
D41_B---VERM--------
 70
     0
 62
     7
  6
CONTINUOUS
  0
LAYER
  2
D41_E---UMGBGSG-----
 70
     0
 62
     7
  6
CONTINUOUS
  0
LAYER
  2
D41_E---RASF--------
 70
     0
 62
     7
  6
CONTINUOUS
  0
LAYER
  2
D41_E---PFLA--------
 70
     0
 62
     7
  6
CONTINUOUS
  0
LAYER
  2
D41_E---KONS-ST-----
 70
     0
 62
     7
  6
CONTINUOUS
  0
LAYER
  2
D41_E---WERB--------
 70
     0
 62
     7
  6
CONTINUOUS
  0
LAYER
  2
D41_E---TUERINF-----
 70
     0
 62
     7
  6
CONTINUOUS
  0
LAYER
  2
D41_E---WOLK--------
 70
     0
 62
     7
  6
CONTINUOUS
  0
LAYER
  2
D41_B---MW-L--------
 70
     0
 62
     7
  6
CONTINUOUS
  0
LAYER
  2
D41_B---SANI--------
 70
     0
 62
     7
  6
CONTINUOUS
  0
LAYER
  2
D41_E---SANI--------
 70
     0
 62
     7
  6
CONTINUOUS
  0
LAYER
  2
D41_E---MW-K------
 70
     0
 62
     7
  6
CONTINUOUS
  0
LAYER
  2
D41_E---OBJE--------
 70
     0
 62
     7
  6
CONTINUOUS
  0
LAYER
  2
D41_E---ASPR--------
 70
     0
 62
     7
  6
CONTINUOUS
  0
LAYER
  2
D41_E---VERMTGA-----
 70
     0
 62
     7
  6
CONTINUOUS
  0
LAYER
  2
D41_E---PARK--------
 70
     0
 62
     7
  6
CONTINUOUS
  0
LAYER
  2
D41_E---ISOL--------
 70
     0
 62
     7
  6
CONTINUOUS
  0
LAYER
  2
D41_E---TUER--------
 70
     0
 62
     7
  6
CONTINUOUS
  0
LAYER
  2
D41_E---MW--BRA---
 70
     0
 62
     7
  6
CONTINUOUS
  0
LAYER
  2
D42_ARCHICAD
 70
     0
 62
     7
  6
CONTINUOUS
  0
LAYER
  2
D42_FENSTER_VON_B---FASS--
 70
     0
 62
     7
  6
CONTINUOUS
  0
LAYER
  2
D42_E---SCHN--------
 70
     0
 62
     7
  6
CONTINUOUS
  0
LAYER
  2
D42_B---MW-N--------
 70
     0
 62
     7
  6
CONTINUOUS
  0
LAYER
  2
D42_B---DECK--------
 70
     0
 62
     7
  6
CONTINUOUS
  0
LAYER
  2
D42_B---MW-S--------
 70
     0
 62
     7
  6
CONTINUOUS
  0
LAYER
  2
D42_B---MW----------
 70
     0
 62
     7
  6
CONTINUOUS
  0
LAYER
  2
D42_B---FASS--------
 70
     0
 62
     7
  6
CONTINUOUS
  0
LAYER
  2
D42_E---RASG--------
 70
     0
 62
     7
  6
CONTINUOUS
  0
LAYER
  2
CONSTRUCTION_CLASS
 70
     0
 62
     7
  6
CONTINUOUS
  0
LAYER
  2
PATTERN_CLASS
 70
     0
 62
     7
  6
CONTINUOUS
  0
LAYER
  2
KONSTRUKTION
 70
     0
 62
     7
  6
CONTINUOUS
  0
LAYER
  2
BEMAßUNG
 70
     0
 62
     7
  6
CONTINUOUS
  0
LAYER
  2
HILFSGEOMETRIE
 70
     0
 62
     7
  6
CONTINUOUS
  0
LAYER
  2
UNSICHTBAR
 70
     0
 62
     7
  6
CONTINUOUS
  0
LAYER
  2
LOGO
 70
     0
 62
     7
  6
CONTINUOUS
  0
LAYER
  2
VERWALTUNG
 70
     0
 62
     7
  6
CONTINUOUS
  0
LAYER
  2
UNSICHTBARE_GEWINDE
 70
     0
 62
     7
  6
CONTINUOUS
  0
LAYER
  2
SICHTBARE_GEWINDE
 70
     0
 62
     7
  6
CONTINUOUS
  0
LAYER
  2
DEFPOINTS
 70
     0
 62
     7
  6
CONTINUOUS
  0
LAYER
  2
THICK
 70
     0
 62
     7
  6
CONTINUOUS
  0
LAYER
  2
HIDDEN
 70
     0
 62
     7
  6
CONTINUOUS
  0
LAYER
  2
SCHRAFFURGRUNDRISS
 70
     0
 62
     7
  6
CONTINUOUS
  0
LAYER
  2
BEMASSUNG_GRUNDRISS
 70
     0
 62
     7
  6
CONTINUOUS
  0
LAYER
  2
STATIK
 70
     0
 62
     7
  6
CONTINUOUS
  0
LAYER
  2
TÜREN
 70
     0
 62
     7
  6
CONTINUOUS
  0
LAYER
  2
SANITÄR
 70
     0
 62
     7
  6
CONTINUOUS
  0
LAYER
  2
BEMASSUNG_GIPSKARTON
 70
     0
 62
     7
  6
CONTINUOUS
  0
LAYER
  2
EINRICHTUNGEN
 70
     0
 62
     7
  6
CONTINUOUS
  0
LAYER
  2
BECKEN
 70
     0
 62
     7
  6
CONTINUOUS
  0
LAYER
  2
BELEUCHTUNG
 70
     0
 62
     7
  6
CONTINUOUS
  0
LAYER
  2
BESCHRIFTUNGEN
 70
     0
 62
     7
  6
CONTINUOUS
  0
LAYER
  2
ELEKTRO_1__DOSEN_SCHALTER
 70
     0
 62
     7
  6
CONTINUOUS
  0
LAYER
  2
DEFAULT_1
 70
     0
 62
     7
  6
CONTINUOUS
  0
LAYER
  2
AM_0
 70
     0
 62
     7
  6
CONTINUOUS
  0
LAYER
  2
FRAME0_7
 70
     0
 62
     7
  6
CONTINUOUS
  0
LAYER
  2
AM_BOR
 70
     0
 62
     7
  6
CONTINUOUS
  0
LAYER
  2
RAHM2
 70
     0
 62
     7
  6
CONTINUOUS
  0
LAYER
  2
RAHM3
 70
     0
 62
     7
  6
CONTINUOUS
  0
LAYER
  2
FRAME0_5
 70
     0
 62
     7
  6
CONTINUOUS
  0
LAYER
  2
8
 70
     0
 62
     7
  6
CONTINUOUS
  0
LAYER
  2
AM_5
 70
     0
 62
     7
  6
CONTINUOUS
  0
LAYER
  2
AM_7
 70
     0
 62
     7
  6
CONTINUOUS
  0
LAYER
  2
HILFSLINIEN
 70
     0
 62
     7
  6
CONTINUOUS
  0
LAYER
  2
DRAWING_TEMPLATE
 70
     0
 62
     7
  6
CONTINUOUS
  0
LAYER
  2
TECHNOBOX_EXTERNALREFSYMBO
 70
     0
 62
     7
  6
CONTINUOUS
  0
LAYER
  2
TECHNOBOX_POLYCLIPSYMBOL_L
 70
     0
 62
     7
  6
CONTINUOUS
  0
LAYER
  2
100
 70
     0
 62
     7
  6
CONTINUOUS
  0
LAYER
  2
101
 70
     0
 62
     7
  6
CONTINUOUS
  0
LAYER
  2
KONTUR
 70
     0
 62
     7
  6
CONTINUOUS
  0
LAYER
  2
MITTELLINIE
 70
     0
 62
     7
  6
CONTINUOUS
  0
LAYER
  2
GESTRICHELT
 70
     0
 62
     7
  6
CONTINUOUS
  0
LAYER
  2
HILFSLINIE
 70
     0
 62
     7
  6
CONTINUOUS
  0
LAYER
  2
TEXT-25
 70
     0
 62
     7
  6
CONTINUOUS
  0
LAYER
  2
TEXT35
 70
     0
 62
     7
  6
CONTINUOUS
  0
LAYER
  2
TEXT-50
 70
     0
 62
     7
  6
CONTINUOUS
  0
LAYER
  2
TEXT-70
 70
     0
 62
     7
  6
CONTINUOUS
  0
LAYER
  2
ANSICHTSFENSTER
 70
     0
 62
     7
  6
CONTINUOUS
  0
LAYER
  2
KERA0
 70
     0
 62
     7
  6
CONTINUOUS
  0
LAYER
  2
KERA1
 70
     0
 62
     7
  6
CONTINUOUS
  0
LAYER
  2
KERA2
 70
     0
 62
     7
  6
CONTINUOUS
  0
LAYER
  2
KERA3
 70
     0
 62
     7
  6
CONTINUOUS
  0
LAYER
  2
KERA4
 70
     0
 62
     7
  6
CONTINUOUS
  0
LAYER
  2
KERA5
 70
     0
 62
     7
  6
CONTINUOUS
  0
LAYER
  2
KERA6
 70
     0
 62
     7
  6
CONTINUOUS
  0
LAYER
  2
KERA7
 70
     0
 62
     7
  6
CONTINUOUS
  0
LAYER
  2
20
 70
     0
 62
     7
  6
CONTINUOUS
  0
LAYER
  2
50
 70
     0
 62
     7
  6
CONTINUOUS
  0
LAYER
  2
EBENE_1
 70
     0
 62
     7
  6
CONTINUOUS
  0
LAYER
  2
EBENE_2
 70
     0
 62
     7
  6
CONTINUOUS
  0
LAYER
  2
EBENE_5
 70
     0
 62
     7
  6
CONTINUOUS
  0
LAYER
  2
3
 70
     0
 62
     7
  6
CONTINUOUS
  0
LAYER
  2
GEB-KONTUR-A
 70
     0
 62
     7
  6
CONTINUOUS
  0
LAYER
  2
GEB-SYMETRIE
 70
     0
 62
     7
  6
CONTINUOUS
  0
LAYER
  2
GEB-ART-NR
 70
     0
 62
     7
  6
CONTINUOUS
  0
LAYER
  2
PROJECTION
 70
     0
 62
     7
  6
CONTINUOUS
  0
LAYER
  2
FORMAT
 70
     0
 62
     7
  6
CONTINUOUS
  0
LAYER
  2
BECKEN_FUTURA_EBENE_1
 70
     0
 62
     7
  6
CONTINUOUS
  0
ENDTAB
  0
TABLE
  2
STYLE
 70
     3
  0
STYLE
  2
STANDARD
 70
     0
 40
0.0
 41
1.0
 50
0.0
 71
     0
 42
0.0
  3
txt
  4

  0
STYLE
  2
ANNOTATIVE
 70
     0
 40
0.0
 41
1.0
 50
0.0
 71
     0
 42
0.2
  3
txt
  4

  0
STYLE
  2
SIMPLEX
 70
     0
 40
0.0
 41
1.0
 50
0.0
 71
     0
 42
0.0
  3
simplex
  4

  0
ENDTAB
  0
TABLE
  2
VIEW
 70
     0
  0
ENDTAB
  0
TABLE
  2
UCS
 70
     0
  0
ENDTAB
  0
TABLE
  2
APPID
 70
     3
  0
APPID
  2
ACAD
 70
     0
  0
APPID
  2
ACADANNOTATIVE
 70
     0
  0
APPID
  2
ACAD_MLEADERVER
 70
     0
  0
ENDTAB
  0
TABLE
  2
DIMSTYLE
 70
     2
  0
DIMSTYLE
  2
STANDARD
 70
     0
  3

  4

  5

  6

  7

 40
1.0
 41
0.18
 42
0.0625
 43
0.38
 44
0.18
 45
0.0
 46
0.0
 47
0.0
 48
0.0
140
0.18
141
0.09
142
0.0
143
25.399999999999999
144
1.0
145
0.0
146
1.0
147
0.09
 71
     0
 72
     0
 73
     1
 74
     1
 75
     0
 76
     0
 77
     0
 78
     0
170
     0
171
     2
172
     0
173
     0
174
     0
175
     0
176
     0
177
     0
178
     0
  0
DIMSTYLE
  2
ANNOTATIVE
 70
     0
  3

  4

  5

  6

  7

 40
1.0
 41
0.18
 42
0.0625
 43
0.38
 44
0.18
 45
0.0
 46
0.0
 47
0.0
 48
0.0
140
0.18
141
0.09
142
0.0
143
25.399999999999999
144
1.0
145
0.0
146
1.0
147
0.09
 71
     0
 72
     0
 73
     1
 74
     1
 75
     0
 76
     0
 77
     0
 78
     0
170
     0
171
     2
172
     0
173
     0
174
     0
175
     0
176
     0
177
     0
178
     0
  0
ENDTAB
  0
ENDSEC
  0
SECTION
  2
BLOCKS
  0
BLOCK
  8
0
  2
$MODEL_SPACE
 70
     0
 10
0.0
 20
0.0
 30
0.0
  3
$MODEL_SPACE
  1

  0
ENDBLK
  5
76
  8
0
  0
BLOCK
 67
     1
  8
0
  2
$PAPER_SPACE
 70
     0
 10
0.0
 20
0.0
 30
0.0
  3
$PAPER_SPACE
  1

  0
ENDBLK
  5
72
 67
     1
  8
0
  0
BLOCK
  8
0
  2
*D0
 70
     1
 10
0.0
 20
0.0
 30
0.0
  3
*D0
  1

  0
LINE
  5
187
  8
LAYER01
 62
     7
 10
2033.2578460000011
 20
10.263467
 30
0.0
 11
2033.2578460000011
 21
-274.759412
 31
0.0
  0
LINE
  5
188
  8
LAYER01
 62
     7
 10
1951.094527
 20
10.263467
 30
0.0
 11
2048.257846
 21
10.263467
 31
0.0
  0
LINE
  5
189
  8
LAYER01
 62
     7
 10
1951.094527
 20
-274.759412
 30
0.0
 11
2048.257846
 21
-274.759412
 31
0.0
  0
SOLID
  5
18A
  8
LAYER01
 62
     7
 10
2029.258006
 20
-13.736533
 30
0.0
 11
2033.2578460000011
 21
10.263467
 31
0.0
 12
2037.2576859999999
 22
-13.736533
 32
0.0
 13
2037.2576859999999
 23
-13.736533
 33
0.0
  0
SOLID
  5
18B
  8
LAYER01
 62
     7
 10
2029.258006
 20
-250.759412
 30
0.0
 11
2033.2578460000011
 21
-274.759412
 31
0.0
 12
2037.2576859999999
 22
-250.759412
 32
0.0
 13
2037.2576859999999
 23
-250.759412
 33
0.0
  0
TEXT
  5
18C
  8
LAYER01
  6
CONTINUOUS
 62
     7
 10
2018.257846
 20
-156.54818399999999
 30
0.0
 40
30.0
  1
285
 50
90.0
  0
POINT
  5
18D
  8
LAYER01
 62
     7
 10
1939.094527
 20
10.263467
 30
0.0
  0
POINT
  5
18E
  8
LAYER01
 62
     7
 10
1939.094527
 20
-274.759412
 30
0.0
  0
POINT
  5
18F
  8
LAYER01
 62
     7
 10
2033.2578460000011
 20
-274.759412
 30
0.0
  0
ENDBLK
  5
190
  8
0
  0
BLOCK
  8
0
  2
*D1
 70
     1
 10
0.0
 20
0.0
 30
0.0
  3
*D1
  1

  0
LINE
  5
193
  8
LAYER01
 62
     7
 10
2095.0208830000001
 20
10.263467
 30
0.0
 11
2095.0208830000001
 21
-299.73653300000001
 31
0.0
  0
LINE
  5
194
  8
LAYER01
 62
     7
 10
1951.094527
 20
10.263467
 30
0.0
 11
2110.0208830000001
 21
10.263467
 31
0.0
  0
LINE
  5
195
  8
LAYER01
 62
     7
 10
1951.094527
 20
-299.73653300000001
 30
0.0
 11
2110.0208830000001
 21
-299.73653300000001
 31
0.0
  0
SOLID
  5
196
  8
LAYER01
 62
     7
 10
2091.0210430000002
 20
-13.736533
 30
0.0
 11
2095.0208830000001
 21
10.263467
 31
0.0
 12
2099.0207230000001
 22
-13.736533
 32
0.0
 13
2099.0207230000001
 23
-13.736533
 33
0.0
  0
SOLID
  5
197
  8
LAYER01
 62
     7
 10
2091.0210430000002
 20
-275.73653300000001
 30
0.0
 11
2095.0208830000001
 21
-299.73653300000001
 31
0.0
 12
2099.0207230000001
 22
-275.73653300000001
 32
0.0
 13
2099.0207230000001
 23
-275.73653300000001
 33
0.0
  0
TEXT
  5
198
  8
LAYER01
  6
CONTINUOUS
 62
     7
 10
2080.0208830000001
 20
-169.036745
 30
0.0
 40
30.0
  1
310
 50
90.0
  0
POINT
  5
199
  8
LAYER01
 62
     7
 10
1939.094527
 20
10.263467
 30
0.0
  0
POINT
  5
19A
  8
LAYER01
 62
     7
 10
1939.094527
 20
-299.73653300000001
 30
0.0
  0
POINT
  5
19B
  8
LAYER01
 62
     7
 10
2095.0208830000001
 20
-299.73653300000001
 30
0.0
  0
ENDBLK
  5
19C
  8
0
  0
BLOCK
  8
0
  2
USP40_W-G3
 70
     0
 10
0.0
 20
0.0
 30
0.0
  3
USP40_W-G3
  1

  0
POLYLINE
  5
19F
  8
LAYER01
  6
CONTINUOUS
 62
     7
 66
     1
 10
0.0
 20
0.0
 30
0.0
 70
     1
  0
VERTEX
  5
74F
  8
LAYER01
  6
CONTINUOUS
 62
     7
 10
2423.0855820000011
 20
-701.29780300000004
 30
0.0
  0
VERTEX
  5
750
  8
LAYER01
  6
CONTINUOUS
 62
     7
 10
2460.138429000001
 20
-701.29780300000004
 30
0.0
  0
VERTEX
  5
751
  8
LAYER01
  6
CONTINUOUS
 62
     7
 10
2506.6699119999998
 20
-807.28618099999994
 30
0.0
  0
VERTEX
  5
752
  8
LAYER01
  6
CONTINUOUS
 62
     7
 10
2553.201395
 20
-701.29780300000004
 30
0.0
  0
VERTEX
  5
753
  8
LAYER01
  6
CONTINUOUS
 62
     7
 10
2591.9776310000002
 20
-701.29780300000004
 30
0.0
  0
VERTEX
  5
754
  8
LAYER01
  6
CONTINUOUS
 62
     7
 10
2506.6699119999998
 20
-890.87051199999996
 30
0.0
  0
VERTEX
  5
755
  8
LAYER01
  6
CONTINUOUS
 62
     7
 10
2423.0855820000011
 20
-701.29780300000004
 30
0.0
  0
VERTEX
  5
756
  8
LAYER01
  6
CONTINUOUS
 62
     7
 10
2423.0855820000011
 20
-701.29780300000004
 30
0.0
  0
SEQEND
  5
757
  8
LAYER01
  6
CONTINUOUS
 62
     7
  0
POLYLINE
  5
1A9
  8
LAYER01
  6
CONTINUOUS
 62
     7
 66
     1
 10
0.0
 20
0.0
 30
0.0
 70
     1
  0
VERTEX
  5
758
  8
LAYER01
  6
CONTINUOUS
 62
     7
 10
2549.7546190000012
 20
-830.55192299999987
 30
0.0
  0
VERTEX
  5
759
  8
LAYER01
  6
CONTINUOUS
 62
     7
 10
2562.6800309999999
 20
-800.39262799999995
 30
0.0
  0
VERTEX
  5
75A
  8
LAYER01
  6
CONTINUOUS
 62
     7
 10
2618.690149
 20
-800.39262799999995
 30
0.0
  0
VERTEX
  5
75B
  8
LAYER01
  6
CONTINUOUS
 62
     7
 10
2590.2542429999999
 20
-738.35065099999997
 30
0.0
  0
VERTEX
  5
75C
  8
LAYER01
  6
CONTINUOUS
 62
     7
 10
2606.6264310000001
 20
-698.71272099999987
 30
0.0
  0
VERTEX
  5
75D
  8
LAYER01
  6
CONTINUOUS
 62
     7
 10
2683.3172089999998
 20
-860.71121700000003
 30
0.0
  0
VERTEX
  5
75E
  8
LAYER01
  6
CONTINUOUS
 62
     7
 10
2683.3172089999998
 20
-701.29780300000004
 30
0.0
  0
VERTEX
  5
75F
  8
LAYER01
  6
CONTINUOUS
 62
     7
 10
2785.8588100000011
 20
-701.29780300000004
 30
0.0
  0
VERTEX
  5
760
  8
LAYER01
  6
CONTINUOUS
 62
     7
 10
2785.8588100000011
 20
-701.29780300000004
 30
0.0
  0
VERTEX
  5
761
  8
LAYER01
  6
CONTINUOUS
 62
     7
 10
2795.3374450000001
 20
-703.02119200000004
 30
0.0
  0
VERTEX
  5
762
  8
LAYER01
  6
CONTINUOUS
 62
     7
 10
2803.9543870000002
 20
-706.46796799999993
 30
0.0
  0
VERTEX
  5
763
  8
LAYER01
  6
CONTINUOUS
 62
     7
 10
2811.7096339999998
 20
-712.49982699999987
 30
0.0
  0
VERTEX
  5
764
  8
LAYER01
  6
CONTINUOUS
 62
     7
 10
2818.6031870000002
 20
-718.53168600000004
 30
0.0
  0
VERTEX
  5
765
  8
LAYER01
  6
CONTINUOUS
 62
     7
 10
2824.6350459999999
 20
-726.28693299999998
 30
0.0
  0
VERTEX
  5
766
  8
LAYER01
  6
CONTINUOUS
 62
     7
 10
2828.9435159999998
 20
-734.90387399999997
 30
0.0
  0
VERTEX
  5
767
  8
LAYER01
  6
CONTINUOUS
 62
     7
 10
2832.3902929999999
 20
-745.24420399999997
 30
0.0
  0
VERTEX
  5
768
  8
LAYER01
  6
CONTINUOUS
 62
     7
 10
2833.2519870000001
 20
-754.72283900000002
 30
0.0
  0
VERTEX
  5
769
  8
LAYER01
  6
CONTINUOUS
 62
     7
 10
2833.2519870000001
 20
-754.72283900000002
 30
0.0
  0
VERTEX
  5
76A
  8
LAYER01
  6
CONTINUOUS
 62
     7
 10
2833.2519870000001
 20
-765.0631689999999
 30
0.0
  0
VERTEX
  5
76B
  8
LAYER01
  6
CONTINUOUS
 62
     7
 10
2831.5285990000002
 20
-773.68011000000001
 30
0.0
  0
VERTEX
  5
76C
  8
LAYER01
  6
CONTINUOUS
 62
     7
 10
2828.0818220000001
 20
-782.29705200000001
 30
0.0
  0
VERTEX
  5
76D
  8
LAYER01
  6
CONTINUOUS
 62
     7
 10
2823.7733520000002
 20
-790.05229899999995
 30
0.0
  0
VERTEX
  5
76E
  8
LAYER01
  6
CONTINUOUS
 62
     7
 10
2817.741493
 20
-796.94585199999995
 30
0.0
  0
VERTEX
  5
76F
  8
LAYER01
  6
CONTINUOUS
 62
     7
 10
2810.8479400000001
 20
-802.97771099999989
 30
0.0
  0
VERTEX
  5
770
  8
LAYER01
  6
CONTINUOUS
 62
     7
 10
2803.0926930000001
 20
-807.28618099999994
 30
0.0
  0
VERTEX
  5
771
  8
LAYER01
  6
CONTINUOUS
 62
     7
 10
2793.6140569999998
 20
-810.73295800000005
 30
0.0
  0
VERTEX
  5
772
  8
LAYER01
  6
CONTINUOUS
 62
     7
 10
2848.7624810000002
 20
-883.97695899999985
 30
0.0
  0
VERTEX
  5
773
  8
LAYER01
  6
CONTINUOUS
 62
     7
 10
2848.7624810000002
 20
-701.29780300000004
 30
0.0
  0
VERTEX
  5
774
  8
LAYER01
  6
CONTINUOUS
 62
     7
 10
2884.9536349999998
 20
-701.29780300000004
 30
0.0
  0
VERTEX
  5
775
  8
LAYER01
  6
CONTINUOUS
 62
     7
 10
2884.9536349999998
 20
-885.70034699999997
 30
0.0
  0
VERTEX
  5
776
  8
LAYER01
  6
CONTINUOUS
 62
     7
 10
2807.401163
 20
-885.70034699999997
 30
0.0
  0
VERTEX
  5
777
  8
LAYER01
  6
CONTINUOUS
 62
     7
 10
2732.4337740000001
 20
-790.05229899999995
 30
0.0
  0
VERTEX
  5
778
  8
LAYER01
  6
CONTINUOUS
 62
     7
 10
2770.3483160000001
 20
-790.05229899999995
 30
0.0
  0
VERTEX
  5
779
  8
LAYER01
  6
CONTINUOUS
 62
     7
 10
2770.3483160000001
 20
-790.05229899999995
 30
0.0
  0
VERTEX
  5
77A
  8
LAYER01
  6
CONTINUOUS
 62
     7
 10
2775.518481000001
 20
-789.19060500000001
 30
0.0
  0
VERTEX
  5
77B
  8
LAYER01
  6
CONTINUOUS
 62
     7
 10
2780.6886450000002
 20
-787.46721600000001
 30
0.0
  0
VERTEX
  5
77C
  8
LAYER01
  6
CONTINUOUS
 62
     7
 10
2784.997116
 20
-784.88213399999995
 30
0.0
  0
VERTEX
  5
77D
  8
LAYER01
  6
CONTINUOUS
 62
     7
 10
2789.3055870000012
 20
-781.43535699999995
 30
0.0
  0
VERTEX
  5
77E
  8
LAYER01
  6
CONTINUOUS
 62
     7
 10
2791.8906690000008
 20
-777.12688700000001
 30
0.0
  0
VERTEX
  5
77F
  8
LAYER01
  6
CONTINUOUS
 62
     7
 10
2794.4757509999999
 20
-771.95672200000001
 30
0.0
  0
VERTEX
  5
780
  8
LAYER01
  6
CONTINUOUS
 62
     7
 10
2796.1991400000002
 20
-766.78655700000002
 30
0.0
  0
VERTEX
  5
781
  8
LAYER01
  6
CONTINUOUS
 62
     7
 10
2796.1991400000002
 20
-760.75469800000008
 30
0.0
  0
VERTEX
  5
782
  8
LAYER01
  6
CONTINUOUS
 62
     7
 10
2796.1991400000002
 20
-760.75469800000008
 30
0.0
  0
VERTEX
  5
783
  8
LAYER01
  6
CONTINUOUS
 62
     7
 10
2796.1991400000002
 20
-755.58453399999985
 30
0.0
  0
VERTEX
  5
784
  8
LAYER01
  6
CONTINUOUS
 62
     7
 10
2794.4757509999999
 20
-750.41436900000008
 30
0.0
  0
VERTEX
  5
785
  8
LAYER01
  6
CONTINUOUS
 62
     7
 10
2792.7523630000001
 20
-745.24420399999997
 30
0.0
  0
VERTEX
  5
786
  8
LAYER01
  6
CONTINUOUS
 62
     7
 10
2789.3055870000012
 20
-740.93573300000003
 30
0.0
  0
VERTEX
  5
787
  8
LAYER01
  6
CONTINUOUS
 62
     7
 10
2785.8588100000011
 20
-737.48895700000003
 30
0.0
  0
VERTEX
  5
788
  8
LAYER01
  6
CONTINUOUS
 62
     7
 10
2780.6886450000002
 20
-734.90387399999997
 30
0.0
  0
VERTEX
  5
789
  8
LAYER01
  6
CONTINUOUS
 62
     7
 10
2775.518481000001
 20
-733.18048599999997
 30
0.0
  0
VERTEX
  5
78A
  8
LAYER01
  6
CONTINUOUS
 62
     7
 10
2770.3483160000001
 20
-732.31879200000003
 30
0.0
  0
VERTEX
  5
78B
  8
LAYER01
  6
CONTINUOUS
 62
     7
 10
2722.093445
 20
-732.31879200000003
 30
0.0
  0
VERTEX
  5
78C
  8
LAYER01
  6
CONTINUOUS
 62
     7
 10
2722.093445
 20
-885.70034699999997
 30
0.0
  0
VERTEX
  5
78D
  8
LAYER01
  6
CONTINUOUS
 62
     7
 10
2660.0514670000011
 20
-885.70034699999997
 30
0.0
  0
VERTEX
  5
78E
  8
LAYER01
  6
CONTINUOUS
 62
     7
 10
2634.2006430000001
 20
-830.55192299999987
 30
0.0
  0
VERTEX
  5
78F
  8
LAYER01
  6
CONTINUOUS
 62
     7
 10
2549.7546190000012
 20
-830.55192299999987
 30
0.0
  0
VERTEX
  5
790
  8
LAYER01
  6
CONTINUOUS
 62
     7
 10
2549.7546190000012
 20
-830.55192299999987
 30
0.0
  0
SEQEND
  5
791
  8
LAYER01
  6
CONTINUOUS
 62
     7
  0
POLYLINE
  5
1E4
  8
LAYER01
  6
CONTINUOUS
 62
     7
 66
     1
 10
0.0
 20
0.0
 30
0.0
 70
     1
  0
VERTEX
  5
792
  8
LAYER01
  6
CONTINUOUS
 62
     7
 10
3052.122296
 20
-713.36152100000004
 30
0.0
  0
VERTEX
  5
793
  8
LAYER01
  6
CONTINUOUS
 62
     7
 10
3028.856554
 20
-742.65912200000002
 30
0.0
  0
VERTEX
  5
794
  8
LAYER01
  6
CONTINUOUS
 62
     7
 10
3028.856554
 20
-742.65912200000002
 30
0.0
  0
VERTEX
  5
795
  8
LAYER01
  6
CONTINUOUS
 62
     7
 10
3021.1013069999999
 20
-737.48895700000003
 30
0.0
  0
VERTEX
  5
796
  8
LAYER01
  6
CONTINUOUS
 62
     7
 10
3013.3460599999999
 20
-733.18048599999997
 30
0.0
  0
VERTEX
  5
797
  8
LAYER01
  6
CONTINUOUS
 62
     7
 10
3004.7291190000001
 20
-730.59540400000003
 30
0.0
  0
VERTEX
  5
798
  8
LAYER01
  6
CONTINUOUS
 62
     7
 10
2995.2504829999998
 20
-730.59540400000003
 30
0.0
  0
VERTEX
  5
799
  8
LAYER01
  6
CONTINUOUS
 62
     7
 10
2995.2504829999998
 20
-730.59540400000003
 30
0.0
  0
VERTEX
  5
79A
  8
LAYER01
  6
CONTINUOUS
 62
     7
 10
2989.2186240000001
 20
-730.59540400000003
 30
0.0
  0
VERTEX
  5
79B
  8
LAYER01
  6
CONTINUOUS
 62
     7
 10
2983.1867649999999
 20
-731.45709799999997
 30
0.0
  0
VERTEX
  5
79C
  8
LAYER01
  6
CONTINUOUS
 62
     7
 10
2977.1549070000001
 20
-733.18048599999997
 30
0.0
  0
VERTEX
  5
79D
  8
LAYER01
  6
CONTINUOUS
 62
     7
 10
2971.1230479999999
 20
-735.76556900000003
 30
0.0
  0
VERTEX
  5
79E
  8
LAYER01
  6
CONTINUOUS
 62
     7
 10
2965.9528829999999
 20
-738.35065099999997
 30
0.0
  0
VERTEX
  5
79F
  8
LAYER01
  6
CONTINUOUS
 62
     7
 10
2961.6444120000001
 20
-741.79742800000008
 30
0.0
  0
VERTEX
  5
7A0
  8
LAYER01
  6
CONTINUOUS
 62
     7
 10
2956.474248
 20
-745.24420399999997
 30
0.0
  0
VERTEX
  5
7A1
  8
LAYER01
  6
CONTINUOUS
 62
     7
 10
2953.0274709999999
 20
-749.55267500000002
 30
0.0
  0
VERTEX
  5
7A2
  8
LAYER01
  6
CONTINUOUS
 62
     7
 10
2948.7190000000001
 20
-754.72283900000002
 30
0.0
  0
VERTEX
  5
7A3
  8
LAYER01
  6
CONTINUOUS
 62
     7
 10
2946.133918
 20
-759.89300399999991
 30
0.0
  0
VERTEX
  5
7A4
  8
LAYER01
  6
CONTINUOUS
 62
     7
 10
2942.6871409999999
 20
-765.0631689999999
 30
0.0
  0
VERTEX
  5
7A5
  8
LAYER01
  6
CONTINUOUS
 62
     7
 10
2940.1020589999998
 20
-770.23333400000001
 30
0.0
  0
VERTEX
  5
7A6
  8
LAYER01
  6
CONTINUOUS
 62
     7
 10
2938.3786709999999
 20
-776.26519299999995
 30
0.0
  0
VERTEX
  5
7A7
  8
LAYER01
  6
CONTINUOUS
 62
     7
 10
2937.5169770000002
 20
-782.29705200000001
 30
0.0
  0
VERTEX
  5
7A8
  8
LAYER01
  6
CONTINUOUS
 62
     7
 10
2936.6552830000001
 20
-788.32890999999995
 30
0.0
  0
VERTEX
  5
7A9
  8
LAYER01
  6
CONTINUOUS
 62
     7
 10
2935.793588
 20
-795.22246299999995
 30
0.0
  0
VERTEX
  5
7AA
  8
LAYER01
  6
CONTINUOUS
 62
     7
 10
2935.793588
 20
-795.22246299999995
 30
0.0
  0
VERTEX
  5
7AB
  8
LAYER01
  6
CONTINUOUS
 62
     7
 10
2936.6552830000001
 20
-801.25432199999989
 30
0.0
  0
VERTEX
  5
7AC
  8
LAYER01
  6
CONTINUOUS
 62
     7
 10
2937.5169770000002
 20
-807.28618099999994
 30
0.0
  0
VERTEX
  5
7AD
  8
LAYER01
  6
CONTINUOUS
 62
     7
 10
2938.3786709999999
 20
-813.31804
 30
0.0
  0
VERTEX
  5
7AE
  8
LAYER01
  6
CONTINUOUS
 62
     7
 10
2940.963753
 20
-818.48820499999999
 30
0.0
  0
VERTEX
  5
7AF
  8
LAYER01
  6
CONTINUOUS
 62
     7
 10
2942.6871409999999
 20
-823.65836999999999
 30
0.0
  0
VERTEX
  5
7B0
  8
LAYER01
  6
CONTINUOUS
 62
     7
 10
2946.133918
 20
-828.82853399999988
 30
0.0
  0
VERTEX
  5
7B1
  8
LAYER01
  6
CONTINUOUS
 62
     7
 10
2949.5806940000002
 20
-833.99869899999987
 30
0.0
  0
VERTEX
  5
7B2
  8
LAYER01
  6
CONTINUOUS
 62
     7
 10
2953.0274709999999
 20
-838.30717000000004
 30
0.0
  0
VERTEX
  5
7B3
  8
LAYER01
  6
CONTINUOUS
 62
     7
 10
2957.3359420000002
 20
-842.61564099999998
 30
0.0
  0
VERTEX
  5
7B4
  8
LAYER01
  6
CONTINUOUS
 62
     7
 10
2961.6444120000001
 20
-846.06241699999987
 30
0.0
  0
VERTEX
  5
7B5
  8
LAYER01
  6
CONTINUOUS
 62
     7
 10
2966.8145770000001
 20
-848.64749900000015
 30
0.0
  0
VERTEX
  5
7B6
  8
LAYER01
  6
CONTINUOUS
 62
     7
 10
2971.9847420000001
 20
-851.23258199999987
 30
0.0
  0
VERTEX
  5
7B7
  8
LAYER01
  6
CONTINUOUS
 62
     7
 10
2978.0166009999998
 20
-853.81766400000015
 30
0.0
  0
VERTEX
  5
7B8
  8
LAYER01
  6
CONTINUOUS
 62
     7
 10
2983.1867649999999
 20
-855.54105199999981
 30
0.0
  0
VERTEX
  5
7B9
  8
LAYER01
  6
CONTINUOUS
 62
     7
 10
2989.2186240000001
 20
-856.40274699999998
 30
0.0
  0
VERTEX
  5
7BA
  8
LAYER01
  6
CONTINUOUS
 62
     7
 10
2996.112177
 20
-856.40274699999998
 30
0.0
  0
VERTEX
  5
7BB
  8
LAYER01
  6
CONTINUOUS
 62
     7
 10
2996.112177
 20
-856.40274699999998
 30
0.0
  0
VERTEX
  5
7BC
  8
LAYER01
  6
CONTINUOUS
 62
     7
 10
3005.5908129999998
 20
-855.54105199999981
 30
0.0
  0
VERTEX
  5
7BD
  8
LAYER01
  6
CONTINUOUS
 62
     7
 10
3013.3460599999999
 20
-853.81766400000015
 30
0.0
  0
VERTEX
  5
7BE
  8
LAYER01
  6
CONTINUOUS
 62
     7
 10
3021.1013069999999
 20
-849.50919399999998
 30
0.0
  0
VERTEX
  5
7BF
  8
LAYER01
  6
CONTINUOUS
 62
     7
 10
3028.856554
 20
-844.33902899999975
 30
0.0
  0
VERTEX
  5
7C0
  8
LAYER01
  6
CONTINUOUS
 62
     7
 10
3051.2606019999998
 20
-874.49832300000003
 30
0.0
  0
VERTEX
  5
7C1
  8
LAYER01
  6
CONTINUOUS
 62
     7
 10
3051.2606019999998
 20
-874.49832300000003
 30
0.0
  0
VERTEX
  5
7C2
  8
LAYER01
  6
CONTINUOUS
 62
     7
 10
3038.3351899999998
 20
-882.25356999999985
 30
0.0
  0
VERTEX
  5
7C3
  8
LAYER01
  6
CONTINUOUS
 62
     7
 10
3031.4416369999999
 20
-884.83865299999991
 30
0.0
  0
VERTEX
  5
7C4
  8
LAYER01
  6
CONTINUOUS
 62
     7
 10
3025.4097780000002
 20
-887.42373499999985
 30
0.0
  0
VERTEX
  5
7C5
  8
LAYER01
  6
CONTINUOUS
 62
     7
 10
3018.5162249999998
 20
-889.14712299999997
 30
0.0
  0
VERTEX
  5
7C6
  8
LAYER01
  6
CONTINUOUS
 62
     7
 10
3011.622672
 20
-890.00881800000002
 30
0.0
  0
VERTEX
  5
7C7
  8
LAYER01
  6
CONTINUOUS
 62
     7
 10
2996.112177
 20
-890.87051199999996
 30
0.0
  0
VERTEX
  5
7C8
  8
LAYER01
  6
CONTINUOUS
 62
     7
 10
2996.112177
 20
-890.87051199999996
 30
0.0
  0
VERTEX
  5
7C9
  8
LAYER01
  6
CONTINUOUS
 62
     7
 10
2985.7718479999999
 20
-890.00881800000002
 30
0.0
  0
VERTEX
  5
7CA
  8
LAYER01
  6
CONTINUOUS
 62
     7
 10
2976.293212
 20
-888.28542899999991
 30
0.0
  0
VERTEX
  5
7CB
  8
LAYER01
  6
CONTINUOUS
 62
     7
 10
2966.8145770000001
 20
-886.56204100000002
 30
0.0
  0
VERTEX
  5
7CC
  8
LAYER01
  6
CONTINUOUS
 62
     7
 10
2958.1976359999999
 20
-883.11526499999991
 30
0.0
  0
VERTEX
  5
7CD
  8
LAYER01
  6
CONTINUOUS
 62
     7
 10
2949.5806940000002
 20
-878.80679399999985
 30
0.0
  0
VERTEX
  5
7CE
  8
LAYER01
  6
CONTINUOUS
 62
     7
 10
2941.8254470000002
 20
-874.49832300000003
 30
0.0
  0
VERTEX
  5
7CF
  8
LAYER01
  6
CONTINUOUS
 62
     7
 10
2934.0702000000001
 20
-868.46646400000009
 30
0.0
  0
VERTEX
  5
7D0
  8
LAYER01
  6
CONTINUOUS
 62
     7
 10
2927.1766469999998
 20
-862.43460600000003
 30
0.0
  0
VERTEX
  5
7D1
  8
LAYER01
  6
CONTINUOUS
 62
     7
 10
2920.2830940000008
 20
-855.54105199999981
 30
0.0
  0
VERTEX
  5
7D2
  8
LAYER01
  6
CONTINUOUS
 62
     7
 10
2915.1129289999999
 20
-847.7858050000001
 30
0.0
  0
VERTEX
  5
7D3
  8
LAYER01
  6
CONTINUOUS
 62
     7
 10
2909.9427649999998
 20
-840.03055800000016
 30
0.0
  0
VERTEX
  5
7D4
  8
LAYER01
  6
CONTINUOUS
 62
     7
 10
2905.634294
 20
-831.41361700000004
 30
0.0
  0
VERTEX
  5
7D5
  8
LAYER01
  6
CONTINUOUS
 62
     7
 10
2903.0492119999999
 20
-822.79667599999993
 30
0.0
  0
VERTEX
  5
7D6
  8
LAYER01
  6
CONTINUOUS
 62
     7
 10
2900.464129
 20
-813.31804
 30
0.0
  0
VERTEX
  5
7D7
  8
LAYER01
  6
CONTINUOUS
 62
     7
 10
2898.740741000001
 20
-803.83940499999994
 30
0.0
  0
VERTEX
  5
7D8
  8
LAYER01
  6
CONTINUOUS
 62
     7
 10
2897.8790469999999
 20
-793.49907499999995
 30
0.0
  0
VERTEX
  5
7D9
  8
LAYER01
  6
CONTINUOUS
 62
     7
 10
2897.8790469999999
 20
-793.49907499999995
 30
0.0
  0
VERTEX
  5
7DA
  8
LAYER01
  6
CONTINUOUS
 62
     7
 10
2898.740741000001
 20
-784.02044000000001
 30
0.0
  0
VERTEX
  5
7DB
  8
LAYER01
  6
CONTINUOUS
 62
     7
 10
2900.464129
 20
-773.68011000000001
 30
0.0
  0
VERTEX
  5
7DC
  8
LAYER01
  6
CONTINUOUS
 62
     7
 10
2902.1875170000012
 20
-765.0631689999999
 30
0.0
  0
VERTEX
  5
7DD
  8
LAYER01
  6
CONTINUOUS
 62
     7
 10
2905.634294
 20
-755.58453399999985
 30
0.0
  0
VERTEX
  5
7DE
  8
LAYER01
  6
CONTINUOUS
 62
     7
 10
2909.9427649999998
 20
-746.96759199999997
 30
0.0
  0
VERTEX
  5
7DF
  8
LAYER01
  6
CONTINUOUS
 62
     7
 10
2914.2512350000002
 20
-739.21234500000003
 30
0.0
  0
VERTEX
  5
7E0
  8
LAYER01
  6
CONTINUOUS
 62
     7
 10
2920.2830940000008
 20
-731.45709799999997
 30
0.0
  0
VERTEX
  5
7E1
  8
LAYER01
  6
CONTINUOUS
 62
     7
 10
2926.3149530000001
 20
-724.56354499999986
 30
0.0
  0
VERTEX
  5
7E2
  8
LAYER01
  6
CONTINUOUS
 62
     7
 10
2933.2085059999999
 20
-718.53168600000004
 30
0.0
  0
VERTEX
  5
7E3
  8
LAYER01
  6
CONTINUOUS
 62
     7
 10
2940.963753
 20
-712.49982699999987
 30
0.0
  0
VERTEX
  5
7E4
  8
LAYER01
  6
CONTINUOUS
 62
     7
 10
2948.7190000000001
 20
-708.19135599999993
 30
0.0
  0
VERTEX
  5
7E5
  8
LAYER01
  6
CONTINUOUS
 62
     7
 10
2957.3359420000002
 20
-703.88288599999987
 30
0.0
  0
VERTEX
  5
7E6
  8
LAYER01
  6
CONTINUOUS
 62
     7
 10
2965.9528829999999
 20
-700.43610899999987
 30
0.0
  0
VERTEX
  5
7E7
  8
LAYER01
  6
CONTINUOUS
 62
     7
 10
2975.4315179999999
 20
-697.85102699999993
 30
0.0
  0
VERTEX
  5
7E8
  8
LAYER01
  6
CONTINUOUS
 62
     7
 10
2985.7718479999999
 20
-696.98933299999987
 30
0.0
  0
VERTEX
  5
7E9
  8
LAYER01
  6
CONTINUOUS
 62
     7
 10
2995.2504829999998
 20
-696.12763899999993
 30
0.0
  0
VERTEX
  5
7EA
  8
LAYER01
  6
CONTINUOUS
 62
     7
 10
2995.2504829999998
 20
-696.12763899999993
 30
0.0
  0
VERTEX
  5
7EB
  8
LAYER01
  6
CONTINUOUS
 62
     7
 10
3010.7609779999998
 20
-696.98933299999987
 30
0.0
  0
VERTEX
  5
7EC
  8
LAYER01
  6
CONTINUOUS
 62
     7
 10
3018.5162249999998
 20
-697.85102699999993
 30
0.0
  0
VERTEX
  5
7ED
  8
LAYER01
  6
CONTINUOUS
 62
     7
 10
3025.4097780000002
 20
-699.57441500000004
 30
0.0
  0
VERTEX
  5
7EE
  8
LAYER01
  6
CONTINUOUS
 62
     7
 10
3031.4416369999999
 20
-702.1594980000001
 30
0.0
  0
VERTEX
  5
7EF
  8
LAYER01
  6
CONTINUOUS
 62
     7
 10
3038.3351899999998
 20
-704.74457999999993
 30
0.0
  0
VERTEX
  5
7F0
  8
LAYER01
  6
CONTINUOUS
 62
     7
 10
3045.2287430000001
 20
-709.05305099999987
 30
0.0
  0
VERTEX
  5
7F1
  8
LAYER01
  6
CONTINUOUS
 62
     7
 10
3052.122296
 20
-713.36152100000004
 30
0.0
  0
VERTEX
  5
7F2
  8
LAYER01
  6
CONTINUOUS
 62
     7
 10
3052.122296
 20
-713.36152100000004
 30
0.0
  0
SEQEND
  5
7F3
  8
LAYER01
  6
CONTINUOUS
 62
     7
  0
POLYLINE
  5
247
  8
LAYER01
  6
CONTINUOUS
 62
     7
 66
     1
 10
0.0
 20
0.0
 30
0.0
 70
     1
  0
VERTEX
  5
7F4
  8
LAYER01
  6
CONTINUOUS
 62
     7
 10
3135.7066260000011
 20
-696.98933299999987
 30
0.0
  0
VERTEX
  5
7F5
  8
LAYER01
  6
CONTINUOUS
 62
     7
 10
3135.7066260000011
 20
-696.98933299999987
 30
0.0
  0
VERTEX
  5
7F6
  8
LAYER01
  6
CONTINUOUS
 62
     7
 10
3126.2279910000002
 20
-697.85102699999993
 30
0.0
  0
VERTEX
  5
7F7
  8
LAYER01
  6
CONTINUOUS
 62
     7
 10
3115.8876610000002
 20
-698.71272099999987
 30
0.0
  0
VERTEX
  5
7F8
  8
LAYER01
  6
CONTINUOUS
 62
     7
 10
3107.27072
 20
-701.29780300000004
 30
0.0
  0
VERTEX
  5
7F9
  8
LAYER01
  6
CONTINUOUS
 62
     7
 10
3097.792085
 20
-704.74457999999993
 30
0.0
  0
VERTEX
  5
7FA
  8
LAYER01
  6
CONTINUOUS
 62
     7
 10
3089.1751429999999
 20
-708.19135599999993
 30
0.0
  0
VERTEX
  5
7FB
  8
LAYER01
  6
CONTINUOUS
 62
     7
 10
3081.4198959999999
 20
-713.36152100000004
 30
0.0
  0
VERTEX
  5
7FC
  8
LAYER01
  6
CONTINUOUS
 62
     7
 10
3073.6646489999998
 20
-718.53168600000004
 30
0.0
  0
VERTEX
  5
7FD
  8
LAYER01
  6
CONTINUOUS
 62
     7
 10
3066.7710959999999
 20
-725.42523899999992
 30
0.0
  0
VERTEX
  5
7FE
  8
LAYER01
  6
CONTINUOUS
 62
     7
 10
3060.7392369999998
 20
-732.31879200000003
 30
0.0
  0
VERTEX
  5
7FF
  8
LAYER01
  6
CONTINUOUS
 62
     7
 10
3054.7073780000001
 20
-739.21234500000003
 30
0.0
  0
VERTEX
  5
800
  8
LAYER01
  6
CONTINUOUS
 62
     7
 10
3049.5372130000001
 20
-746.96759199999997
 30
0.0
  0
VERTEX
  5
801
  8
LAYER01
  6
CONTINUOUS
 62
     7
 10
3045.2287430000001
 20
-755.58453399999985
 30
0.0
  0
VERTEX
  5
802
  8
LAYER01
  6
CONTINUOUS
 62
     7
 10
3042.6436600000002
 20
-765.0631689999999
 30
0.0
  0
VERTEX
  5
803
  8
LAYER01
  6
CONTINUOUS
 62
     7
 10
3040.0585780000001
 20
-773.68011000000001
 30
0.0
  0
VERTEX
  5
804
  8
LAYER01
  6
CONTINUOUS
 62
     7
 10
3038.3351899999998
 20
-784.02044000000001
 30
0.0
  0
VERTEX
  5
805
  8
LAYER01
  6
CONTINUOUS
 62
     7
 10
3037.4734960000001
 20
-793.49907499999995
 30
0.0
  0
VERTEX
  5
806
  8
LAYER01
  6
CONTINUOUS
 62
     7
 10
3037.4734960000001
 20
-793.49907499999995
 30
0.0
  0
VERTEX
  5
807
  8
LAYER01
  6
CONTINUOUS
 62
     7
 10
3038.3351899999998
 20
-803.83940499999994
 30
0.0
  0
VERTEX
  5
808
  8
LAYER01
  6
CONTINUOUS
 62
     7
 10
3039.196884
 20
-813.31804
 30
0.0
  0
VERTEX
  5
809
  8
LAYER01
  6
CONTINUOUS
 62
     7
 10
3041.781966
 20
-822.79667599999993
 30
0.0
  0
VERTEX
  5
80A
  8
LAYER01
  6
CONTINUOUS
 62
     7
 10
3045.2287430000001
 20
-831.41361700000004
 30
0.0
  0
VERTEX
  5
80B
  8
LAYER01
  6
CONTINUOUS
 62
     7
 10
3048.6755189999999
 20
-840.03055800000016
 30
0.0
  0
VERTEX
  5
80C
  8
LAYER01
  6
CONTINUOUS
 62
     7
 10
3053.8456839999999
 20
-847.7858050000001
 30
0.0
  0
VERTEX
  5
80D
  8
LAYER01
  6
CONTINUOUS
 62
     7
 10
3059.0158489999999
 20
-855.54105199999981
 30
0.0
  0
VERTEX
  5
80E
  8
LAYER01
  6
CONTINUOUS
 62
     7
 10
3065.0477080000001
 20
-862.43460600000003
 30
0.0
  0
VERTEX
  5
80F
  8
LAYER01
  6
CONTINUOUS
 62
     7
 10
3071.9412609999999
 20
-869.32815899999991
 30
0.0
  0
VERTEX
  5
810
  8
LAYER01
  6
CONTINUOUS
 62
     7
 10
3079.696508
 20
-874.49832300000003
 30
0.0
  0
VERTEX
  5
811
  8
LAYER01
  6
CONTINUOUS
 62
     7
 10
3087.451755
 20
-879.66848800000002
 30
0.0
  0
VERTEX
  5
812
  8
LAYER01
  6
CONTINUOUS
 62
     7
 10
3096.0686960000012
 20
-883.97695899999985
 30
0.0
  0
VERTEX
  5
813
  8
LAYER01
  6
CONTINUOUS
 62
     7
 10
3104.6856379999999
 20
-887.42373499999985
 30
0.0
  0
VERTEX
  5
814
  8
LAYER01
  6
CONTINUOUS
 62
     7
 10
3114.1642729999999
 20
-889.14712299999997
 30
0.0
  0
VERTEX
  5
815
  8
LAYER01
  6
CONTINUOUS
 62
     7
 10
3123.6429079999998
 20
-890.87051199999996
 30
0.0
  0
VERTEX
  5
816
  8
LAYER01
  6
CONTINUOUS
 62
     7
 10
3133.1215440000001
 20
-891.73220600000002
 30
0.0
  0
VERTEX
  5
817
  8
LAYER01
  6
CONTINUOUS
 62
     7
 10
3133.1215440000001
 20
-891.73220600000002
 30
0.0
  0
VERTEX
  5
818
  8
LAYER01
  6
CONTINUOUS
 62
     7
 10
3143.4618730000011
 20
-890.87051199999996
 30
0.0
  0
VERTEX
  5
819
  8
LAYER01
  6
CONTINUOUS
 62
     7
 10
3152.940509
 20
-889.14712299999997
 30
0.0
  0
VERTEX
  5
81A
  8
LAYER01
  6
CONTINUOUS
 62
     7
 10
3162.419144
 20
-886.56204100000002
 30
0.0
  0
VERTEX
  5
81B
  8
LAYER01
  6
CONTINUOUS
 62
     7
 10
3171.0360860000001
 20
-883.11526499999991
 30
0.0
  0
VERTEX
  5
81C
  8
LAYER01
  6
CONTINUOUS
 62
     7
 10
3179.6530269999998
 20
-878.80679399999985
 30
0.0
  0
VERTEX
  5
81D
  8
LAYER01
  6
CONTINUOUS
 62
     7
 10
3187.4082739999999
 20
-873.63662899999986
 30
0.0
  0
VERTEX
  5
81E
  8
LAYER01
  6
CONTINUOUS
 62
     7
 10
3195.1635209999999
 20
-868.46646400000009
 30
0.0
  0
VERTEX
  5
81F
  8
LAYER01
  6
CONTINUOUS
 62
     7
 10
3202.0570739999998
 20
-861.57291099999998
 30
0.0
  0
VERTEX
  5
820
  8
LAYER01
  6
CONTINUOUS
 62
     7
 10
3208.088933
 20
-854.67935799999987
 30
0.0
  0
VERTEX
  5
821
  8
LAYER01
  6
CONTINUOUS
 62
     7
 10
3213.259098
 20
-846.92411099999981
 30
0.0
  0
VERTEX
  5
822
  8
LAYER01
  6
CONTINUOUS
 62
     7
 10
3217.5675679999999
 20
-839.1688640000001
 30
0.0
  0
VERTEX
  5
823
  8
LAYER01
  6
CONTINUOUS
 62
     7
 10
3221.8760390000002
 20
-830.55192299999987
 30
0.0
  0
VERTEX
  5
824
  8
LAYER01
  6
CONTINUOUS
 62
     7
 10
3225.3228159999999
 20
-821.07328700000005
 30
0.0
  0
VERTEX
  5
825
  8
LAYER01
  6
CONTINUOUS
 62
     7
 10
3227.0462040000002
 20
-811.59465199999988
 30
0.0
  0
VERTEX
  5
826
  8
LAYER01
  6
CONTINUOUS
 62
     7
 10
3227.9078979999999
 20
-802.11601699999994
 30
0.0
  0
VERTEX
  5
827
  8
LAYER01
  6
CONTINUOUS
 62
     7
 10
3228.769592000001
 20
-791.77568699999995
 30
0.0
  0
VERTEX
  5
828
  8
LAYER01
  6
CONTINUOUS
 62
     7
 10
3228.769592000001
 20
-791.77568699999995
 30
0.0
  0
VERTEX
  5
829
  8
LAYER01
  6
CONTINUOUS
 62
     7
 10
3227.9078979999999
 20
-782.29705200000001
 30
0.0
  0
VERTEX
  5
82A
  8
LAYER01
  6
CONTINUOUS
 62
     7
 10
3226.18451
 20
-772.81841599999996
 30
0.0
  0
VERTEX
  5
82B
  8
LAYER01
  6
CONTINUOUS
 62
     7
 10
3223.5994270000001
 20
-764.20147499999985
 30
0.0
  0
VERTEX
  5
82C
  8
LAYER01
  6
CONTINUOUS
 62
     7
 10
3221.014345
 20
-755.58453399999985
 30
0.0
  0
VERTEX
  5
82D
  8
LAYER01
  6
CONTINUOUS
 62
     7
 10
3216.7058740000002
 20
-747.82928600000002
 30
0.0
  0
VERTEX
  5
82E
  8
LAYER01
  6
CONTINUOUS
 62
     7
 10
3212.3974039999998
 20
-740.07403899999997
 30
0.0
  0
VERTEX
  5
82F
  8
LAYER01
  6
CONTINUOUS
 62
     7
 10
3207.2272389999998
 20
-732.31879200000003
 30
0.0
  0
VERTEX
  5
830
  8
LAYER01
  6
CONTINUOUS
 62
     7
 10
3201.1953800000001
 20
-726.28693299999998
 30
0.0
  0
VERTEX
  5
831
  8
LAYER01
  6
CONTINUOUS
 62
     7
 10
3194.3018269999998
 20
-720.25507400000004
 30
0.0
  0
VERTEX
  5
832
  8
LAYER01
  6
CONTINUOUS
 62
     7
 10
3187.4082739999999
 20
-714.22321499999987
 30
0.0
  0
VERTEX
  5
833
  8
LAYER01
  6
CONTINUOUS
 62
     7
 10
3179.6530269999998
 20
-709.91474500000004
 30
0.0
  0
VERTEX
  5
834
  8
LAYER01
  6
CONTINUOUS
 62
     7
 10
3171.8977799999998
 20
-705.60627399999987
 30
0.0
  0
VERTEX
  5
835
  8
LAYER01
  6
CONTINUOUS
 62
     7
 10
3163.2808380000001
 20
-702.1594980000001
 30
0.0
  0
VERTEX
  5
836
  8
LAYER01
  6
CONTINUOUS
 62
     7
 10
3154.6638969999999
 20
-699.57441500000004
 30
0.0
  0
VERTEX
  5
837
  8
LAYER01
  6
CONTINUOUS
 62
     7
 10
3145.185262
 20
-697.85102699999993
 30
0.0
  0
VERTEX
  5
838
  8
LAYER01
  6
CONTINUOUS
 62
     7
 10
3135.7066260000011
 20
-696.98933299999987
 30
0.0
  0
VERTEX
  5
839
  8
LAYER01
  6
CONTINUOUS
 62
     7
 10
3135.7066260000011
 20
-696.98933299999987
 30
0.0
  0
SEQEND
  5
83A
  8
LAYER01
  6
CONTINUOUS
 62
     7
  0
POLYLINE
  5
28F
  8
LAYER01
  6
CONTINUOUS
 62
     7
 66
     1
 10
0.0
 20
0.0
 30
0.0
 70
     1
  0
VERTEX
  5
83B
  8
LAYER01
  6
CONTINUOUS
 62
     7
 10
3133.1215440000001
 20
-856.40274699999998
 30
0.0
  0
VERTEX
  5
83C
  8
LAYER01
  6
CONTINUOUS
 62
     7
 10
3133.1215440000001
 20
-856.40274699999998
 30
0.0
  0
VERTEX
  5
83D
  8
LAYER01
  6
CONTINUOUS
 62
     7
 10
3127.0896849999999
 20
-855.54105199999981
 30
0.0
  0
VERTEX
  5
83E
  8
LAYER01
  6
CONTINUOUS
 62
     7
 10
3121.0578260000002
 20
-854.67935799999987
 30
0.0
  0
VERTEX
  5
83F
  8
LAYER01
  6
CONTINUOUS
 62
     7
 10
3115.025967
 20
-853.81766400000015
 30
0.0
  0
VERTEX
  5
840
  8
LAYER01
  6
CONTINUOUS
 62
     7
 10
3108.9941079999999
 20
-851.23258199999987
 30
0.0
  0
VERTEX
  5
841
  8
LAYER01
  6
CONTINUOUS
 62
     7
 10
3103.8239429999999
 20
-848.64749900000015
 30
0.0
  0
VERTEX
  5
842
  8
LAYER01
  6
CONTINUOUS
 62
     7
 10
3098.6537790000002
 20
-845.20072300000015
 30
0.0
  0
VERTEX
  5
843
  8
LAYER01
  6
CONTINUOUS
 62
     7
 10
3094.3453079999999
 20
-841.75394600000004
 30
0.0
  0
VERTEX
  5
844
  8
LAYER01
  6
CONTINUOUS
 62
     7
 10
3090.0368370000001
 20
-837.44547599999999
 30
0.0
  0
VERTEX
  5
845
  8
LAYER01
  6
CONTINUOUS
 62
     7
 10
3085.7283670000002
 20
-833.13700500000004
 30
0.0
  0
VERTEX
  5
846
  8
LAYER01
  6
CONTINUOUS
 62
     7
 10
3082.2815900000001
 20
-828.82853399999988
 30
0.0
  0
VERTEX
  5
847
  8
LAYER01
  6
CONTINUOUS
 62
     7
 10
3079.696508
 20
-823.65836999999999
 30
0.0
  0
VERTEX
  5
848
  8
LAYER01
  6
CONTINUOUS
 62
     7
 10
3077.1114259999999
 20
-817.62651100000005
 30
0.0
  0
VERTEX
  5
849
  8
LAYER01
  6
CONTINUOUS
 62
     7
 10
3074.526343
 20
-812.45634599999994
 30
0.0
  0
VERTEX
  5
84A
  8
LAYER01
  6
CONTINUOUS
 62
     7
 10
3073.6646489999998
 20
-806.42448699999989
 30
0.0
  0
VERTEX
  5
84B
  8
LAYER01
  6
CONTINUOUS
 62
     7
 10
3071.9412609999999
 20
-800.39262799999995
 30
0.0
  0
VERTEX
  5
84C
  8
LAYER01
  6
CONTINUOUS
 62
     7
 10
3071.9412609999999
 20
-793.49907499999995
 30
0.0
  0
VERTEX
  5
84D
  8
LAYER01
  6
CONTINUOUS
 62
     7
 10
3071.9412609999999
 20
-793.49907499999995
 30
0.0
  0
VERTEX
  5
84E
  8
LAYER01
  6
CONTINUOUS
 62
     7
 10
3072.8029550000001
 20
-787.46721600000001
 30
0.0
  0
VERTEX
  5
84F
  8
LAYER01
  6
CONTINUOUS
 62
     7
 10
3073.6646489999998
 20
-781.43535699999995
 30
0.0
  0
VERTEX
  5
850
  8
LAYER01
  6
CONTINUOUS
 62
     7
 10
3075.3880370000002
 20
-775.40349900000001
 30
0.0
  0
VERTEX
  5
851
  8
LAYER01
  6
CONTINUOUS
 62
     7
 10
3077.1114259999999
 20
-769.37163999999996
 30
0.0
  0
VERTEX
  5
852
  8
LAYER01
  6
CONTINUOUS
 62
     7
 10
3079.696508
 20
-764.20147499999985
 30
0.0
  0
VERTEX
  5
853
  8
LAYER01
  6
CONTINUOUS
 62
     7
 10
3083.1432840000002
 20
-759.03130999999985
 30
0.0
  0
VERTEX
  5
854
  8
LAYER01
  6
CONTINUOUS
 62
     7
 10
3086.5900609999999
 20
-754.72283900000002
 30
0.0
  0
VERTEX
  5
855
  8
LAYER01
  6
CONTINUOUS
 62
     7
 10
3090.8985320000011
 20
-750.41436900000008
 30
0.0
  0
VERTEX
  5
856
  8
LAYER01
  6
CONTINUOUS
 62
     7
 10
3095.2070020000001
 20
-746.10589800000002
 30
0.0
  0
VERTEX
  5
857
  8
LAYER01
  6
CONTINUOUS
 62
     7
 10
3099.5154729999999
 20
-742.65912200000002
 30
0.0
  0
VERTEX
  5
858
  8
LAYER01
  6
CONTINUOUS
 62
     7
 10
3104.6856379999999
 20
-739.21234500000003
 30
0.0
  0
VERTEX
  5
859
  8
LAYER01
  6
CONTINUOUS
 62
     7
 10
3110.7174970000001
 20
-736.62726299999997
 30
0.0
  0
VERTEX
  5
85A
  8
LAYER01
  6
CONTINUOUS
 62
     7
 10
3115.8876610000002
 20
-734.90387399999997
 30
0.0
  0
VERTEX
  5
85B
  8
LAYER01
  6
CONTINUOUS
 62
     7
 10
3121.9195199999999
 20
-733.18048599999997
 30
0.0
  0
VERTEX
  5
85C
  8
LAYER01
  6
CONTINUOUS
 62
     7
 10
3127.951379000001
 20
-732.31879200000003
 30
0.0
  0
VERTEX
  5
85D
  8
LAYER01
  6
CONTINUOUS
 62
     7
 10
3134.844932
 20
-732.31879200000003
 30
0.0
  0
VERTEX
  5
85E
  8
LAYER01
  6
CONTINUOUS
 62
     7
 10
3134.844932
 20
-732.31879200000003
 30
0.0
  0
VERTEX
  5
85F
  8
LAYER01
  6
CONTINUOUS
 62
     7
 10
3140.8767910000001
 20
-733.18048599999997
 30
0.0
  0
VERTEX
  5
860
  8
LAYER01
  6
CONTINUOUS
 62
     7
 10
3146.9086499999999
 20
-734.04218000000003
 30
0.0
  0
VERTEX
  5
861
  8
LAYER01
  6
CONTINUOUS
 62
     7
 10
3152.0788149999998
 20
-735.76556900000003
 30
0.0
  0
VERTEX
  5
862
  8
LAYER01
  6
CONTINUOUS
 62
     7
 10
3158.110674
 20
-737.48895700000003
 30
0.0
  0
VERTEX
  5
863
  8
LAYER01
  6
CONTINUOUS
 62
     7
 10
3162.419144
 20
-740.07403899999997
 30
0.0
  0
VERTEX
  5
864
  8
LAYER01
  6
CONTINUOUS
 62
     7
 10
3167.589309
 20
-743.52081599999997
 30
0.0
  0
VERTEX
  5
865
  8
LAYER01
  6
CONTINUOUS
 62
     7
 10
3171.8977799999998
 20
-746.96759199999997
 30
0.0
  0
VERTEX
  5
866
  8
LAYER01
  6
CONTINUOUS
 62
     7
 10
3176.2062500000002
 20
-750.41436900000008
 30
0.0
  0
VERTEX
  5
867
  8
LAYER01
  6
CONTINUOUS
 62
     7
 10
3179.6530269999998
 20
-754.72283900000002
 30
0.0
  0
VERTEX
  5
868
  8
LAYER01
  6
CONTINUOUS
 62
     7
 10
3183.0998030000001
 20
-759.89300399999991
 30
0.0
  0
VERTEX
  5
869
  8
LAYER01
  6
CONTINUOUS
 62
     7
 10
3186.5465800000002
 20
-764.20147499999985
 30
0.0
  0
VERTEX
  5
86A
  8
LAYER01
  6
CONTINUOUS
 62
     7
 10
3189.1316619999998
 20
-769.37163999999996
 30
0.0
  0
VERTEX
  5
86B
  8
LAYER01
  6
CONTINUOUS
 62
     7
 10
3190.8550500000001
 20
-775.40349900000001
 30
0.0
  0
VERTEX
  5
86C
  8
LAYER01
  6
CONTINUOUS
 62
     7
 10
3192.5784389999999
 20
-780.57366300000001
 30
0.0
  0
VERTEX
  5
86D
  8
LAYER01
  6
CONTINUOUS
 62
     7
 10
3193.4401330000001
 20
-786.60552199999995
 30
0.0
  0
VERTEX
  5
86E
  8
LAYER01
  6
CONTINUOUS
 62
     7
 10
3193.4401330000001
 20
-792.637381
 30
0.0
  0
VERTEX
  5
86F
  8
LAYER01
  6
CONTINUOUS
 62
     7
 10
3193.4401330000001
 20
-792.637381
 30
0.0
  0
VERTEX
  5
870
  8
LAYER01
  6
CONTINUOUS
 62
     7
 10
3193.4401330000001
 20
-799.530934
 30
0.0
  0
VERTEX
  5
871
  8
LAYER01
  6
CONTINUOUS
 62
     7
 10
3192.5784389999999
 20
-805.56279299999994
 30
0.0
  0
VERTEX
  5
872
  8
LAYER01
  6
CONTINUOUS
 62
     7
 10
3191.7167450000002
 20
-811.59465199999988
 30
0.0
  0
VERTEX
  5
873
  8
LAYER01
  6
CONTINUOUS
 62
     7
 10
3189.1316619999998
 20
-816.76481699999988
 30
0.0
  0
VERTEX
  5
874
  8
LAYER01
  6
CONTINUOUS
 62
     7
 10
3187.4082739999999
 20
-822.79667599999993
 30
0.0
  0
VERTEX
  5
875
  8
LAYER01
  6
CONTINUOUS
 62
     7
 10
3183.9614969999998
 20
-827.96684000000005
 30
0.0
  0
VERTEX
  5
876
  8
LAYER01
  6
CONTINUOUS
 62
     7
 10
3180.514721
 20
-833.13700500000004
 30
0.0
  0
VERTEX
  5
877
  8
LAYER01
  6
CONTINUOUS
 62
     7
 10
3176.2062500000002
 20
-837.44547599999999
 30
0.0
  0
VERTEX
  5
878
  8
LAYER01
  6
CONTINUOUS
 62
     7
 10
3171.8977799999998
 20
-841.75394600000004
 30
0.0
  0
VERTEX
  5
879
  8
LAYER01
  6
CONTINUOUS
 62
     7
 10
3167.589309
 20
-845.20072300000015
 30
0.0
  0
VERTEX
  5
87A
  8
LAYER01
  6
CONTINUOUS
 62
     7
 10
3162.419144
 20
-848.64749900000015
 30
0.0
  0
VERTEX
  5
87B
  8
LAYER01
  6
CONTINUOUS
 62
     7
 10
3157.248979
 20
-851.23258199999987
 30
0.0
  0
VERTEX
  5
87C
  8
LAYER01
  6
CONTINUOUS
 62
     7
 10
3151.2171210000001
 20
-852.95596999999998
 30
0.0
  0
VERTEX
  5
87D
  8
LAYER01
  6
CONTINUOUS
 62
     7
 10
3145.185262
 20
-854.67935799999987
 30
0.0
  0
VERTEX
  5
87E
  8
LAYER01
  6
CONTINUOUS
 62
     7
 10
3139.1534029999998
 20
-855.54105199999981
 30
0.0
  0
VERTEX
  5
87F
  8
LAYER01
  6
CONTINUOUS
 62
     7
 10
3133.1215440000001
 20
-856.40274699999998
 30
0.0
  0
VERTEX
  5
880
  8
LAYER01
  6
CONTINUOUS
 62
     7
 10
3133.1215440000001
 20
-856.40274699999998
 30
0.0
  0
SEQEND
  5
881
  8
LAYER01
  6
CONTINUOUS
 62
     7
  0
POLYLINE
  5
2D7
  8
LAYER01
  6
CONTINUOUS
 62
     7
 66
     1
 10
0.0
 20
0.0
 30
0.0
 70
     1
  0
VERTEX
  5
882
  8
LAYER01
  6
CONTINUOUS
 62
     7
 10
3202.0570739999998
 20
-701.29780300000004
 30
0.0
  0
VERTEX
  5
883
  8
LAYER01
  6
CONTINUOUS
 62
     7
 10
3293.3966519999999
 20
-701.29780300000004
 30
0.0
  0
VERTEX
  5
884
  8
LAYER01
  6
CONTINUOUS
 62
     7
 10
3293.3966519999999
 20
-701.29780300000004
 30
0.0
  0
VERTEX
  5
885
  8
LAYER01
  6
CONTINUOUS
 62
     7
 10
3303.736981
 20
-703.02119200000004
 30
0.0
  0
VERTEX
  5
886
  8
LAYER01
  6
CONTINUOUS
 62
     7
 10
3313.2156169999998
 20
-707.32966199999987
 30
0.0
  0
VERTEX
  5
887
  8
LAYER01
  6
CONTINUOUS
 62
     7
 10
3320.9708639999999
 20
-712.49982699999987
 30
0.0
  0
VERTEX
  5
888
  8
LAYER01
  6
CONTINUOUS
 62
     7
 10
3327.8644169999998
 20
-719.39337999999987
 30
0.0
  0
VERTEX
  5
889
  8
LAYER01
  6
CONTINUOUS
 62
     7
 10
3333.8962759999999
 20
-726.28693299999998
 30
0.0
  0
VERTEX
  5
88A
  8
LAYER01
  6
CONTINUOUS
 62
     7
 10
3338.2047460000008
 20
-734.90387399999997
 30
0.0
  0
VERTEX
  5
88B
  8
LAYER01
  6
CONTINUOUS
 62
     7
 10
3340.7898289999998
 20
-745.24420399999997
 30
0.0
  0
VERTEX
  5
88C
  8
LAYER01
  6
CONTINUOUS
 62
     7
 10
3341.651523
 20
-754.72283900000002
 30
0.0
  0
VERTEX
  5
88D
  8
LAYER01
  6
CONTINUOUS
 62
     7
 10
3341.651523
 20
-754.72283900000002
 30
0.0
  0
VERTEX
  5
88E
  8
LAYER01
  6
CONTINUOUS
 62
     7
 10
3340.7898289999998
 20
-765.0631689999999
 30
0.0
  0
VERTEX
  5
88F
  8
LAYER01
  6
CONTINUOUS
 62
     7
 10
3339.0664409999999
 20
-773.68011000000001
 30
0.0
  0
VERTEX
  5
890
  8
LAYER01
  6
CONTINUOUS
 62
     7
 10
3335.6196639999998
 20
-782.29705200000001
 30
0.0
  0
VERTEX
  5
891
  8
LAYER01
  6
CONTINUOUS
 62
     7
 10
3331.311193
 20
-790.05229899999995
 30
0.0
  0
VERTEX
  5
892
  8
LAYER01
  6
CONTINUOUS
 62
     7
 10
3325.2793350000011
 20
-796.94585199999995
 30
0.0
  0
VERTEX
  5
893
  8
LAYER01
  6
CONTINUOUS
 62
     7
 10
3319.2474760000009
 20
-802.11601699999994
 30
0.0
  0
VERTEX
  5
894
  8
LAYER01
  6
CONTINUOUS
 62
     7
 10
3310.6305339999999
 20
-807.28618099999994
 30
0.0
  0
VERTEX
  5
895
  8
LAYER01
  6
CONTINUOUS
 62
     7
 10
3302.0135930000001
 20
-810.73295800000005
 30
0.0
  0
VERTEX
  5
896
  8
LAYER01
  6
CONTINUOUS
 62
     7
 10
3358.0237109999998
 20
-885.70034699999997
 30
0.0
  0
VERTEX
  5
897
  8
LAYER01
  6
CONTINUOUS
 62
     7
 10
3314.9390050000002
 20
-885.70034699999997
 30
0.0
  0
VERTEX
  5
898
  8
LAYER01
  6
CONTINUOUS
 62
     7
 10
3239.9716159999998
 20
-790.05229899999995
 30
0.0
  0
VERTEX
  5
899
  8
LAYER01
  6
CONTINUOUS
 62
     7
 10
3282.1946280000011
 20
-790.05229899999995
 30
0.0
  0
VERTEX
  5
89A
  8
LAYER01
  6
CONTINUOUS
 62
     7
 10
3282.1946280000011
 20
-790.05229899999995
 30
0.0
  0
VERTEX
  5
89B
  8
LAYER01
  6
CONTINUOUS
 62
     7
 10
3287.3647930000002
 20
-788.32890999999995
 30
0.0
  0
VERTEX
  5
89C
  8
LAYER01
  6
CONTINUOUS
 62
     7
 10
3291.673264
 20
-786.60552199999995
 30
0.0
  0
VERTEX
  5
89D
  8
LAYER01
  6
CONTINUOUS
 62
     7
 10
3295.1200399999998
 20
-783.15874599999995
 30
0.0
  0
VERTEX
  5
89E
  8
LAYER01
  6
CONTINUOUS
 62
     7
 10
3298.5668170000008
 20
-779.71196899999995
 30
0.0
  0
VERTEX
  5
89F
  8
LAYER01
  6
CONTINUOUS
 62
     7
 10
3301.151899
 20
-775.40349900000001
 30
0.0
  0
VERTEX
  5
8A0
  8
LAYER01
  6
CONTINUOUS
 62
     7
 10
3303.736981
 20
-771.09502799999996
 30
0.0
  0
VERTEX
  5
8A1
  8
LAYER01
  6
CONTINUOUS
 62
     7
 10
3304.5986750000011
 20
-765.92486299999985
 30
0.0
  0
VERTEX
  5
8A2
  8
LAYER01
  6
CONTINUOUS
 62
     7
 10
3304.5986750000011
 20
-760.75469800000008
 30
0.0
  0
VERTEX
  5
8A3
  8
LAYER01
  6
CONTINUOUS
 62
     7
 10
3304.5986750000011
 20
-760.75469800000008
 30
0.0
  0
VERTEX
  5
8A4
  8
LAYER01
  6
CONTINUOUS
 62
     7
 10
3304.5986750000011
 20
-755.58453399999985
 30
0.0
  0
VERTEX
  5
8A5
  8
LAYER01
  6
CONTINUOUS
 62
     7
 10
3302.8752870000012
 20
-751.27606300000002
 30
0.0
  0
VERTEX
  5
8A6
  8
LAYER01
  6
CONTINUOUS
 62
     7
 10
3301.151899
 20
-746.96759199999997
 30
0.0
  0
VERTEX
  5
8A7
  8
LAYER01
  6
CONTINUOUS
 62
     7
 10
3298.5668170000008
 20
-742.65912200000002
 30
0.0
  0
VERTEX
  5
8A8
  8
LAYER01
  6
CONTINUOUS
 62
     7
 10
3295.1200399999998
 20
-739.21234500000003
 30
0.0
  0
VERTEX
  5
8A9
  8
LAYER01
  6
CONTINUOUS
 62
     7
 10
3291.673264
 20
-736.62726299999997
 30
0.0
  0
VERTEX
  5
8AA
  8
LAYER01
  6
CONTINUOUS
 62
     7
 10
3286.503099
 20
-734.04218000000003
 30
0.0
  0
VERTEX
  5
8AB
  8
LAYER01
  6
CONTINUOUS
 62
     7
 10
3282.1946280000011
 20
-732.31879200000003
 30
0.0
  0
VERTEX
  5
8AC
  8
LAYER01
  6
CONTINUOUS
 62
     7
 10
3233.0780629999999
 20
-732.31879200000003
 30
0.0
  0
VERTEX
  5
8AD
  8
LAYER01
  6
CONTINUOUS
 62
     7
 10
3202.0570739999998
 20
-701.29780300000004
 30
0.0
  0
VERTEX
  5
8AE
  8
LAYER01
  6
CONTINUOUS
 62
     7
 10
3202.0570739999998
 20
-701.29780300000004
 30
0.0
  0
SEQEND
  5
8AF
  8
LAYER01
  6
CONTINUOUS
 62
     7
  0
POLYLINE
  5
306
  8
LAYER01
  6
CONTINUOUS
 62
     7
 66
     1
 10
0.0
 20
0.0
 30
0.0
 70
     1
  0
VERTEX
  5
8B0
  8
LAYER01
  6
CONTINUOUS
 62
     7
 10
3381.2894529999999
 20
-746.96759199999997
 30
0.0
  0
VERTEX
  5
8B1
  8
LAYER01
  6
CONTINUOUS
 62
     7
 10
3381.2894529999999
 20
-746.96759199999997
 30
0.0
  0
VERTEX
  5
8B2
  8
LAYER01
  6
CONTINUOUS
 62
     7
 10
3385.5979240000011
 20
-746.10589800000002
 30
0.0
  0
VERTEX
  5
8B3
  8
LAYER01
  6
CONTINUOUS
 62
     7
 10
3389.9063940000001
 20
-745.24420399999997
 30
0.0
  0
VERTEX
  5
8B4
  8
LAYER01
  6
CONTINUOUS
 62
     7
 10
3394.2148649999999
 20
-742.65912200000002
 30
0.0
  0
VERTEX
  5
8B5
  8
LAYER01
  6
CONTINUOUS
 62
     7
 10
3397.6616410000001
 20
-740.07403899999997
 30
0.0
  0
VERTEX
  5
8B6
  8
LAYER01
  6
CONTINUOUS
 62
     7
 10
3400.2467240000001
 20
-736.62726299999997
 30
0.0
  0
VERTEX
  5
8B7
  8
LAYER01
  6
CONTINUOUS
 62
     7
 10
3401.9701119999991
 20
-733.18048599999997
 30
0.0
  0
VERTEX
  5
8B8
  8
LAYER01
  6
CONTINUOUS
 62
     7
 10
3403.6934999999999
 20
-728.87201600000003
 30
0.0
  0
VERTEX
  5
8B9
  8
LAYER01
  6
CONTINUOUS
 62
     7
 10
3403.6934999999999
 20
-723.70185100000003
 30
0.0
  0
VERTEX
  5
8BA
  8
LAYER01
  6
CONTINUOUS
 62
     7
 10
3403.6934999999999
 20
-723.70185100000003
 30
0.0
  0
VERTEX
  5
8BB
  8
LAYER01
  6
CONTINUOUS
 62
     7
 10
3403.6934999999999
 20
-719.39337999999987
 30
0.0
  0
VERTEX
  5
8BC
  8
LAYER01
  6
CONTINUOUS
 62
     7
 10
3401.9701119999991
 20
-715.08490999999992
 30
0.0
  0
VERTEX
  5
8BD
  8
LAYER01
  6
CONTINUOUS
 62
     7
 10
3400.2467240000001
 20
-711.63813300000004
 30
0.0
  0
VERTEX
  5
8BE
  8
LAYER01
  6
CONTINUOUS
 62
     7
 10
3397.6616410000001
 20
-708.19135599999993
 30
0.0
  0
VERTEX
  5
8BF
  8
LAYER01
  6
CONTINUOUS
 62
     7
 10
3394.2148649999999
 20
-705.60627399999987
 30
0.0
  0
VERTEX
  5
8C0
  8
LAYER01
  6
CONTINUOUS
 62
     7
 10
3389.9063940000001
 20
-703.02119200000004
 30
0.0
  0
VERTEX
  5
8C1
  8
LAYER01
  6
CONTINUOUS
 62
     7
 10
3385.5979240000011
 20
-702.1594980000001
 30
0.0
  0
VERTEX
  5
8C2
  8
LAYER01
  6
CONTINUOUS
 62
     7
 10
3381.2894529999999
 20
-701.29780300000004
 30
0.0
  0
VERTEX
  5
8C3
  8
LAYER01
  6
CONTINUOUS
 62
     7
 10
3381.2894529999999
 20
-701.29780300000004
 30
0.0
  0
VERTEX
  5
8C4
  8
LAYER01
  6
CONTINUOUS
 62
     7
 10
3376.980982
 20
-702.1594980000001
 30
0.0
  0
VERTEX
  5
8C5
  8
LAYER01
  6
CONTINUOUS
 62
     7
 10
3372.6725120000001
 20
-703.02119200000004
 30
0.0
  0
VERTEX
  5
8C6
  8
LAYER01
  6
CONTINUOUS
 62
     7
 10
3368.3640409999989
 20
-705.60627399999987
 30
0.0
  0
VERTEX
  5
8C7
  8
LAYER01
  6
CONTINUOUS
 62
     7
 10
3364.9172640000011
 20
-708.19135599999993
 30
0.0
  0
VERTEX
  5
8C8
  8
LAYER01
  6
CONTINUOUS
 62
     7
 10
3362.3321820000001
 20
-711.63813300000004
 30
0.0
  0
VERTEX
  5
8C9
  8
LAYER01
  6
CONTINUOUS
 62
     7
 10
3360.6087940000002
 20
-715.08490999999992
 30
0.0
  0
VERTEX
  5
8CA
  8
LAYER01
  6
CONTINUOUS
 62
     7
 10
3358.8854060000008
 20
-719.39337999999987
 30
0.0
  0
VERTEX
  5
8CB
  8
LAYER01
  6
CONTINUOUS
 62
     7
 10
3358.8854060000008
 20
-723.70185100000003
 30
0.0
  0
VERTEX
  5
8CC
  8
LAYER01
  6
CONTINUOUS
 62
     7
 10
3358.8854060000008
 20
-723.70185100000003
 30
0.0
  0
VERTEX
  5
8CD
  8
LAYER01
  6
CONTINUOUS
 62
     7
 10
3358.8854060000008
 20
-728.87201600000003
 30
0.0
  0
VERTEX
  5
8CE
  8
LAYER01
  6
CONTINUOUS
 62
     7
 10
3360.6087940000002
 20
-733.18048599999997
 30
0.0
  0
VERTEX
  5
8CF
  8
LAYER01
  6
CONTINUOUS
 62
     7
 10
3362.3321820000001
 20
-736.62726299999997
 30
0.0
  0
VERTEX
  5
8D0
  8
LAYER01
  6
CONTINUOUS
 62
     7
 10
3364.9172640000011
 20
-740.07403899999997
 30
0.0
  0
VERTEX
  5
8D1
  8
LAYER01
  6
CONTINUOUS
 62
     7
 10
3368.3640409999989
 20
-742.65912200000002
 30
0.0
  0
VERTEX
  5
8D2
  8
LAYER01
  6
CONTINUOUS
 62
     7
 10
3372.6725120000001
 20
-745.24420399999997
 30
0.0
  0
VERTEX
  5
8D3
  8
LAYER01
  6
CONTINUOUS
 62
     7
 10
3376.980982
 20
-746.10589800000002
 30
0.0
  0
VERTEX
  5
8D4
  8
LAYER01
  6
CONTINUOUS
 62
     7
 10
3381.2894529999999
 20
-746.96759199999997
 30
0.0
  0
VERTEX
  5
8D5
  8
LAYER01
  6
CONTINUOUS
 62
     7
 10
3381.2894529999999
 20
-746.96759199999997
 30
0.0
  0
SEQEND
  5
8D6
  8
LAYER01
  6
CONTINUOUS
 62
     7
  0
POLYLINE
  5
32E
  8
LAYER01
  6
CONTINUOUS
 62
     7
 66
     1
 10
0.0
 20
0.0
 30
0.0
 70
     1
  0
VERTEX
  5
8D7
  8
LAYER01
  6
CONTINUOUS
 62
     7
 10
3381.2894529999999
 20
-704.74457999999993
 30
0.0
  0
VERTEX
  5
8D8
  8
LAYER01
  6
CONTINUOUS
 62
     7
 10
3381.2894529999999
 20
-704.74457999999993
 30
0.0
  0
VERTEX
  5
8D9
  8
LAYER01
  6
CONTINUOUS
 62
     7
 10
3384.7362290000001
 20
-705.60627399999987
 30
0.0
  0
VERTEX
  5
8DA
  8
LAYER01
  6
CONTINUOUS
 62
     7
 10
3388.1830060000011
 20
-706.46796799999993
 30
0.0
  0
VERTEX
  5
8DB
  8
LAYER01
  6
CONTINUOUS
 62
     7
 10
3391.629782
 20
-708.19135599999993
 30
0.0
  0
VERTEX
  5
8DC
  8
LAYER01
  6
CONTINUOUS
 62
     7
 10
3394.2148649999999
 20
-710.77643899999987
 30
0.0
  0
VERTEX
  5
8DD
  8
LAYER01
  6
CONTINUOUS
 62
     7
 10
3396.799947
 20
-713.36152100000004
 30
0.0
  0
VERTEX
  5
8DE
  8
LAYER01
  6
CONTINUOUS
 62
     7
 10
3398.5233349999999
 20
-716.80829800000004
 30
0.0
  0
VERTEX
  5
8DF
  8
LAYER01
  6
CONTINUOUS
 62
     7
 10
3400.2467240000001
 20
-720.25507400000004
 30
0.0
  0
VERTEX
  5
8E0
  8
LAYER01
  6
CONTINUOUS
 62
     7
 10
3400.2467240000001
 20
-723.70185100000003
 30
0.0
  0
VERTEX
  5
8E1
  8
LAYER01
  6
CONTINUOUS
 62
     7
 10
3400.2467240000001
 20
-723.70185100000003
 30
0.0
  0
VERTEX
  5
8E2
  8
LAYER01
  6
CONTINUOUS
 62
     7
 10
3400.2467240000001
 20
-728.01032099999998
 30
0.0
  0
VERTEX
  5
8E3
  8
LAYER01
  6
CONTINUOUS
 62
     7
 10
3398.5233349999999
 20
-731.45709799999997
 30
0.0
  0
VERTEX
  5
8E4
  8
LAYER01
  6
CONTINUOUS
 62
     7
 10
3396.799947
 20
-734.90387399999997
 30
0.0
  0
VERTEX
  5
8E5
  8
LAYER01
  6
CONTINUOUS
 62
     7
 10
3394.2148649999999
 20
-737.48895700000003
 30
0.0
  0
VERTEX
  5
8E6
  8
LAYER01
  6
CONTINUOUS
 62
     7
 10
3391.629782
 20
-740.07403899999997
 30
0.0
  0
VERTEX
  5
8E7
  8
LAYER01
  6
CONTINUOUS
 62
     7
 10
3388.1830060000011
 20
-741.79742800000008
 30
0.0
  0
VERTEX
  5
8E8
  8
LAYER01
  6
CONTINUOUS
 62
     7
 10
3384.7362290000001
 20
-742.65912200000002
 30
0.0
  0
VERTEX
  5
8E9
  8
LAYER01
  6
CONTINUOUS
 62
     7
 10
3381.2894529999999
 20
-742.65912200000002
 30
0.0
  0
VERTEX
  5
8EA
  8
LAYER01
  6
CONTINUOUS
 62
     7
 10
3381.2894529999999
 20
-742.65912200000002
 30
0.0
  0
VERTEX
  5
8EB
  8
LAYER01
  6
CONTINUOUS
 62
     7
 10
3377.8426760000002
 20
-742.65912200000002
 30
0.0
  0
VERTEX
  5
8EC
  8
LAYER01
  6
CONTINUOUS
 62
     7
 10
3373.5342059999998
 20
-741.79742800000008
 30
0.0
  0
VERTEX
  5
8ED
  8
LAYER01
  6
CONTINUOUS
 62
     7
 10
3370.9491229999999
 20
-740.07403899999997
 30
0.0
  0
VERTEX
  5
8EE
  8
LAYER01
  6
CONTINUOUS
 62
     7
 10
3367.5023470000001
 20
-737.48895700000003
 30
0.0
  0
VERTEX
  5
8EF
  8
LAYER01
  6
CONTINUOUS
 62
     7
 10
3365.7789590000002
 20
-734.90387399999997
 30
0.0
  0
VERTEX
  5
8F0
  8
LAYER01
  6
CONTINUOUS
 62
     7
 10
3364.0555700000009
 20
-731.45709799999997
 30
0.0
  0
VERTEX
  5
8F1
  8
LAYER01
  6
CONTINUOUS
 62
     7
 10
3362.3321820000001
 20
-728.01032099999998
 30
0.0
  0
VERTEX
  5
8F2
  8
LAYER01
  6
CONTINUOUS
 62
     7
 10
3362.3321820000001
 20
-723.70185100000003
 30
0.0
  0
VERTEX
  5
8F3
  8
LAYER01
  6
CONTINUOUS
 62
     7
 10
3362.3321820000001
 20
-723.70185100000003
 30
0.0
  0
VERTEX
  5
8F4
  8
LAYER01
  6
CONTINUOUS
 62
     7
 10
3362.3321820000001
 20
-720.25507400000004
 30
0.0
  0
VERTEX
  5
8F5
  8
LAYER01
  6
CONTINUOUS
 62
     7
 10
3364.0555700000009
 20
-716.80829800000004
 30
0.0
  0
VERTEX
  5
8F6
  8
LAYER01
  6
CONTINUOUS
 62
     7
 10
3365.7789590000002
 20
-713.36152100000004
 30
0.0
  0
VERTEX
  5
8F7
  8
LAYER01
  6
CONTINUOUS
 62
     7
 10
3367.5023470000001
 20
-710.77643899999987
 30
0.0
  0
VERTEX
  5
8F8
  8
LAYER01
  6
CONTINUOUS
 62
     7
 10
3370.9491229999999
 20
-708.19135599999993
 30
0.0
  0
VERTEX
  5
8F9
  8
LAYER01
  6
CONTINUOUS
 62
     7
 10
3373.5342059999998
 20
-706.46796799999993
 30
0.0
  0
VERTEX
  5
8FA
  8
LAYER01
  6
CONTINUOUS
 62
     7
 10
3377.8426760000002
 20
-705.60627399999987
 30
0.0
  0
VERTEX
  5
8FB
  8
LAYER01
  6
CONTINUOUS
 62
     7
 10
3381.2894529999999
 20
-704.74457999999993
 30
0.0
  0
VERTEX
  5
8FC
  8
LAYER01
  6
CONTINUOUS
 62
     7
 10
3381.2894529999999
 20
-704.74457999999993
 30
0.0
  0
SEQEND
  5
8FD
  8
LAYER01
  6
CONTINUOUS
 62
     7
  0
POLYLINE
  5
356
  8
LAYER01
  6
CONTINUOUS
 62
     7
 66
     1
 10
0.0
 20
0.0
 30
0.0
 70
     1
  0
VERTEX
  5
8FE
  8
LAYER01
  6
CONTINUOUS
 62
     7
 10
3384.7362290000001
 20
-725.42523899999992
 30
0.0
  0
VERTEX
  5
8FF
  8
LAYER01
  6
CONTINUOUS
 62
     7
 10
3384.7362290000001
 20
-725.42523899999992
 30
0.0
  0
VERTEX
  5
900
  8
LAYER01
  6
CONTINUOUS
 62
     7
 10
3387.321312
 20
-724.56354499999986
 30
0.0
  0
VERTEX
  5
901
  8
LAYER01
  6
CONTINUOUS
 62
     7
 10
3389.9063940000001
 20
-723.70185100000003
 30
0.0
  0
VERTEX
  5
902
  8
LAYER01
  6
CONTINUOUS
 62
     7
 10
3391.629782
 20
-721.11676799999987
 30
0.0
  0
VERTEX
  5
903
  8
LAYER01
  6
CONTINUOUS
 62
     7
 10
3391.629782
 20
-718.53168600000004
 30
0.0
  0
VERTEX
  5
904
  8
LAYER01
  6
CONTINUOUS
 62
     7
 10
3391.629782
 20
-718.53168600000004
 30
0.0
  0
VERTEX
  5
905
  8
LAYER01
  6
CONTINUOUS
 62
     7
 10
3391.629782
 20
-715.08490999999992
 30
0.0
  0
VERTEX
  5
906
  8
LAYER01
  6
CONTINUOUS
 62
     7
 10
3389.0446999999999
 20
-712.49982699999987
 30
0.0
  0
VERTEX
  5
907
  8
LAYER01
  6
CONTINUOUS
 62
     7
 10
3386.4596179999999
 20
-711.63813300000004
 30
0.0
  0
VERTEX
  5
908
  8
LAYER01
  6
CONTINUOUS
 62
     7
 10
3383.0128410000002
 20
-711.63813300000004
 30
0.0
  0
VERTEX
  5
909
  8
LAYER01
  6
CONTINUOUS
 62
     7
 10
3372.6725120000001
 20
-711.63813300000004
 30
0.0
  0
VERTEX
  5
90A
  8
LAYER01
  6
CONTINUOUS
 62
     7
 10
3372.6725120000001
 20
-736.62726299999997
 30
0.0
  0
VERTEX
  5
90B
  8
LAYER01
  6
CONTINUOUS
 62
     7
 10
3376.1192879999999
 20
-736.62726299999997
 30
0.0
  0
VERTEX
  5
90C
  8
LAYER01
  6
CONTINUOUS
 62
     7
 10
3376.1192879999999
 20
-725.42523899999992
 30
0.0
  0
VERTEX
  5
90D
  8
LAYER01
  6
CONTINUOUS
 62
     7
 10
3381.2894529999999
 20
-725.42523899999992
 30
0.0
  0
VERTEX
  5
90E
  8
LAYER01
  6
CONTINUOUS
 62
     7
 10
3387.321312
 20
-736.62726299999997
 30
0.0
  0
VERTEX
  5
90F
  8
LAYER01
  6
CONTINUOUS
 62
     7
 10
3391.629782
 20
-736.62726299999997
 30
0.0
  0
VERTEX
  5
910
  8
LAYER01
  6
CONTINUOUS
 62
     7
 10
3384.7362290000001
 20
-725.42523899999992
 30
0.0
  0
VERTEX
  5
911
  8
LAYER01
  6
CONTINUOUS
 62
     7
 10
3384.7362290000001
 20
-725.42523899999992
 30
0.0
  0
SEQEND
  5
912
  8
LAYER01
  6
CONTINUOUS
 62
     7
  0
POLYLINE
  5
36C
  8
LAYER01
  6
CONTINUOUS
 62
     7
 66
     1
 10
0.0
 20
0.0
 30
0.0
 70
     1
  0
VERTEX
  5
913
  8
LAYER01
  6
CONTINUOUS
 62
     7
 10
3382.151147
 20
-715.08490999999992
 30
0.0
  0
VERTEX
  5
914
  8
LAYER01
  6
CONTINUOUS
 62
     7
 10
3382.151147
 20
-715.08490999999992
 30
0.0
  0
VERTEX
  5
915
  8
LAYER01
  6
CONTINUOUS
 62
     7
 10
3386.4596179999999
 20
-715.94660399999987
 30
0.0
  0
VERTEX
  5
916
  8
LAYER01
  6
CONTINUOUS
 62
     7
 10
3388.1830060000011
 20
-716.80829800000004
 30
0.0
  0
VERTEX
  5
917
  8
LAYER01
  6
CONTINUOUS
 62
     7
 10
3388.1830060000011
 20
-718.53168600000004
 30
0.0
  0
VERTEX
  5
918
  8
LAYER01
  6
CONTINUOUS
 62
     7
 10
3388.1830060000011
 20
-718.53168600000004
 30
0.0
  0
VERTEX
  5
919
  8
LAYER01
  6
CONTINUOUS
 62
     7
 10
3387.321312
 20
-720.25507400000004
 30
0.0
  0
VERTEX
  5
91A
  8
LAYER01
  6
CONTINUOUS
 62
     7
 10
3385.5979240000011
 20
-721.11676799999987
 30
0.0
  0
VERTEX
  5
91B
  8
LAYER01
  6
CONTINUOUS
 62
     7
 10
3380.4277590000011
 20
-721.97846300000003
 30
0.0
  0
VERTEX
  5
91C
  8
LAYER01
  6
CONTINUOUS
 62
     7
 10
3376.1192879999999
 20
-721.97846300000003
 30
0.0
  0
VERTEX
  5
91D
  8
LAYER01
  6
CONTINUOUS
 62
     7
 10
3376.1192879999999
 20
-715.08490999999992
 30
0.0
  0
VERTEX
  5
91E
  8
LAYER01
  6
CONTINUOUS
 62
     7
 10
3382.151147
 20
-715.08490999999992
 30
0.0
  0
VERTEX
  5
91F
  8
LAYER01
  6
CONTINUOUS
 62
     7
 10
3382.151147
 20
-715.08490999999992
 30
0.0
  0
SEQEND
  5
920
  8
LAYER01
  6
CONTINUOUS
 62
     7
  0
ENDBLK
  5
37B
  8
0
  0
BLOCK
  8
0
  2
USP40_W-G5
 70
     0
 10
0.0
 20
0.0
 30
0.0
  3
USP40_W-G5
  1

  0
TEXT
  5
37E
  8
LAYER01
  6
VERDECKT
 62
     1
 10
2382.040148
 20
-1151.343245
 30
0.0
 40
9.8979999999999997
  1
A. Sprenger GmbH
  7
SIMPLEX
  0
TEXT
  5
37F
  8
LAYER01
  6
VERDECKT
 62
     1
 10
2382.040148
 20
-1168.3112450000001
 30
0.0
 40
9.8979999999999997
  1
Berner Str. 10
  7
SIMPLEX
  0
TEXT
  5
380
  8
LAYER01
  6
VERDECKT
 62
     1
 10
2382.040148
 20
-1185.2792449999999
 30
0.0
 40
9.8979999999999997
  1
60437 Frankfurt
  7
SIMPLEX
  0
TEXT
  5
381
  8
LAYER01
  6
VERDECKT
 62
     1
 10
2382.040148
 20
-1202.247245
 30
0.0
 40
9.8979999999999997
  1
Tel.: 069 - 507 27 41
  7
SIMPLEX
  0
TEXT
  5
382
  8
LAYER01
  6
VERDECKT
 62
     1
 10
2382.040148
 20
-1219.2152450000001
 30
0.0
 40
9.8979999999999997
  1
Fax: 069 - 507 72 91
  7
SIMPLEX
  0
TEXT
  5
383
  8
LAYER01
  6
VERDECKT
 62
     1
 10
2382.040148
 20
-1236.1832449999999
 30
0.0
 40
9.8979999999999997
  1
info@varicor.org
  7
SIMPLEX
  0
ENDBLK
  5
384
  8
0
  0
BLOCK
  8
0
  2
USP40_W-G4
 70
     0
 10
0.0
 20
0.0
 30
0.0
  3
USP40_W-G4
  1

  0
TEXT
  5
387
  8
LAYER01
  6
CONTINUOUS
 62
     1
 10
3422.1402549999998
 20
-1384.025615
 30
0.0
 40
9.8979999999999997
  1
Blatt
  7
SIMPLEX
  0
LINE
  5
388
  8
LAYER01
  6
CONTINUOUS
 62
     1
 10
2368.0032550000001
 20
-1314.739615
 30
0.0
 11
2961.8832550000002
 21
-1314.739615
 31
0.0
  0
LINE
  5
389
  8
LAYER01
  6
CONTINUOUS
 62
     1
 10
2368.0032550000001
 20
-1339.4846150000001
 30
0.0
 11
2961.8832550000002
 21
-1339.4846150000001
 31
0.0
  0
LINE
  5
38A
  8
LAYER01
  6
CONTINUOUS
 62
     1
 10
2368.0032550000001
 20
-1364.229615
 30
0.0
 11
3486.4772549999998
 21
-1364.229615
 31
0.0
  0
LINE
  5
38B
  8
LAYER01
  6
CONTINUOUS
 62
     1
 10
2368.0032550000001
 20
-1438.4646150000001
 30
0.0
 11
3486.4772549999998
 21
-1438.4646150000001
 31
0.0
  0
LINE
  5
38C
  8
LAYER01
  6
CONTINUOUS
 62
     1
 10
2368.0032550000001
 20
-1240.5046150000001
 30
0.0
 11
3486.4772549999998
 21
-1240.5046150000001
 31
0.0
  0
POLYLINE
  5
38D
  8
LAYER01
  6
CONTINUOUS
 62
     1
 66
     1
 10
0.0
 20
0.0
 30
0.0
 70
     1
  0
VERTEX
  5
921
  8
LAYER01
  6
CONTINUOUS
 62
     1
 10
2368.0032550000001
 20
-1468.1586150000001
 30
0.0
  0
VERTEX
  5
922
  8
LAYER01
  6
CONTINUOUS
 62
     1
 10
2368.0032550000001
 20
-1136.575615
 30
0.0
  0
VERTEX
  5
923
  8
LAYER01
  6
CONTINUOUS
 62
     1
 10
3486.4772549999998
 20
-1136.575615
 30
0.0
  0
VERTEX
  5
924
  8
LAYER01
  6
CONTINUOUS
 62
     1
 10
3486.4772549999998
 20
-1468.1586150000001
 30
0.0
  0
SEQEND
  5
925
  8
LAYER01
  6
CONTINUOUS
 62
     1
  0
LINE
  5
393
  8
LAYER01
  6
CONTINUOUS
 62
     1
 10
2368.0032550000001
 20
-1265.2496149999999
 30
0.0
 11
2961.8832550000002
 21
-1265.2496149999999
 31
0.0
  0
LINE
  5
394
  8
LAYER01
  6
CONTINUOUS
 62
     1
 10
2368.0032550000001
 20
-1289.9946150000001
 30
0.0
 11
2961.8832550000002
 21
-1289.9946150000001
 31
0.0
  0
LINE
  5
395
  8
LAYER01
  6
CONTINUOUS
 62
     1
 10
2689.688255
 20
-1136.575615
 30
0.0
 11
2689.688255
 21
-1468.1586150000001
 31
0.0
  0
INSERT
  5
396
  8
LAYER01
  2
USP40_W-G5
 10
0.0
 20
0.0
 30
0.0
  0
LINE
  5
397
  8
LAYER01
  6
CONTINUOUS
 62
     1
 10
2368.0032550000001
 20
-1413.719615
 30
0.0
 11
2689.688255
 21
-1413.719615
 31
0.0
  0
LINE
  5
398
  8
LAYER01
  6
CONTINUOUS
 62
     1
 10
2368.0032550000001
 20
-1388.9746150000001
 30
0.0
 11
2689.688255
 21
-1388.9746150000001
 31
0.0
  0
LINE
  5
399
  8
LAYER01
  6
CONTINUOUS
 62
     1
 10
2412.5442549999998
 20
-1240.5046150000001
 30
0.0
 11
2412.5442549999998
 21
-1468.1586150000001
 31
0.0
  0
TEXT
  5
39A
  8
LAYER01
  6
CONTINUOUS
 62
     1
 10
2376.3168470000001
 20
-1458.2606149999999
 30
0.0
 40
9.4031000000000002
  1
Zust
  7
SIMPLEX
  0
LINE
  5
39B
  8
LAYER01
  6
CONTINUOUS
 62
     1
 10
2568.7194670000008
 20
-1468.1586150000001
 30
0.0
 11
2568.7194670000008
 21
-1240.5046150000001
 31
0.0
  0
LINE
  5
39C
  8
LAYER01
  6
CONTINUOUS
 62
     1
 10
2645.1472549999999
 20
-1240.5046150000001
 30
0.0
 11
2645.1472549999999
 21
-1468.1586150000001
 31
0.0
  0
TEXT
  5
39D
  8
LAYER01
  6
CONTINUOUS
 62
     1
 10
2456.2226860000001
 20
-1458.2606149999999
 30
0.0
 40
9.4031000000000002
  1
Änderung
  7
SIMPLEX
  0
TEXT
  5
39E
  8
LAYER01
  6
CONTINUOUS
 62
     1
 10
2582.6454870000011
 20
-1458.2606149999999
 30
0.0
 40
9.4031000000000002
  1
Datum
  7
SIMPLEX
  0
TEXT
  5
39F
  8
LAYER01
  6
CONTINUOUS
 62
     1
 10
2648.8727669999998
 20
-1458.2606149999999
 30
0.0
 40
9.4031000000000002
  1
Name
  7
SIMPLEX
  0
LINE
  5
3A0
  8
LAYER01
  6
CONTINUOUS
 62
     1
 10
3486.4772549999998
 20
-1176.1676150000001
 30
0.0
 11
2961.8832550000002
 21
-1176.1676150000001
 31
0.0
  0
LINE
  5
3A1
  8
LAYER01
  6
CONTINUOUS
 62
     1
 10
2754.025255
 20
-1339.4846150000001
 30
0.0
 11
2754.025255
 21
-1240.5046150000001
 31
0.0
  0
TEXT
  5
3A2
  8
LAYER01
  6
CONTINUOUS
 62
     1
 10
2699.5862550000002
 20
-1285.045615
 30
0.0
 40
9.8979999999999997
  1
Bearb.
  7
SIMPLEX
  0
TEXT
  5
3A3
  8
LAYER01
  6
CONTINUOUS
 62
     1
 10
2699.5862550000002
 20
-1334.535615
 30
0.0
 40
9.8979999999999997
  1
Norm
  7
SIMPLEX
  0
TEXT
  5
3A4
  8
LAYER01
  6
CONTINUOUS
 62
     1
 10
2699.5862550000002
 20
-1309.7906149999999
 30
0.0
 40
9.8979999999999997
  1
Gepr.
  7
SIMPLEX
  0
TEXT
  5
3A5
  8
LAYER01
  6
CONTINUOUS
 62
     1
 10
2778.7702549999999
 20
-1260.3006150000001
 30
0.0
 40
9.8979999999999997
  1
Datum
  7
SIMPLEX
  0
TEXT
  5
3A6
  8
LAYER01
  6
CONTINUOUS
 62
     1
 10
2877.7502549999999
 20
-1260.3006150000001
 30
0.0
 40
9.8979999999999997
  1
Name
  7
SIMPLEX
  0
TEXT
  5
3A7
  8
LAYER01
  6
CONTINUOUS
 62
     1
 10
3461.7322549999999
 20
-1433.515615
 30
0.0
 40
9.8979999999999997
  1
Bl.
  7
SIMPLEX
  0
LINE
  5
3A8
  8
LAYER01
  6
CONTINUOUS
 62
     1
 10
2961.8832550000002
 20
-1468.1586150000001
 30
0.0
 11
2961.8832550000002
 21
-1136.575615
 31
0.0
  0
LINE
  5
3A9
  8
LAYER01
  6
CONTINUOUS
 62
     1
 10
2848.056255
 20
-1364.229615
 30
0.0
 11
2848.056255
 21
-1136.575615
 31
0.0
  0
LINE
  5
3AA
  8
LAYER01
  6
CONTINUOUS
 62
     1
 10
3273.6702550000009
 20
-1136.575615
 30
0.0
 11
3273.6702550000009
 21
-1176.1676150000001
 31
0.0
  0
TEXT
  5
3AB
  8
LAYER01
  6
CONTINUOUS
 62
     1
 10
2972.6661359999998
 20
-1161.8452110000001
 30
0.0
 40
9.8979999999999997
  1
Maßstab
  7
SIMPLEX
  0
LINE
  5
3AC
  8
LAYER01
  6
CONTINUOUS
 62
     1
 10
3412.2422550000001
 20
-1364.229615
 30
0.0
 11
3412.2422550000001
 21
-1438.4646150000001
 31
0.0
  0
LINE
  5
3AD
  8
LAYER01
  6
CONTINUOUS
 62
     1
 10
3412.2422550000001
 20
-1413.719615
 30
0.0
 11
3486.4772549999998
 21
-1413.719615
 31
0.0
  0
ENDBLK
  5
3AE
  8
0
  0
BLOCK
  8
0
  2
*D5
 70
     1
 10
0.0
 20
0.0
 30
0.0
  3
*D5
  1

  0
LINE
  5
3B1
  8
LAYER01
 62
     7
 10
451.92307
 20
516.17550900000003
 30
0.0
 11
499.92307
 21
516.17550900000003
 31
0.0
  0
LINE
  5
3B2
  8
LAYER01
 62
     7
 10
405.92306999999988
 20
516.17550900000003
 30
0.0
 11
357.92307
 21
516.17550900000003
 31
0.0
  0
LINE
  5
3B3
  8
LAYER01
 62
     7
 10
451.92307
 20
566.63040100000001
 30
0.0
 11
451.92307
 21
501.17550899999998
 31
0.0
  0
LINE
  5
3B4
  8
LAYER01
 62
     7
 10
405.92306999999988
 20
566.63040100000001
 30
0.0
 11
405.92306999999988
 21
501.17550899999998
 31
0.0
  0
SOLID
  5
3B5
  8
LAYER01
 62
     7
 10
475.92306999999988
 20
520.17534899999987
 30
0.0
 11
451.92307
 21
516.17550900000003
 31
0.0
 12
475.92306999999988
 22
512.17566899999997
 32
0.0
 13
475.92306999999988
 23
512.17566899999997
 33
0.0
  0
SOLID
  5
3B6
  8
LAYER01
 62
     7
 10
381.92307
 20
520.17534899999987
 30
0.0
 11
405.92306999999988
 21
516.17550900000003
 31
0.0
 12
381.92307
 22
512.17566899999997
 32
0.0
 13
381.92307
 23
512.17566899999997
 33
0.0
  0
TEXT
  5
3B7
  8
LAYER01
  6
CONTINUOUS
 62
     7
 10
514.92307000000005
 20
531.17550900000003
 30
0.0
 40
30.0
  1
46
  0
POINT
  5
3B8
  8
LAYER01
 62
     7
 10
451.92307
 20
578.63040100000001
 30
0.0
  0
POINT
  5
3B9
  8
LAYER01
 62
     7
 10
405.92306999999988
 20
578.63040100000001
 30
0.0
  0
POINT
  5
3BA
  8
LAYER01
 62
     7
 10
405.92306999999988
 20
516.17550900000003
 30
0.0
  0
ENDBLK
  5
3BB
  8
0
  0
BLOCK
  8
0
  2
*D6
 70
     1
 10
0.0
 20
0.0
 30
0.0
  3
*D6
  1

  0
LINE
  5
3BE
  8
LAYER01
 62
     7
 10
1138.200061
 20
-0.653212
 30
0.0
 11
1138.200061
 21
-300.653212
 31
0.0
  0
LINE
  5
3BF
  8
LAYER01
 62
     7
 10
1055.88987
 20
-0.653212
 30
0.0
 11
1153.200061
 21
-0.653212
 31
0.0
  0
LINE
  5
3C0
  8
LAYER01
 62
     7
 10
1055.88987
 20
-300.653212
 30
0.0
 11
1153.200061
 21
-300.653212
 31
0.0
  0
SOLID
  5
3C1
  8
LAYER01
 62
     7
 10
1134.2002210000001
 20
-24.653212
 30
0.0
 11
1138.200061
 21
-0.653212
 31
0.0
 12
1142.199901
 22
-24.653212
 32
0.0
 13
1142.199901
 23
-24.653212
 33
0.0
  0
SOLID
  5
3C2
  8
LAYER01
 62
     7
 10
1134.2002210000001
 20
-276.653212
 30
0.0
 11
1138.200061
 21
-300.653212
 31
0.0
 12
1142.199901
 22
-276.653212
 32
0.0
 13
1142.199901
 23
-276.653212
 33
0.0
  0
TEXT
  5
3C3
  8
LAYER01
  6
CONTINUOUS
 62
     7
 10
1123.200061
 20
-174.95342299999999
 30
0.0
 40
30.0
  1
300
 50
90.0
  0
POINT
  5
3C4
  8
LAYER01
 62
     7
 10
1043.88987
 20
-0.653212
 30
0.0
  0
POINT
  5
3C5
  8
LAYER01
 62
     7
 10
1043.88987
 20
-300.653212
 30
0.0
  0
POINT
  5
3C6
  8
LAYER01
 62
     7
 10
1138.200061
 20
-300.653212
 30
0.0
  0
ENDBLK
  5
3C7
  8
0
  0
BLOCK
  8
0
  2
*D7
 70
     1
 10
0.0
 20
0.0
 30
0.0
  3
*D7
  1

  0
LINE
  5
3CA
  8
LAYER01
 62
     7
 10
1210.0881870000001
 20
49.346787999999997
 30
0.0
 11
1210.0881870000001
 21
-350.653212
 31
0.0
  0
LINE
  5
3CB
  8
LAYER01
 62
     7
 10
1055.88987
 20
49.346787999999997
 30
0.0
 11
1225.0881870000001
 21
49.346787999999997
 31
0.0
  0
LINE
  5
3CC
  8
LAYER01
 62
     7
 10
1055.88987
 20
-350.653212
 30
0.0
 11
1225.0881870000001
 21
-350.653212
 31
0.0
  0
SOLID
  5
3CD
  8
LAYER01
 62
     7
 10
1206.0883470000001
 20
25.346788
 30
0.0
 11
1210.0881870000001
 21
49.346787999999997
 31
0.0
 12
1214.088027
 22
25.346788
 32
0.0
 13
1214.088027
 23
25.346788
 33
0.0
  0
SOLID
  5
3CE
  8
LAYER01
 62
     7
 10
1206.0883470000001
 20
-326.653212
 30
0.0
 11
1210.0881870000001
 21
-350.653212
 31
0.0
 12
1214.088027
 22
-326.653212
 32
0.0
 13
1214.088027
 23
-326.653212
 33
0.0
  0
TEXT
  5
3CF
  8
LAYER01
  6
CONTINUOUS
 62
     7
 10
1195.0881870000001
 20
-174.95342299999999
 30
0.0
 40
30.0
  1
400
 50
90.0
  0
POINT
  5
3D0
  8
LAYER01
 62
     7
 10
1043.88987
 20
49.346787999999997
 30
0.0
  0
POINT
  5
3D1
  8
LAYER01
 62
     7
 10
1043.88987
 20
-350.653212
 30
0.0
  0
POINT
  5
3D2
  8
LAYER01
 62
     7
 10
1210.0881870000001
 20
-350.653212
 30
0.0
  0
ENDBLK
  5
3D3
  8
0
  0
BLOCK
  8
0
  2
*D8
 70
     1
 10
0.0
 20
0.0
 30
0.0
  3
*D8
  1

  0
LINE
  5
3D6
  8
LAYER01
 62
     7
 10
1285.0138380000001
 20
74.346788000000004
 30
0.0
 11
1285.0138380000001
 21
-375.653212
 31
0.0
  0
LINE
  5
3D7
  8
LAYER01
 62
     7
 10
1055.88987
 20
74.346788000000004
 30
0.0
 11
1300.0138380000001
 21
74.346788000000004
 31
0.0
  0
LINE
  5
3D8
  8
LAYER01
 62
     7
 10
1055.88987
 20
-375.653212
 30
0.0
 11
1300.0138380000001
 21
-375.653212
 31
0.0
  0
SOLID
  5
3D9
  8
LAYER01
 62
     7
 10
1281.0139979999999
 20
50.346787999999997
 30
0.0
 11
1285.0138380000001
 21
74.346788000000004
 31
0.0
 12
1289.013678
 22
50.346787999999997
 32
0.0
 13
1289.013678
 23
50.346787999999997
 33
0.0
  0
SOLID
  5
3DA
  8
LAYER01
 62
     7
 10
1281.0139979999999
 20
-351.653212
 30
0.0
 11
1285.0138380000001
 21
-375.653212
 31
0.0
 12
1289.013678
 22
-351.653212
 32
0.0
 13
1289.013678
 23
-351.653212
 33
0.0
  0
TEXT
  5
3DB
  8
LAYER01
  6
CONTINUOUS
 62
     7
 10
1270.0138380000001
 20
-174.95342299999999
 30
0.0
 40
30.0
  1
450
 50
90.0
  0
POINT
  5
3DC
  8
LAYER01
 62
     7
 10
1043.88987
 20
74.346788000000004
 30
0.0
  0
POINT
  5
3DD
  8
LAYER01
 62
     7
 10
1043.88987
 20
-375.653212
 30
0.0
  0
POINT
  5
3DE
  8
LAYER01
 62
     7
 10
1285.0138380000001
 20
-375.653212
 30
0.0
  0
ENDBLK
  5
3DF
  8
0
  0
BLOCK
  8
0
  2
*D9
 70
     1
 10
0.0
 20
0.0
 30
0.0
  3
*D9
  1

  0
LINE
  5
3E2
  8
LAYER01
 62
     7
 10
1008.118572
 20
-215.41351800000001
 30
0.0
 11
958.68805099999997
 21
-198.499584
 31
0.0
  0
LINE
  5
3E3
  8
LAYER01
 62
     7
 10
818.88986999999986
 20
-150.66401200000001
 30
0.0
 11
868.32039099999986
 21
-167.577946
 31
0.0
  0
SOLID
  5
3E4
  8
LAYER01
 62
     7
 10
986.70606599999985
 20
-203.85915499999999
 30
0.0
 11
1008.118572
 21
-215.41351800000001
 31
0.0
 12
984.11618899999996
 22
-211.428
 32
0.0
 13
984.11618899999996
 23
-211.428
 33
0.0
  0
TEXT
  5
3E5
  8
LAYER01
  6
CONTINUOUS
 62
     7
 10
879.67411300000003
 20
-198.03876500000001
 30
0.0
 40
30.0
  1
R200
  0
POINT
  5
3E6
  8
LAYER01
 62
     7
 10
818.88986999999986
 20
-150.66401200000001
 30
0.0
  0
POINT
  5
3E7
  8
LAYER01
 62
     7
 10
818.88986999999986
 20
-150.66401200000001
 30
0.0
  0
ENDBLK
  5
3E8
  8
0
  0
BLOCK
  8
0
  2
*D10
 70
     1
 10
0.0
 20
0.0
 30
0.0
  3
*D10
  1

  0
LINE
  5
3EB
  8
LAYER01
 62
     7
 10
782.10575900000003
 20
-208.94237899999999
 30
0.0
 11
757.88519299999984
 21
-198.72984099999999
 31
0.0
  0
LINE
  5
3EC
  8
LAYER01
 62
     7
 10
643.88986999999997
 20
-150.66401200000001
 30
0.0
 11
668.11043600000005
 21
-160.87655000000001
 31
0.0
  0
SOLID
  5
3ED
  8
LAYER01
 62
     7
 10
761.54524500000002
 20
-195.93223
 30
0.0
 11
782.10575900000003
 21
-208.94237899999999
 31
0.0
 12
758.43718899999988
 22
-203.30345
 32
0.0
 13
758.43718899999988
 23
-203.30345
 33
0.0
  0
TEXT
  5
3EE
  8
LAYER01
  6
CONTINUOUS
 62
     7
 10
679.16770699999995
 20
-194.80319499999999
 30
0.0
 40
30.0
  1
R150
  0
POINT
  5
3EF
  8
LAYER01
 62
     7
 10
643.88986999999997
 20
-150.66401200000001
 30
0.0
  0
POINT
  5
3F0
  8
LAYER01
 62
     7
 10
643.88986999999997
 20
-150.66401200000001
 30
0.0
  0
ENDBLK
  5
3F1
  8
0
  0
BLOCK
  8
0
  2
*D11
 70
     1
 10
0.0
 20
0.0
 30
0.0
  3
*D11
  1

  0
LINE
  5
3F4
  8
LAYER01
 62
     7
 10
994.70108299999993
 20
-10.252412
 30
0.0
 11
934.95377199999996
 21
-57.969593999999987
 31
0.0
  0
LINE
  5
3F5
  8
LAYER01
 62
     7
 10
818.88986999999986
 20
-150.66401200000001
 30
0.0
 11
878.63718100000006
 21
-102.946831
 31
0.0
  0
SOLID
  5
3F6
  8
LAYER01
 62
     7
 10
973.4517810000001
 20
-22.104241999999999
 30
0.0
 11
994.70108299999993
 21
-10.252412
 31
0.0
 12
978.44399399999998
 22
-28.355056999999999
 32
0.0
 13
978.44399399999998
 23
-28.355056999999999
 33
0.0
  0
TEXT
  5
3F7
  8
LAYER01
  6
CONTINUOUS
 62
     7
 10
872.9653689999999
 20
-95.458212000000003
 30
0.0
 40
30.0
  1
R225
  0
POINT
  5
3F8
  8
LAYER01
 62
     7
 10
818.88986999999986
 20
-150.66401200000001
 30
0.0
  0
POINT
  5
3F9
  8
LAYER01
 62
     7
 10
818.88986999999986
 20
-150.66401200000001
 30
0.0
  0
ENDBLK
  5
3FA
  8
0
  0
BLOCK
  8
0
  2
*D12
 70
     1
 10
0.0
 20
0.0
 30
0.0
  3
*D12
  1

  0
LINE
  5
3FD
  8
LAYER01
 62
     7
 10
1018.88987
 20
156.11858899999999
 30
0.0
 11
318.92307
 21
156.11858899999999
 31
0.0
  0
LINE
  5
3FE
  8
LAYER01
 62
     7
 10
1018.88987
 20
98.436356000000004
 30
0.0
 11
1018.88987
 21
171.11858899999999
 31
0.0
  0
LINE
  5
3FF
  8
LAYER01
 62
     7
 10
318.92307
 20
98.436356000000004
 30
0.0
 11
318.92307
 21
171.11858899999999
 31
0.0
  0
SOLID
  5
400
  8
LAYER01
 62
     7
 10
994.88986999999986
 20
160.11842899999999
 30
0.0
 11
1018.88987
 21
156.11858899999999
 31
0.0
 12
994.88986999999986
 22
152.11874900000001
 32
0.0
 13
994.88986999999986
 23
152.11874900000001
 33
0.0
  0
SOLID
  5
401
  8
LAYER01
 62
     7
 10
342.92307
 20
160.11842899999999
 30
0.0
 11
318.92307
 21
156.11858899999999
 31
0.0
 12
342.92307
 22
152.11874900000001
 32
0.0
 13
342.92307
 23
152.11874900000001
 33
0.0
  0
TEXT
  5
402
  8
LAYER01
  6
CONTINUOUS
 62
     7
 10
644.40881000000002
 20
171.11858899999999
 30
0.0
 40
30.0
  1
700
  0
POINT
  5
403
  8
LAYER01
 62
     7
 10
1018.88987
 20
86.436356000000004
 30
0.0
  0
POINT
  5
404
  8
LAYER01
 62
     7
 10
318.92307
 20
86.436356000000004
 30
0.0
  0
POINT
  5
405
  8
LAYER01
 62
     7
 10
318.92307
 20
156.11858899999999
 30
0.0
  0
ENDBLK
  5
406
  8
0
  0
BLOCK
  8
0
  2
*D13
 70
     1
 10
0.0
 20
0.0
 30
0.0
  3
*D13
  1

  0
LINE
  5
409
  8
LAYER01
 62
     7
 10
1043.88987
 20
216.001758
 30
0.0
 11
293.92307
 21
216.001758
 31
0.0
  0
LINE
  5
40A
  8
LAYER01
 62
     7
 10
1043.88987
 20
98.436356000000004
 30
0.0
 11
1043.88987
 21
231.001758
 31
0.0
  0
LINE
  5
40B
  8
LAYER01
 62
     7
 10
293.92307
 20
98.436356000000004
 30
0.0
 11
293.92307
 21
231.001758
 31
0.0
  0
SOLID
  5
40C
  8
LAYER01
 62
     7
 10
1019.88987
 20
220.001598
 30
0.0
 11
1043.88987
 21
216.001758
 31
0.0
 12
1019.88987
 22
212.00191799999999
 32
0.0
 13
1019.88987
 23
212.00191799999999
 33
0.0
  0
SOLID
  5
40D
  8
LAYER01
 62
     7
 10
317.92307
 20
220.001598
 30
0.0
 11
293.92307
 21
216.001758
 31
0.0
 12
317.92307
 22
212.00191799999999
 32
0.0
 13
317.92307
 23
212.00191799999999
 33
0.0
  0
TEXT
  5
40E
  8
LAYER01
  6
CONTINUOUS
 62
     7
 10
644.40881000000002
 20
231.001758
 30
0.0
 40
30.0
  1
750
  0
POINT
  5
40F
  8
LAYER01
 62
     7
 10
1043.88987
 20
86.436356000000004
 30
0.0
  0
POINT
  5
410
  8
LAYER01
 62
     7
 10
293.92307
 20
86.436356000000004
 30
0.0
  0
POINT
  5
411
  8
LAYER01
 62
     7
 10
293.92307
 20
216.001758
 30
0.0
  0
ENDBLK
  5
412
  8
0
  0
BLOCK
  8
0
  2
*D14
 70
     1
 10
0.0
 20
0.0
 30
0.0
  3
*D14
  1

  0
LINE
  5
415
  8
LAYER01
 62
     7
 10
318.92307
 20
354.71781299999998
 30
0.0
 11
793.92307000000005
 21
354.71781299999998
 31
0.0
  0
LINE
  5
416
  8
LAYER01
 62
     7
 10
318.92307
 20
411.972511
 30
0.0
 11
318.92307
 21
339.71781299999998
 31
0.0
  0
LINE
  5
417
  8
LAYER01
 62
     7
 10
793.92307000000005
 20
411.972511
 30
0.0
 11
793.92307000000005
 21
339.71781299999998
 31
0.0
  0
SOLID
  5
418
  8
LAYER01
 62
     7
 10
342.92307
 20
350.71797299999997
 30
0.0
 11
318.92307
 21
354.71781299999998
 31
0.0
 12
342.92307
 22
358.71765299999998
 32
0.0
 13
342.92307
 23
358.71765299999998
 33
0.0
  0
SOLID
  5
419
  8
LAYER01
 62
     7
 10
769.92307000000005
 20
350.71797299999997
 30
0.0
 11
793.92307000000005
 21
354.71781299999998
 31
0.0
 12
769.92307000000005
 22
358.71765299999998
 32
0.0
 13
769.92307000000005
 23
358.71765299999998
 33
0.0
  0
TEXT
  5
41A
  8
LAYER01
  6
CONTINUOUS
 62
     7
 10
533.57764099999997
 20
369.71781299999998
 30
0.0
 40
30.0
  1
475
  0
POINT
  5
41B
  8
LAYER01
 62
     7
 10
318.92307
 20
423.972511
 30
0.0
  0
POINT
  5
41C
  8
LAYER01
 62
     7
 10
793.92307000000005
 20
423.972511
 30
0.0
  0
POINT
  5
41D
  8
LAYER01
 62
     7
 10
793.92307000000005
 20
354.71781299999998
 30
0.0
  0
ENDBLK
  5
41E
  8
0
  0
BLOCK
  8
0
  2
*D15
 70
     1
 10
0.0
 20
0.0
 30
0.0
  3
*D15
  1

  0
LINE
  5
421
  8
LAYER01
 62
     7
 10
318.92307
 20
375.40801299999998
 30
0.0
 11
366.92307
 21
375.40801299999998
 31
0.0
  0
LINE
  5
422
  8
LAYER01
 62
     7
 10
293.92307
 20
375.40801299999998
 30
0.0
 11
245.92307
 21
375.40801299999998
 31
0.0
  0
LINE
  5
423
  8
LAYER01
 62
     7
 10
318.92307
 20
411.972511
 30
0.0
 11
318.92307
 21
360.40801299999998
 31
0.0
  0
LINE
  5
424
  8
LAYER01
 62
     7
 10
293.92307
 20
411.972511
 30
0.0
 11
293.92307
 21
360.40801299999998
 31
0.0
  0
SOLID
  5
425
  8
LAYER01
 62
     7
 10
342.92307
 20
379.40785299999999
 30
0.0
 11
318.92307
 21
375.40801299999998
 31
0.0
 12
342.92307
 22
371.40817299999998
 32
0.0
 13
342.92307
 23
371.40817299999998
 33
0.0
  0
SOLID
  5
426
  8
LAYER01
 62
     7
 10
269.92307
 20
379.40785299999999
 30
0.0
 11
293.92307
 21
375.40801299999998
 31
0.0
 12
269.92307
 22
371.40817299999998
 32
0.0
 13
269.92307
 23
371.40817299999998
 33
0.0
  0
TEXT
  5
427
  8
LAYER01
  6
CONTINUOUS
 62
     7
 10
381.92307
 20
390.40801299999998
 30
0.0
 40
30.0
  1
25
  0
POINT
  5
428
  8
LAYER01
 62
     7
 10
318.92307
 20
423.972511
 30
0.0
  0
POINT
  5
429
  8
LAYER01
 62
     7
 10
293.92307
 20
423.972511
 30
0.0
  0
POINT
  5
42A
  8
LAYER01
 62
     7
 10
293.92307
 20
375.40801299999998
 30
0.0
  0
ENDBLK
  5
42B
  8
0
  0
BLOCK
  8
0
  2
*D16
 70
     1
 10
0.0
 20
0.0
 30
0.0
  3
*D16
  1

  0
LINE
  5
42E
  8
LAYER01
 62
     7
 10
428.92307
 20
441.980547
 30
0.0
 11
293.92307
 21
441.980547
 31
0.0
  0
LINE
  5
42F
  8
LAYER01
 62
     7
 10
428.92307
 20
482.43820599999992
 30
0.0
 11
428.92307
 21
426.980547
 31
0.0
  0
LINE
  5
430
  8
LAYER01
 62
     7
 10
293.92307
 20
482.43820599999992
 30
0.0
 11
293.92307
 21
426.980547
 31
0.0
  0
SOLID
  5
431
  8
LAYER01
 62
     7
 10
404.92306999999988
 20
445.98038700000001
 30
0.0
 11
428.92307
 21
441.980547
 31
0.0
 12
404.92306999999988
 22
437.980707
 32
0.0
 13
404.92306999999988
 23
437.980707
 33
0.0
  0
SOLID
  5
432
  8
LAYER01
 62
     7
 10
317.92307
 20
445.98038700000001
 30
0.0
 11
293.92307
 21
441.980547
 31
0.0
 12
317.92307
 22
437.980707
 32
0.0
 13
317.92307
 23
437.980707
 33
0.0
  0
TEXT
  5
433
  8
LAYER01
  6
CONTINUOUS
 62
     7
 10
338.493471
 20
456.980547
 30
0.0
 40
30.0
  1
135
  0
POINT
  5
434
  8
LAYER01
 62
     7
 10
428.92307
 20
494.43820599999992
 30
0.0
  0
POINT
  5
435
  8
LAYER01
 62
     7
 10
293.92307
 20
494.43820599999992
 30
0.0
  0
POINT
  5
436
  8
LAYER01
 62
     7
 10
293.92307
 20
441.980547
 30
0.0
  0
ENDBLK
  5
437
  8
0
  0
BLOCK
  8
0
  2
*D17
 70
     1
 10
0.0
 20
0.0
 30
0.0
  3
*D17
  1

  0
LINE
  5
43A
  8
LAYER01
 62
     7
 10
1903.47307
 20
97.366258000000002
 30
0.0
 11
1507.97307
 21
97.366258000000002
 31
0.0
  0
LINE
  5
43B
  8
LAYER01
 62
     7
 10
1903.47307
 20
22.263466999999999
 30
0.0
 11
1903.47307
 21
112.366258
 31
0.0
  0
LINE
  5
43C
  8
LAYER01
 62
     7
 10
1507.97307
 20
22.263466999999999
 30
0.0
 11
1507.97307
 21
112.366258
 31
0.0
  0
SOLID
  5
43D
  8
LAYER01
 62
     7
 10
1879.47307
 20
101.36609799999999
 30
0.0
 11
1903.47307
 21
97.366258000000002
 31
0.0
 12
1879.47307
 22
93.366417999999996
 32
0.0
 13
1879.47307
 23
93.366417999999996
 33
0.0
  0
SOLID
  5
43E
  8
LAYER01
 62
     7
 10
1531.97307
 20
101.36609799999999
 30
0.0
 11
1507.97307
 21
97.366258000000002
 31
0.0
 12
1531.97307
 22
93.366417999999996
 32
0.0
 13
1531.97307
 23
93.366417999999996
 33
0.0
  0
TEXT
  5
43F
  8
LAYER01
  6
CONTINUOUS
 62
     7
 10
1681.22541
 20
112.366258
 30
0.0
 40
30.0
  1
400
  0
POINT
  5
440
  8
LAYER01
 62
     7
 10
1903.47307
 20
10.263467
 30
0.0
  0
POINT
  5
441
  8
LAYER01
 62
     7
 10
1507.97307
 20
10.263467
 30
0.0
  0
POINT
  5
442
  8
LAYER01
 62
     7
 10
1507.97307
 20
97.366258000000002
 30
0.0
  0
ENDBLK
  5
443
  8
0
  0
BLOCK
  8
0
  2
*D18
 70
     1
 10
0.0
 20
0.0
 30
0.0
  3
*D18
  1

  0
LINE
  5
446
  8
LAYER01
 62
     7
 10
1928.47307
 20
164.87092000000001
 30
0.0
 11
1482.97307
 21
164.87092000000001
 31
0.0
  0
LINE
  5
447
  8
LAYER01
 62
     7
 10
1928.47307
 20
22.263466999999999
 30
0.0
 11
1928.47307
 21
179.87092000000001
 31
0.0
  0
LINE
  5
448
  8
LAYER01
 62
     7
 10
1482.97307
 20
22.263466999999999
 30
0.0
 11
1482.97307
 21
179.87092000000001
 31
0.0
  0
SOLID
  5
449
  8
LAYER01
 62
     7
 10
1904.47307
 20
168.87075999999999
 30
0.0
 11
1928.47307
 21
164.87092000000001
 31
0.0
 12
1904.47307
 22
160.87108000000001
 32
0.0
 13
1904.47307
 23
160.87108000000001
 33
0.0
  0
SOLID
  5
44A
  8
LAYER01
 62
     7
 10
1506.97307
 20
168.87075999999999
 30
0.0
 11
1482.97307
 21
164.87092000000001
 31
0.0
 12
1506.97307
 22
160.87108000000001
 32
0.0
 13
1506.97307
 23
160.87108000000001
 33
0.0
  0
TEXT
  5
44B
  8
LAYER01
  6
CONTINUOUS
 62
     7
 10
1681.22541
 20
179.87092000000001
 30
0.0
 40
30.0
  1
450
  0
POINT
  5
44C
  8
LAYER01
 62
     7
 10
1928.47307
 20
10.263467
 30
0.0
  0
POINT
  5
44D
  8
LAYER01
 62
     7
 10
1482.97307
 20
10.263467
 30
0.0
  0
POINT
  5
44E
  8
LAYER01
 62
     7
 10
1482.97307
 20
164.87092000000001
 30
0.0
  0
ENDBLK
  5
44F
  8
0
  0
BLOCK
  8
0
  2
*D19
 70
     1
 10
0.0
 20
0.0
 30
0.0
  3
*D19
  1

  0
LINE
  5
452
  8
LAYER01
 62
     7
 10
1730.97307
 20
-364.4910240000001
 30
0.0
 11
1778.97307
 21
-364.4910240000001
 31
0.0
  0
LINE
  5
453
  8
LAYER01
 62
     7
 10
1684.97307
 20
-364.4910240000001
 30
0.0
 11
1636.97307
 21
-364.4910240000001
 31
0.0
  0
LINE
  5
454
  8
LAYER01
 62
     7
 10
1730.97307
 20
-311.73653300000001
 30
0.0
 11
1730.97307
 21
-379.49102399999998
 31
0.0
  0
LINE
  5
455
  8
LAYER01
 62
     7
 10
1684.97307
 20
-311.73653300000001
 30
0.0
 11
1684.97307
 21
-379.49102399999998
 31
0.0
  0
SOLID
  5
456
  8
LAYER01
 62
     7
 10
1754.97307
 20
-360.49118399999998
 30
0.0
 11
1730.97307
 21
-364.4910240000001
 31
0.0
 12
1754.97307
 22
-368.49086399999999
 32
0.0
 13
1754.97307
 23
-368.49086399999999
 33
0.0
  0
SOLID
  5
457
  8
LAYER01
 62
     7
 10
1660.97307
 20
-360.49118399999998
 30
0.0
 11
1684.97307
 21
-364.4910240000001
 31
0.0
 12
1660.97307
 22
-368.49086399999999
 32
0.0
 13
1660.97307
 23
-368.49086399999999
 33
0.0
  0
TEXT
  5
458
  8
LAYER01
  6
CONTINUOUS
 62
     7
 10
1793.97307
 20
-349.49102399999998
 30
0.0
 40
30.0
  1
46
  0
POINT
  5
459
  8
LAYER01
 62
     7
 10
1730.97307
 20
-299.73653300000001
 30
0.0
  0
POINT
  5
45A
  8
LAYER01
 62
     7
 10
1684.97307
 20
-299.73653300000001
 30
0.0
  0
POINT
  5
45B
  8
LAYER01
 62
     7
 10
1684.97307
 20
-364.4910240000001
 30
0.0
  0
ENDBLK
  5
45C
  8
0
  0
BLOCK
  8
0
  2
*D20
 70
     1
 10
0.0
 20
0.0
 30
0.0
  3
*D20
  1

  0
LINE
  5
45F
  8
LAYER01
 62
     7
 10
1191.1437719999999
 20
888.63040099999989
 30
0.0
 11
1191.1437719999999
 21
578.63040100000001
 31
0.0
  0
LINE
  5
460
  8
LAYER01
 62
     7
 10
1055.9230700000001
 20
888.63040099999989
 30
0.0
 11
1206.1437719999999
 21
888.63040099999989
 31
0.0
  0
LINE
  5
461
  8
LAYER01
 62
     7
 10
1055.9230700000001
 20
578.63040100000001
 30
0.0
 11
1206.1437719999999
 21
578.63040100000001
 31
0.0
  0
SOLID
  5
462
  8
LAYER01
 62
     7
 10
1187.1439319999999
 20
864.63040099999989
 30
0.0
 11
1191.1437719999999
 21
888.63040099999989
 31
0.0
 12
1195.1436120000001
 22
864.63040099999989
 32
0.0
 13
1195.1436120000001
 23
864.63040099999989
 33
0.0
  0
SOLID
  5
463
  8
LAYER01
 62
     7
 10
1187.1439319999999
 20
602.63040100000001
 30
0.0
 11
1191.1437719999999
 21
578.63040100000001
 31
0.0
 12
1195.1436120000001
 22
602.63040100000001
 32
0.0
 13
1195.1436120000001
 23
602.63040100000001
 33
0.0
  0
TEXT
  5
464
  8
LAYER01
  6
CONTINUOUS
 62
     7
 10
1176.1437719999999
 20
710.77184299999999
 30
0.0
 40
30.0
  1
310
 50
90.0
  0
POINT
  5
465
  8
LAYER01
 62
     7
 10
1043.9230699999989
 20
888.63040099999989
 30
0.0
  0
POINT
  5
466
  8
LAYER01
 62
     7
 10
1043.9230699999989
 20
578.63040100000001
 30
0.0
  0
POINT
  5
467
  8
LAYER01
 62
     7
 10
1191.1437719999999
 20
578.63040100000001
 30
0.0
  0
ENDBLK
  5
468
  8
0
  0
BLOCK
  8
0
  2
*D21
 70
     1
 10
0.0
 20
0.0
 30
0.0
  3
*D21
  1

  0
LINE
  5
46B
  8
LAYER01
 62
     7
 10
1121.6156599999999
 20
888.63040099999989
 30
0.0
 11
1121.6156599999999
 21
603.63040100000001
 31
0.0
  0
LINE
  5
46C
  8
LAYER01
 62
     7
 10
1055.9230700000001
 20
888.63040099999989
 30
0.0
 11
1136.6156599999999
 21
888.63040099999989
 31
0.0
  0
LINE
  5
46D
  8
LAYER01
 62
     7
 10
1055.9230700000001
 20
603.63040100000001
 30
0.0
 11
1136.6156599999999
 21
603.63040100000001
 31
0.0
  0
SOLID
  5
46E
  8
LAYER01
 62
     7
 10
1117.61582
 20
864.63040099999989
 30
0.0
 11
1121.6156599999999
 21
888.63040099999989
 31
0.0
 12
1125.6155000000001
 22
864.63040099999989
 32
0.0
 13
1125.6155000000001
 23
864.63040099999989
 33
0.0
  0
SOLID
  5
46F
  8
LAYER01
 62
     7
 10
1117.61582
 20
627.63040100000001
 30
0.0
 11
1121.6156599999999
 21
603.63040100000001
 31
0.0
 12
1125.6155000000001
 22
627.63040100000001
 32
0.0
 13
1125.6155000000001
 23
627.63040100000001
 33
0.0
  0
TEXT
  5
470
  8
LAYER01
  6
CONTINUOUS
 62
     7
 10
1106.6156599999999
 20
723.27184299999999
 30
0.0
 40
30.0
  1
285
 50
90.0
  0
POINT
  5
471
  8
LAYER01
 62
     7
 10
1043.9230699999989
 20
888.63040099999989
 30
0.0
  0
POINT
  5
472
  8
LAYER01
 62
     7
 10
1043.9230699999989
 20
603.63040100000001
 30
0.0
  0
POINT
  5
473
  8
LAYER01
 62
     7
 10
1121.6156599999999
 20
603.63040100000001
 30
0.0
  0
ENDBLK
  5
474
  8
0
  0
BLOCK
  8
0
  2
*D22
 70
     1
 10
0.0
 20
0.0
 30
0.0
  3
*D22
  1

  0
LINE
  5
477
  8
LAYER01
 62
     7
 10
1018.9230700000001
 20
944.78091600000005
 30
0.0
 11
318.92307
 21
944.78091600000005
 31
0.0
  0
LINE
  5
478
  8
LAYER01
 62
     7
 10
1018.9230700000001
 20
900.63040100000001
 30
0.0
 11
1018.9230700000001
 21
959.78091600000005
 31
0.0
  0
LINE
  5
479
  8
LAYER01
 62
     7
 10
318.92307
 20
900.63040100000001
 30
0.0
 11
318.92307
 21
959.78091600000005
 31
0.0
  0
SOLID
  5
47A
  8
LAYER01
 62
     7
 10
994.92306999999994
 20
948.780756
 30
0.0
 11
1018.9230700000001
 21
944.78091600000005
 31
0.0
 12
994.92306999999994
 22
940.78107599999998
 32
0.0
 13
994.92306999999994
 23
940.78107599999998
 33
0.0
  0
SOLID
  5
47B
  8
LAYER01
 62
     7
 10
342.92307
 20
948.780756
 30
0.0
 11
318.92307
 21
944.78091600000005
 31
0.0
 12
342.92307
 22
940.78107599999998
 32
0.0
 13
342.92307
 23
940.78107599999998
 33
0.0
  0
TEXT
  5
47C
  8
LAYER01
  6
CONTINUOUS
 62
     7
 10
646.06451300000003
 20
959.78091600000005
 30
0.0
 40
30.0
  1
700
  0
POINT
  5
47D
  8
LAYER01
 62
     7
 10
1018.9230700000001
 20
888.63040099999989
 30
0.0
  0
POINT
  5
47E
  8
LAYER01
 62
     7
 10
318.92307
 20
888.63040099999989
 30
0.0
  0
POINT
  5
47F
  8
LAYER01
 62
     7
 10
318.92307
 20
944.78091600000005
 30
0.0
  0
ENDBLK
  5
480
  8
0
  0
BLOCK
  8
0
  2
*D23
 70
     1
 10
0.0
 20
0.0
 30
0.0
  3
*D23
  1

  0
LINE
  5
483
  8
LAYER01
 62
     7
 10
293.92307
 20
1009.070609
 30
0.0
 11
1043.9230699999989
 21
1009.070609
 31
0.0
  0
LINE
  5
484
  8
LAYER01
 62
     7
 10
293.92307
 20
900.53040099999987
 30
0.0
 11
293.92307
 21
1024.0706090000001
 31
0.0
  0
LINE
  5
485
  8
LAYER01
 62
     7
 10
1043.9230699999989
 20
900.53040099999987
 30
0.0
 11
1043.9230699999989
 21
1024.0706090000001
 31
0.0
  0
SOLID
  5
486
  8
LAYER01
 62
     7
 10
317.92307
 20
1005.070769
 30
0.0
 11
293.92307
 21
1009.070609
 31
0.0
 12
317.92307
 22
1013.0704490000001
 32
0.0
 13
317.92307
 23
1013.0704490000001
 33
0.0
  0
SOLID
  5
487
  8
LAYER01
 62
     7
 10
1019.9230700000001
 20
1005.070769
 30
0.0
 11
1043.9230699999989
 21
1009.070609
 31
0.0
 12
1019.9230700000001
 22
1013.0704490000001
 32
0.0
 13
1019.9230700000001
 23
1013.0704490000001
 33
0.0
  0
TEXT
  5
488
  8
LAYER01
  6
CONTINUOUS
 62
     7
 10
646.06451300000003
 20
1024.0706090000001
 30
0.0
 40
30.0
  1
750
  0
POINT
  5
489
  8
LAYER01
 62
     7
 10
293.92307
 20
888.53040099999998
 30
0.0
  0
POINT
  5
48A
  8
LAYER01
 62
     7
 10
1043.9230699999989
 20
888.53040099999998
 30
0.0
  0
POINT
  5
48B
  8
LAYER01
 62
     7
 10
1043.9230699999989
 20
1009.070609
 30
0.0
  0
ENDBLK
  5
48C
  8
0
  0
BLOCK
  8
0
  2
USP40_W-G25
 70
     0
 10
0.0
 20
0.0
 30
0.0
  3
USP40_W-G25
  1

  0
LINE
  5
48F
  8
LAYER01
  6
CONTINUOUS
 62
     7
 10
293.92307
 20
888.53040099999998
 30
0.0
 11
1043.9230699999989
 21
888.63040099999989
 31
0.0
  0
POLYLINE
  5
490
  8
LAYER01
  6
CONTINUOUS
 62
     7
 66
     1
 10
0.0
 20
0.0
 30
0.0
  0
VERTEX
  5
926
  8
LAYER01
  6
CONTINUOUS
 62
     7
 10
451.92307
 20
578.63040100000001
 30
0.0
  0
VERTEX
  5
927
  8
LAYER01
  6
CONTINUOUS
 62
     7
 10
457.42307
 20
578.63040100000001
 30
0.0
  0
VERTEX
  5
928
  8
LAYER01
  6
CONTINUOUS
 62
     7
 10
457.38986999999992
 20
592.52919599999996
 30
0.0
 42
-0.4142140000000001
  0
VERTEX
  5
929
  8
LAYER01
  6
CONTINUOUS
 62
     7
 10
463.42306999999988
 20
598.53040099999998
 30
0.0
  0
VERTEX
  5
92A
  8
LAYER01
  6
CONTINUOUS
 62
     7
 10
793.07962199999986
 20
598.63055899999995
 30
0.0
 42
0.235024
  0
VERTEX
  5
92B
  8
LAYER01
  6
CONTINUOUS
 62
     7
 10
836.92307000000005
 20
620.43040099999985
 30
0.0
  0
VERTEX
  5
92C
  8
LAYER01
  6
CONTINUOUS
 62
     7
 10
1018.81938
 20
879.55891099999985
 30
0.0
 42
-0.323605
  0
VERTEX
  5
92D
  8
LAYER01
  6
CONTINUOUS
 62
     7
 10
1024.52307
 20
883.63040100000001
 30
0.0
  0
VERTEX
  5
92E
  8
LAYER01
  6
CONTINUOUS
 62
     7
 10
1043.9230699999989
 20
883.63040100000001
 30
0.0
  0
VERTEX
  5
92F
  8
LAYER01
  6
CONTINUOUS
 62
     7
 10
1043.9230699999989
 20
888.63040099999989
 30
0.0
  0
VERTEX
  5
930
  8
LAYER01
  6
CONTINUOUS
 62
     7
 10
1023.889908
 20
888.67767200000003
 30
0.0
 42
0.324448
  0
VERTEX
  5
931
  8
LAYER01
  6
CONTINUOUS
 62
     7
 10
1013.4230700000001
 20
881.13040100000001
 30
0.0
  0
VERTEX
  5
932
  8
LAYER01
  6
CONTINUOUS
 62
     7
 10
833.56832199999985
 20
623.57284800000002
 30
0.0
 42
-0.235606
  0
VERTEX
  5
933
  8
LAYER01
  6
CONTINUOUS
 62
     7
 10
793.62306999999998
 20
603.63040100000001
 30
0.0
  0
VERTEX
  5
934
  8
LAYER01
  6
CONTINUOUS
 62
     7
 10
462.88986999999997
 20
603.52919599999996
 30
0.0
 42
0.4142140000000001
  0
VERTEX
  5
935
  8
LAYER01
  6
CONTINUOUS
 62
     7
 10
451.92307
 20
592.53040099999987
 30
0.0
  0
VERTEX
  5
936
  8
LAYER01
  6
CONTINUOUS
 62
     7
 10
451.92307
 20
578.63040100000001
 30
0.0
  0
SEQEND
  5
937
  8
LAYER01
  6
CONTINUOUS
 62
     7
  0
POLYLINE
  5
4A3
  8
LAYER01
  6
CONTINUOUS
 62
     7
 66
     1
 10
0.0
 20
0.0
 30
0.0
  0
VERTEX
  5
938
  8
LAYER01
  6
CONTINUOUS
 62
     7
 10
293.92307
 20
888.53040099999998
 30
0.0
  0
VERTEX
  5
939
  8
LAYER01
  6
CONTINUOUS
 62
     7
 10
293.92307
 20
883.53040099999987
 30
0.0
  0
VERTEX
  5
93A
  8
LAYER01
  6
CONTINUOUS
 62
     7
 10
318.92307
 20
883.53040099999987
 30
0.0
  0
VERTEX
  5
93B
  8
LAYER01
  6
CONTINUOUS
 62
     7
 10
318.64936999999998
 20
883.51010099999996
 30
0.0
 42
-0.323605
  0
VERTEX
  5
93C
  8
LAYER01
  6
CONTINUOUS
 62
     7
 10
324.32306999999997
 20
879.43040099999985
 30
0.0
  0
VERTEX
  5
93D
  8
LAYER01
  6
CONTINUOUS
 62
     7
 10
346.02046200000001
 20
630.47656199999994
 30
0.0
 42
0.389352
  0
VERTEX
  5
93E
  8
LAYER01
  6
CONTINUOUS
 62
     7
 10
380.92307
 20
598.53040099999998
 30
0.0
  0
VERTEX
  5
93F
  8
LAYER01
  6
CONTINUOUS
 62
     7
 10
394.38986999999997
 20
598.52919599999996
 30
0.0
 42
-0.4142140000000001
  0
VERTEX
  5
940
  8
LAYER01
  6
CONTINUOUS
 62
     7
 10
400.42306999999988
 20
592.53040099999987
 30
0.0
  0
VERTEX
  5
941
  8
LAYER01
  6
CONTINUOUS
 62
     7
 10
400.42306999999988
 20
578.63040100000001
 30
0.0
  0
VERTEX
  5
942
  8
LAYER01
  6
CONTINUOUS
 62
     7
 10
405.92306999999988
 20
578.63040100000001
 30
0.0
  0
VERTEX
  5
943
  8
LAYER01
  6
CONTINUOUS
 62
     7
 10
405.88986999999997
 20
592.52919599999996
 30
0.0
 42
0.4142140000000001
  0
VERTEX
  5
944
  8
LAYER01
  6
CONTINUOUS
 62
     7
 10
394.92307
 20
603.53040099999987
 30
0.0
  0
VERTEX
  5
945
  8
LAYER01
  6
CONTINUOUS
 62
     7
 10
380.933468
 20
603.5122980000001
 30
0.0
 42
-0.3894579999999999
  0
VERTEX
  5
946
  8
LAYER01
  6
CONTINUOUS
 62
     7
 10
351.02307000000002
 20
630.93040099999985
 30
0.0
  0
VERTEX
  5
947
  8
LAYER01
  6
CONTINUOUS
 62
     7
 10
329.335219
 20
880.95903899999996
 30
0.0
 42
0.323605
  0
VERTEX
  5
948
  8
LAYER01
  6
CONTINUOUS
 62
     7
 10
318.92307
 20
888.53040099999998
 30
0.0
  0
VERTEX
  5
949
  8
LAYER01
  6
CONTINUOUS
 62
     7
 10
293.92307
 20
888.53040099999998
 30
0.0
  0
SEQEND
  5
94A
  8
LAYER01
  6
CONTINUOUS
 62
     7
  0
LINE
  5
4B7
  8
LAYER01
  6
CONTINUOUS
 62
     7
 10
400.42306999999988
 20
578.63040100000001
 30
0.0
 11
457.42307
 21
578.63040100000001
 31
0.0
  0
LINE
  5
4B8
  8
LAYER01
  6
CONTINUOUS
 62
     7
 10
387.92307
 20
603.53040099999987
 30
0.0
 11
466.42307
 21
603.53040099999987
 31
0.0
  0
LINE
  5
4B9
  8
LAYER01
  6
CONTINUOUS
 62
     7
 10
428.92307
 20
614.53040099999998
 30
0.0
 11
428.92307
 21
571.13040100000001
 31
0.0
  0
ENDBLK
  5
4BA
  8
0
  0
ENDSEC
  0
SECTION
  2
ENTITIES
  0
DIMENSION
  5
4BB
  8
LAYER01
 62
     7
  2
*D0
 10
2033.2578460000011
 20
-274.759412
 30
0.0
 11
2003.257846
 21
-132.83549199999999
 31
0.0
 53
90.0
 13
1939.094527
 23
10.263467
 33
0.0
 14
1939.094527
 24
-274.759412
 34
0.0
 50
90.0
  0
DIMENSION
  5
4BC
  8
LAYER01
 62
     7
  2
*D1
 10
2095.0208830000001
 20
-299.73653300000001
 30
0.0
 11
2065.0208830000001
 21
-145.32405299999999
 31
0.0
 53
90.0
 13
1939.094527
 23
10.263467
 33
0.0
 14
1939.094527
 24
-299.73653300000001
 34
0.0
 50
90.0
  0
POLYLINE
  5
4BD
  8
LAYER01
  6
CONTINUOUS
 62
     7
 66
     1
 10
0.0
 20
0.0
 30
0.0
 70
     1
  0
VERTEX
  5
94B
  8
LAYER01
  6
CONTINUOUS
 62
     7
 10
-649.97506699999997
 20
-1468.1586150000001
 30
0.0
  0
VERTEX
  5
94C
  8
LAYER01
  6
CONTINUOUS
 62
     7
 10
-649.97506699999997
 20
1413.740061
 30
0.0
  0
VERTEX
  5
94D
  8
LAYER01
  6
CONTINUOUS
 62
     7
 10
3486.4772549999998
 20
1413.740061
 30
0.0
  0
VERTEX
  5
94E
  8
LAYER01
  6
CONTINUOUS
 62
     7
 10
3486.4772549999998
 20
-1468.1586150000001
 30
0.0
  0
SEQEND
  5
94F
  8
LAYER01
  6
CONTINUOUS
 62
     7
  0
INSERT
  5
4C3
  8
LAYER01
  2
USP40_W-G3
 10
0.0
 20
0.0
 30
0.0
  0
TEXT
  5
4C4
  8
LAYER01
  6
STRICHPUNKTIERT
 62
     7
 10
2435.3891132377062
 20
-974.49849866032196
 30
0.0
 40
34.290334350000002
  1
http://www.mineralwerkstoff.de
  0
INSERT
  5
4C5
  8
LAYER01
  2
USP40_W-G4
 10
0.0
 20
0.0
 30
0.0
  0
TEXT
  5
4C6
  8
LAYER01
  6
VERDECKT
 62
     1
 10
2992.0414049999999
 20
-1226.133368
 30
0.0
 40
24.745000000000001
  1
A. Sprenger GmbH
  7
SIMPLEX
  0
TEXT
  5
4C7
  8
LAYER01
  6
CONTINUOUS
 62
     7
 10
2984.0139719999988
 20
-1072.890881
 30
0.0
 40
7.4234999999999989
  1
Diese Zeichnung ist geistiges Eigentum der A. Sprenger GmbH
  7
SIMPLEX
  0
TEXT
  5
4C8
  8
LAYER01
  6
CONTINUOUS
 62
     7
 10
2984.0139719999988
 20
-1085.6168809999999
 30
0.0
 40
7.4234999999999989
  1
und urheberrechtlich geschützt. Ohne unsere Zustimmung darf 
  7
SIMPLEX
  0
TEXT
  5
4C9
  8
LAYER01
  6
CONTINUOUS
 62
     7
 10
2984.0139719999988
 20
-1098.342881
 30
0.0
 40
7.4234999999999989
  1
sie in keiner Form verwendet oder Dritten zugänglich gemacht
  7
SIMPLEX
  0
TEXT
  5
4CA
  8
LAYER01
  6
CONTINUOUS
 62
     7
 10
2984.0139719999988
 20
-1111.0688809999999
 30
0.0
 40
7.4234999999999989
  1
werden. (§106 Urheberrecht)
  7
SIMPLEX
  0
TEXT
  5
4CB
  8
LAYER01
  6
CONTINUOUS
 62
     1
 10
2734.292692
 20
-1424.913319
 30
0.0
 40
34.643000000000001
  1
61xxx
  7
SIMPLEX
  0
TEXT
  5
4CC
  8
LAYER01
  6
VERDECKT
 62
     1
 10
2857.9146890000011
 20
-1283.4639050000001
 30
0.0
 40
9.8979999999999997
  1
b.s.
  7
SIMPLEX
  0
TEXT
  5
4CD
  8
LAYER01
  6
VERDECKT
 62
     1
 10
2992.0414049999999
 20
-1323.314787
 30
0.0
 40
34.643000000000001
  1
USP40
  7
SIMPLEX
  0
TEXT
  5
4CE
  8
LAYER01
  6
VERDECKT
 62
     1
 10
3057.312507000001
 20
-1162.312735
 30
0.0
 40
9.8979999999999997
  1
1 : 10 (DIN A3)
  7
SIMPLEX
  0
TEXT
  5
4CF
  8
LAYER01
  6
VERDECKT
 62
     1
 10
2762.7383359999999
 20
-1283.427741
 30
0.0
 40
9.8979999999999997
  1
12.7.2022
  7
SIMPLEX
  0
TEXT
  5
4D0
  8
LAYER01
  6
VERDECKT
 62
     1
 10
3312.4122689999999
 20
-1162.312735
 30
0.0
 40
9.8979999999999997
  1
USP40_w.skd
  7
SIMPLEX
  0
DIMENSION
  5
4D1
  8
LAYER01
 62
     7
  2
*D5
 10
405.92306999999988
 20
516.17550900000003
 30
0.0
 11
530.7315319999999
 21
546.17550900000003
 31
0.0
 13
451.92307
 23
578.63040100000001
 33
0.0
 14
405.92306999999988
 24
578.63040100000001
 34
0.0
  0
DIMENSION
  5
4D2
  8
LAYER01
 62
     7
  2
*D6
 10
1138.200061
 20
-300.653212
 30
0.0
 11
1108.200061
 21
-151.24073100000001
 31
0.0
 53
90.0
 13
1043.88987
 23
-0.653212
 33
0.0
 14
1043.88987
 24
-300.653212
 34
0.0
 50
90.0
  0
DIMENSION
  5
4D3
  8
LAYER01
 62
     7
  2
*D7
 10
1210.0881870000001
 20
-350.653212
 30
0.0
 11
1180.0881869999989
 21
-151.24073100000001
 31
0.0
 53
90.0
 13
1043.88987
 23
49.346787999999997
 33
0.0
 14
1043.88987
 24
-350.653212
 34
0.0
 50
90.0
  0
DIMENSION
  5
4D4
  8
LAYER01
 62
     7
  2
*D8
 10
1285.0138380000001
 20
-375.653212
 30
0.0
 11
1255.0138380000001
 21
-151.24073100000001
 31
0.0
 53
90.0
 13
1043.88987
 23
74.346788000000004
 33
0.0
 14
1043.88987
 24
-375.653212
 34
0.0
 50
90.0
  0
LINE
  5
4D5
  8
LAYER01
  6
CONTINUOUS
 62
     7
 10
318.92307
 20
24.346788
 30
0.0
 11
318.92307
 21
-325.653212
 31
0.0
  0
LINE
  5
4D6
  8
LAYER01
  6
CONTINUOUS
 62
     7
 10
293.92307
 20
24.346788
 30
0.0
 11
293.92307
 21
-325.653212
 31
0.0
  0
ARC
  5
4D7
  8
LAYER01
  6
CONTINUOUS
 62
     7
 10
818.88986999999986
 20
-150.66401200000001
 30
0.0
 40
200.0
 50
270.0
 51
90.001103000000015
  0
ARC
  5
4D8
  8
LAYER01
  6
CONTINUOUS
 62
     7
 10
818.88986999999986
 20
-150.66401200000001
 30
0.0
 40
225.0
 50
270.00951199999997
 51
89.991546
  0
LINE
  5
4D9
  8
LAYER01
 62
     7
 10
309.09806099999997
 20
59.171796999999998
 30
0.0
 11
330.5374930000001
 21
18.716730999999999
 31
0.0
  0
LINE
  5
4DA
  8
LAYER01
 62
     7
 10
330.5374930000001
 20
18.716730999999999
 30
0.0
 11
355.47317600000002
 21
18.716730999999999
 31
0.0
  0
SOLID
  5
4DB
  8
LAYER01
 62
     7
 10
316.80217699999997
 20
36.092686999999998
 30
0.0
 11
309.09806099999997
 21
59.171796999999998
 31
0.0
 12
323.87060500000001
 22
39.838647000000002
 32
0.0
 13
323.87060500000001
 23
39.838647000000002
 33
0.0
  0
TEXT
  5
4DC
  8
LAYER01
  6
CONTINUOUS
 62
     7
 10
370.47317600000002
 20
3.7167309999999989
 30
0.0
 40
30.0
  1
R50
  0
LINE
  5
4DD
  8
LAYER01
  6
CONTINUOUS
 62
     7
 10
643.92307000000005
 20
-0.653212
 30
0.0
 11
383.92307
 21
-0.653212
 31
0.0
  0
LINE
  5
4DE
  8
LAYER01
  6
CONTINUOUS
 62
     7
 10
343.92307
 20
-350.653212
 30
0.0
 11
762.91322200000002
 21
-350.653212
 31
0.0
  0
LINE
  5
4DF
  8
LAYER01
  6
CONTINUOUS
 62
     7
 10
343.92307
 20
-350.653212
 30
0.0
 11
818.92307000000005
 21
-350.653212
 31
0.0
  0
LINE
  5
4E0
  8
LAYER01
  6
CONTINUOUS
 62
     7
 10
383.92307
 20
-300.653212
 30
0.0
 11
643.92307000000005
 21
-300.653212
 31
0.0
  0
LINE
  5
4E1
  8
LAYER01
  6
CONTINUOUS
 62
     7
 10
343.92307
 20
-375.653212
 30
0.0
 11
818.92307000000005
 21
-375.653212
 31
0.0
  0
LINE
  5
4E2
  8
LAYER01
  6
CONTINUOUS
 62
     7
 10
318.88986999999997
 20
-325.66401200000001
 30
0.0
 11
318.88986999999997
 21
-148.699127
 31
0.0
  0
LINE
  5
4E3
  8
LAYER01
  6
CONTINUOUS
 62
     7
 10
358.92307
 20
-25.653212
 30
0.0
 11
358.92307
 21
-275.653212
 31
0.0
  0
ARC
  5
4E4
  8
LAYER01
  6
CONTINUOUS
 62
     7
 10
343.88986999999997
 20
-325.66401200000001
 30
0.0
 40
25.0
 50
180.0
 51
270.0
  0
ARC
  5
4E5
  8
LAYER01
  6
CONTINUOUS
 62
     7
 10
383.88987000000009
 20
-275.66401200000001
 30
0.0
 40
25.0
 50
180.0
 51
270.0
  0
ARC
  5
4E6
  8
LAYER01
  6
CONTINUOUS
 62
     7
 10
343.92307
 20
-325.653212
 30
0.0
 40
50.0
 50
180.0
 51
270.0
  0
LINE
  5
4E7
  8
LAYER01
  6
CONTINUOUS
 62
     7
 10
386.92307
 20
-150.653212
 30
0.0
 11
473.12306999999998
 21
-150.653212
 31
0.0
  0
LINE
  5
4E8
  8
LAYER01
  6
CONTINUOUS
 62
     7
 10
428.92307
 20
-197.25321199999999
 30
0.0
 11
428.92307
 21
-106.053212
 31
0.0
  0
ARC
  5
4E9
  8
LAYER01
  6
CONTINUOUS
 62
     7
 10
383.88987000000009
 20
-25.642412
 30
0.0
 40
25.0
 50
90.0
 51
180.0
  0
CIRCLE
  5
4EA
  8
LAYER01
  6
CONTINUOUS
 62
     7
 10
428.88986999999997
 20
-150.66401200000001
 30
0.0
 40
23.0
  0
CIRCLE
  5
4EB
  8
LAYER01
  6
CONTINUOUS
 62
     7
 10
428.88986999999997
 20
-150.66401200000001
 30
0.0
 40
28.5
  0
ARC
  5
4EC
  8
LAYER01
  6
CONTINUOUS
 62
     7
 10
643.88986999999997
 20
-150.66401200000001
 30
0.0
 40
150.0
 50
270.0
 51
0.0
  0
DIMENSION
  5
4ED
  8
LAYER01
 62
     7
  2
*D9
 10
818.88986999999986
 20
-150.66401200000001
 30
0.0
 11
913.50422100000014
 21
-183.03876500000001
 31
0.0
 70
     4
 15
1008.118572
 25
-215.41351800000001
 35
0.0
 40
0.0
  0
DIMENSION
  5
4EE
  8
LAYER01
 62
     7
  2
*D10
 10
643.88986999999997
 20
-150.66401200000001
 30
0.0
 11
712.99781499999995
 21
-179.80319499999999
 31
0.0
 70
     4
 15
782.10575900000003
 25
-208.94237899999999
 35
0.0
 40
0.0
  0
DIMENSION
  5
4EF
  8
LAYER01
 62
     7
  2
*D11
 10
818.88986999999986
 20
-150.66401200000001
 30
0.0
 11
906.79547700000001
 21
-80.458212000000003
 31
0.0
 70
     4
 15
994.70108299999993
 25
-10.252412
 35
0.0
 40
0.0
  0
ARC
  5
4F0
  8
LAYER01
  6
CONTINUOUS
 62
     7
 10
643.88986999999997
 20
-150.64241200000001
 30
0.0
 40
150.0
 50
0.0
 51
90.0
  0
DIMENSION
  5
4F1
  8
LAYER01
 62
     7
  2
*D12
 10
318.92307
 20
156.11858899999999
 30
0.0
 11
668.12150199999985
 21
186.1185889999999
 31
0.0
 13
1018.88987
 23
86.436356000000004
 33
0.0
 14
318.92307
 24
86.436356000000004
 34
0.0
  0
DIMENSION
  5
4F2
  8
LAYER01
 62
     7
  2
*D13
 10
293.92307
 20
216.001758
 30
0.0
 11
668.12150199999985
 21
246.001758
 31
0.0
 13
1043.88987
 23
86.436356000000004
 33
0.0
 14
293.92307
 24
86.436356000000004
 34
0.0
  0
DIMENSION
  5
4F3
  8
LAYER01
 62
     7
  2
*D14
 10
793.92307000000005
 20
354.71781299999998
 30
0.0
 11
557.29033300000003
 21
384.71781299999998
 31
0.0
 13
318.92307
 23
423.972511
 33
0.0
 14
793.92307000000005
 24
423.972511
 34
0.0
  0
LINE
  5
4F4
  8
LAYER01
  6
CONTINUOUS
 62
     7
 10
818.92307000000005
 20
49.346787999999997
 30
0.0
 11
343.92307
 21
49.346787999999997
 31
0.0
  0
LINE
  5
4F5
  8
LAYER01
  6
CONTINUOUS
 62
     7
 10
818.92307000000005
 20
74.346788000000004
 30
0.0
 11
343.92307
 21
74.346788000000004
 31
0.0
  0
ARC
  5
4F6
  8
LAYER01
  6
CONTINUOUS
 62
     7
 10
343.92307
 20
24.346788
 30
0.0
 40
25.0
 50
90.0
 51
180.0
  0
ARC
  5
4F7
  8
LAYER01
  6
CONTINUOUS
 62
     7
 10
343.92307
 20
24.346788
 30
0.0
 40
50.0
 50
90.0
 51
180.0
  0
DIMENSION
  5
4F8
  8
LAYER01
 62
     7
  2
*D15
 10
293.92307
 20
375.40801299999998
 30
0.0
 11
397.73153200000002
 21
405.40801299999998
 31
0.0
 13
318.92307
 23
423.972511
 33
0.0
 14
293.92307
 24
423.972511
 34
0.0
  0
DIMENSION
  5
4F9
  8
LAYER01
 62
     7
  2
*D16
 10
293.92307
 20
441.980547
 30
0.0
 11
362.206163
 21
471.98054699999989
 31
0.0
 13
428.92307
 23
494.43820599999992
 33
0.0
 14
293.92307
 24
494.43820599999992
 34
0.0
  0
ARC
  5
4FA
  8
LAYER01
  6
CONTINUOUS
 62
     7
 10
818.88217699999996
 20
249.33598699999999
 30
0.0
 40
200.0
 50
270.0
 51
270.001103
  0
ARC
  5
4FB
  8
LAYER01
  6
CONTINUOUS
 62
     7
 10
818.881215
 20
299.33598699999999
 30
0.0
 40
225.0
 50
270.0
 51
270.001103
  0
DIMENSION
  5
4FC
  8
LAYER01
 62
     7
  2
*D17
 10
1507.97307
 20
97.366258000000002
 30
0.0
 11
1704.305764
 21
127.366258
 31
0.0
 13
1903.47307
 23
10.263467
 33
0.0
 14
1507.97307
 24
10.263467
 34
0.0
  0
DIMENSION
  5
4FD
  8
LAYER01
 62
     7
  2
*D18
 10
1482.97307
 20
164.87092000000001
 30
0.0
 11
1704.305764
 21
194.87092000000001
 31
0.0
 13
1928.47307
 23
10.263467
 33
0.0
 14
1482.97307
 24
10.263467
 34
0.0
  0
POLYLINE
  5
4FE
  8
LAYER01
  6
CONTINUOUS
 62
     7
 66
     1
 10
0.0
 20
0.0
 30
0.0
  0
VERTEX
  5
950
  8
LAYER01
  6
CONTINUOUS
 62
     7
 10
1482.97307
 20
10.263467
 30
0.0
  0
VERTEX
  5
951
  8
LAYER01
  6
CONTINUOUS
 62
     7
 10
1482.97307
 20
5.2634669999999986
 30
0.0
  0
VERTEX
  5
952
  8
LAYER01
  6
CONTINUOUS
 62
     7
 10
1507.9838520000001
 20
5.2177100000000003
 30
0.0
 42
-0.372408
  0
VERTEX
  5
953
  8
LAYER01
  6
CONTINUOUS
 62
     7
 10
1513.873069999999
 20
0.063467
 30
0.0
  0
VERTEX
  5
954
  8
LAYER01
  6
CONTINUOUS
 62
     7
 10
1544.4828339999999
 20
-249.04397399999999
 30
0.0
 42
0.378897
  0
VERTEX
  5
955
  8
LAYER01
  6
CONTINUOUS
 62
     7
 10
1579.1730700000001
 20
-279.73653300000001
 30
0.0
  0
VERTEX
  5
956
  8
LAYER01
  6
CONTINUOUS
 62
     7
 10
1673.98387
 20
-279.78228999999999
 30
0.0
 42
-0.4142140000000001
  0
VERTEX
  5
957
  8
LAYER01
  6
CONTINUOUS
 62
     7
 10
1679.97307
 20
-285.73653300000001
 30
0.0
  0
VERTEX
  5
958
  8
LAYER01
  6
CONTINUOUS
 62
     7
 10
1679.97307
 20
-299.73653300000001
 30
0.0
  0
VERTEX
  5
959
  8
LAYER01
  6
CONTINUOUS
 62
     7
 10
1684.97307
 20
-299.73653300000001
 30
0.0
  0
VERTEX
  5
95A
  8
LAYER01
  6
CONTINUOUS
 62
     7
 10
1684.98387
 20
-285.78228999999999
 30
0.0
 42
0.4142140000000001
  0
VERTEX
  5
95B
  8
LAYER01
  6
CONTINUOUS
 62
     7
 10
1673.97307
 20
-274.73653300000001
 30
0.0
  0
VERTEX
  5
95C
  8
LAYER01
  6
CONTINUOUS
 62
     7
 10
1579.2211480000001
 20
-274.78228999999999
 30
0.0
 42
-0.378897
  0
VERTEX
  5
95D
  8
LAYER01
  6
CONTINUOUS
 62
     7
 10
1549.47307
 20
-248.436533
 30
0.0
  0
VERTEX
  5
95E
  8
LAYER01
  6
CONTINUOUS
 62
     7
 10
1518.868745
 20
0.805086
 30
0.0
 42
0.372408
  0
VERTEX
  5
95F
  8
LAYER01
  6
CONTINUOUS
 62
     7
 10
1507.97307
 20
10.263467
 30
0.0
  0
VERTEX
  5
960
  8
LAYER01
  6
CONTINUOUS
 62
     7
 10
1482.97307
 20
10.263467
 30
0.0
  0
SEQEND
  5
961
  8
LAYER01
  6
CONTINUOUS
 62
     7
  0
LINE
  5
511
  8
LAYER01
  6
CONTINUOUS
 62
     7
 10
1482.97307
 20
10.263467
 30
0.0
 11
1928.47307
 21
10.263467
 31
0.0
  0
POLYLINE
  5
512
  8
LAYER01
  6
CONTINUOUS
 62
     7
 66
     1
 10
0.0
 20
0.0
 30
0.0
  0
VERTEX
  5
962
  8
LAYER01
  6
CONTINUOUS
 62
     7
 10
1730.97307
 20
-299.73653300000001
 30
0.0
  0
VERTEX
  5
963
  8
LAYER01
  6
CONTINUOUS
 62
     7
 10
1735.97307
 20
-299.73653300000001
 30
0.0
  0
VERTEX
  5
964
  8
LAYER01
  6
CONTINUOUS
 62
     7
 10
1735.98387
 20
-285.78228999999999
 30
0.0
 42
-0.4142140000000001
  0
VERTEX
  5
965
  8
LAYER01
  6
CONTINUOUS
 62
     7
 10
1741.97307
 20
-279.73653300000001
 30
0.0
  0
VERTEX
  5
966
  8
LAYER01
  6
CONTINUOUS
 62
     7
 10
1836.745332
 20
-279.78228999999999
 30
0.0
 42
0.378897
  0
VERTEX
  5
967
  8
LAYER01
  6
CONTINUOUS
 62
     7
 10
1871.47307
 20
-249.03653299999999
 30
0.0
  0
VERTEX
  5
968
  8
LAYER01
  6
CONTINUOUS
 62
     7
 10
1902.0466530000001
 20
0.083551
 30
0.0
 42
-0.372408
  0
VERTEX
  5
969
  8
LAYER01
  6
CONTINUOUS
 62
     7
 10
1907.97307
 20
5.2634669999999986
 30
0.0
  0
VERTEX
  5
96A
  8
LAYER01
  6
CONTINUOUS
 62
     7
 10
1928.47307
 20
5.2634669999999986
 30
0.0
  0
VERTEX
  5
96B
  8
LAYER01
  6
CONTINUOUS
 62
     7
 10
1928.47307
 20
10.263467
 30
0.0
  0
VERTEX
  5
96C
  8
LAYER01
  6
CONTINUOUS
 62
     7
 10
1907.9838199999999
 20
10.21771
 30
0.0
 42
0.372408
  0
VERTEX
  5
96D
  8
LAYER01
  6
CONTINUOUS
 62
     7
 10
1897.0730699999999
 20
0.8634669999999999
 30
0.0
  0
VERTEX
  5
96E
  8
LAYER01
  6
CONTINUOUS
 62
     7
 10
1866.5233700000001
 20
-248.43516199999999
 30
0.0
 42
-0.378897
  0
VERTEX
  5
96F
  8
LAYER01
  6
CONTINUOUS
 62
     7
 10
1836.77307
 20
-274.73653300000001
 30
0.0
  0
VERTEX
  5
970
  8
LAYER01
  6
CONTINUOUS
 62
     7
 10
1741.98387
 20
-274.78228999999999
 30
0.0
 42
0.4142140000000001
  0
VERTEX
  5
971
  8
LAYER01
  6
CONTINUOUS
 62
     7
 10
1730.97307
 20
-285.73653300000001
 30
0.0
  0
VERTEX
  5
972
  8
LAYER01
  6
CONTINUOUS
 62
     7
 10
1730.97307
 20
-299.73653300000001
 30
0.0
  0
SEQEND
  5
973
  8
LAYER01
  6
CONTINUOUS
 62
     7
  0
DIMENSION
  5
525
  8
LAYER01
 62
     7
  2
*D19
 10
1684.97307
 20
-364.4910240000001
 30
0.0
 11
1809.781532
 21
-334.49102399999998
 31
0.0
 13
1730.97307
 23
-299.73653300000001
 33
0.0
 14
1684.97307
 24
-299.73653300000001
 34
0.0
  0
LINE
  5
526
  8
LAYER01
  6
CONTINUOUS
 62
     7
 10
1707.97307
 20
-267.436533
 30
0.0
 11
1707.97307
 21
-304.33653299999997
 31
0.0
  0
ARC
  5
527
  8
LAYER01
  6
CONTINUOUS
 62
     7
 10
1739.9639729999999
 20
-281.20845000000003
 30
0.0
 40
6.0
 50
113.82718300000001
 51
113.827186
  0
LINE
  5
528
  8
LAYER01
  6
CONTINUOUS
 62
     7
 10
1673.97307
 20
-274.73653300000001
 30
0.0
 11
1741.97307
 21
-274.73653300000001
 31
0.0
  0
LINE
  5
529
  8
LAYER01
  6
CONTINUOUS
 62
     7
 10
1679.97307
 20
-299.73653300000001
 30
0.0
 11
1735.97307
 21
-299.73653300000001
 31
0.0
  0
DIMENSION
  5
52A
  8
LAYER01
 62
     7
  2
*D20
 10
1191.1437719999999
 20
578.63040100000001
 30
0.0
 11
1161.1437719999999
 21
734.48453600000005
 31
0.0
 53
90.0
 13
1043.9230699999989
 23
888.63040099999989
 33
0.0
 14
1043.9230699999989
 24
578.63040100000001
 34
0.0
 50
90.0
  0
DIMENSION
  5
52B
  8
LAYER01
 62
     7
  2
*D21
 10
1121.6156599999999
 20
603.63040100000001
 30
0.0
 11
1091.6156599999999
 21
746.98453600000005
 31
0.0
 53
90.0
 13
1043.9230699999989
 23
888.63040099999989
 33
0.0
 14
1043.9230699999989
 24
603.63040100000001
 34
0.0
 50
90.0
  0
DIMENSION
  5
52C
  8
LAYER01
 62
     7
  2
*D22
 10
318.92307
 20
944.78091600000005
 30
0.0
 11
669.77720499999998
 21
974.78091600000005
 31
0.0
 13
1018.9230700000001
 23
888.63040099999989
 33
0.0
 14
318.92307
 24
888.63040099999989
 34
0.0
  0
DIMENSION
  5
52D
  8
LAYER01
 62
     7
  2
*D23
 10
1043.9230699999989
 20
1009.070609
 30
0.0
 11
669.77720499999998
 21
1039.0706090000001
 31
0.0
 13
293.92307
 23
888.53040099999998
 33
0.0
 14
1043.9230699999989
 24
888.53040099999998
 34
0.0
  0
INSERT
  5
52E
  8
LAYER01
  2
USP40_W-G25
 10
0.0
 20
0.0
 30
0.0
  0
ENDSEC
  0
EOF