  0
SECTION
  2
HEADER
  9
$ACADVER
  1
AC1009
  9
$INSBASE
 10
0.0
 20
0.0
 30
0.0
  9
$EXTMIN
 10
-806.29240700000014
 20
-952.44140900000002
 30
-0.00000001
  9
$EXTMAX
 10
4322.8400169999977
 20
1833.7042939999999
 30
0.00000001
  9
$LIMMIN
 10
-914.78379900000004
 20
-1051.5514479999999
  9
$LIMMAX
 10
3285.2162010000002
 20
1918.4485520000001
  9
$ORTHOMODE
 70
     1
  9
$REGENMODE
 70
     1
  9
$FILLMODE
 70
     1
  9
$QTEXTMODE
 70
     0
  9
$MIRRTEXT
 70
     0
  9
$DRAGMODE
 70
     2
  9
$LTSCALE
 40
1.0
  9
$OSMODE
 70
    37
  9
$ATTMODE
 70
     1
  9
$TEXTSIZE
 40
0.0
  9
$TRACEWID
 40
0.05
  9
$TEXTSTYLE
  7
STANDARD
  9
$CLAYER
  8
LAYER01
  9
$CELTYPE
  6
CONTINUOUS
  9
$CECOLOR
 62
     7
  9
$DIMSCALE
 40
1.0
  9
$DIMASZ
 40
0.18
  9
$DIMEXO
 40
0.0625
  9
$DIMDLI
 40
0.38
  9
$DIMRND
 40
0.0
  9
$DIMDLE
 40
0.0
  9
$DIMEXE
 40
0.18
  9
$DIMTP
 40
0.0
  9
$DIMTM
 40
0.0
  9
$DIMTXT
 40
0.18
  9
$DIMCEN
 40
0.09
  9
$DIMTSZ
 40
0.0
  9
$DIMTOL
 70
     0
  9
$DIMLIM
 70
     0
  9
$DIMTIH
 70
     1
  9
$DIMTOH
 70
     1
  9
$DIMSE1
 70
     0
  9
$DIMSE2
 70
     0
  9
$DIMTAD
 70
     0
  9
$DIMZIN
 70
     0
  9
$DIMBLK
  1

  9
$DIMASO
 70
     1
  9
$DIMSHO
 70
     1
  9
$DIMPOST
  1

  9
$DIMAPOST
  1

  9
$DIMALT
 70
     0
  9
$DIMALTD
 70
     2
  9
$DIMALTF
 40
25.399999999999999
  9
$DIMLFAC
 40
1.0
  9
$DIMTOFL
 70
     0
  9
$DIMTVP
 40
0.0
  9
$DIMTIX
 70
     0
  9
$DIMSOXD
 70
     0
  9
$DIMSAH
 70
     0
  9
$DIMBLK1
  1

  9
$DIMBLK2
  1

  9
$DIMSTYLE
  2
STANDARD
  9
$DIMCLRD
 70
     0
  9
$DIMCLRE
 70
     0
  9
$DIMCLRT
 70
     0
  9
$DIMTFAC
 40
1.0
  9
$DIMGAP
 40
0.09
  9
$LUNITS
 70
     2
  9
$LUPREC
 70
     4
  9
$SKETCHINC
 40
0.1
  9
$FILLETRAD
 40
10.0
  9
$AUNITS
 70
     0
  9
$AUPREC
 70
     0
  9
$MENU
  1
acad
  9
$ELEVATION
 40
0.0
  9
$PELEVATION
 40
0.0
  9
$THICKNESS
 40
0.0
  9
$LIMCHECK
 70
     0
  9
$BLIPMODE
 70
     0
  9
$CHAMFERA
 40
0.0
  9
$CHAMFERB
 40
0.0
  9
$SKPOLY
 70
     0
  9
$TDCREATE
 40
11456700.912524059
  9
$TDUPDATE
 40
2459368.6235646531
  9
$TDINDWG
 40
0.0008799421
  9
$TDUSRTIMER
 40
0.0008798843
  9
$USRTIMER
 70
     1
  9
$ANGBASE
 50
0.0
  9
$ANGDIR
 70
     0
  9
$PDMODE
 70
     0
  9
$PDSIZE
 40
0.0
  9
$PLINEWID
 40
0.0
  9
$COORDS
 70
     0
  9
$SPLFRAME
 70
     0
  9
$SPLINETYPE
 70
     6
  9
$SPLINESEGS
 70
    10
  9
$ATTDIA
 70
     0
  9
$ATTREQ
 70
     1
  9
$HANDLING
 70
     1
  9
$HANDSEED
  5
B85
  9
$SURFTAB1
 70
     6
  9
$SURFTAB2
 70
     6
  9
$SURFTYPE
 70
     6
  9
$SURFU
 70
     6
  9
$SURFV
 70
     6
  9
$UCSNAME
  2

  9
$UCSORG
 10
0.0
 20
0.0
 30
0.0
  9
$UCSXDIR
 10
1.0
 20
0.0
 30
0.0
  9
$UCSYDIR
 10
0.0
 20
1.0
 30
0.0
  9
$PUCSNAME
  2

  9
$PUCSORG
 10
0.0
 20
0.0
 30
0.0
  9
$PUCSXDIR
 10
1.0
 20
0.0
 30
0.0
  9
$PUCSYDIR
 10
0.0
 20
1.0
 30
0.0
  9
$USERI1
 70
     0
  9
$USERI2
 70
     0
  9
$USERI3
 70
     0
  9
$USERI4
 70
     0
  9
$USERI5
 70
     0
  9
$USERR1
 40
0.0
  9
$USERR2
 40
0.0
  9
$USERR3
 40
0.0
  9
$USERR4
 40
0.0
  9
$USERR5
 40
0.0
  9
$WORLDVIEW
 70
     1
  9
$SHADEDGE
 70
     3
  9
$SHADEDIF
 70
    70
  9
$TILEMODE
 70
     1
  9
$MAXACTVP
 70
    64
  9
$PLIMCHECK
 70
     0
  9
$PEXTMIN
 10
1.0000000000000000E+020
 20
1.0000000000000000E+020
 30
1.0000000000000000E+020
  9
$PEXTMAX
 10
-1.0000000000000000E+020
 20
-1.0000000000000000E+020
 30
-1.0000000000000000E+020
  9
$PLIMMIN
 10
0.0
 20
0.0
  9
$PLIMMAX
 10
12.0
 20
9.0
  9
$UNITMODE
 70
     0
  9
$VISRETAIN
 70
     1
  9
$PLINEGEN
 70
     0
  9
$PSLTSCALE
 70
     1
  0
ENDSEC
  0
SECTION
  2
TABLES
  0
TABLE
  2
VPORT
 70
     1
  0
VPORT
  2
*ACTIVE
 70
     0
 10
0.0
 20
0.0
 11
1.0
 21
1.0
 12
1697.315104515694
 22
428.94855200000001
 13
0.0
 23
0.0
 14
1.0
 24
1.0
 15
0.0
 25
0.0
 16
0.0
 26
0.0
 36
18.126887108346331
 17
6.7130044843049319
 27
4.5
 37
0.0
 40
3007.8343949044588
 41
2.1234042553191479
 42
50.0
 43
0.0
 44
0.0
 50
0.0
 51
0.0
 71
     0
 72
   100
 73
     1
 74
     1
 75
     0
 76
     0
 77
     0
 78
     0
  0
ENDTAB
  0
TABLE
  2
LTYPE
 70
    12
  0
LTYPE
  2
CONTINUOUS
 70
     0
  3
Solid line
 72
    65
 73
     0
 40
0.0
  0
LTYPE
  2
GESTRICHELT
 70
     0
  3
__ __ __ __ __ __ __ __ __ __ __ __ __ __ __
 72
    65
 73
     2
 40
0.75
 49
0.5
 49
-0.25
  0
LTYPE
  2
VERDECKT
 70
     0
  3
_ _ _ _ _ _ _ _ _ _ _ _ _ _ _ _ _ _ _ _ _ _ 
 72
    65
 73
     2
 40
0.25
 49
0.125
 49
-0.125
  0
LTYPE
  2
MITTELLINIE
 70
     0
  3
____ _ ____ _ ____ _ ____ _ ____ _ ____ _ __
 72
    65
 73
     4
 40
2.0
 49
1.25
 49
-0.25
 49
0.25
 49
-0.25
  0
LTYPE
  2
PHANTOM
 70
     0
  3
_____ _ _ _____ _ _ _____ _ _ _____ _ _ ____
 72
    65
 73
     6
 40
2.5
 49
1.25
 49
-0.25
 49
0.25
 49
-0.25
 49
0.25
 49
-0.25
  0
LTYPE
  2
PUNKTIERT
 70
     0
  3
............................................
 72
    65
 73
     2
 40
0.25
 49
0.0
 49
-0.25
  0
LTYPE
  2
STRICHPUNKTIERT
 70
     0
  3
__ . __ . __ . __ . __ . __ . __ . __ . __ .
 72
    65
 73
     4
 40
1.0
 49
0.5
 49
-0.25
 49
0.0
 49
-0.25
  0
LTYPE
  2
RAND
 70
     0
  3
__ __ . __ __ . __ __ . __ __ . __ __ . __ _
 72
    65
 73
     6
 40
1.75
 49
0.5
 49
-0.25
 49
0.5
 49
-0.25
 49
0.0
 49
-0.25
  0
LTYPE
  2
TRENNLINIE
 70
     0
  3
__ . . __ . . __ . . __ . . __ . . __ . . __
 72
    65
 73
     6
 40
1.25
 49
0.5
 49
-0.25
 49
0.0
 49
-0.25
 49
0.0
 49
-0.25
  0
LTYPE
  2
ENG_PUNKTIERT
 70
     0
  3
Schließen                                   
 72
    65
 73
     2
 40
0.1
 49
0.05
 49
-0.05
  0
LTYPE
  2
CLOSE
 70
     0
  3
                                            
 72
    65
 73
     0
 40
0.0
  0
ENDTAB
  0
TABLE
  2
LAYER
 70
   256
  0
LAYER
  2
0
 70
     0
 62
     7
  6
CONTINUOUS
  0
LAYER
  2
LAYER01
 70
     0
 62
     7
  6
CONTINUOUS
  0
LAYER
  2
LAYER02
 70
     0
 62
     7
  6
CONTINUOUS
  0
LAYER
  2
LAYER03
 70
     0
 62
     7
  6
CONTINUOUS
  0
LAYER
  2
LAYER04
 70
     0
 62
     7
  6
CONTINUOUS
  0
LAYER
  2
LAYER05
 70
     0
 62
     7
  6
CONTINUOUS
  0
LAYER
  2
LAYER06
 70
     0
 62
     7
  6
CONTINUOUS
  0
LAYER
  2
LAYER07
 70
     0
 62
     7
  6
CONTINUOUS
  0
LAYER
  2
LAYER08
 70
     0
 62
     7
  6
CONTINUOUS
  0
LAYER
  2
LAYER09
 70
     0
 62
     7
  6
CONTINUOUS
  0
LAYER
  2
LAYER10
 70
     0
 62
     7
  6
CONTINUOUS
  0
LAYER
  2
FORMAT
 70
     0
 62
     7
  6
CONTINUOUS
  0
LAYER
  2
2
 70
     0
 62
     7
  6
CONTINUOUS
  0
LAYER
  2
5
 70
     0
 62
     7
  6
CONTINUOUS
  0
LAYER
  2
RAUMAUFM
 70
     0
 62
     7
  6
CONTINUOUS
  0
LAYER
  2
EINRICHT
 70
     0
 62
     7
  6
CONTINUOUS
  0
LAYER
  2
HILFE
 70
     0
 62
     7
  6
CONTINUOUS
  0
LAYER
  2
SCHNITTE
 70
     0
 62
     7
  6
CONTINUOUS
  0
LAYER
  2
SCHRAFF1
 70
     0
 62
     7
  6
CONTINUOUS
  0
LAYER
  2
SCHRAFF2
 70
     0
 62
     7
  6
CONTINUOUS
  0
LAYER
  2
BEMASS-1
 70
     0
 62
     7
  6
CONTINUOUS
  0
LAYER
  2
BEMASS-2
 70
     0
 62
     7
  6
CONTINUOUS
  0
LAYER
  2
TEXT
 70
     0
 62
     7
  6
CONTINUOUS
  0
LAYER
  2
SYMBOLE
 70
     0
 62
     7
  6
CONTINUOUS
  0
LAYER
  2
RAHMEN
 70
     0
 62
     7
  6
CONTINUOUS
  0
LAYER
  2
SCHRIFTF
 70
     0
 62
     7
  6
CONTINUOUS
  0
LAYER
  2
ACHSEN
 70
     0
 62
     7
  6
CONTINUOUS
  0
LAYER
  2
ZEICHN
 70
     0
 62
     7
  6
CONTINUOUS
  0
LAYER
  2
7
 70
     0
 62
     7
  6
CONTINUOUS
  0
LAYER
  2
1
 70
     0
 62
     7
  6
CONTINUOUS
  0
LAYER
  2
6
 70
     0
 62
     7
  6
CONTINUOUS
  0
LAYER
  2
4
 70
     0
 62
     7
  6
CONTINUOUS
  0
LAYER
  2
GRUNDEBENE
 70
     0
 62
     7
  6
CONTINUOUS
  0
LAYER
  2
GRUNDRISS
 70
     0
 62
     7
  6
CONTINUOUS
  0
LAYER
  2
BEMASSUNGGRUNDRISS
 70
     0
 62
     7
  6
CONTINUOUS
  0
LAYER
  2
WANDELEMENTE
 70
     0
 62
     7
  6
CONTINUOUS
  0
LAYER
  2
KUECHE
 70
     0
 62
     7
  6
CONTINUOUS
  0
LAYER
  2
THEKEBROETCHEN
 70
     0
 62
     7
  6
CONTINUOUS
  0
LAYER
  2
CENTERLINIE
 70
     0
 62
     7
  6
CONTINUOUS
  0
LAYER
  2
UMRISSE
 70
     0
 62
     7
  6
CONTINUOUS
  0
LAYER
  2
MAUER
 70
     0
 62
     7
  6
CONTINUOUS
  0
LAYER
  2
SCHRAFFUR
 70
     0
 62
     7
  6
CONTINUOUS
  0
LAYER
  2
MASSLINIE
 70
     0
 62
     7
  6
CONTINUOUS
  0
LAYER
  2
PV
 70
     0
 62
     7
  6
CONTINUOUS
  0
LAYER
  2
BESCHRIFTUNG
 70
     0
 62
     7
  6
CONTINUOUS
  0
LAYER
  2
AS
 70
     0
 62
     7
  6
CONTINUOUS
  0
LAYER
  2
PL
 70
     0
 62
     7
  6
CONTINUOUS
  0
LAYER
  2
UK
 70
     0
 62
     7
  6
CONTINUOUS
  0
LAYER
  2
TEXT3
 70
     0
 62
     7
  6
CONTINUOUS
  0
LAYER
  2
TEXT7
 70
     0
 62
     7
  6
CONTINUOUS
  0
LAYER
  2
BEPL1
 70
     0
 62
     7
  6
CONTINUOUS
  0
LAYER
  2
BEPL2
 70
     0
 62
     7
  6
CONTINUOUS
  0
LAYER
  2
BEPL2V
 70
     0
 62
     7
  6
CONTINUOUS
  0
LAYER
  2
BEPL4
 70
     0
 62
     7
  6
CONTINUOUS
  0
LAYER
  2
BEPL
 70
     0
 62
     7
  6
CONTINUOUS
  0
LAYER
  2
UK1
 70
     0
 62
     7
  6
CONTINUOUS
  0
LAYER
  2
UK2
 70
     0
 62
     7
  6
CONTINUOUS
  0
LAYER
  2
UK2V
 70
     0
 62
     7
  6
CONTINUOUS
  0
LAYER
  2
UK3
 70
     0
 62
     7
  6
CONTINUOUS
  0
LAYER
  2
TEXT2
 70
     0
 62
     7
  6
CONTINUOUS
  0
LAYER
  2
HILF2S
 70
     0
 62
     7
  6
CONTINUOUS
  0
LAYER
  2
UK1V
 70
     0
 62
     7
  6
CONTINUOUS
  0
LAYER
  2
GAIN_ZRA
 70
     0
 62
     7
  6
CONTINUOUS
  0
LAYER
  2
GAIN_ZSF
 70
     0
 62
     7
  6
CONTINUOUS
  0
LAYER
  2
RAHM4
 70
     0
 62
     7
  6
CONTINUOUS
  0
LAYER
  2
KORPUSBAND
 70
     0
 62
     7
  6
CONTINUOUS
  0
LAYER
  2
E---LGPL--------
 70
     0
 62
     7
  6
CONTINUOUS
  0
LAYER
  2
E---NPFL--------
 70
     0
 62
     7
  6
CONTINUOUS
  0
LAYER
  2
E---PLNKTXT-----
 70
     0
 62
     7
  6
CONTINUOUS
  0
LAYER
  2
E---PLNK--------
 70
     0
 62
     7
  6
CONTINUOUS
  0
LAYER
  2
E---PLNR--------
 70
     0
 62
     7
  6
CONTINUOUS
  0
LAYER
  2
D547_ARCHICAD
 70
     0
 62
     7
  6
CONTINUOUS
  0
LAYER
  2
D547_E---TEXT--------
 70
     0
 62
     7
  6
CONTINUOUS
  0
LAYER
  2
E---LEGD--------
 70
     0
 62
     7
  6
CONTINUOUS
  0
LAYER
  2
D43_ARCHICAD
 70
     0
 62
     7
  6
CONTINUOUS
  0
LAYER
  2
D43_FENSTER_VON_B---FASS--
 70
     0
 62
     7
  6
CONTINUOUS
  0
LAYER
  2
D43_E---SCHN--------
 70
     0
 62
     7
  6
CONTINUOUS
  0
LAYER
  2
D43_B---MW-N--------
 70
     0
 62
     7
  6
CONTINUOUS
  0
LAYER
  2
D43_B---DECK--------
 70
     0
 62
     7
  6
CONTINUOUS
  0
LAYER
  2
D43_B---MW-S--------
 70
     0
 62
     7
  6
CONTINUOUS
  0
LAYER
  2
D43_B---MW----------
 70
     0
 62
     7
  6
CONTINUOUS
  0
LAYER
  2
D43_B---FASS--------
 70
     0
 62
     7
  6
CONTINUOUS
  0
LAYER
  2
D43_E---RASG--------
 70
     0
 62
     7
  6
CONTINUOUS
  0
LAYER
  2
D40_ARCHICAD
 70
     0
 62
     7
  6
CONTINUOUS
  0
LAYER
  2
D40_E---MW--------
 70
     0
 62
     7
  6
CONTINUOUS
  0
LAYER
  2
D40_E---FASSKON-----
 70
     0
 62
     7
  6
CONTINUOUS
  0
LAYER
  2
D40_TÜREN_VON_B---MW-N----
 70
     0
 62
     7
  6
CONTINUOUS
  0
LAYER
  2
D40_E---MW-L------
 70
     0
 62
     7
  6
CONTINUOUS
  0
LAYER
  2
D40_TÜREN_VON_B---MW------
 70
     0
 62
     7
  6
CONTINUOUS
  0
LAYER
  2
D40_E---VERM--------
 70
     0
 62
     7
  6
CONTINUOUS
  0
LAYER
  2
D40_FENSTER_VON_E---MW-L--
 70
     0
 62
     7
  6
CONTINUOUS
  0
LAYER
  2
D40_FENSTER_VON_B---MW-N--
 70
     0
 62
     7
  6
CONTINUOUS
  0
LAYER
  2
D40_E---SCHN--------
 70
     0
 62
     7
  6
CONTINUOUS
  0
LAYER
  2
D40_E---AUFZ--------
 70
     0
 62
     7
  6
CONTINUOUS
  0
LAYER
  2
D40_E---DECK--------
 70
     0
 62
     7
  6
CONTINUOUS
  0
LAYER
  2
D40_E---RAUMINF-----
 70
     0
 62
     7
  6
CONTINUOUS
  0
LAYER
  2
D40_E---TEXT--------
 70
     0
 62
     7
  6
CONTINUOUS
  0
LAYER
  2
D40_B---TEXT--------
 70
     0
 62
     7
  6
CONTINUOUS
  0
LAYER
  2
D40_B---MW-N--------
 70
     0
 62
     7
  6
CONTINUOUS
  0
LAYER
  2
D40_B---DECK--------
 70
     0
 62
     7
  6
CONTINUOUS
  0
LAYER
  2
D40_B---AUFZ--------
 70
     0
 62
     7
  6
CONTINUOUS
  0
LAYER
  2
D40_B---MW-S--------
 70
     0
 62
     7
  6
CONTINUOUS
  0
LAYER
  2
D40_B---MW----------
 70
     0
 62
     7
  6
CONTINUOUS
  0
LAYER
  2
D40_E---MOEB--------
 70
     0
 62
     7
  6
CONTINUOUS
  0
LAYER
  2
D40_B---UMGB--------
 70
     0
 62
     7
  6
CONTINUOUS
  0
LAYER
  2
D40_B---FASS--------
 70
     0
 62
     7
  6
CONTINUOUS
  0
LAYER
  2
D40_E---DACH--------
 70
     0
 62
     7
  6
CONTINUOUS
  0
LAYER
  2
D40_E---BODE--------
 70
     0
 62
     7
  6
CONTINUOUS
  0
LAYER
  2
D40_E---TREP--------
 70
     0
 62
     7
  6
CONTINUOUS
  0
LAYER
  2
D40_E---RASG--------
 70
     0
 62
     7
  6
CONTINUOUS
  0
LAYER
  2
D40_B---MW-K--------
 70
     0
 62
     7
  6
CONTINUOUS
  0
LAYER
  2
D40_E---FASSGLA-----
 70
     0
 62
     7
  6
CONTINUOUS
  0
LAYER
  2
D40_B---VERM--------
 70
     0
 62
     7
  6
CONTINUOUS
  0
LAYER
  2
D40_E---UMGBGSG-----
 70
     0
 62
     7
  6
CONTINUOUS
  0
LAYER
  2
D40_E---RASF--------
 70
     0
 62
     7
  6
CONTINUOUS
  0
LAYER
  2
D40_E---PFLA--------
 70
     0
 62
     7
  6
CONTINUOUS
  0
LAYER
  2
D40_E---KONS-ST-----
 70
     0
 62
     7
  6
CONTINUOUS
  0
LAYER
  2
D40_E---WERB--------
 70
     0
 62
     7
  6
CONTINUOUS
  0
LAYER
  2
D40_E---TUERINF-----
 70
     0
 62
     7
  6
CONTINUOUS
  0
LAYER
  2
D40_E---WOLK--------
 70
     0
 62
     7
  6
CONTINUOUS
  0
LAYER
  2
D40_B---MW-L--------
 70
     0
 62
     7
  6
CONTINUOUS
  0
LAYER
  2
D40_B---SANI--------
 70
     0
 62
     7
  6
CONTINUOUS
  0
LAYER
  2
D40_E---SANI--------
 70
     0
 62
     7
  6
CONTINUOUS
  0
LAYER
  2
D40_E---MW-K------
 70
     0
 62
     7
  6
CONTINUOUS
  0
LAYER
  2
D40_E---OBJE--------
 70
     0
 62
     7
  6
CONTINUOUS
  0
LAYER
  2
D40_E---ASPR--------
 70
     0
 62
     7
  6
CONTINUOUS
  0
LAYER
  2
D40_E---VERMTGA-----
 70
     0
 62
     7
  6
CONTINUOUS
  0
LAYER
  2
D40_E---PARK--------
 70
     0
 62
     7
  6
CONTINUOUS
  0
LAYER
  2
D40_E---ISOL--------
 70
     0
 62
     7
  6
CONTINUOUS
  0
LAYER
  2
D40_E---TUER--------
 70
     0
 62
     7
  6
CONTINUOUS
  0
LAYER
  2
D40_E---MW--BRA---
 70
     0
 62
     7
  6
CONTINUOUS
  0
LAYER
  2
D41_ARCHICAD
 70
     0
 62
     7
  6
CONTINUOUS
  0
LAYER
  2
D41_E---MW--------
 70
     0
 62
     7
  6
CONTINUOUS
  0
LAYER
  2
D41_E---FASSKON-----
 70
     0
 62
     7
  6
CONTINUOUS
  0
LAYER
  2
D41_TÜREN_VON_B---MW-N----
 70
     0
 62
     7
  6
CONTINUOUS
  0
LAYER
  2
D41_E---MW-L------
 70
     0
 62
     7
  6
CONTINUOUS
  0
LAYER
  2
D41_TÜREN_VON_B---MW------
 70
     0
 62
     7
  6
CONTINUOUS
  0
LAYER
  2
D41_E---VERM--------
 70
     0
 62
     7
  6
CONTINUOUS
  0
LAYER
  2
D41_FENSTER_VON_E---MW-L--
 70
     0
 62
     7
  6
CONTINUOUS
  0
LAYER
  2
D41_FENSTER_VON_B---MW-N--
 70
     0
 62
     7
  6
CONTINUOUS
  0
LAYER
  2
D41_E---SCHN--------
 70
     0
 62
     7
  6
CONTINUOUS
  0
LAYER
  2
D41_E---AUFZ--------
 70
     0
 62
     7
  6
CONTINUOUS
  0
LAYER
  2
D41_E---DECK--------
 70
     0
 62
     7
  6
CONTINUOUS
  0
LAYER
  2
D41_E---RAUMINF-----
 70
     0
 62
     7
  6
CONTINUOUS
  0
LAYER
  2
D41_E---TEXT--------
 70
     0
 62
     7
  6
CONTINUOUS
  0
LAYER
  2
D41_B---TEXT--------
 70
     0
 62
     7
  6
CONTINUOUS
  0
LAYER
  2
D41_B---MW-N--------
 70
     0
 62
     7
  6
CONTINUOUS
  0
LAYER
  2
D41_B---DECK--------
 70
     0
 62
     7
  6
CONTINUOUS
  0
LAYER
  2
D41_B---AUFZ--------
 70
     0
 62
     7
  6
CONTINUOUS
  0
LAYER
  2
D41_B---MW-S--------
 70
     0
 62
     7
  6
CONTINUOUS
  0
LAYER
  2
D41_B---MW----------
 70
     0
 62
     7
  6
CONTINUOUS
  0
LAYER
  2
D41_E---MOEB--------
 70
     0
 62
     7
  6
CONTINUOUS
  0
LAYER
  2
D41_B---UMGB--------
 70
     0
 62
     7
  6
CONTINUOUS
  0
LAYER
  2
D41_B---FASS--------
 70
     0
 62
     7
  6
CONTINUOUS
  0
LAYER
  2
D41_E---DACH--------
 70
     0
 62
     7
  6
CONTINUOUS
  0
LAYER
  2
D41_E---BODE--------
 70
     0
 62
     7
  6
CONTINUOUS
  0
LAYER
  2
D41_E---TREP--------
 70
     0
 62
     7
  6
CONTINUOUS
  0
LAYER
  2
D41_E---RASG--------
 70
     0
 62
     7
  6
CONTINUOUS
  0
LAYER
  2
D41_B---MW-K--------
 70
     0
 62
     7
  6
CONTINUOUS
  0
LAYER
  2
D41_E---FASSGLA-----
 70
     0
 62
     7
  6
CONTINUOUS
  0
LAYER
  2
D41_B---VERM--------
 70
     0
 62
     7
  6
CONTINUOUS
  0
LAYER
  2
D41_E---UMGBGSG-----
 70
     0
 62
     7
  6
CONTINUOUS
  0
LAYER
  2
D41_E---RASF--------
 70
     0
 62
     7
  6
CONTINUOUS
  0
LAYER
  2
D41_E---PFLA--------
 70
     0
 62
     7
  6
CONTINUOUS
  0
LAYER
  2
D41_E---KONS-ST-----
 70
     0
 62
     7
  6
CONTINUOUS
  0
LAYER
  2
D41_E---WERB--------
 70
     0
 62
     7
  6
CONTINUOUS
  0
LAYER
  2
D41_E---TUERINF-----
 70
     0
 62
     7
  6
CONTINUOUS
  0
LAYER
  2
D41_E---WOLK--------
 70
     0
 62
     7
  6
CONTINUOUS
  0
LAYER
  2
D41_B---MW-L--------
 70
     0
 62
     7
  6
CONTINUOUS
  0
LAYER
  2
D41_B---SANI--------
 70
     0
 62
     7
  6
CONTINUOUS
  0
LAYER
  2
D41_E---SANI--------
 70
     0
 62
     7
  6
CONTINUOUS
  0
LAYER
  2
D41_E---MW-K------
 70
     0
 62
     7
  6
CONTINUOUS
  0
LAYER
  2
D41_E---OBJE--------
 70
     0
 62
     7
  6
CONTINUOUS
  0
LAYER
  2
D41_E---ASPR--------
 70
     0
 62
     7
  6
CONTINUOUS
  0
LAYER
  2
D41_E---VERMTGA-----
 70
     0
 62
     7
  6
CONTINUOUS
  0
LAYER
  2
D41_E---PARK--------
 70
     0
 62
     7
  6
CONTINUOUS
  0
LAYER
  2
D41_E---ISOL--------
 70
     0
 62
     7
  6
CONTINUOUS
  0
LAYER
  2
D41_E---TUER--------
 70
     0
 62
     7
  6
CONTINUOUS
  0
LAYER
  2
D41_E---MW--BRA---
 70
     0
 62
     7
  6
CONTINUOUS
  0
LAYER
  2
D42_ARCHICAD
 70
     0
 62
     7
  6
CONTINUOUS
  0
LAYER
  2
D42_FENSTER_VON_B---FASS--
 70
     0
 62
     7
  6
CONTINUOUS
  0
LAYER
  2
D42_E---SCHN--------
 70
     0
 62
     7
  6
CONTINUOUS
  0
LAYER
  2
D42_B---MW-N--------
 70
     0
 62
     7
  6
CONTINUOUS
  0
LAYER
  2
D42_B---DECK--------
 70
     0
 62
     7
  6
CONTINUOUS
  0
LAYER
  2
D42_B---MW-S--------
 70
     0
 62
     7
  6
CONTINUOUS
  0
LAYER
  2
D42_B---MW----------
 70
     0
 62
     7
  6
CONTINUOUS
  0
LAYER
  2
D42_B---FASS--------
 70
     0
 62
     7
  6
CONTINUOUS
  0
LAYER
  2
D42_E---RASG--------
 70
     0
 62
     7
  6
CONTINUOUS
  0
LAYER
  2
CONSTRUCTION_CLASS
 70
     0
 62
     7
  6
CONTINUOUS
  0
LAYER
  2
PATTERN_CLASS
 70
     0
 62
     7
  6
CONTINUOUS
  0
LAYER
  2
KONSTRUKTION
 70
     0
 62
     7
  6
CONTINUOUS
  0
LAYER
  2
BEMAßUNG
 70
     0
 62
     7
  6
CONTINUOUS
  0
LAYER
  2
HILFSGEOMETRIE
 70
     0
 62
     7
  6
CONTINUOUS
  0
LAYER
  2
UNSICHTBAR
 70
     0
 62
     7
  6
CONTINUOUS
  0
LAYER
  2
LOGO
 70
     0
 62
     7
  6
CONTINUOUS
  0
LAYER
  2
VERWALTUNG
 70
     0
 62
     7
  6
CONTINUOUS
  0
LAYER
  2
UNSICHTBARE_GEWINDE
 70
     0
 62
     7
  6
CONTINUOUS
  0
LAYER
  2
SICHTBARE_GEWINDE
 70
     0
 62
     7
  6
CONTINUOUS
  0
LAYER
  2
DEFPOINTS
 70
     0
 62
     7
  6
CONTINUOUS
  0
LAYER
  2
THICK
 70
     0
 62
     7
  6
CONTINUOUS
  0
LAYER
  2
HIDDEN
 70
     0
 62
     7
  6
CONTINUOUS
  0
LAYER
  2
SCHRAFFURGRUNDRISS
 70
     0
 62
     7
  6
CONTINUOUS
  0
LAYER
  2
BEMASSUNG_GRUNDRISS
 70
     0
 62
     7
  6
CONTINUOUS
  0
LAYER
  2
STATIK
 70
     0
 62
     7
  6
CONTINUOUS
  0
LAYER
  2
TÜREN
 70
     0
 62
     7
  6
CONTINUOUS
  0
LAYER
  2
SANITÄR
 70
     0
 62
     7
  6
CONTINUOUS
  0
LAYER
  2
BEMASSUNG_GIPSKARTON
 70
     0
 62
     7
  6
CONTINUOUS
  0
LAYER
  2
EINRICHTUNGEN
 70
     0
 62
     7
  6
CONTINUOUS
  0
LAYER
  2
BECKEN
 70
     0
 62
     7
  6
CONTINUOUS
  0
LAYER
  2
BELEUCHTUNG
 70
     0
 62
     7
  6
CONTINUOUS
  0
LAYER
  2
BESCHRIFTUNGEN
 70
     0
 62
     7
  6
CONTINUOUS
  0
LAYER
  2
ELEKTRO_1__DOSEN_SCHALTER
 70
     0
 62
     7
  6
CONTINUOUS
  0
LAYER
  2
DEFAULT_1
 70
     0
 62
     7
  6
CONTINUOUS
  0
LAYER
  2
AM_0
 70
     0
 62
     7
  6
CONTINUOUS
  0
LAYER
  2
FRAME0_7
 70
     0
 62
     7
  6
CONTINUOUS
  0
LAYER
  2
AM_BOR
 70
     0
 62
     7
  6
CONTINUOUS
  0
LAYER
  2
RAHM2
 70
     0
 62
     7
  6
CONTINUOUS
  0
LAYER
  2
RAHM3
 70
     0
 62
     7
  6
CONTINUOUS
  0
LAYER
  2
FRAME0_5
 70
     0
 62
     7
  6
CONTINUOUS
  0
LAYER
  2
8
 70
     0
 62
     7
  6
CONTINUOUS
  0
LAYER
  2
AM_5
 70
     0
 62
     7
  6
CONTINUOUS
  0
LAYER
  2
AM_7
 70
     0
 62
     7
  6
CONTINUOUS
  0
LAYER
  2
HILFSLINIEN
 70
     0
 62
     7
  6
CONTINUOUS
  0
LAYER
  2
DRAWING_TEMPLATE
 70
     0
 62
     7
  6
CONTINUOUS
  0
LAYER
  2
TECHNOBOX_EXTERNALREFSYMBO
 70
     0
 62
     7
  6
CONTINUOUS
  0
LAYER
  2
TECHNOBOX_POLYCLIPSYMBOL_L
 70
     0
 62
     7
  6
CONTINUOUS
  0
LAYER
  2
100
 70
     0
 62
     7
  6
CONTINUOUS
  0
LAYER
  2
101
 70
     0
 62
     7
  6
CONTINUOUS
  0
LAYER
  2
KONTUR
 70
     0
 62
     7
  6
CONTINUOUS
  0
LAYER
  2
MITTELLINIE
 70
     0
 62
     7
  6
CONTINUOUS
  0
LAYER
  2
GESTRICHELT
 70
     0
 62
     7
  6
CONTINUOUS
  0
LAYER
  2
HILFSLINIE
 70
     0
 62
     7
  6
CONTINUOUS
  0
LAYER
  2
TEXT-25
 70
     0
 62
     7
  6
CONTINUOUS
  0
LAYER
  2
TEXT35
 70
     0
 62
     7
  6
CONTINUOUS
  0
LAYER
  2
TEXT-50
 70
     0
 62
     7
  6
CONTINUOUS
  0
LAYER
  2
TEXT-70
 70
     0
 62
     7
  6
CONTINUOUS
  0
LAYER
  2
ANSICHTSFENSTER
 70
     0
 62
     7
  6
CONTINUOUS
  0
LAYER
  2
KERA0
 70
     0
 62
     7
  6
CONTINUOUS
  0
LAYER
  2
KERA1
 70
     0
 62
     7
  6
CONTINUOUS
  0
LAYER
  2
KERA2
 70
     0
 62
     7
  6
CONTINUOUS
  0
LAYER
  2
KERA3
 70
     0
 62
     7
  6
CONTINUOUS
  0
LAYER
  2
KERA4
 70
     0
 62
     7
  6
CONTINUOUS
  0
LAYER
  2
KERA5
 70
     0
 62
     7
  6
CONTINUOUS
  0
LAYER
  2
KERA6
 70
     0
 62
     7
  6
CONTINUOUS
  0
LAYER
  2
KERA7
 70
     0
 62
     7
  6
CONTINUOUS
  0
LAYER
  2
20
 70
     0
 62
     7
  6
CONTINUOUS
  0
LAYER
  2
50
 70
     0
 62
     7
  6
CONTINUOUS
  0
LAYER
  2
BECKEN_FUTURA_EBENE_1
 70
     0
 62
     7
  6
CONTINUOUS
  0
LAYER
  2
EBENE_1
 70
     0
 62
     7
  6
CONTINUOUS
  0
LAYER
  2
EBENE_2
 70
     0
 62
     7
  6
CONTINUOUS
  0
LAYER
  2
EBENE_5
 70
     0
 62
     7
  6
CONTINUOUS
  0
LAYER
  2
3
 70
     0
 62
     7
  6
CONTINUOUS
  0
LAYER
  2
GEB-KONTUR-A
 70
     0
 62
     7
  6
CONTINUOUS
  0
LAYER
  2
GEB-SYMETRIE
 70
     0
 62
     7
  6
CONTINUOUS
  0
LAYER
  2
GEB-ART-NR
 70
     0
 62
     7
  6
CONTINUOUS
  0
LAYER
  2
PROJECTION
 70
     0
 62
     7
  6
CONTINUOUS
  0
ENDTAB
  0
TABLE
  2
STYLE
 70
     3
  0
STYLE
  2
STANDARD
 70
     0
 40
0.0
 41
1.0
 50
0.0
 71
     0
 42
0.0
  3
txt
  4

  0
STYLE
  2
ANNOTATIVE
 70
     0
 40
0.0
 41
1.0
 50
0.0
 71
     0
 42
0.2
  3
txt
  4

  0
STYLE
  2
SIMPLEX
 70
     0
 40
0.0
 41
1.0
 50
0.0
 71
     0
 42
0.0
  3
SIMPLEX
  4

  0
ENDTAB
  0
TABLE
  2
VIEW
 70
     0
  0
ENDTAB
  0
TABLE
  2
UCS
 70
     0
  0
ENDTAB
  0
TABLE
  2
APPID
 70
     4
  0
APPID
  2
ACAD
 70
     0
  0
APPID
  2
ACADANNOTATIVE
 70
     0
  0
APPID
  2
ACAD_MLEADERVER
 70
     0
  0
APPID
  2
ACAD_EXEMPT_FROM_CAD_STANDARDS
 70
     0
  0
ENDTAB
  0
TABLE
  2
DIMSTYLE
 70
     2
  0
DIMSTYLE
  2
STANDARD
 70
     0
  3

  4

  5

  6

  7

 40
1.0
 41
0.18
 42
0.0625
 43
0.38
 44
0.18
 45
0.0
 46
0.0
 47
0.0
 48
0.0
140
0.18
141
0.09
142
0.0
143
25.399999999999999
144
1.0
145
0.0
146
1.0
147
0.09
 71
     0
 72
     0
 73
     1
 74
     1
 75
     0
 76
     0
 77
     0
 78
     0
170
     0
171
     2
172
     0
173
     0
174
     0
175
     0
176
     0
177
     0
178
     0
  0
DIMSTYLE
  2
ANNOTATIVE
 70
     0
  3

  4

  5

  6

  7

 40
1.0
 41
0.18
 42
0.0625
 43
0.38
 44
0.18
 45
0.0
 46
0.0
 47
0.0
 48
0.0
140
0.18
141
0.09
142
0.0
143
25.399999999999999
144
1.0
145
0.0
146
1.0
147
0.09
 71
     0
 72
     0
 73
     1
 74
     1
 75
     0
 76
     0
 77
     0
 78
     0
170
     0
171
     2
172
     0
173
     0
174
     0
175
     0
176
     0
177
     0
178
     0
  0
ENDTAB
  0
ENDSEC
  0
SECTION
  2
BLOCKS
  0
BLOCK
  8
0
  2
$MODEL_SPACE
 70
     0
 10
0.0
 20
0.0
 30
0.0
  3
$MODEL_SPACE
  1

  0
ENDBLK
  5
76
  8
0
  0
BLOCK
 67
     1
  8
0
  2
$PAPER_SPACE
 70
     0
 10
0.0
 20
0.0
 30
0.0
  3
$PAPER_SPACE
  1

  0
ENDBLK
  5
72
 67
     1
  8
0
  0
BLOCK
  8
0
  2
*D0
 70
     1
 10
0.0
 20
0.0
 30
0.0
  3
*D0
  1

  0
LINE
  5
187
  8
LAYER01
 62
     7
 10
180.894048
 20
832.5923949999999
 30
0.0
 11
180.894048
 21
432.59238899999991
 31
0.0
  0
LINE
  5
188
  8
LAYER01
 62
     7
 10
407.09713199999987
 20
832.5923949999999
 30
0.0
 11
145.894048
 21
832.5923949999999
 31
0.0
  0
LINE
  5
189
  8
LAYER01
 62
     7
 10
407.09713199999987
 20
432.59238899999991
 30
0.0
 11
145.894048
 21
432.59238899999991
 31
0.0
  0
SOLID
  5
18A
  8
LAYER01
 62
     7
 10
171.56108800000001
 20
776.59239500000001
 30
0.0
 11
180.894048
 21
832.5923949999999
 31
0.0
 12
190.22700800000001
 22
776.59239500000001
 32
0.0
 13
190.22700800000001
 23
776.59239500000001
 33
0.0
  0
SOLID
  5
18B
  8
LAYER01
 62
     7
 10
171.56108800000001
 20
488.59238899999991
 30
0.0
 11
180.894048
 21
432.59238899999991
 31
0.0
 12
190.22700800000001
 22
488.59238899999991
 32
0.0
 13
190.22700800000001
 23
488.59238899999991
 33
0.0
  0
TEXT
  5
18C
  8
LAYER01
  6
CONTINUOUS
 62
     7
 10
145.894048
 20
579.37526100000002
 30
0.0
 40
70.0
  1
400
 50
90.0
  0
POINT
  5
18D
  8
LAYER01
 62
     7
 10
435.09713199999999
 20
832.5923949999999
 30
0.0
  0
POINT
  5
18E
  8
LAYER01
 62
     7
 10
435.09713199999999
 20
432.59238899999991
 30
0.0
  0
POINT
  5
18F
  8
LAYER01
 62
     7
 10
180.894048
 20
432.59238899999991
 30
0.0
  0
ENDBLK
  5
190
  8
0
  0
BLOCK
  8
0
  2
VP356012-G2
 70
     0
 10
0.0
 20
0.0
 30
0.0
  3
VP356012-G2
  1

  0
LINE
  5
193
  8
LAYER01
  6
CONTINUOUS
 62
     7
 10
454.59310399999998
 20
156.64112
 30
0.0
 11
466.59310399999998
 21
168.64112
 31
0.0
  0
LINE
  5
194
  8
LAYER01
  6
CONTINUOUS
 62
     7
 10
464.17521299999993
 20
143.77258800000001
 30
0.0
 11
475.59328499999992
 21
155.19066000000001
 31
0.0
  0
LINE
  5
195
  8
LAYER01
  6
CONTINUOUS
 62
     7
 10
465.29320899999999
 20
122.439944
 30
0.0
 11
476.71128099999987
 21
133.85801699999999
 31
0.0
  0
LINE
  5
196
  8
LAYER01
  6
CONTINUOUS
 62
     7
 10
466.41120599999988
 20
101.10730100000001
 30
0.0
 11
477.82927799999999
 21
112.525373
 31
0.0
  0
LINE
  5
197
  8
LAYER01
  6
CONTINUOUS
 62
     7
 10
467.52920199999988
 20
79.774656999999991
 30
0.0
 11
478.94727399999999
 21
91.192729
 31
0.0
  0
LINE
  5
198
  8
LAYER01
  6
CONTINUOUS
 62
     7
 10
470.34536500000002
 20
60.140179000000003
 30
0.0
 11
480.065271
 21
69.860084999999998
 31
0.0
  0
LINE
  5
199
  8
LAYER01
  6
CONTINUOUS
 62
     7
 10
484.04488199999997
 20
51.389055999999997
 30
0.0
 11
495.35062699999997
 21
62.694800999999998
 31
0.0
  0
LINE
  5
19A
  8
LAYER01
  6
CONTINUOUS
 62
     7
 10
505.1569429999999
 20
50.050477000000001
 30
0.0
 11
516.46555799999987
 21
61.359091999999997
 31
0.0
  0
LINE
  5
19B
  8
LAYER01
  6
CONTINUOUS
 62
     7
 10
526.27187500000002
 20
48.714767999999992
 30
0.0
 11
537.58048899999994
 21
60.023382999999988
 31
0.0
  0
LINE
  5
19C
  8
LAYER01
  6
CONTINUOUS
 62
     7
 10
547.38680599999998
 20
47.379058999999998
 30
0.0
 11
558.69542100000001
 21
58.687674000000001
 31
0.0
  0
LINE
  5
19D
  8
LAYER01
  6
CONTINUOUS
 62
     7
 10
568.50173700000005
 20
46.04334999999999
 30
0.0
 11
579.81035199999985
 21
57.351965
 31
0.0
  0
LINE
  5
19E
  8
LAYER01
  6
CONTINUOUS
 62
     7
 10
589.616668
 20
44.707640999999988
 30
0.0
 11
600.92528300000004
 21
56.016256000000013
 31
0.0
  0
LINE
  5
19F
  8
LAYER01
  6
CONTINUOUS
 62
     7
 10
610.73159999999984
 20
43.371932000000001
 30
0.0
 11
622.04021399999999
 21
54.680546
 31
0.0
  0
LINE
  5
1A0
  8
LAYER01
  6
CONTINUOUS
 62
     7
 10
631.84653099999991
 20
42.036223
 30
0.0
 11
643.15514499999995
 21
53.344836999999991
 31
0.0
  0
LINE
  5
1A1
  8
LAYER01
  6
CONTINUOUS
 62
     7
 10
652.96146199999998
 20
40.700513999999991
 30
0.0
 11
664.2700769999999
 21
52.009128000000011
 31
0.0
  0
LINE
  5
1A2
  8
LAYER01
  6
CONTINUOUS
 62
     7
 10
674.07639299999994
 20
39.364803999999999
 30
0.0
 11
685.38500799999986
 21
50.673419000000003
 31
0.0
  0
LINE
  5
1A3
  8
LAYER01
  6
CONTINUOUS
 62
     7
 10
695.19132400000001
 20
38.029094999999998
 30
0.0
 11
706.49993899999993
 21
49.337710000000001
 31
0.0
  0
LINE
  5
1A4
  8
LAYER01
  6
CONTINUOUS
 62
     7
 10
716.12088800000004
 20
36.508018999999997
 30
0.0
 11
727.19763699999987
 21
47.584766999999999
 31
0.0
  0
LINE
  5
1A5
  8
LAYER01
  6
CONTINUOUS
 62
     7
 10
733.72915199999989
 20
31.665642999999999
 30
0.0
 11
744.18286599999988
 21
42.119355999999989
 31
0.0
  0
LINE
  5
1A6
  8
LAYER01
  6
CONTINUOUS
 62
     7
 10
749.07610999999997
 20
24.561959999999999
 30
0.0
 11
751.88837599999999
 21
27.374226
 31
0.0
  0
ENDBLK
  5
1A7
  8
0
  0
BLOCK
  8
0
  2
*D2
 70
     1
 10
0.0
 20
0.0
 30
0.0
  3
*D2
  1

  0
LINE
  5
1AA
  8
LAYER01
 62
     7
 10
1074.888301
 20
245.011832
 30
0.0
 11
474.88836399999991
 21
245.011832
 31
0.0
  0
LINE
  5
1AB
  8
LAYER01
 62
     7
 10
1074.888301
 20
196.63945000000001
 30
0.0
 11
1074.888301
 21
280.01183200000003
 31
0.0
  0
LINE
  5
1AC
  8
LAYER01
 62
     7
 10
474.88836399999991
 20
196.63945000000001
 30
0.0
 11
474.88836399999991
 21
280.01183200000003
 31
0.0
  0
SOLID
  5
1AD
  8
LAYER01
 62
     7
 10
1018.888301
 20
254.34479200000001
 30
0.0
 11
1074.888301
 21
245.011832
 31
0.0
 12
1018.888301
 22
235.67887200000001
 32
0.0
 13
1018.888301
 23
235.67887200000001
 33
0.0
  0
SOLID
  5
1AE
  8
LAYER01
 62
     7
 10
530.88836399999991
 20
254.34479200000001
 30
0.0
 11
474.88836399999991
 21
245.011832
 31
0.0
 12
530.88836399999991
 22
235.67887200000001
 32
0.0
 13
530.88836399999991
 23
235.67887200000001
 33
0.0
  0
TEXT
  5
1AF
  8
LAYER01
  6
CONTINUOUS
 62
     7
 10
722.44948299999999
 20
280.01183200000003
 30
0.0
 40
70.0
  1
600
  0
POINT
  5
1B0
  8
LAYER01
 62
     7
 10
1074.888301
 20
168.63945000000001
 30
0.0
  0
POINT
  5
1B1
  8
LAYER01
 62
     7
 10
474.88836399999991
 20
168.63945000000001
 30
0.0
  0
POINT
  5
1B2
  8
LAYER01
 62
     7
 10
474.88836399999991
 20
245.011832
 30
0.0
  0
ENDBLK
  5
1B3
  8
0
  0
BLOCK
  8
0
  2
VP356012-G4
 70
     0
 10
0.0
 20
0.0
 30
0.0
  3
VP356012-G4
  1

  0
LINE
  5
1B6
  8
LAYER01
  6
CONTINUOUS
 62
     7
 10
797.88837599999999
 20
28.472946000000011
 30
0.0
 11
816.46530899999993
 21
47.049878
 31
0.0
  0
LINE
  5
1B7
  8
LAYER01
  6
CONTINUOUS
 62
     7
 10
827.86769000000004
 20
36.001620000000003
 30
0.0
 11
841.06378699999982
 21
49.197716
 31
0.0
  0
LINE
  5
1B8
  8
LAYER01
  6
CONTINUOUS
 62
     7
 10
852.19456300000013
 20
37.877851999999997
 30
0.0
 11
865.03053999999997
 21
50.71382899999999
 31
0.0
  0
LINE
  5
1B9
  8
LAYER01
  6
CONTINUOUS
 62
     7
 10
876.16131499999995
 20
39.393964000000011
 30
0.0
 11
888.99729300000001
 21
52.229940999999997
 31
0.0
  0
LINE
  5
1BA
  8
LAYER01
  6
CONTINUOUS
 62
     7
 10
900.12806799999998
 20
40.910075999999997
 30
0.0
 11
912.96404500000006
 21
53.746054000000001
 31
0.0
  0
LINE
  5
1BB
  8
LAYER01
  6
CONTINUOUS
 62
     7
 10
924.09482100000002
 20
42.426189000000001
 30
0.0
 11
936.93079799999998
 21
55.262166000000001
 31
0.0
  0
LINE
  5
1BC
  8
LAYER01
  6
CONTINUOUS
 62
     7
 10
948.06157400000006
 20
43.942301
 30
0.0
 11
960.89755100000002
 21
56.778278
 31
0.0
  0
LINE
  5
1BD
  8
LAYER01
  6
CONTINUOUS
 62
     7
 10
972.02832599999999
 20
45.458413999999998
 30
0.0
 11
984.86430299999995
 21
58.294390999999997
 31
0.0
  0
LINE
  5
1BE
  8
LAYER01
  6
CONTINUOUS
 62
     7
 10
1073.764406
 20
147.19449399999999
 30
0.0
 11
1095.2110319999999
 21
168.64112
 31
0.0
  0
LINE
  5
1BF
  8
LAYER01
  6
CONTINUOUS
 62
     7
 10
995.99507899999981
 20
46.974525999999997
 30
0.0
 11
1008.831056
 21
59.810502999999997
 31
0.0
  0
LINE
  5
1C0
  8
LAYER01
  6
CONTINUOUS
 62
     7
 10
1019.961832
 20
48.490639000000002
 30
0.0
 11
1032.7978089999999
 21
61.326616000000001
 31
0.0
  0
LINE
  5
1C1
  8
LAYER01
  6
CONTINUOUS
 62
     7
 10
1043.9285850000001
 20
50.006751000000001
 30
0.0
 11
1056.7645620000001
 21
62.842728000000001
 31
0.0
  0
LINE
  5
1C2
  8
LAYER01
  6
CONTINUOUS
 62
     7
 10
1072.522745
 20
123.50219199999999
 30
0.0
 11
1085.2037989999999
 21
136.183246
 31
0.0
  0
LINE
  5
1C3
  8
LAYER01
  6
CONTINUOUS
 62
     7
 10
1071.281084
 20
99.809891000000022
 30
0.0
 11
1083.9621380000001
 21
112.490945
 31
0.0
  0
LINE
  5
1C4
  8
LAYER01
  6
CONTINUOUS
 62
     7
 10
1070.0394240000001
 20
76.117590000000007
 30
0.0
 11
1082.720478
 21
88.798643999999996
 31
0.0
  0
LINE
  5
1C5
  8
LAYER01
  6
CONTINUOUS
 62
     7
 10
1068.134861
 20
51.76238699999999
 30
0.0
 11
1081.2260220000001
 21
64.853548000000004
 31
0.0
  0
ENDBLK
  5
1C6
  8
0
  0
BLOCK
  8
0
  2
*D4
 70
     1
 10
0.0
 20
0.0
 30
0.0
  3
*D4
  1

  0
LINE
  5
1C9
  8
LAYER01
 62
     7
 10
449.88838800000002
 20
1108.16858
 30
0.0
 11
1099.8883639999999
 21
1108.16858
 31
0.0
  0
LINE
  5
1CA
  8
LAYER01
 62
     7
 10
449.88838800000002
 20
867.49049100000002
 30
0.0
 11
449.88838800000002
 21
1143.16858
 31
0.0
  0
LINE
  5
1CB
  8
LAYER01
 62
     7
 10
1099.8883639999999
 20
867.49049100000002
 30
0.0
 11
1099.8883639999999
 21
1143.16858
 31
0.0
  0
SOLID
  5
1CC
  8
LAYER01
 62
     7
 10
505.88838799999991
 20
1098.8356200000001
 30
0.0
 11
449.88838800000002
 21
1108.16858
 31
0.0
 12
505.88838799999991
 22
1117.50154
 32
0.0
 13
505.88838799999991
 23
1117.50154
 33
0.0
  0
SOLID
  5
1CD
  8
LAYER01
 62
     7
 10
1043.8883639999999
 20
1098.8356200000001
 30
0.0
 11
1099.8883639999999
 21
1108.16858
 31
0.0
 12
1043.8883639999999
 22
1117.50154
 32
0.0
 13
1043.8883639999999
 23
1117.50154
 33
0.0
  0
TEXT
  5
1CE
  8
LAYER01
  6
CONTINUOUS
 62
     7
 10
721.36498399999994
 20
1143.16858
 30
0.0
 40
70.0
  1
650
  0
POINT
  5
1CF
  8
LAYER01
 62
     7
 10
449.88838800000002
 20
839.49049100000013
 30
0.0
  0
POINT
  5
1D0
  8
LAYER01
 62
     7
 10
1099.8883639999999
 20
839.49049100000013
 30
0.0
  0
POINT
  5
1D1
  8
LAYER01
 62
     7
 10
1099.8883639999999
 20
1108.16858
 30
0.0
  0
ENDBLK
  5
1D2
  8
0
  0
BLOCK
  8
0
  2
*D5
 70
     1
 10
0.0
 20
0.0
 30
0.0
  3
*D5
  1

  0
LINE
  5
1D5
  8
LAYER01
 62
     7
 10
1074.8883880000001
 20
953.54544799999996
 30
0.0
 11
474.88836399999991
 21
953.54544799999996
 31
0.0
  0
LINE
  5
1D6
  8
LAYER01
 62
     7
 10
1074.8883880000001
 20
867.49049100000002
 30
0.0
 11
1074.8883880000001
 21
988.54544800000008
 31
0.0
  0
LINE
  5
1D7
  8
LAYER01
 62
     7
 10
474.88836399999991
 20
867.49049100000002
 30
0.0
 11
474.88836399999991
 21
988.54544800000008
 31
0.0
  0
SOLID
  5
1D8
  8
LAYER01
 62
     7
 10
1018.888388
 20
962.87840800000004
 30
0.0
 11
1074.8883880000001
 21
953.54544799999996
 31
0.0
 12
1018.888388
 22
944.21248800000012
 32
0.0
 13
1018.888388
 23
944.21248800000012
 33
0.0
  0
SOLID
  5
1D9
  8
LAYER01
 62
     7
 10
530.88836399999991
 20
962.87840800000004
 30
0.0
 11
474.88836399999991
 21
953.54544799999996
 31
0.0
 12
530.88836399999991
 22
944.21248800000012
 32
0.0
 13
530.88836399999991
 23
944.21248800000012
 33
0.0
  0
TEXT
  5
1DA
  8
LAYER01
  6
CONTINUOUS
 62
     7
 10
721.36498399999994
 20
988.54544800000008
 30
0.0
 40
70.0
  1
600
  0
POINT
  5
1DB
  8
LAYER01
 62
     7
 10
1074.8883880000001
 20
839.49049100000013
 30
0.0
  0
POINT
  5
1DC
  8
LAYER01
 62
     7
 10
474.88836399999991
 20
839.49049100000013
 30
0.0
  0
POINT
  5
1DD
  8
LAYER01
 62
     7
 10
474.88836399999991
 20
953.54544799999996
 30
0.0
  0
ENDBLK
  5
1DE
  8
0
  0
BLOCK
  8
0
  2
*D6
 70
     1
 10
0.0
 20
0.0
 30
0.0
  3
*D6
  1

  0
LINE
  5
1E1
  8
LAYER01
 62
     7
 10
330.17963700000001
 20
807.5923889999998
 30
0.0
 11
330.17963700000001
 21
457.5923949999999
 31
0.0
  0
LINE
  5
1E2
  8
LAYER01
 62
     7
 10
407.09713199999987
 20
807.5923889999998
 30
0.0
 11
295.17963700000001
 21
807.5923889999998
 31
0.0
  0
LINE
  5
1E3
  8
LAYER01
 62
     7
 10
407.09713199999987
 20
457.5923949999999
 30
0.0
 11
295.17963700000001
 21
457.5923949999999
 31
0.0
  0
SOLID
  5
1E4
  8
LAYER01
 62
     7
 10
320.846677
 20
751.5923889999998
 30
0.0
 11
330.17963700000001
 21
807.5923889999998
 31
0.0
 12
339.51259700000003
 22
751.5923889999998
 32
0.0
 13
339.51259700000003
 23
751.5923889999998
 33
0.0
  0
SOLID
  5
1E5
  8
LAYER01
 62
     7
 10
320.846677
 20
513.59239500000001
 30
0.0
 11
330.17963700000001
 21
457.5923949999999
 31
0.0
 12
339.51259700000003
 22
513.59239500000001
 32
0.0
 13
339.51259700000003
 23
513.59239500000001
 33
0.0
  0
TEXT
  5
1E6
  8
LAYER01
  6
CONTINUOUS
 62
     7
 10
295.17963700000001
 20
579.37526100000002
 30
0.0
 40
70.0
  1
350
 50
90.0
  0
POINT
  5
1E7
  8
LAYER01
 62
     7
 10
435.09713199999999
 20
807.5923889999998
 30
0.0
  0
POINT
  5
1E8
  8
LAYER01
 62
     7
 10
435.09713199999999
 20
457.5923949999999
 30
0.0
  0
POINT
  5
1E9
  8
LAYER01
 62
     7
 10
330.17963700000001
 20
457.5923949999999
 30
0.0
  0
ENDBLK
  5
1EA
  8
0
  0
BLOCK
  8
0
  2
VP356012-G8
 70
     0
 10
0.0
 20
0.0
 30
0.0
  3
VP356012-G8
  1

  0
LINE
  5
1ED
  8
LAYER01
  6
CONTINUOUS
 62
   255
 10
774.88837599999999
 20
632.59239200000002
 30
0.0
 11
774.88837599999999
 21
635.09239200000002
 31
0.0
  0
LINE
  5
1EE
  8
LAYER01
  6
CONTINUOUS
 62
   255
 10
774.88837599999999
 20
632.59239200000002
 30
0.0
 11
772.38837599999999
 21
632.59239200000002
 31
0.0
  0
LINE
  5
1EF
  8
LAYER01
  6
CONTINUOUS
 62
   255
 10
774.88837599999999
 20
632.59239200000002
 30
0.0
 11
774.88837599999999
 21
630.09239200000002
 31
0.0
  0
LINE
  5
1F0
  8
LAYER01
  6
CONTINUOUS
 62
   255
 10
774.88837599999999
 20
632.59239200000002
 30
0.0
 11
777.38837599999999
 21
632.59239200000002
 31
0.0
  0
LINE
  5
1F1
  8
LAYER01
  6
CONTINUOUS
 62
   255
 10
774.88837599999999
 20
637.5923919999999
 30
0.0
 11
774.88837599999999
 21
659.87845400000003
 31
0.0
  0
LINE
  5
1F2
  8
LAYER01
  6
CONTINUOUS
 62
   255
 10
769.88837599999999
 20
632.59239200000002
 30
0.0
 11
747.60231399999986
 21
632.59239200000002
 31
0.0
  0
LINE
  5
1F3
  8
LAYER01
  6
CONTINUOUS
 62
   255
 10
774.88837599999999
 20
627.59239200000002
 30
0.0
 11
774.88837599999999
 21
605.30632999999989
 31
0.0
  0
LINE
  5
1F4
  8
LAYER01
  6
CONTINUOUS
 62
   255
 10
779.88837599999988
 20
632.59239200000002
 30
0.0
 11
802.1744379999999
 21
632.59239200000002
 31
0.0
  0
ENDBLK
  5
1F5
  8
0
  0
BLOCK
  8
0
  2
VP356012-G10
 70
     0
 10
0.0
 20
0.0
 30
0.0
  3
VP356012-G10
  1

  0
TEXT
  5
1F8
  8
LAYER01
  6
VERDECKT
 62
     1
 10
2070.0638739999999
 20
-632.361222
 30
0.0
 40
10.0
  1
A. Sprenger GmbH
  7
SIMPLEX
  0
TEXT
  5
1F9
  8
LAYER01
  6
VERDECKT
 62
     1
 10
2070.0638739999999
 20
-649.50407900000005
 30
0.0
 40
10.0
  1
Berner Str. 10
  7
SIMPLEX
  0
TEXT
  5
1FA
  8
LAYER01
  6
VERDECKT
 62
     1
 10
2070.0638739999999
 20
-666.64693599999987
 30
0.0
 40
10.0
  1
60437 Frankfurt
  7
SIMPLEX
  0
TEXT
  5
1FB
  8
LAYER01
  6
VERDECKT
 62
     1
 10
2070.0638739999999
 20
-683.78979299999992
 30
0.0
 40
10.0
  1
Tel.: 069 - 507 27 41
  7
SIMPLEX
  0
TEXT
  5
1FC
  8
LAYER01
  6
VERDECKT
 62
     1
 10
2070.0638739999999
 20
-700.93264999999997
 30
0.0
 40
10.0
  1
Fax: 069 - 507 72 91
  7
SIMPLEX
  0
TEXT
  5
1FD
  8
LAYER01
  6
VERDECKT
 62
     1
 10
2070.0638739999999
 20
-718.07550700000002
 30
0.0
 40
10.0
  1
info@varicor.org
  7
SIMPLEX
  0
ENDBLK
  5
1FE
  8
0
  0
BLOCK
  8
0
  2
VP356012-G9
 70
     0
 10
0.0
 20
0.0
 30
0.0
  3
VP356012-G9
  1

  0
TEXT
  5
201
  8
LAYER01
  6
CONTINUOUS
 62
     1
 10
3120.882329
 20
-867.44140900000002
 30
0.0
 40
10.0
  1
Blatt
  7
SIMPLEX
  0
LINE
  5
202
  8
LAYER01
  6
CONTINUOUS
 62
     1
 10
2055.882329
 20
-797.44140900000002
 30
0.0
 11
2655.882329
 21
-797.44140900000002
 31
0.0
  0
LINE
  5
203
  8
LAYER01
  6
CONTINUOUS
 62
     1
 10
2055.882329
 20
-822.44140899999991
 30
0.0
 11
2655.882329
 21
-822.44140899999991
 31
0.0
  0
LINE
  5
204
  8
LAYER01
  6
CONTINUOUS
 62
     1
 10
2055.882329
 20
-847.44140899999991
 30
0.0
 11
3185.882329
 21
-847.44140899999991
 31
0.0
  0
LINE
  5
205
  8
LAYER01
  6
CONTINUOUS
 62
     1
 10
2055.882329
 20
-922.44140899999991
 30
0.0
 11
3185.882329
 21
-922.44140899999991
 31
0.0
  0
LINE
  5
206
  8
LAYER01
  6
CONTINUOUS
 62
     1
 10
2055.882329
 20
-722.44140900000002
 30
0.0
 11
3185.882329
 21
-722.44140900000002
 31
0.0
  0
POLYLINE
  5
207
  8
LAYER01
  6
CONTINUOUS
 62
     1
 66
     1
 10
0.0
 20
0.0
 30
0.0
 70
     1
  0
VERTEX
  5
860
  8
LAYER01
  6
CONTINUOUS
 62
     1
 10
2055.882329
 20
-952.44140900000002
 30
0.0
  0
VERTEX
  5
861
  8
LAYER01
  6
CONTINUOUS
 62
     1
 10
2055.882329
 20
-617.44140899999991
 30
0.0
  0
VERTEX
  5
862
  8
LAYER01
  6
CONTINUOUS
 62
     1
 10
3185.882329
 20
-617.44140899999991
 30
0.0
  0
VERTEX
  5
863
  8
LAYER01
  6
CONTINUOUS
 62
     1
 10
3185.882329
 20
-952.44140900000002
 30
0.0
  0
SEQEND
  5
864
  8
LAYER01
  6
CONTINUOUS
 62
     1
  0
LINE
  5
20D
  8
LAYER01
  6
CONTINUOUS
 62
     1
 10
2055.882329
 20
-747.44140900000002
 30
0.0
 11
2655.882329
 21
-747.44140900000002
 31
0.0
  0
LINE
  5
20E
  8
LAYER01
  6
CONTINUOUS
 62
     1
 10
2055.882329
 20
-772.44140900000002
 30
0.0
 11
2655.882329
 21
-772.44140900000002
 31
0.0
  0
LINE
  5
20F
  8
LAYER01
  6
CONTINUOUS
 62
     1
 10
2380.882329
 20
-617.44140899999991
 30
0.0
 11
2380.882329
 21
-952.44140900000002
 31
0.0
  0
INSERT
  5
210
  8
LAYER01
  2
VP356012-G10
 10
0.0
 20
0.0
 30
0.0
  0
LINE
  5
211
  8
LAYER01
  6
CONTINUOUS
 62
     1
 10
2055.882329
 20
-897.44140899999991
 30
0.0
 11
2380.882329
 21
-897.44140899999991
 31
0.0
  0
LINE
  5
212
  8
LAYER01
  6
CONTINUOUS
 62
     1
 10
2055.882329
 20
-872.44140899999991
 30
0.0
 11
2380.882329
 21
-872.44140899999991
 31
0.0
  0
LINE
  5
213
  8
LAYER01
  6
CONTINUOUS
 62
     1
 10
2100.882329
 20
-722.44140900000002
 30
0.0
 11
2100.882329
 21
-952.44140900000002
 31
0.0
  0
TEXT
  5
214
  8
LAYER01
  6
CONTINUOUS
 62
     1
 10
2064.281594
 20
-942.44140900000002
 30
0.0
 40
9.5
  1
Zust
  7
SIMPLEX
  0
LINE
  5
215
  8
LAYER01
  6
CONTINUOUS
 62
     1
 10
2258.6669440000001
 20
-952.44140900000002
 30
0.0
 11
2258.6669440000001
 21
-722.44140900000002
 31
0.0
  0
LINE
  5
216
  8
LAYER01
  6
CONTINUOUS
 62
     1
 10
2335.882329
 20
-722.44140900000002
 30
0.0
 11
2335.882329
 21
-952.44140900000002
 31
0.0
  0
TEXT
  5
217
  8
LAYER01
  6
CONTINUOUS
 62
     1
 10
2145.010871
 20
-942.44140900000002
 30
0.0
 40
9.5
  1
Änderung
  7
SIMPLEX
  0
TEXT
  5
218
  8
LAYER01
  6
CONTINUOUS
 62
     1
 10
2272.7364729999999
 20
-942.44140900000002
 30
0.0
 40
9.5
  1
Datum
  7
SIMPLEX
  0
TEXT
  5
219
  8
LAYER01
  6
CONTINUOUS
 62
     1
 10
2339.6462320000001
 20
-942.44140900000002
 30
0.0
 40
9.5
  1
Name
  7
SIMPLEX
  0
LINE
  5
21A
  8
LAYER01
  6
CONTINUOUS
 62
     1
 10
3185.882329
 20
-657.44140900000002
 30
0.0
 11
2655.882329
 21
-657.44140900000002
 31
0.0
  0
LINE
  5
21B
  8
LAYER01
  6
CONTINUOUS
 62
     1
 10
2445.882329
 20
-822.44140899999991
 30
0.0
 11
2445.882329
 21
-722.44140900000002
 31
0.0
  0
TEXT
  5
21C
  8
LAYER01
  6
CONTINUOUS
 62
     1
 10
2390.882329
 20
-767.44140899999991
 30
0.0
 40
10.0
  1
Bearb.
  7
SIMPLEX
  0
TEXT
  5
21D
  8
LAYER01
  6
CONTINUOUS
 62
     1
 10
2390.882329
 20
-817.44140900000002
 30
0.0
 40
10.0
  1
Norm
  7
SIMPLEX
  0
TEXT
  5
21E
  8
LAYER01
  6
CONTINUOUS
 62
     1
 10
2390.882329
 20
-792.44140899999991
 30
0.0
 40
10.0
  1
Gepr.
  7
SIMPLEX
  0
TEXT
  5
21F
  8
LAYER01
  6
CONTINUOUS
 62
     1
 10
2470.882329
 20
-742.44140899999991
 30
0.0
 40
10.0
  1
Datum
  7
SIMPLEX
  0
TEXT
  5
220
  8
LAYER01
  6
CONTINUOUS
 62
     1
 10
2570.882329
 20
-742.44140899999991
 30
0.0
 40
10.0
  1
Name
  7
SIMPLEX
  0
TEXT
  5
221
  8
LAYER01
  6
CONTINUOUS
 62
     1
 10
3160.882329
 20
-917.44140900000002
 30
0.0
 40
10.0
  1
Bl.
  7
SIMPLEX
  0
LINE
  5
222
  8
LAYER01
  6
CONTINUOUS
 62
     1
 10
2655.882329
 20
-952.44140900000002
 30
0.0
 11
2655.882329
 21
-617.44140899999991
 31
0.0
  0
LINE
  5
223
  8
LAYER01
  6
CONTINUOUS
 62
     1
 10
2540.882329
 20
-847.44140899999991
 30
0.0
 11
2540.882329
 21
-617.44140899999991
 31
0.0
  0
LINE
  5
224
  8
LAYER01
  6
CONTINUOUS
 62
     1
 10
2970.882329
 20
-617.44140899999991
 30
0.0
 11
2970.882329
 21
-657.44140900000002
 31
0.0
  0
TEXT
  5
225
  8
LAYER01
  6
CONTINUOUS
 62
     1
 10
2666.7763279999999
 20
-642.97141099999988
 30
0.0
 40
10.0
  1
Maßstab
  7
SIMPLEX
  0
LINE
  5
226
  8
LAYER01
  6
CONTINUOUS
 62
     1
 10
3110.882329
 20
-847.44140899999991
 30
0.0
 11
3110.882329
 21
-922.44140899999991
 31
0.0
  0
LINE
  5
227
  8
LAYER01
  6
CONTINUOUS
 62
     1
 10
3110.882329
 20
-897.44140899999991
 30
0.0
 11
3185.882329
 21
-897.44140899999991
 31
0.0
  0
ENDBLK
  5
228
  8
0
  0
BLOCK
  8
0
  2
VP356012-G11
 70
     0
 10
0.0
 20
0.0
 30
0.0
  3
VP356012-G11
  1

  0
POLYLINE
  5
22B
  8
LAYER01
  6
CONTINUOUS
 62
     7
 66
     1
 10
0.0
 20
0.0
 30
0.0
 70
     1
  0
VERTEX
  5
865
  8
LAYER01
  6
CONTINUOUS
 62
     7
 10
1989.076767
 20
-126.16186999999999
 30
0.0
  0
VERTEX
  5
866
  8
LAYER01
  6
CONTINUOUS
 62
     7
 10
2030.5064540000001
 20
-126.16186999999999
 30
0.0
  0
VERTEX
  5
867
  8
LAYER01
  6
CONTINUOUS
 62
     7
 10
2082.5344329999998
 20
-244.67004399999999
 30
0.0
  0
VERTEX
  5
868
  8
LAYER01
  6
CONTINUOUS
 62
     7
 10
2134.5624109999999
 20
-126.16186999999999
 30
0.0
  0
VERTEX
  5
869
  8
LAYER01
  6
CONTINUOUS
 62
     7
 10
2177.9190600000002
 20
-126.16186999999999
 30
0.0
  0
VERTEX
  5
86A
  8
LAYER01
  6
CONTINUOUS
 62
     7
 10
2082.5344329999998
 20
-338.12770899999998
 30
0.0
  0
VERTEX
  5
86B
  8
LAYER01
  6
CONTINUOUS
 62
     7
 10
1989.076767
 20
-126.16186999999999
 30
0.0
  0
VERTEX
  5
86C
  8
LAYER01
  6
CONTINUOUS
 62
     7
 10
1989.076767
 20
-126.16186999999999
 30
0.0
  0
SEQEND
  5
86D
  8
LAYER01
  6
CONTINUOUS
 62
     7
  0
POLYLINE
  5
235
  8
LAYER01
  6
CONTINUOUS
 62
     7
 66
     1
 10
0.0
 20
0.0
 30
0.0
 70
     1
  0
VERTEX
  5
86E
  8
LAYER01
  6
CONTINUOUS
 62
     7
 10
2130.7084869999999
 20
-270.684033
 30
0.0
  0
VERTEX
  5
86F
  8
LAYER01
  6
CONTINUOUS
 62
     7
 10
2145.160703
 20
-236.96219500000001
 30
0.0
  0
VERTEX
  5
870
  8
LAYER01
  6
CONTINUOUS
 62
     7
 10
2207.7869740000001
 20
-236.96219500000001
 30
0.0
  0
VERTEX
  5
871
  8
LAYER01
  6
CONTINUOUS
 62
     7
 10
2175.9920980000002
 20
-167.59155699999999
 30
0.0
  0
VERTEX
  5
872
  8
LAYER01
  6
CONTINUOUS
 62
     7
 10
2194.2982390000002
 20
-123.27142600000001
 30
0.0
  0
VERTEX
  5
873
  8
LAYER01
  6
CONTINUOUS
 62
     7
 10
2280.0480560000001
 20
-304.40587099999999
 30
0.0
  0
VERTEX
  5
874
  8
LAYER01
  6
CONTINUOUS
 62
     7
 10
2280.0480560000001
 20
-126.16186999999999
 30
0.0
  0
VERTEX
  5
875
  8
LAYER01
  6
CONTINUOUS
 62
     7
 10
2394.7023049999998
 20
-126.16186999999999
 30
0.0
  0
VERTEX
  5
876
  8
LAYER01
  6
CONTINUOUS
 62
     7
 10
2394.7023049999998
 20
-126.16186999999999
 30
0.0
  0
VERTEX
  5
877
  8
LAYER01
  6
CONTINUOUS
 62
     7
 10
2405.3005969999999
 20
-128.088832
 30
0.0
  0
VERTEX
  5
878
  8
LAYER01
  6
CONTINUOUS
 62
     7
 10
2414.9354079999998
 20
-131.942756
 30
0.0
  0
VERTEX
  5
879
  8
LAYER01
  6
CONTINUOUS
 62
     7
 10
2423.606738
 20
-138.68712400000001
 30
0.0
  0
VERTEX
  5
87A
  8
LAYER01
  6
CONTINUOUS
 62
     7
 10
2431.3145870000012
 20
-145.43149099999999
 30
0.0
  0
VERTEX
  5
87B
  8
LAYER01
  6
CONTINUOUS
 62
     7
 10
2438.058954000001
 20
-154.10282100000001
 30
0.0
  0
VERTEX
  5
87C
  8
LAYER01
  6
CONTINUOUS
 62
     7
 10
2442.8763600000002
 20
-163.73763199999999
 30
0.0
  0
VERTEX
  5
87D
  8
LAYER01
  6
CONTINUOUS
 62
     7
 10
2446.7302840000002
 20
-175.29940500000001
 30
0.0
  0
VERTEX
  5
87E
  8
LAYER01
  6
CONTINUOUS
 62
     7
 10
2447.693765
 20
-185.89769699999999
 30
0.0
  0
VERTEX
  5
87F
  8
LAYER01
  6
CONTINUOUS
 62
     7
 10
2447.693765
 20
-185.89769699999999
 30
0.0
  0
VERTEX
  5
880
  8
LAYER01
  6
CONTINUOUS
 62
     7
 10
2447.693765
 20
-197.45947000000001
 30
0.0
  0
VERTEX
  5
881
  8
LAYER01
  6
CONTINUOUS
 62
     7
 10
2445.766803
 20
-207.094281
 30
0.0
  0
VERTEX
  5
882
  8
LAYER01
  6
CONTINUOUS
 62
     7
 10
2441.912879
 20
-216.72909200000001
 30
0.0
  0
VERTEX
  5
883
  8
LAYER01
  6
CONTINUOUS
 62
     7
 10
2437.0954729999999
 20
-225.40042199999999
 30
0.0
  0
VERTEX
  5
884
  8
LAYER01
  6
CONTINUOUS
 62
     7
 10
2430.3511050000002
 20
-233.10827
 30
0.0
  0
VERTEX
  5
885
  8
LAYER01
  6
CONTINUOUS
 62
     7
 10
2422.6432570000011
 20
-239.85263800000001
 30
0.0
  0
VERTEX
  5
886
  8
LAYER01
  6
CONTINUOUS
 62
     7
 10
2413.9719270000001
 20
-244.67004399999999
 30
0.0
  0
VERTEX
  5
887
  8
LAYER01
  6
CONTINUOUS
 62
     7
 10
2403.3736349999999
 20
-248.523968
 30
0.0
  0
VERTEX
  5
888
  8
LAYER01
  6
CONTINUOUS
 62
     7
 10
2465.0364249999998
 20
-330.41986000000003
 30
0.0
  0
VERTEX
  5
889
  8
LAYER01
  6
CONTINUOUS
 62
     7
 10
2465.0364249999998
 20
-126.16186999999999
 30
0.0
  0
VERTEX
  5
88A
  8
LAYER01
  6
CONTINUOUS
 62
     7
 10
2505.50263
 20
-126.16186999999999
 30
0.0
  0
VERTEX
  5
88B
  8
LAYER01
  6
CONTINUOUS
 62
     7
 10
2505.50263
 20
-332.34682299999997
 30
0.0
  0
VERTEX
  5
88C
  8
LAYER01
  6
CONTINUOUS
 62
     7
 10
2418.7893319999998
 20
-332.34682299999997
 30
0.0
  0
VERTEX
  5
88D
  8
LAYER01
  6
CONTINUOUS
 62
     7
 10
2334.9664780000012
 20
-225.40042199999999
 30
0.0
  0
VERTEX
  5
88E
  8
LAYER01
  6
CONTINUOUS
 62
     7
 10
2377.3596459999999
 20
-225.40042199999999
 30
0.0
  0
VERTEX
  5
88F
  8
LAYER01
  6
CONTINUOUS
 62
     7
 10
2377.3596459999999
 20
-225.40042199999999
 30
0.0
  0
VERTEX
  5
890
  8
LAYER01
  6
CONTINUOUS
 62
     7
 10
2383.1405319999999
 20
-224.43694099999999
 30
0.0
  0
VERTEX
  5
891
  8
LAYER01
  6
CONTINUOUS
 62
     7
 10
2388.9214189999998
 20
-222.50997899999999
 30
0.0
  0
VERTEX
  5
892
  8
LAYER01
  6
CONTINUOUS
 62
     7
 10
2393.738824
 20
-219.61953500000001
 30
0.0
  0
VERTEX
  5
893
  8
LAYER01
  6
CONTINUOUS
 62
     7
 10
2398.5562300000001
 20
-215.76561100000001
 30
0.0
  0
VERTEX
  5
894
  8
LAYER01
  6
CONTINUOUS
 62
     7
 10
2401.4466729999999
 20
-210.94820499999989
 30
0.0
  0
VERTEX
  5
895
  8
LAYER01
  6
CONTINUOUS
 62
     7
 10
2404.3371160000011
 20
-205.16731899999999
 30
0.0
  0
VERTEX
  5
896
  8
LAYER01
  6
CONTINUOUS
 62
     7
 10
2406.2640780000002
 20
-199.38643200000001
 30
0.0
  0
VERTEX
  5
897
  8
LAYER01
  6
CONTINUOUS
 62
     7
 10
2406.2640780000002
 20
-192.642065
 30
0.0
  0
VERTEX
  5
898
  8
LAYER01
  6
CONTINUOUS
 62
     7
 10
2406.2640780000002
 20
-192.642065
 30
0.0
  0
VERTEX
  5
899
  8
LAYER01
  6
CONTINUOUS
 62
     7
 10
2406.2640780000002
 20
-186.861178
 30
0.0
  0
VERTEX
  5
89A
  8
LAYER01
  6
CONTINUOUS
 62
     7
 10
2404.3371160000011
 20
-181.08029199999999
 30
0.0
  0
VERTEX
  5
89B
  8
LAYER01
  6
CONTINUOUS
 62
     7
 10
2402.4101540000001
 20
-175.29940500000001
 30
0.0
  0
VERTEX
  5
89C
  8
LAYER01
  6
CONTINUOUS
 62
     7
 10
2398.5562300000001
 20
-170.482
 30
0.0
  0
VERTEX
  5
89D
  8
LAYER01
  6
CONTINUOUS
 62
     7
 10
2394.7023049999998
 20
-166.628075
 30
0.0
  0
VERTEX
  5
89E
  8
LAYER01
  6
CONTINUOUS
 62
     7
 10
2388.9214189999998
 20
-163.73763199999999
 30
0.0
  0
VERTEX
  5
89F
  8
LAYER01
  6
CONTINUOUS
 62
     7
 10
2383.1405319999999
 20
-161.81066999999999
 30
0.0
  0
VERTEX
  5
8A0
  8
LAYER01
  6
CONTINUOUS
 62
     7
 10
2377.3596459999999
 20
-160.84718899999999
 30
0.0
  0
VERTEX
  5
8A1
  8
LAYER01
  6
CONTINUOUS
 62
     7
 10
2323.4047049999999
 20
-160.84718899999999
 30
0.0
  0
VERTEX
  5
8A2
  8
LAYER01
  6
CONTINUOUS
 62
     7
 10
2323.4047049999999
 20
-332.34682299999997
 30
0.0
  0
VERTEX
  5
8A3
  8
LAYER01
  6
CONTINUOUS
 62
     7
 10
2254.0340660000002
 20
-332.34682299999997
 30
0.0
  0
VERTEX
  5
8A4
  8
LAYER01
  6
CONTINUOUS
 62
     7
 10
2225.1296339999999
 20
-270.684033
 30
0.0
  0
VERTEX
  5
8A5
  8
LAYER01
  6
CONTINUOUS
 62
     7
 10
2130.7084869999999
 20
-270.684033
 30
0.0
  0
VERTEX
  5
8A6
  8
LAYER01
  6
CONTINUOUS
 62
     7
 10
2130.7084869999999
 20
-270.684033
 30
0.0
  0
SEQEND
  5
8A7
  8
LAYER01
  6
CONTINUOUS
 62
     7
  0
POLYLINE
  5
270
  8
LAYER01
  6
CONTINUOUS
 62
     7
 66
     1
 10
0.0
 20
0.0
 30
0.0
 70
     1
  0
VERTEX
  5
8A8
  8
LAYER01
  6
CONTINUOUS
 62
     7
 10
2692.4179610000001
 20
-139.65060500000001
 30
0.0
  0
VERTEX
  5
8A9
  8
LAYER01
  6
CONTINUOUS
 62
     7
 10
2666.4039720000001
 20
-172.408962
 30
0.0
  0
VERTEX
  5
8AA
  8
LAYER01
  6
CONTINUOUS
 62
     7
 10
2666.4039720000001
 20
-172.408962
 30
0.0
  0
VERTEX
  5
8AB
  8
LAYER01
  6
CONTINUOUS
 62
     7
 10
2657.7326420000009
 20
-166.628075
 30
0.0
  0
VERTEX
  5
8AC
  8
LAYER01
  6
CONTINUOUS
 62
     7
 10
2649.0613120000012
 20
-161.81066999999999
 30
0.0
  0
VERTEX
  5
8AD
  8
LAYER01
  6
CONTINUOUS
 62
     7
 10
2639.4265019999998
 20
-158.92022700000001
 30
0.0
  0
VERTEX
  5
8AE
  8
LAYER01
  6
CONTINUOUS
 62
     7
 10
2628.8282100000001
 20
-158.92022700000001
 30
0.0
  0
VERTEX
  5
8AF
  8
LAYER01
  6
CONTINUOUS
 62
     7
 10
2628.8282100000001
 20
-158.92022700000001
 30
0.0
  0
VERTEX
  5
8B0
  8
LAYER01
  6
CONTINUOUS
 62
     7
 10
2622.083842
 20
-158.92022700000001
 30
0.0
  0
VERTEX
  5
8B1
  8
LAYER01
  6
CONTINUOUS
 62
     7
 10
2615.3394739999999
 20
-159.88370800000001
 30
0.0
  0
VERTEX
  5
8B2
  8
LAYER01
  6
CONTINUOUS
 62
     7
 10
2608.5951070000001
 20
-161.81066999999999
 30
0.0
  0
VERTEX
  5
8B3
  8
LAYER01
  6
CONTINUOUS
 62
     7
 10
2601.850739
 20
-164.70111299999999
 30
0.0
  0
VERTEX
  5
8B4
  8
LAYER01
  6
CONTINUOUS
 62
     7
 10
2596.069853
 20
-167.59155699999999
 30
0.0
  0
VERTEX
  5
8B5
  8
LAYER01
  6
CONTINUOUS
 62
     7
 10
2591.2524469999998
 20
-171.445481
 30
0.0
  0
VERTEX
  5
8B6
  8
LAYER01
  6
CONTINUOUS
 62
     7
 10
2585.4715609999998
 20
-175.29940500000001
 30
0.0
  0
VERTEX
  5
8B7
  8
LAYER01
  6
CONTINUOUS
 62
     7
 10
2581.6176359999999
 20
-180.11681100000001
 30
0.0
  0
VERTEX
  5
8B8
  8
LAYER01
  6
CONTINUOUS
 62
     7
 10
2576.8002310000002
 20
-185.89769699999999
 30
0.0
  0
VERTEX
  5
8B9
  8
LAYER01
  6
CONTINUOUS
 62
     7
 10
2573.9097879999999
 20
-191.678584
 30
0.0
  0
VERTEX
  5
8BA
  8
LAYER01
  6
CONTINUOUS
 62
     7
 10
2570.055863
 20
-197.45947000000001
 30
0.0
  0
VERTEX
  5
8BB
  8
LAYER01
  6
CONTINUOUS
 62
     7
 10
2567.1654199999998
 20
-203.24035699999999
 30
0.0
  0
VERTEX
  5
8BC
  8
LAYER01
  6
CONTINUOUS
 62
     7
 10
2565.2384579999998
 20
-209.984724
 30
0.0
  0
VERTEX
  5
8BD
  8
LAYER01
  6
CONTINUOUS
 62
     7
 10
2564.274977
 20
-216.72909200000001
 30
0.0
  0
VERTEX
  5
8BE
  8
LAYER01
  6
CONTINUOUS
 62
     7
 10
2563.3114960000012
 20
-223.47345999999999
 30
0.0
  0
VERTEX
  5
8BF
  8
LAYER01
  6
CONTINUOUS
 62
     7
 10
2562.348015
 20
-231.181308
 30
0.0
  0
VERTEX
  5
8C0
  8
LAYER01
  6
CONTINUOUS
 62
     7
 10
2562.348015
 20
-231.181308
 30
0.0
  0
VERTEX
  5
8C1
  8
LAYER01
  6
CONTINUOUS
 62
     7
 10
2563.3114960000012
 20
-237.92567600000001
 30
0.0
  0
VERTEX
  5
8C2
  8
LAYER01
  6
CONTINUOUS
 62
     7
 10
2564.274977
 20
-244.67004399999999
 30
0.0
  0
VERTEX
  5
8C3
  8
LAYER01
  6
CONTINUOUS
 62
     7
 10
2565.2384579999998
 20
-251.414411
 30
0.0
  0
VERTEX
  5
8C4
  8
LAYER01
  6
CONTINUOUS
 62
     7
 10
2568.128901
 20
-257.19529799999998
 30
0.0
  0
VERTEX
  5
8C5
  8
LAYER01
  6
CONTINUOUS
 62
     7
 10
2570.055863
 20
-262.97618399999999
 30
0.0
  0
VERTEX
  5
8C6
  8
LAYER01
  6
CONTINUOUS
 62
     7
 10
2573.9097879999999
 20
-268.757071
 30
0.0
  0
VERTEX
  5
8C7
  8
LAYER01
  6
CONTINUOUS
 62
     7
 10
2577.7637119999999
 20
-274.53795700000001
 30
0.0
  0
VERTEX
  5
8C8
  8
LAYER01
  6
CONTINUOUS
 62
     7
 10
2581.6176359999999
 20
-279.35536300000001
 30
0.0
  0
VERTEX
  5
8C9
  8
LAYER01
  6
CONTINUOUS
 62
     7
 10
2586.4350420000001
 20
-284.17276800000002
 30
0.0
  0
VERTEX
  5
8CA
  8
LAYER01
  6
CONTINUOUS
 62
     7
 10
2591.2524469999998
 20
-288.02669300000002
 30
0.0
  0
VERTEX
  5
8CB
  8
LAYER01
  6
CONTINUOUS
 62
     7
 10
2597.0333340000011
 20
-290.91713600000003
 30
0.0
  0
VERTEX
  5
8CC
  8
LAYER01
  6
CONTINUOUS
 62
     7
 10
2602.8142200000002
 20
-293.80757899999998
 30
0.0
  0
VERTEX
  5
8CD
  8
LAYER01
  6
CONTINUOUS
 62
     7
 10
2609.5585879999999
 20
-296.69802199999998
 30
0.0
  0
VERTEX
  5
8CE
  8
LAYER01
  6
CONTINUOUS
 62
     7
 10
2615.3394739999999
 20
-298.62498399999998
 30
0.0
  0
VERTEX
  5
8CF
  8
LAYER01
  6
CONTINUOUS
 62
     7
 10
2622.083842
 20
-299.5884660000001
 30
0.0
  0
VERTEX
  5
8D0
  8
LAYER01
  6
CONTINUOUS
 62
     7
 10
2629.7916909999999
 20
-299.5884660000001
 30
0.0
  0
VERTEX
  5
8D1
  8
LAYER01
  6
CONTINUOUS
 62
     7
 10
2629.7916909999999
 20
-299.5884660000001
 30
0.0
  0
VERTEX
  5
8D2
  8
LAYER01
  6
CONTINUOUS
 62
     7
 10
2640.389983
 20
-298.62498399999998
 30
0.0
  0
VERTEX
  5
8D3
  8
LAYER01
  6
CONTINUOUS
 62
     7
 10
2649.0613120000012
 20
-296.69802199999998
 30
0.0
  0
VERTEX
  5
8D4
  8
LAYER01
  6
CONTINUOUS
 62
     7
 10
2657.7326420000009
 20
-291.88061699999997
 30
0.0
  0
VERTEX
  5
8D5
  8
LAYER01
  6
CONTINUOUS
 62
     7
 10
2666.4039720000001
 20
-286.09973000000002
 30
0.0
  0
VERTEX
  5
8D6
  8
LAYER01
  6
CONTINUOUS
 62
     7
 10
2691.4544799999999
 20
-319.82156800000001
 30
0.0
  0
VERTEX
  5
8D7
  8
LAYER01
  6
CONTINUOUS
 62
     7
 10
2691.4544799999999
 20
-319.82156800000001
 30
0.0
  0
VERTEX
  5
8D8
  8
LAYER01
  6
CONTINUOUS
 62
     7
 10
2677.0022640000002
 20
-328.49289800000003
 30
0.0
  0
VERTEX
  5
8D9
  8
LAYER01
  6
CONTINUOUS
 62
     7
 10
2669.2944149999998
 20
-331.38334099999997
 30
0.0
  0
VERTEX
  5
8DA
  8
LAYER01
  6
CONTINUOUS
 62
     7
 10
2662.5500480000001
 20
-334.27378499999998
 30
0.0
  0
VERTEX
  5
8DB
  8
LAYER01
  6
CONTINUOUS
 62
     7
 10
2654.8421990000002
 20
-336.20074699999998
 30
0.0
  0
VERTEX
  5
8DC
  8
LAYER01
  6
CONTINUOUS
 62
     7
 10
2647.1343499999998
 20
-337.16422799999998
 30
0.0
  0
VERTEX
  5
8DD
  8
LAYER01
  6
CONTINUOUS
 62
     7
 10
2629.7916909999999
 20
-338.12770899999998
 30
0.0
  0
VERTEX
  5
8DE
  8
LAYER01
  6
CONTINUOUS
 62
     7
 10
2629.7916909999999
 20
-338.12770899999998
 30
0.0
  0
VERTEX
  5
8DF
  8
LAYER01
  6
CONTINUOUS
 62
     7
 10
2618.229918
 20
-337.16422799999998
 30
0.0
  0
VERTEX
  5
8E0
  8
LAYER01
  6
CONTINUOUS
 62
     7
 10
2607.6316259999999
 20
-335.23726599999998
 30
0.0
  0
VERTEX
  5
8E1
  8
LAYER01
  6
CONTINUOUS
 62
     7
 10
2597.0333340000011
 20
-333.31030400000009
 30
0.0
  0
VERTEX
  5
8E2
  8
LAYER01
  6
CONTINUOUS
 62
     7
 10
2587.3985229999998
 20
-329.45637900000003
 30
0.0
  0
VERTEX
  5
8E3
  8
LAYER01
  6
CONTINUOUS
 62
     7
 10
2577.7637119999999
 20
-324.63897400000002
 30
0.0
  0
VERTEX
  5
8E4
  8
LAYER01
  6
CONTINUOUS
 62
     7
 10
2569.0923819999998
 20
-319.82156800000001
 30
0.0
  0
VERTEX
  5
8E5
  8
LAYER01
  6
CONTINUOUS
 62
     7
 10
2560.4210520000011
 20
-313.077201
 30
0.0
  0
VERTEX
  5
8E6
  8
LAYER01
  6
CONTINUOUS
 62
     7
 10
2552.7132040000001
 20
-306.33283299999999
 30
0.0
  0
VERTEX
  5
8E7
  8
LAYER01
  6
CONTINUOUS
 62
     7
 10
2545.0053550000011
 20
-298.62498399999998
 30
0.0
  0
VERTEX
  5
8E8
  8
LAYER01
  6
CONTINUOUS
 62
     7
 10
2539.2244679999999
 20
-289.95365500000003
 30
0.0
  0
VERTEX
  5
8E9
  8
LAYER01
  6
CONTINUOUS
 62
     7
 10
2533.4435819999999
 20
-281.28232500000001
 30
0.0
  0
VERTEX
  5
8EA
  8
LAYER01
  6
CONTINUOUS
 62
     7
 10
2528.6261760000002
 20
-271.647514
 30
0.0
  0
VERTEX
  5
8EB
  8
LAYER01
  6
CONTINUOUS
 62
     7
 10
2525.735733
 20
-262.01270299999999
 30
0.0
  0
VERTEX
  5
8EC
  8
LAYER01
  6
CONTINUOUS
 62
     7
 10
2522.8452900000002
 20
-251.414411
 30
0.0
  0
VERTEX
  5
8ED
  8
LAYER01
  6
CONTINUOUS
 62
     7
 10
2520.9183280000002
 20
-240.81611899999999
 30
0.0
  0
VERTEX
  5
8EE
  8
LAYER01
  6
CONTINUOUS
 62
     7
 10
2519.954847
 20
-229.254346
 30
0.0
  0
VERTEX
  5
8EF
  8
LAYER01
  6
CONTINUOUS
 62
     7
 10
2519.954847
 20
-229.254346
 30
0.0
  0
VERTEX
  5
8F0
  8
LAYER01
  6
CONTINUOUS
 62
     7
 10
2520.9183280000002
 20
-218.65605400000001
 30
0.0
  0
VERTEX
  5
8F1
  8
LAYER01
  6
CONTINUOUS
 62
     7
 10
2522.8452900000002
 20
-207.094281
 30
0.0
  0
VERTEX
  5
8F2
  8
LAYER01
  6
CONTINUOUS
 62
     7
 10
2524.7722520000002
 20
-197.45947000000001
 30
0.0
  0
VERTEX
  5
8F3
  8
LAYER01
  6
CONTINUOUS
 62
     7
 10
2528.6261760000002
 20
-186.861178
 30
0.0
  0
VERTEX
  5
8F4
  8
LAYER01
  6
CONTINUOUS
 62
     7
 10
2533.4435819999999
 20
-177.22636700000001
 30
0.0
  0
VERTEX
  5
8F5
  8
LAYER01
  6
CONTINUOUS
 62
     7
 10
2538.260987000001
 20
-168.555038
 30
0.0
  0
VERTEX
  5
8F6
  8
LAYER01
  6
CONTINUOUS
 62
     7
 10
2545.0053550000011
 20
-159.88370800000001
 30
0.0
  0
VERTEX
  5
8F7
  8
LAYER01
  6
CONTINUOUS
 62
     7
 10
2551.7497229999999
 20
-152.175859
 30
0.0
  0
VERTEX
  5
8F8
  8
LAYER01
  6
CONTINUOUS
 62
     7
 10
2559.4575709999999
 20
-145.43149099999999
 30
0.0
  0
VERTEX
  5
8F9
  8
LAYER01
  6
CONTINUOUS
 62
     7
 10
2568.128901
 20
-138.68712400000001
 30
0.0
  0
VERTEX
  5
8FA
  8
LAYER01
  6
CONTINUOUS
 62
     7
 10
2576.8002310000002
 20
-133.86971800000001
 30
0.0
  0
VERTEX
  5
8FB
  8
LAYER01
  6
CONTINUOUS
 62
     7
 10
2586.4350420000001
 20
-129.052313
 30
0.0
  0
VERTEX
  5
8FC
  8
LAYER01
  6
CONTINUOUS
 62
     7
 10
2596.069853
 20
-125.19838900000001
 30
0.0
  0
VERTEX
  5
8FD
  8
LAYER01
  6
CONTINUOUS
 62
     7
 10
2606.6681450000001
 20
-122.307945
 30
0.0
  0
VERTEX
  5
8FE
  8
LAYER01
  6
CONTINUOUS
 62
     7
 10
2618.229918
 20
-121.344464
 30
0.0
  0
VERTEX
  5
8FF
  8
LAYER01
  6
CONTINUOUS
 62
     7
 10
2628.8282100000001
 20
-120.380983
 30
0.0
  0
VERTEX
  5
900
  8
LAYER01
  6
CONTINUOUS
 62
     7
 10
2628.8282100000001
 20
-120.380983
 30
0.0
  0
VERTEX
  5
901
  8
LAYER01
  6
CONTINUOUS
 62
     7
 10
2646.170869
 20
-121.344464
 30
0.0
  0
VERTEX
  5
902
  8
LAYER01
  6
CONTINUOUS
 62
     7
 10
2654.8421990000002
 20
-122.307945
 30
0.0
  0
VERTEX
  5
903
  8
LAYER01
  6
CONTINUOUS
 62
     7
 10
2662.5500480000001
 20
-124.234908
 30
0.0
  0
VERTEX
  5
904
  8
LAYER01
  6
CONTINUOUS
 62
     7
 10
2669.2944149999998
 20
-127.12535099999999
 30
0.0
  0
VERTEX
  5
905
  8
LAYER01
  6
CONTINUOUS
 62
     7
 10
2677.0022640000002
 20
-130.015794
 30
0.0
  0
VERTEX
  5
906
  8
LAYER01
  6
CONTINUOUS
 62
     7
 10
2684.7101130000001
 20
-134.83320000000001
 30
0.0
  0
VERTEX
  5
907
  8
LAYER01
  6
CONTINUOUS
 62
     7
 10
2692.4179610000001
 20
-139.65060500000001
 30
0.0
  0
VERTEX
  5
908
  8
LAYER01
  6
CONTINUOUS
 62
     7
 10
2692.4179610000001
 20
-139.65060500000001
 30
0.0
  0
SEQEND
  5
909
  8
LAYER01
  6
CONTINUOUS
 62
     7
  0
POLYLINE
  5
2D3
  8
LAYER01
  6
CONTINUOUS
 62
     7
 66
     1
 10
0.0
 20
0.0
 30
0.0
 70
     1
  0
VERTEX
  5
90A
  8
LAYER01
  6
CONTINUOUS
 62
     7
 10
2785.8756269999999
 20
-121.344464
 30
0.0
  0
VERTEX
  5
90B
  8
LAYER01
  6
CONTINUOUS
 62
     7
 10
2785.8756269999999
 20
-121.344464
 30
0.0
  0
VERTEX
  5
90C
  8
LAYER01
  6
CONTINUOUS
 62
     7
 10
2775.2773350000002
 20
-122.307945
 30
0.0
  0
VERTEX
  5
90D
  8
LAYER01
  6
CONTINUOUS
 62
     7
 10
2763.7155620000008
 20
-123.27142600000001
 30
0.0
  0
VERTEX
  5
90E
  8
LAYER01
  6
CONTINUOUS
 62
     7
 10
2754.080751
 20
-126.16186999999999
 30
0.0
  0
VERTEX
  5
90F
  8
LAYER01
  6
CONTINUOUS
 62
     7
 10
2743.4824589999998
 20
-130.015794
 30
0.0
  0
VERTEX
  5
910
  8
LAYER01
  6
CONTINUOUS
 62
     7
 10
2733.8476479999999
 20
-133.86971800000001
 30
0.0
  0
VERTEX
  5
911
  8
LAYER01
  6
CONTINUOUS
 62
     7
 10
2725.1763179999998
 20
-139.65060500000001
 30
0.0
  0
VERTEX
  5
912
  8
LAYER01
  6
CONTINUOUS
 62
     7
 10
2716.5049890000009
 20
-145.43149099999999
 30
0.0
  0
VERTEX
  5
913
  8
LAYER01
  6
CONTINUOUS
 62
     7
 10
2708.7971400000001
 20
-153.13934
 30
0.0
  0
VERTEX
  5
914
  8
LAYER01
  6
CONTINUOUS
 62
     7
 10
2702.052772
 20
-160.84718899999999
 30
0.0
  0
VERTEX
  5
915
  8
LAYER01
  6
CONTINUOUS
 62
     7
 10
2695.3084050000002
 20
-168.555038
 30
0.0
  0
VERTEX
  5
916
  8
LAYER01
  6
CONTINUOUS
 62
     7
 10
2689.5275179999999
 20
-177.22636700000001
 30
0.0
  0
VERTEX
  5
917
  8
LAYER01
  6
CONTINUOUS
 62
     7
 10
2684.7101130000001
 20
-186.861178
 30
0.0
  0
VERTEX
  5
918
  8
LAYER01
  6
CONTINUOUS
 62
     7
 10
2681.819669
 20
-197.45947000000001
 30
0.0
  0
VERTEX
  5
919
  8
LAYER01
  6
CONTINUOUS
 62
     7
 10
2678.9292260000011
 20
-207.094281
 30
0.0
  0
VERTEX
  5
91A
  8
LAYER01
  6
CONTINUOUS
 62
     7
 10
2677.0022640000002
 20
-218.65605400000001
 30
0.0
  0
VERTEX
  5
91B
  8
LAYER01
  6
CONTINUOUS
 62
     7
 10
2676.038783
 20
-229.254346
 30
0.0
  0
VERTEX
  5
91C
  8
LAYER01
  6
CONTINUOUS
 62
     7
 10
2676.038783
 20
-229.254346
 30
0.0
  0
VERTEX
  5
91D
  8
LAYER01
  6
CONTINUOUS
 62
     7
 10
2677.0022640000002
 20
-240.81611899999999
 30
0.0
  0
VERTEX
  5
91E
  8
LAYER01
  6
CONTINUOUS
 62
     7
 10
2677.965745
 20
-251.414411
 30
0.0
  0
VERTEX
  5
91F
  8
LAYER01
  6
CONTINUOUS
 62
     7
 10
2680.8561880000002
 20
-262.01270299999999
 30
0.0
  0
VERTEX
  5
920
  8
LAYER01
  6
CONTINUOUS
 62
     7
 10
2684.7101130000001
 20
-271.647514
 30
0.0
  0
VERTEX
  5
921
  8
LAYER01
  6
CONTINUOUS
 62
     7
 10
2688.5640370000001
 20
-281.28232500000001
 30
0.0
  0
VERTEX
  5
922
  8
LAYER01
  6
CONTINUOUS
 62
     7
 10
2694.344924
 20
-289.95365500000003
 30
0.0
  0
VERTEX
  5
923
  8
LAYER01
  6
CONTINUOUS
 62
     7
 10
2700.12581
 20
-298.62498399999998
 30
0.0
  0
VERTEX
  5
924
  8
LAYER01
  6
CONTINUOUS
 62
     7
 10
2706.8701780000001
 20
-306.33283299999999
 30
0.0
  0
VERTEX
  5
925
  8
LAYER01
  6
CONTINUOUS
 62
     7
 10
2714.5780260000001
 20
-314.040682
 30
0.0
  0
VERTEX
  5
926
  8
LAYER01
  6
CONTINUOUS
 62
     7
 10
2723.2493559999998
 20
-319.82156800000001
 30
0.0
  0
VERTEX
  5
927
  8
LAYER01
  6
CONTINUOUS
 62
     7
 10
2731.9206859999999
 20
-325.60245500000002
 30
0.0
  0
VERTEX
  5
928
  8
LAYER01
  6
CONTINUOUS
 62
     7
 10
2741.5554969999998
 20
-330.41986000000003
 30
0.0
  0
VERTEX
  5
929
  8
LAYER01
  6
CONTINUOUS
 62
     7
 10
2751.1903080000002
 20
-334.27378499999998
 30
0.0
  0
VERTEX
  5
92A
  8
LAYER01
  6
CONTINUOUS
 62
     7
 10
2761.7885999999999
 20
-336.20074699999998
 30
0.0
  0
VERTEX
  5
92B
  8
LAYER01
  6
CONTINUOUS
 62
     7
 10
2772.386892
 20
-338.12770899999998
 30
0.0
  0
VERTEX
  5
92C
  8
LAYER01
  6
CONTINUOUS
 62
     7
 10
2782.985184000001
 20
-339.09118999999998
 30
0.0
  0
VERTEX
  5
92D
  8
LAYER01
  6
CONTINUOUS
 62
     7
 10
2782.985184000001
 20
-339.09118999999998
 30
0.0
  0
VERTEX
  5
92E
  8
LAYER01
  6
CONTINUOUS
 62
     7
 10
2794.546957
 20
-338.12770899999998
 30
0.0
  0
VERTEX
  5
92F
  8
LAYER01
  6
CONTINUOUS
 62
     7
 10
2805.1452490000001
 20
-336.20074699999998
 30
0.0
  0
VERTEX
  5
930
  8
LAYER01
  6
CONTINUOUS
 62
     7
 10
2815.7435409999998
 20
-333.31030400000009
 30
0.0
  0
VERTEX
  5
931
  8
LAYER01
  6
CONTINUOUS
 62
     7
 10
2825.3783520000002
 20
-329.45637900000003
 30
0.0
  0
VERTEX
  5
932
  8
LAYER01
  6
CONTINUOUS
 62
     7
 10
2835.0131620000002
 20
-324.63897400000002
 30
0.0
  0
VERTEX
  5
933
  8
LAYER01
  6
CONTINUOUS
 62
     7
 10
2843.6844919999999
 20
-318.85808700000001
 30
0.0
  0
VERTEX
  5
934
  8
LAYER01
  6
CONTINUOUS
 62
     7
 10
2852.355822
 20
-313.077201
 30
0.0
  0
VERTEX
  5
935
  8
LAYER01
  6
CONTINUOUS
 62
     7
 10
2860.0636709999999
 20
-305.36935199999999
 30
0.0
  0
VERTEX
  5
936
  8
LAYER01
  6
CONTINUOUS
 62
     7
 10
2866.8080380000001
 20
-297.66150299999998
 30
0.0
  0
VERTEX
  5
937
  8
LAYER01
  6
CONTINUOUS
 62
     7
 10
2872.588925
 20
-288.99017400000002
 30
0.0
  0
VERTEX
  5
938
  8
LAYER01
  6
CONTINUOUS
 62
     7
 10
2877.4063299999998
 20
-280.31884400000001
 30
0.0
  0
VERTEX
  5
939
  8
LAYER01
  6
CONTINUOUS
 62
     7
 10
2882.2237359999999
 20
-270.684033
 30
0.0
  0
VERTEX
  5
93A
  8
LAYER01
  6
CONTINUOUS
 62
     7
 10
2886.0776599999999
 20
-260.0857410000001
 30
0.0
  0
VERTEX
  5
93B
  8
LAYER01
  6
CONTINUOUS
 62
     7
 10
2888.0046219999999
 20
-249.487449
 30
0.0
  0
VERTEX
  5
93C
  8
LAYER01
  6
CONTINUOUS
 62
     7
 10
2888.9681030000002
 20
-238.88915700000001
 30
0.0
  0
VERTEX
  5
93D
  8
LAYER01
  6
CONTINUOUS
 62
     7
 10
2889.9315850000012
 20
-227.327384
 30
0.0
  0
VERTEX
  5
93E
  8
LAYER01
  6
CONTINUOUS
 62
     7
 10
2889.9315850000012
 20
-227.327384
 30
0.0
  0
VERTEX
  5
93F
  8
LAYER01
  6
CONTINUOUS
 62
     7
 10
2888.9681030000002
 20
-216.72909200000001
 30
0.0
  0
VERTEX
  5
940
  8
LAYER01
  6
CONTINUOUS
 62
     7
 10
2887.0411410000002
 20
-206.13079999999999
 30
0.0
  0
VERTEX
  5
941
  8
LAYER01
  6
CONTINUOUS
 62
     7
 10
2884.1506979999999
 20
-196.49598900000001
 30
0.0
  0
VERTEX
  5
942
  8
LAYER01
  6
CONTINUOUS
 62
     7
 10
2881.2602550000001
 20
-186.861178
 30
0.0
  0
VERTEX
  5
943
  8
LAYER01
  6
CONTINUOUS
 62
     7
 10
2876.442849
 20
-178.18984800000001
 30
0.0
  0
VERTEX
  5
944
  8
LAYER01
  6
CONTINUOUS
 62
     7
 10
2871.6254440000012
 20
-169.518519
 30
0.0
  0
VERTEX
  5
945
  8
LAYER01
  6
CONTINUOUS
 62
     7
 10
2865.8445569999999
 20
-160.84718899999999
 30
0.0
  0
VERTEX
  5
946
  8
LAYER01
  6
CONTINUOUS
 62
     7
 10
2859.1001900000001
 20
-154.10282100000001
 30
0.0
  0
VERTEX
  5
947
  8
LAYER01
  6
CONTINUOUS
 62
     7
 10
2851.3923410000002
 20
-147.35845399999999
 30
0.0
  0
VERTEX
  5
948
  8
LAYER01
  6
CONTINUOUS
 62
     7
 10
2843.6844919999999
 20
-140.61408599999999
 30
0.0
  0
VERTEX
  5
949
  8
LAYER01
  6
CONTINUOUS
 62
     7
 10
2835.0131620000002
 20
-135.79668100000001
 30
0.0
  0
VERTEX
  5
94A
  8
LAYER01
  6
CONTINUOUS
 62
     7
 10
2826.341833
 20
-130.979275
 30
0.0
  0
VERTEX
  5
94B
  8
LAYER01
  6
CONTINUOUS
 62
     7
 10
2816.7070220000001
 20
-127.12535099999999
 30
0.0
  0
VERTEX
  5
94C
  8
LAYER01
  6
CONTINUOUS
 62
     7
 10
2807.0722110000002
 20
-124.234908
 30
0.0
  0
VERTEX
  5
94D
  8
LAYER01
  6
CONTINUOUS
 62
     7
 10
2796.473919
 20
-122.307945
 30
0.0
  0
VERTEX
  5
94E
  8
LAYER01
  6
CONTINUOUS
 62
     7
 10
2785.8756269999999
 20
-121.344464
 30
0.0
  0
VERTEX
  5
94F
  8
LAYER01
  6
CONTINUOUS
 62
     7
 10
2785.8756269999999
 20
-121.344464
 30
0.0
  0
SEQEND
  5
950
  8
LAYER01
  6
CONTINUOUS
 62
     7
  0
POLYLINE
  5
31B
  8
LAYER01
  6
CONTINUOUS
 62
     7
 66
     1
 10
0.0
 20
0.0
 30
0.0
 70
     1
  0
VERTEX
  5
951
  8
LAYER01
  6
CONTINUOUS
 62
     7
 10
2782.985184000001
 20
-299.5884660000001
 30
0.0
  0
VERTEX
  5
952
  8
LAYER01
  6
CONTINUOUS
 62
     7
 10
2782.985184000001
 20
-299.5884660000001
 30
0.0
  0
VERTEX
  5
953
  8
LAYER01
  6
CONTINUOUS
 62
     7
 10
2776.240816
 20
-298.62498399999998
 30
0.0
  0
VERTEX
  5
954
  8
LAYER01
  6
CONTINUOUS
 62
     7
 10
2769.4964479999999
 20
-297.66150299999998
 30
0.0
  0
VERTEX
  5
955
  8
LAYER01
  6
CONTINUOUS
 62
     7
 10
2762.7520810000001
 20
-296.69802199999998
 30
0.0
  0
VERTEX
  5
956
  8
LAYER01
  6
CONTINUOUS
 62
     7
 10
2756.007713
 20
-293.80757899999998
 30
0.0
  0
VERTEX
  5
957
  8
LAYER01
  6
CONTINUOUS
 62
     7
 10
2750.226827
 20
-290.91713600000003
 30
0.0
  0
VERTEX
  5
958
  8
LAYER01
  6
CONTINUOUS
 62
     7
 10
2744.4459400000001
 20
-287.06321100000002
 30
0.0
  0
VERTEX
  5
959
  8
LAYER01
  6
CONTINUOUS
 62
     7
 10
2739.6285349999998
 20
-283.20928700000002
 30
0.0
  0
VERTEX
  5
95A
  8
LAYER01
  6
CONTINUOUS
 62
     7
 10
2734.8111290000002
 20
-278.39188200000001
 30
0.0
  0
VERTEX
  5
95B
  8
LAYER01
  6
CONTINUOUS
 62
     7
 10
2729.9937239999999
 20
-273.574476
 30
0.0
  0
VERTEX
  5
95C
  8
LAYER01
  6
CONTINUOUS
 62
     7
 10
2726.1397999999999
 20
-268.757071
 30
0.0
  0
VERTEX
  5
95D
  8
LAYER01
  6
CONTINUOUS
 62
     7
 10
2723.2493559999998
 20
-262.97618399999999
 30
0.0
  0
VERTEX
  5
95E
  8
LAYER01
  6
CONTINUOUS
 62
     7
 10
2720.358913
 20
-256.23181699999998
 30
0.0
  0
VERTEX
  5
95F
  8
LAYER01
  6
CONTINUOUS
 62
     7
 10
2717.4684699999998
 20
-250.45093
 30
0.0
  0
VERTEX
  5
960
  8
LAYER01
  6
CONTINUOUS
 62
     7
 10
2716.5049890000009
 20
-243.70656199999999
 30
0.0
  0
VERTEX
  5
961
  8
LAYER01
  6
CONTINUOUS
 62
     7
 10
2714.5780260000001
 20
-236.96219500000001
 30
0.0
  0
VERTEX
  5
962
  8
LAYER01
  6
CONTINUOUS
 62
     7
 10
2714.5780260000001
 20
-229.254346
 30
0.0
  0
VERTEX
  5
963
  8
LAYER01
  6
CONTINUOUS
 62
     7
 10
2714.5780260000001
 20
-229.254346
 30
0.0
  0
VERTEX
  5
964
  8
LAYER01
  6
CONTINUOUS
 62
     7
 10
2715.5415079999998
 20
-222.50997899999999
 30
0.0
  0
VERTEX
  5
965
  8
LAYER01
  6
CONTINUOUS
 62
     7
 10
2716.5049890000009
 20
-215.76561100000001
 30
0.0
  0
VERTEX
  5
966
  8
LAYER01
  6
CONTINUOUS
 62
     7
 10
2718.431951
 20
-209.021243
 30
0.0
  0
VERTEX
  5
967
  8
LAYER01
  6
CONTINUOUS
 62
     7
 10
2720.358913
 20
-202.27687599999999
 30
0.0
  0
VERTEX
  5
968
  8
LAYER01
  6
CONTINUOUS
 62
     7
 10
2723.2493559999998
 20
-196.49598900000001
 30
0.0
  0
VERTEX
  5
969
  8
LAYER01
  6
CONTINUOUS
 62
     7
 10
2727.1032810000002
 20
-190.715103
 30
0.0
  0
VERTEX
  5
96A
  8
LAYER01
  6
CONTINUOUS
 62
     7
 10
2730.9572050000011
 20
-185.89769699999999
 30
0.0
  0
VERTEX
  5
96B
  8
LAYER01
  6
CONTINUOUS
 62
     7
 10
2735.7746099999999
 20
-181.08029199999999
 30
0.0
  0
VERTEX
  5
96C
  8
LAYER01
  6
CONTINUOUS
 62
     7
 10
2740.5920160000001
 20
-176.26288600000001
 30
0.0
  0
VERTEX
  5
96D
  8
LAYER01
  6
CONTINUOUS
 62
     7
 10
2745.4094210000012
 20
-172.408962
 30
0.0
  0
VERTEX
  5
96E
  8
LAYER01
  6
CONTINUOUS
 62
     7
 10
2751.1903080000002
 20
-168.555038
 30
0.0
  0
VERTEX
  5
96F
  8
LAYER01
  6
CONTINUOUS
 62
     7
 10
2757.934675
 20
-165.66459399999999
 30
0.0
  0
VERTEX
  5
970
  8
LAYER01
  6
CONTINUOUS
 62
     7
 10
2763.7155620000008
 20
-163.73763199999999
 30
0.0
  0
VERTEX
  5
971
  8
LAYER01
  6
CONTINUOUS
 62
     7
 10
2770.45993
 20
-161.81066999999999
 30
0.0
  0
VERTEX
  5
972
  8
LAYER01
  6
CONTINUOUS
 62
     7
 10
2777.2042970000002
 20
-160.84718899999999
 30
0.0
  0
VERTEX
  5
973
  8
LAYER01
  6
CONTINUOUS
 62
     7
 10
2784.9121460000001
 20
-160.84718899999999
 30
0.0
  0
VERTEX
  5
974
  8
LAYER01
  6
CONTINUOUS
 62
     7
 10
2784.9121460000001
 20
-160.84718899999999
 30
0.0
  0
VERTEX
  5
975
  8
LAYER01
  6
CONTINUOUS
 62
     7
 10
2791.6565139999998
 20
-161.81066999999999
 30
0.0
  0
VERTEX
  5
976
  8
LAYER01
  6
CONTINUOUS
 62
     7
 10
2798.400881
 20
-162.77415099999999
 30
0.0
  0
VERTEX
  5
977
  8
LAYER01
  6
CONTINUOUS
 62
     7
 10
2804.1817679999999
 20
-164.70111299999999
 30
0.0
  0
VERTEX
  5
978
  8
LAYER01
  6
CONTINUOUS
 62
     7
 10
2810.9261350000002
 20
-166.628075
 30
0.0
  0
VERTEX
  5
979
  8
LAYER01
  6
CONTINUOUS
 62
     7
 10
2815.7435409999998
 20
-169.518519
 30
0.0
  0
VERTEX
  5
97A
  8
LAYER01
  6
CONTINUOUS
 62
     7
 10
2821.5244269999998
 20
-173.372443
 30
0.0
  0
VERTEX
  5
97B
  8
LAYER01
  6
CONTINUOUS
 62
     7
 10
2826.341833
 20
-177.22636700000001
 30
0.0
  0
VERTEX
  5
97C
  8
LAYER01
  6
CONTINUOUS
 62
     7
 10
2831.1592380000002
 20
-181.08029199999999
 30
0.0
  0
VERTEX
  5
97D
  8
LAYER01
  6
CONTINUOUS
 62
     7
 10
2835.0131620000002
 20
-185.89769699999999
 30
0.0
  0
VERTEX
  5
97E
  8
LAYER01
  6
CONTINUOUS
 62
     7
 10
2838.8670870000001
 20
-191.678584
 30
0.0
  0
VERTEX
  5
97F
  8
LAYER01
  6
CONTINUOUS
 62
     7
 10
2842.7210110000001
 20
-196.49598900000001
 30
0.0
  0
VERTEX
  5
980
  8
LAYER01
  6
CONTINUOUS
 62
     7
 10
2845.6114539999999
 20
-202.27687599999999
 30
0.0
  0
VERTEX
  5
981
  8
LAYER01
  6
CONTINUOUS
 62
     7
 10
2847.5384170000002
 20
-209.021243
 30
0.0
  0
VERTEX
  5
982
  8
LAYER01
  6
CONTINUOUS
 62
     7
 10
2849.4653790000002
 20
-214.80213000000001
 30
0.0
  0
VERTEX
  5
983
  8
LAYER01
  6
CONTINUOUS
 62
     7
 10
2850.42886
 20
-221.54649699999999
 30
0.0
  0
VERTEX
  5
984
  8
LAYER01
  6
CONTINUOUS
 62
     7
 10
2850.42886
 20
-228.290865
 30
0.0
  0
VERTEX
  5
985
  8
LAYER01
  6
CONTINUOUS
 62
     7
 10
2850.42886
 20
-228.290865
 30
0.0
  0
VERTEX
  5
986
  8
LAYER01
  6
CONTINUOUS
 62
     7
 10
2850.42886
 20
-235.99871400000001
 30
0.0
  0
VERTEX
  5
987
  8
LAYER01
  6
CONTINUOUS
 62
     7
 10
2849.4653790000002
 20
-242.74308099999999
 30
0.0
  0
VERTEX
  5
988
  8
LAYER01
  6
CONTINUOUS
 62
     7
 10
2848.501898
 20
-249.487449
 30
0.0
  0
VERTEX
  5
989
  8
LAYER01
  6
CONTINUOUS
 62
     7
 10
2845.6114539999999
 20
-255.26833600000001
 30
0.0
  0
VERTEX
  5
98A
  8
LAYER01
  6
CONTINUOUS
 62
     7
 10
2843.6844919999999
 20
-262.01270299999999
 30
0.0
  0
VERTEX
  5
98B
  8
LAYER01
  6
CONTINUOUS
 62
     7
 10
2839.8305679999999
 20
-267.79358999999999
 30
0.0
  0
VERTEX
  5
98C
  8
LAYER01
  6
CONTINUOUS
 62
     7
 10
2835.9766439999999
 20
-273.574476
 30
0.0
  0
VERTEX
  5
98D
  8
LAYER01
  6
CONTINUOUS
 62
     7
 10
2831.1592380000002
 20
-278.39188200000001
 30
0.0
  0
VERTEX
  5
98E
  8
LAYER01
  6
CONTINUOUS
 62
     7
 10
2826.341833
 20
-283.20928700000002
 30
0.0
  0
VERTEX
  5
98F
  8
LAYER01
  6
CONTINUOUS
 62
     7
 10
2821.5244269999998
 20
-287.06321100000002
 30
0.0
  0
VERTEX
  5
990
  8
LAYER01
  6
CONTINUOUS
 62
     7
 10
2815.7435409999998
 20
-290.91713600000003
 30
0.0
  0
VERTEX
  5
991
  8
LAYER01
  6
CONTINUOUS
 62
     7
 10
2809.9626539999999
 20
-293.80757899999998
 30
0.0
  0
VERTEX
  5
992
  8
LAYER01
  6
CONTINUOUS
 62
     7
 10
2803.2182870000001
 20
-295.73454099999998
 30
0.0
  0
VERTEX
  5
993
  8
LAYER01
  6
CONTINUOUS
 62
     7
 10
2796.473919
 20
-297.66150299999998
 30
0.0
  0
VERTEX
  5
994
  8
LAYER01
  6
CONTINUOUS
 62
     7
 10
2789.7295510000008
 20
-298.62498399999998
 30
0.0
  0
VERTEX
  5
995
  8
LAYER01
  6
CONTINUOUS
 62
     7
 10
2782.985184000001
 20
-299.5884660000001
 30
0.0
  0
VERTEX
  5
996
  8
LAYER01
  6
CONTINUOUS
 62
     7
 10
2782.985184000001
 20
-299.5884660000001
 30
0.0
  0
SEQEND
  5
997
  8
LAYER01
  6
CONTINUOUS
 62
     7
  0
POLYLINE
  5
363
  8
LAYER01
  6
CONTINUOUS
 62
     7
 66
     1
 10
0.0
 20
0.0
 30
0.0
 70
     1
  0
VERTEX
  5
998
  8
LAYER01
  6
CONTINUOUS
 62
     7
 10
2860.0636709999999
 20
-126.16186999999999
 30
0.0
  0
VERTEX
  5
999
  8
LAYER01
  6
CONTINUOUS
 62
     7
 10
2962.1926659999999
 20
-126.16186999999999
 30
0.0
  0
VERTEX
  5
99A
  8
LAYER01
  6
CONTINUOUS
 62
     7
 10
2962.1926659999999
 20
-126.16186999999999
 30
0.0
  0
VERTEX
  5
99B
  8
LAYER01
  6
CONTINUOUS
 62
     7
 10
2973.7544389999998
 20
-128.088832
 30
0.0
  0
VERTEX
  5
99C
  8
LAYER01
  6
CONTINUOUS
 62
     7
 10
2984.3527309999999
 20
-132.906237
 30
0.0
  0
VERTEX
  5
99D
  8
LAYER01
  6
CONTINUOUS
 62
     7
 10
2993.0240610000001
 20
-138.68712400000001
 30
0.0
  0
VERTEX
  5
99E
  8
LAYER01
  6
CONTINUOUS
 62
     7
 10
3000.73191
 20
-146.39497299999999
 30
0.0
  0
VERTEX
  5
99F
  8
LAYER01
  6
CONTINUOUS
 62
     7
 10
3007.4762770000002
 20
-154.10282100000001
 30
0.0
  0
VERTEX
  5
9A0
  8
LAYER01
  6
CONTINUOUS
 62
     7
 10
3012.2936829999999
 20
-163.73763199999999
 30
0.0
  0
VERTEX
  5
9A1
  8
LAYER01
  6
CONTINUOUS
 62
     7
 10
3015.1841260000001
 20
-175.29940500000001
 30
0.0
  0
VERTEX
  5
9A2
  8
LAYER01
  6
CONTINUOUS
 62
     7
 10
3016.1476069999999
 20
-185.89769699999999
 30
0.0
  0
VERTEX
  5
9A3
  8
LAYER01
  6
CONTINUOUS
 62
     7
 10
3016.1476069999999
 20
-185.89769699999999
 30
0.0
  0
VERTEX
  5
9A4
  8
LAYER01
  6
CONTINUOUS
 62
     7
 10
3015.1841260000001
 20
-197.45947000000001
 30
0.0
  0
VERTEX
  5
9A5
  8
LAYER01
  6
CONTINUOUS
 62
     7
 10
3013.2571640000001
 20
-207.094281
 30
0.0
  0
VERTEX
  5
9A6
  8
LAYER01
  6
CONTINUOUS
 62
     7
 10
3009.4032390000002
 20
-216.72909200000001
 30
0.0
  0
VERTEX
  5
9A7
  8
LAYER01
  6
CONTINUOUS
 62
     7
 10
3004.585834
 20
-225.40042199999999
 30
0.0
  0
VERTEX
  5
9A8
  8
LAYER01
  6
CONTINUOUS
 62
     7
 10
2997.8414659999999
 20
-233.10827
 30
0.0
  0
VERTEX
  5
9A9
  8
LAYER01
  6
CONTINUOUS
 62
     7
 10
2991.0970990000001
 20
-238.88915700000001
 30
0.0
  0
VERTEX
  5
9AA
  8
LAYER01
  6
CONTINUOUS
 62
     7
 10
2981.4622880000002
 20
-244.67004399999999
 30
0.0
  0
VERTEX
  5
9AB
  8
LAYER01
  6
CONTINUOUS
 62
     7
 10
2971.8274769999998
 20
-248.523968
 30
0.0
  0
VERTEX
  5
9AC
  8
LAYER01
  6
CONTINUOUS
 62
     7
 10
3034.4537479999999
 20
-332.34682299999997
 30
0.0
  0
VERTEX
  5
9AD
  8
LAYER01
  6
CONTINUOUS
 62
     7
 10
2986.279693
 20
-332.34682299999997
 30
0.0
  0
VERTEX
  5
9AE
  8
LAYER01
  6
CONTINUOUS
 62
     7
 10
2902.4568389999999
 20
-225.40042199999999
 30
0.0
  0
VERTEX
  5
9AF
  8
LAYER01
  6
CONTINUOUS
 62
     7
 10
2949.6674119999998
 20
-225.40042199999999
 30
0.0
  0
VERTEX
  5
9B0
  8
LAYER01
  6
CONTINUOUS
 62
     7
 10
2949.6674119999998
 20
-225.40042199999999
 30
0.0
  0
VERTEX
  5
9B1
  8
LAYER01
  6
CONTINUOUS
 62
     7
 10
2955.4482990000001
 20
-223.47345999999999
 30
0.0
  0
VERTEX
  5
9B2
  8
LAYER01
  6
CONTINUOUS
 62
     7
 10
2960.2657039999999
 20
-221.54649699999999
 30
0.0
  0
VERTEX
  5
9B3
  8
LAYER01
  6
CONTINUOUS
 62
     7
 10
2964.1196279999999
 20
-217.69257300000001
 30
0.0
  0
VERTEX
  5
9B4
  8
LAYER01
  6
CONTINUOUS
 62
     7
 10
2967.9735529999998
 20
-213.838649
 30
0.0
  0
VERTEX
  5
9B5
  8
LAYER01
  6
CONTINUOUS
 62
     7
 10
2970.863996
 20
-209.021243
 30
0.0
  0
VERTEX
  5
9B6
  8
LAYER01
  6
CONTINUOUS
 62
     7
 10
2973.7544389999998
 20
-204.20383799999999
 30
0.0
  0
VERTEX
  5
9B7
  8
LAYER01
  6
CONTINUOUS
 62
     7
 10
2974.71792
 20
-198.42295100000001
 30
0.0
  0
VERTEX
  5
9B8
  8
LAYER01
  6
CONTINUOUS
 62
     7
 10
2974.71792
 20
-192.642065
 30
0.0
  0
VERTEX
  5
9B9
  8
LAYER01
  6
CONTINUOUS
 62
     7
 10
2974.71792
 20
-192.642065
 30
0.0
  0
VERTEX
  5
9BA
  8
LAYER01
  6
CONTINUOUS
 62
     7
 10
2974.71792
 20
-186.861178
 30
0.0
  0
VERTEX
  5
9BB
  8
LAYER01
  6
CONTINUOUS
 62
     7
 10
2972.790958
 20
-182.04377299999999
 30
0.0
  0
VERTEX
  5
9BC
  8
LAYER01
  6
CONTINUOUS
 62
     7
 10
2970.863996
 20
-177.22636700000001
 30
0.0
  0
VERTEX
  5
9BD
  8
LAYER01
  6
CONTINUOUS
 62
     7
 10
2967.9735529999998
 20
-172.408962
 30
0.0
  0
VERTEX
  5
9BE
  8
LAYER01
  6
CONTINUOUS
 62
     7
 10
2964.1196279999999
 20
-168.555038
 30
0.0
  0
VERTEX
  5
9BF
  8
LAYER01
  6
CONTINUOUS
 62
     7
 10
2960.2657039999999
 20
-165.66459399999999
 30
0.0
  0
VERTEX
  5
9C0
  8
LAYER01
  6
CONTINUOUS
 62
     7
 10
2954.484817
 20
-162.77415099999999
 30
0.0
  0
VERTEX
  5
9C1
  8
LAYER01
  6
CONTINUOUS
 62
     7
 10
2949.6674119999998
 20
-160.84718899999999
 30
0.0
  0
VERTEX
  5
9C2
  8
LAYER01
  6
CONTINUOUS
 62
     7
 10
2894.74899
 20
-160.84718899999999
 30
0.0
  0
VERTEX
  5
9C3
  8
LAYER01
  6
CONTINUOUS
 62
     7
 10
2860.0636709999999
 20
-126.16186999999999
 30
0.0
  0
VERTEX
  5
9C4
  8
LAYER01
  6
CONTINUOUS
 62
     7
 10
2860.0636709999999
 20
-126.16186999999999
 30
0.0
  0
SEQEND
  5
9C5
  8
LAYER01
  6
CONTINUOUS
 62
     7
  0
POLYLINE
  5
392
  8
LAYER01
  6
CONTINUOUS
 62
     7
 66
     1
 10
0.0
 20
0.0
 30
0.0
 70
     1
  0
VERTEX
  5
9C6
  8
LAYER01
  6
CONTINUOUS
 62
     7
 10
3060.4677369999999
 20
-177.22636700000001
 30
0.0
  0
VERTEX
  5
9C7
  8
LAYER01
  6
CONTINUOUS
 62
     7
 10
3060.4677369999999
 20
-177.22636700000001
 30
0.0
  0
VERTEX
  5
9C8
  8
LAYER01
  6
CONTINUOUS
 62
     7
 10
3065.2851430000001
 20
-176.26288600000001
 30
0.0
  0
VERTEX
  5
9C9
  8
LAYER01
  6
CONTINUOUS
 62
     7
 10
3070.1025479999998
 20
-175.29940500000001
 30
0.0
  0
VERTEX
  5
9CA
  8
LAYER01
  6
CONTINUOUS
 62
     7
 10
3074.9199530000001
 20
-172.408962
 30
0.0
  0
VERTEX
  5
9CB
  8
LAYER01
  6
CONTINUOUS
 62
     7
 10
3078.773878
 20
-169.518519
 30
0.0
  0
VERTEX
  5
9CC
  8
LAYER01
  6
CONTINUOUS
 62
     7
 10
3081.6643210000002
 20
-165.66459399999999
 30
0.0
  0
VERTEX
  5
9CD
  8
LAYER01
  6
CONTINUOUS
 62
     7
 10
3083.5912830000002
 20
-161.81066999999999
 30
0.0
  0
VERTEX
  5
9CE
  8
LAYER01
  6
CONTINUOUS
 62
     7
 10
3085.5182450000002
 20
-156.99326500000001
 30
0.0
  0
VERTEX
  5
9CF
  8
LAYER01
  6
CONTINUOUS
 62
     7
 10
3085.5182450000002
 20
-151.212378
 30
0.0
  0
VERTEX
  5
9D0
  8
LAYER01
  6
CONTINUOUS
 62
     7
 10
3085.5182450000002
 20
-151.212378
 30
0.0
  0
VERTEX
  5
9D1
  8
LAYER01
  6
CONTINUOUS
 62
     7
 10
3085.5182450000002
 20
-146.39497299999999
 30
0.0
  0
VERTEX
  5
9D2
  8
LAYER01
  6
CONTINUOUS
 62
     7
 10
3083.5912830000002
 20
-141.57756699999999
 30
0.0
  0
VERTEX
  5
9D3
  8
LAYER01
  6
CONTINUOUS
 62
     7
 10
3081.6643210000002
 20
-137.7236429999999
 30
0.0
  0
VERTEX
  5
9D4
  8
LAYER01
  6
CONTINUOUS
 62
     7
 10
3078.773878
 20
-133.86971800000001
 30
0.0
  0
VERTEX
  5
9D5
  8
LAYER01
  6
CONTINUOUS
 62
     7
 10
3074.9199530000001
 20
-130.979275
 30
0.0
  0
VERTEX
  5
9D6
  8
LAYER01
  6
CONTINUOUS
 62
     7
 10
3070.1025479999998
 20
-128.088832
 30
0.0
  0
VERTEX
  5
9D7
  8
LAYER01
  6
CONTINUOUS
 62
     7
 10
3065.2851430000001
 20
-127.12535099999999
 30
0.0
  0
VERTEX
  5
9D8
  8
LAYER01
  6
CONTINUOUS
 62
     7
 10
3060.4677369999999
 20
-126.16186999999999
 30
0.0
  0
VERTEX
  5
9D9
  8
LAYER01
  6
CONTINUOUS
 62
     7
 10
3060.4677369999999
 20
-126.16186999999999
 30
0.0
  0
VERTEX
  5
9DA
  8
LAYER01
  6
CONTINUOUS
 62
     7
 10
3055.6503320000002
 20
-127.12535099999999
 30
0.0
  0
VERTEX
  5
9DB
  8
LAYER01
  6
CONTINUOUS
 62
     7
 10
3050.832926
 20
-128.088832
 30
0.0
  0
VERTEX
  5
9DC
  8
LAYER01
  6
CONTINUOUS
 62
     7
 10
3046.0155210000012
 20
-130.979275
 30
0.0
  0
VERTEX
  5
9DD
  8
LAYER01
  6
CONTINUOUS
 62
     7
 10
3042.1615959999999
 20
-133.86971800000001
 30
0.0
  0
VERTEX
  5
9DE
  8
LAYER01
  6
CONTINUOUS
 62
     7
 10
3039.2711530000001
 20
-137.7236429999999
 30
0.0
  0
VERTEX
  5
9DF
  8
LAYER01
  6
CONTINUOUS
 62
     7
 10
3037.3441910000001
 20
-141.57756699999999
 30
0.0
  0
VERTEX
  5
9E0
  8
LAYER01
  6
CONTINUOUS
 62
     7
 10
3035.4172290000001
 20
-146.39497299999999
 30
0.0
  0
VERTEX
  5
9E1
  8
LAYER01
  6
CONTINUOUS
 62
     7
 10
3035.4172290000001
 20
-151.212378
 30
0.0
  0
VERTEX
  5
9E2
  8
LAYER01
  6
CONTINUOUS
 62
     7
 10
3035.4172290000001
 20
-151.212378
 30
0.0
  0
VERTEX
  5
9E3
  8
LAYER01
  6
CONTINUOUS
 62
     7
 10
3035.4172290000001
 20
-156.99326500000001
 30
0.0
  0
VERTEX
  5
9E4
  8
LAYER01
  6
CONTINUOUS
 62
     7
 10
3037.3441910000001
 20
-161.81066999999999
 30
0.0
  0
VERTEX
  5
9E5
  8
LAYER01
  6
CONTINUOUS
 62
     7
 10
3039.2711530000001
 20
-165.66459399999999
 30
0.0
  0
VERTEX
  5
9E6
  8
LAYER01
  6
CONTINUOUS
 62
     7
 10
3042.1615959999999
 20
-169.518519
 30
0.0
  0
VERTEX
  5
9E7
  8
LAYER01
  6
CONTINUOUS
 62
     7
 10
3046.0155210000012
 20
-172.408962
 30
0.0
  0
VERTEX
  5
9E8
  8
LAYER01
  6
CONTINUOUS
 62
     7
 10
3050.832926
 20
-175.29940500000001
 30
0.0
  0
VERTEX
  5
9E9
  8
LAYER01
  6
CONTINUOUS
 62
     7
 10
3055.6503320000002
 20
-176.26288600000001
 30
0.0
  0
VERTEX
  5
9EA
  8
LAYER01
  6
CONTINUOUS
 62
     7
 10
3060.4677369999999
 20
-177.22636700000001
 30
0.0
  0
VERTEX
  5
9EB
  8
LAYER01
  6
CONTINUOUS
 62
     7
 10
3060.4677369999999
 20
-177.22636700000001
 30
0.0
  0
SEQEND
  5
9EC
  8
LAYER01
  6
CONTINUOUS
 62
     7
  0
POLYLINE
  5
3BA
  8
LAYER01
  6
CONTINUOUS
 62
     7
 66
     1
 10
0.0
 20
0.0
 30
0.0
 70
     1
  0
VERTEX
  5
9ED
  8
LAYER01
  6
CONTINUOUS
 62
     7
 10
3060.4677369999999
 20
-130.015794
 30
0.0
  0
VERTEX
  5
9EE
  8
LAYER01
  6
CONTINUOUS
 62
     7
 10
3060.4677369999999
 20
-130.015794
 30
0.0
  0
VERTEX
  5
9EF
  8
LAYER01
  6
CONTINUOUS
 62
     7
 10
3064.3216609999999
 20
-130.979275
 30
0.0
  0
VERTEX
  5
9F0
  8
LAYER01
  6
CONTINUOUS
 62
     7
 10
3068.1755859999998
 20
-131.942756
 30
0.0
  0
VERTEX
  5
9F1
  8
LAYER01
  6
CONTINUOUS
 62
     7
 10
3072.0295100000012
 20
-133.86971800000001
 30
0.0
  0
VERTEX
  5
9F2
  8
LAYER01
  6
CONTINUOUS
 62
     7
 10
3074.9199530000001
 20
-136.76016200000001
 30
0.0
  0
VERTEX
  5
9F3
  8
LAYER01
  6
CONTINUOUS
 62
     7
 10
3077.8103970000002
 20
-139.65060500000001
 30
0.0
  0
VERTEX
  5
9F4
  8
LAYER01
  6
CONTINUOUS
 62
     7
 10
3079.7373590000011
 20
-143.50452899999999
 30
0.0
  0
VERTEX
  5
9F5
  8
LAYER01
  6
CONTINUOUS
 62
     7
 10
3081.6643210000002
 20
-147.35845399999999
 30
0.0
  0
VERTEX
  5
9F6
  8
LAYER01
  6
CONTINUOUS
 62
     7
 10
3081.6643210000002
 20
-151.212378
 30
0.0
  0
VERTEX
  5
9F7
  8
LAYER01
  6
CONTINUOUS
 62
     7
 10
3081.6643210000002
 20
-151.212378
 30
0.0
  0
VERTEX
  5
9F8
  8
LAYER01
  6
CONTINUOUS
 62
     7
 10
3081.6643210000002
 20
-156.02978300000001
 30
0.0
  0
VERTEX
  5
9F9
  8
LAYER01
  6
CONTINUOUS
 62
     7
 10
3079.7373590000011
 20
-159.88370800000001
 30
0.0
  0
VERTEX
  5
9FA
  8
LAYER01
  6
CONTINUOUS
 62
     7
 10
3077.8103970000002
 20
-163.73763199999999
 30
0.0
  0
VERTEX
  5
9FB
  8
LAYER01
  6
CONTINUOUS
 62
     7
 10
3074.9199530000001
 20
-166.628075
 30
0.0
  0
VERTEX
  5
9FC
  8
LAYER01
  6
CONTINUOUS
 62
     7
 10
3072.0295100000012
 20
-169.518519
 30
0.0
  0
VERTEX
  5
9FD
  8
LAYER01
  6
CONTINUOUS
 62
     7
 10
3068.1755859999998
 20
-171.445481
 30
0.0
  0
VERTEX
  5
9FE
  8
LAYER01
  6
CONTINUOUS
 62
     7
 10
3064.3216609999999
 20
-172.408962
 30
0.0
  0
VERTEX
  5
9FF
  8
LAYER01
  6
CONTINUOUS
 62
     7
 10
3060.4677369999999
 20
-172.408962
 30
0.0
  0
VERTEX
  5
A00
  8
LAYER01
  6
CONTINUOUS
 62
     7
 10
3060.4677369999999
 20
-172.408962
 30
0.0
  0
VERTEX
  5
A01
  8
LAYER01
  6
CONTINUOUS
 62
     7
 10
3056.6138129999999
 20
-172.408962
 30
0.0
  0
VERTEX
  5
A02
  8
LAYER01
  6
CONTINUOUS
 62
     7
 10
3051.7964069999998
 20
-171.445481
 30
0.0
  0
VERTEX
  5
A03
  8
LAYER01
  6
CONTINUOUS
 62
     7
 10
3048.905964
 20
-169.518519
 30
0.0
  0
VERTEX
  5
A04
  8
LAYER01
  6
CONTINUOUS
 62
     7
 10
3045.05204
 20
-166.628075
 30
0.0
  0
VERTEX
  5
A05
  8
LAYER01
  6
CONTINUOUS
 62
     7
 10
3043.125078
 20
-163.73763199999999
 30
0.0
  0
VERTEX
  5
A06
  8
LAYER01
  6
CONTINUOUS
 62
     7
 10
3041.1981150000001
 20
-159.88370800000001
 30
0.0
  0
VERTEX
  5
A07
  8
LAYER01
  6
CONTINUOUS
 62
     7
 10
3039.2711530000001
 20
-156.02978300000001
 30
0.0
  0
VERTEX
  5
A08
  8
LAYER01
  6
CONTINUOUS
 62
     7
 10
3039.2711530000001
 20
-151.212378
 30
0.0
  0
VERTEX
  5
A09
  8
LAYER01
  6
CONTINUOUS
 62
     7
 10
3039.2711530000001
 20
-151.212378
 30
0.0
  0
VERTEX
  5
A0A
  8
LAYER01
  6
CONTINUOUS
 62
     7
 10
3039.2711530000001
 20
-147.35845399999999
 30
0.0
  0
VERTEX
  5
A0B
  8
LAYER01
  6
CONTINUOUS
 62
     7
 10
3041.1981150000001
 20
-143.50452899999999
 30
0.0
  0
VERTEX
  5
A0C
  8
LAYER01
  6
CONTINUOUS
 62
     7
 10
3043.125078
 20
-139.65060500000001
 30
0.0
  0
VERTEX
  5
A0D
  8
LAYER01
  6
CONTINUOUS
 62
     7
 10
3045.05204
 20
-136.76016200000001
 30
0.0
  0
VERTEX
  5
A0E
  8
LAYER01
  6
CONTINUOUS
 62
     7
 10
3048.905964
 20
-133.86971800000001
 30
0.0
  0
VERTEX
  5
A0F
  8
LAYER01
  6
CONTINUOUS
 62
     7
 10
3051.7964069999998
 20
-131.942756
 30
0.0
  0
VERTEX
  5
A10
  8
LAYER01
  6
CONTINUOUS
 62
     7
 10
3056.6138129999999
 20
-130.979275
 30
0.0
  0
VERTEX
  5
A11
  8
LAYER01
  6
CONTINUOUS
 62
     7
 10
3060.4677369999999
 20
-130.015794
 30
0.0
  0
VERTEX
  5
A12
  8
LAYER01
  6
CONTINUOUS
 62
     7
 10
3060.4677369999999
 20
-130.015794
 30
0.0
  0
SEQEND
  5
A13
  8
LAYER01
  6
CONTINUOUS
 62
     7
  0
POLYLINE
  5
3E2
  8
LAYER01
  6
CONTINUOUS
 62
     7
 66
     1
 10
0.0
 20
0.0
 30
0.0
 70
     1
  0
VERTEX
  5
A14
  8
LAYER01
  6
CONTINUOUS
 62
     7
 10
3064.3216609999999
 20
-153.13934
 30
0.0
  0
VERTEX
  5
A15
  8
LAYER01
  6
CONTINUOUS
 62
     7
 10
3064.3216609999999
 20
-153.13934
 30
0.0
  0
VERTEX
  5
A16
  8
LAYER01
  6
CONTINUOUS
 62
     7
 10
3067.2121050000001
 20
-152.175859
 30
0.0
  0
VERTEX
  5
A17
  8
LAYER01
  6
CONTINUOUS
 62
     7
 10
3070.1025479999998
 20
-151.212378
 30
0.0
  0
VERTEX
  5
A18
  8
LAYER01
  6
CONTINUOUS
 62
     7
 10
3072.0295100000012
 20
-148.321935
 30
0.0
  0
VERTEX
  5
A19
  8
LAYER01
  6
CONTINUOUS
 62
     7
 10
3072.0295100000012
 20
-145.43149099999999
 30
0.0
  0
VERTEX
  5
A1A
  8
LAYER01
  6
CONTINUOUS
 62
     7
 10
3072.0295100000012
 20
-145.43149099999999
 30
0.0
  0
VERTEX
  5
A1B
  8
LAYER01
  6
CONTINUOUS
 62
     7
 10
3072.0295100000012
 20
-141.57756699999999
 30
0.0
  0
VERTEX
  5
A1C
  8
LAYER01
  6
CONTINUOUS
 62
     7
 10
3069.1390670000001
 20
-138.68712400000001
 30
0.0
  0
VERTEX
  5
A1D
  8
LAYER01
  6
CONTINUOUS
 62
     7
 10
3066.2486239999998
 20
-137.7236429999999
 30
0.0
  0
VERTEX
  5
A1E
  8
LAYER01
  6
CONTINUOUS
 62
     7
 10
3062.3946989999999
 20
-137.7236429999999
 30
0.0
  0
VERTEX
  5
A1F
  8
LAYER01
  6
CONTINUOUS
 62
     7
 10
3050.832926
 20
-137.7236429999999
 30
0.0
  0
VERTEX
  5
A20
  8
LAYER01
  6
CONTINUOUS
 62
     7
 10
3050.832926
 20
-165.66459399999999
 30
0.0
  0
VERTEX
  5
A21
  8
LAYER01
  6
CONTINUOUS
 62
     7
 10
3054.6868509999999
 20
-165.66459399999999
 30
0.0
  0
VERTEX
  5
A22
  8
LAYER01
  6
CONTINUOUS
 62
     7
 10
3054.6868509999999
 20
-153.13934
 30
0.0
  0
VERTEX
  5
A23
  8
LAYER01
  6
CONTINUOUS
 62
     7
 10
3060.4677369999999
 20
-153.13934
 30
0.0
  0
VERTEX
  5
A24
  8
LAYER01
  6
CONTINUOUS
 62
     7
 10
3067.2121050000001
 20
-165.66459399999999
 30
0.0
  0
VERTEX
  5
A25
  8
LAYER01
  6
CONTINUOUS
 62
     7
 10
3072.0295100000012
 20
-165.66459399999999
 30
0.0
  0
VERTEX
  5
A26
  8
LAYER01
  6
CONTINUOUS
 62
     7
 10
3064.3216609999999
 20
-153.13934
 30
0.0
  0
VERTEX
  5
A27
  8
LAYER01
  6
CONTINUOUS
 62
     7
 10
3064.3216609999999
 20
-153.13934
 30
0.0
  0
SEQEND
  5
A28
  8
LAYER01
  6
CONTINUOUS
 62
     7
  0
POLYLINE
  5
3F8
  8
LAYER01
  6
CONTINUOUS
 62
     7
 66
     1
 10
0.0
 20
0.0
 30
0.0
 70
     1
  0
VERTEX
  5
A29
  8
LAYER01
  6
CONTINUOUS
 62
     7
 10
3061.4312180000002
 20
-141.57756699999999
 30
0.0
  0
VERTEX
  5
A2A
  8
LAYER01
  6
CONTINUOUS
 62
     7
 10
3061.4312180000002
 20
-141.57756699999999
 30
0.0
  0
VERTEX
  5
A2B
  8
LAYER01
  6
CONTINUOUS
 62
     7
 10
3066.2486239999998
 20
-142.54104799999999
 30
0.0
  0
VERTEX
  5
A2C
  8
LAYER01
  6
CONTINUOUS
 62
     7
 10
3068.1755859999998
 20
-143.50452899999999
 30
0.0
  0
VERTEX
  5
A2D
  8
LAYER01
  6
CONTINUOUS
 62
     7
 10
3068.1755859999998
 20
-145.43149099999999
 30
0.0
  0
VERTEX
  5
A2E
  8
LAYER01
  6
CONTINUOUS
 62
     7
 10
3068.1755859999998
 20
-145.43149099999999
 30
0.0
  0
VERTEX
  5
A2F
  8
LAYER01
  6
CONTINUOUS
 62
     7
 10
3067.2121050000001
 20
-147.35845399999999
 30
0.0
  0
VERTEX
  5
A30
  8
LAYER01
  6
CONTINUOUS
 62
     7
 10
3065.2851430000001
 20
-148.321935
 30
0.0
  0
VERTEX
  5
A31
  8
LAYER01
  6
CONTINUOUS
 62
     7
 10
3059.5042560000002
 20
-149.285416
 30
0.0
  0
VERTEX
  5
A32
  8
LAYER01
  6
CONTINUOUS
 62
     7
 10
3054.6868509999999
 20
-149.285416
 30
0.0
  0
VERTEX
  5
A33
  8
LAYER01
  6
CONTINUOUS
 62
     7
 10
3054.6868509999999
 20
-141.57756699999999
 30
0.0
  0
VERTEX
  5
A34
  8
LAYER01
  6
CONTINUOUS
 62
     7
 10
3061.4312180000002
 20
-141.57756699999999
 30
0.0
  0
VERTEX
  5
A35
  8
LAYER01
  6
CONTINUOUS
 62
     7
 10
3061.4312180000002
 20
-141.57756699999999
 30
0.0
  0
SEQEND
  5
A36
  8
LAYER01
  6
CONTINUOUS
 62
     7
  0
ENDBLK
  5
407
  8
0
  0
BLOCK
  8
0
  2
*D11
 70
     1
 10
0.0
 20
0.0
 30
0.0
  3
*D11
  1

  0
LINE
  5
40A
  8
LAYER01
 62
     7
 10
2200.5148669999999
 20
731.13105899999994
 30
0.0
 11
2200.5148669999999
 21
575.00551299999995
 31
0.0
  0
LINE
  5
40B
  8
LAYER01
 62
     7
 10
2004.531581
 20
731.13105899999994
 30
0.0
 11
2235.5148669999999
 21
731.13105899999994
 31
0.0
  0
LINE
  5
40C
  8
LAYER01
 62
     7
 10
2004.531581
 20
575.00551299999995
 30
0.0
 11
2235.5148669999999
 21
575.00551299999995
 31
0.0
  0
SOLID
  5
40D
  8
LAYER01
 62
     7
 10
2191.1819070000001
 20
675.13105899999994
 30
0.0
 11
2200.5148669999999
 21
731.13105899999994
 31
0.0
 12
2209.8478270000001
 22
675.13105899999994
 32
0.0
 13
2209.8478270000001
 23
675.13105899999994
 33
0.0
  0
SOLID
  5
40E
  8
LAYER01
 62
     7
 10
2191.1819070000001
 20
631.00551299999995
 30
0.0
 11
2200.5148669999999
 21
575.00551299999995
 31
0.0
 12
2209.8478270000001
 22
631.00551299999995
 32
0.0
 13
2209.8478270000001
 23
631.00551299999995
 33
0.0
  0
TEXT
  5
40F
  8
LAYER01
  6
CONTINUOUS
 62
     7
 10
2165.5148669999999
 20
597.50043700000003
 30
0.0
 40
70.0
  1
144
 50
90.0
  0
POINT
  5
410
  8
LAYER01
 62
     7
 10
1976.531581
 20
731.13105899999994
 30
0.0
  0
POINT
  5
411
  8
LAYER01
 62
     7
 10
1976.531581
 20
575.00551299999995
 30
0.0
  0
POINT
  5
412
  8
LAYER01
 62
     7
 10
2200.5148669999999
 20
575.00551299999995
 30
0.0
  0
ENDBLK
  5
413
  8
0
  0
BLOCK
  8
0
  2
*D12
 70
     1
 10
0.0
 20
0.0
 30
0.0
  3
*D12
  1

  0
LINE
  5
416
  8
LAYER01
 62
     7
 10
1561.879913
 20
836.48072100000002
 30
0.0
 11
1911.879907
 21
836.48072100000002
 31
0.0
  0
LINE
  5
417
  8
LAYER01
 62
     7
 10
1561.879913
 20
759.13105899999994
 30
0.0
 11
1561.879913
 21
871.48072100000013
 31
0.0
  0
LINE
  5
418
  8
LAYER01
 62
     7
 10
1911.879907
 20
759.13105899999994
 30
0.0
 11
1911.879907
 21
871.48072100000013
 31
0.0
  0
SOLID
  5
419
  8
LAYER01
 62
     7
 10
1617.879913
 20
827.14776100000006
 30
0.0
 11
1561.879913
 21
836.48072100000002
 31
0.0
 12
1617.879913
 22
845.81368099999997
 32
0.0
 13
1617.879913
 23
845.81368099999997
 33
0.0
  0
SOLID
  5
41A
  8
LAYER01
 62
     7
 10
1855.879907
 20
827.14776100000006
 30
0.0
 11
1911.879907
 21
836.48072100000002
 31
0.0
 12
1855.879907
 22
845.81368099999997
 32
0.0
 13
1855.879907
 23
845.81368099999997
 33
0.0
  0
TEXT
  5
41B
  8
LAYER01
  6
CONTINUOUS
 62
     7
 10
1684.144605
 20
871.48072100000013
 30
0.0
 40
70.0
  1
350
  0
POINT
  5
41C
  8
LAYER01
 62
     7
 10
1561.879913
 20
731.13105899999994
 30
0.0
  0
POINT
  5
41D
  8
LAYER01
 62
     7
 10
1911.879907
 20
731.13105899999994
 30
0.0
  0
POINT
  5
41E
  8
LAYER01
 62
     7
 10
1911.879907
 20
836.48072100000002
 30
0.0
  0
ENDBLK
  5
41F
  8
0
  0
BLOCK
  8
0
  2
VP356012-G14
 70
     0
 10
0.0
 20
0.0
 30
0.0
  3
VP356012-G14
  1

  0
LINE
  5
422
  8
LAYER01
  6
CONTINUOUS
 62
     7
 10
1545.1236939999999
 20
718.77850699999999
 30
0.0
 11
1557.4762459999999
 21
731.13105899999994
 31
0.0
  0
LINE
  5
423
  8
LAYER01
  6
CONTINUOUS
 62
     7
 10
1551.360541
 20
702.56471299999998
 30
0.0
 11
1562.778613
 21
713.98278499999992
 31
0.0
  0
LINE
  5
424
  8
LAYER01
  6
CONTINUOUS
 62
     7
 10
1552.478537
 20
681.23206899999991
 30
0.0
 11
1563.89661
 21
692.65014199999996
 31
0.0
  0
LINE
  5
425
  8
LAYER01
  6
CONTINUOUS
 62
     7
 10
1553.596534
 20
659.89942499999995
 30
0.0
 11
1565.014606
 21
671.31749799999989
 31
0.0
  0
LINE
  5
426
  8
LAYER01
  6
CONTINUOUS
 62
     7
 10
1554.71453
 20
638.56678199999999
 30
0.0
 11
1566.132603
 21
649.98485400000004
 31
0.0
  0
LINE
  5
427
  8
LAYER01
  6
CONTINUOUS
 62
     7
 10
1558.5527010000001
 20
619.95431199999985
 30
0.0
 11
1567.357941
 21
628.75955199999987
 31
0.0
  0
LINE
  5
428
  8
LAYER01
  6
CONTINUOUS
 62
     7
 10
1573.256905
 20
612.20787499999994
 30
0.0
 11
1583.0588479999999
 21
622.00981899999988
 31
0.0
  0
LINE
  5
429
  8
LAYER01
  6
CONTINUOUS
 62
     7
 10
1591.14471
 20
607.64503999999988
 30
0.0
 11
1600.9532750000001
 21
617.45360599999992
 31
0.0
  0
LINE
  5
42A
  8
LAYER01
  6
CONTINUOUS
 62
     7
 10
1609.0325150000001
 20
603.08220499999993
 30
0.0
 11
1618.892799
 21
612.94248900000002
 31
0.0
  0
LINE
  5
42B
  8
LAYER01
  6
CONTINUOUS
 62
     7
 10
1626.940621
 20
598.53967099999988
 30
0.0
 11
1636.8251359999999
 21
608.42418599999996
 31
0.0
  0
LINE
  5
42C
  8
LAYER01
  6
CONTINUOUS
 62
     7
 10
1644.861609
 20
594.01001900000006
 30
0.0
 11
1654.7205369999999
 21
603.86894600000005
 31
0.0
  0
LINE
  5
42D
  8
LAYER01
  6
CONTINUOUS
 62
     7
 10
1662.666641
 20
589.36441100000002
 30
0.0
 11
1672.7672809999999
 21
599.46505100000002
 31
0.0
  0
LINE
  5
42E
  8
LAYER01
  6
CONTINUOUS
 62
     7
 10
1682.3350150000001
 20
586.58214400000008
 30
0.0
 11
1693.4117630000001
 21
597.65889200000004
 31
0.0
  0
LINE
  5
42F
  8
LAYER01
  6
CONTINUOUS
 62
     7
 10
1696.8205760000001
 20
578.61706500000003
 30
0.0
 11
1708.6712849999999
 21
590.46777400000008
 31
0.0
  0
ENDBLK
  5
430
  8
0
  0
BLOCK
  8
0
  2
*D14
 70
     1
 10
0.0
 20
0.0
 30
0.0
  3
*D14
  1

  0
LINE
  5
433
  8
LAYER01
 62
     7
 10
2061.0903109999999
 20
731.13105899999994
 30
0.0
 11
2061.0903109999999
 21
591.79403300000001
 31
0.0
  0
LINE
  5
434
  8
LAYER01
 62
     7
 10
1972.278775
 20
731.13105899999994
 30
0.0
 11
2096.0903109999999
 21
731.13105899999994
 31
0.0
  0
LINE
  5
435
  8
LAYER01
 62
     7
 10
1972.278775
 20
591.79403300000001
 30
0.0
 11
2096.0903109999999
 21
591.79403300000001
 31
0.0
  0
SOLID
  5
436
  8
LAYER01
 62
     7
 10
2051.7573510000002
 20
675.13105899999994
 30
0.0
 11
2061.0903109999999
 21
731.13105899999994
 31
0.0
 12
2070.423271000001
 22
675.13105899999994
 32
0.0
 13
2070.423271000001
 23
675.13105899999994
 33
0.0
  0
SOLID
  5
437
  8
LAYER01
 62
     7
 10
2051.7573510000002
 20
647.79403300000001
 30
0.0
 11
2061.0903109999999
 21
591.79403300000001
 31
0.0
 12
2070.423271000001
 22
647.79403300000001
 32
0.0
 13
2070.423271000001
 23
647.79403300000001
 33
0.0
  0
TEXT
  5
438
  8
LAYER01
  6
CONTINUOUS
 62
     7
 10
2026.0903109999999
 20
605.89469699999995
 30
0.0
 40
70.0
  1
122
 50
90.0
  0
POINT
  5
439
  8
LAYER01
 62
     7
 10
1944.278775
 20
731.13105899999994
 30
0.0
  0
POINT
  5
43A
  8
LAYER01
 62
     7
 10
1944.278775
 20
591.79403300000001
 30
0.0
  0
POINT
  5
43B
  8
LAYER01
 62
     7
 10
2061.0903109999999
 20
591.79403300000001
 30
0.0
  0
ENDBLK
  5
43C
  8
0
  0
BLOCK
  8
0
  2
VP356012-G16
 70
     0
 10
0.0
 20
0.0
 30
0.0
  3
VP356012-G16
  1

  0
LINE
  5
43F
  8
LAYER01
  6
CONTINUOUS
 62
     7
 10
1760.5609460000001
 20
575.00551399999995
 30
0.0
 11
1783.489131
 21
597.93369900000005
 31
0.0
  0
LINE
  5
440
  8
LAYER01
  6
CONTINUOUS
 62
     7
 10
1911.6140760000001
 20
726.05864399999996
 30
0.0
 11
1916.6864909999999
 21
731.13105899999994
 31
0.0
  0
LINE
  5
441
  8
LAYER01
  6
CONTINUOUS
 62
     7
 10
1794.8915149999989
 20
586.8854419999999
 30
0.0
 11
1809.341852
 21
601.335779
 31
0.0
  0
LINE
  5
442
  8
LAYER01
  6
CONTINUOUS
 62
     7
 10
1910.372415
 20
702.36634299999992
 30
0.0
 11
1936.8799100000001
 21
728.87383799999986
 31
0.0
  0
LINE
  5
443
  8
LAYER01
  6
CONTINUOUS
 62
     7
 10
1822.902307999999
 20
592.44559500000003
 30
0.0
 11
1839.5366770000001
 21
609.07996400000002
 31
0.0
  0
LINE
  5
444
  8
LAYER01
  6
CONTINUOUS
 62
     7
 10
1909.130754
 20
678.67404199999999
 30
0.0
 11
1921.8118079999999
 21
691.355096
 31
0.0
  0
LINE
  5
445
  8
LAYER01
  6
CONTINUOUS
 62
     7
 10
1853.0071829999999
 20
600.09983
 30
0.0
 11
1869.5393919999999
 21
616.63203899999996
 31
0.0
  0
LINE
  5
446
  8
LAYER01
  6
CONTINUOUS
 62
     7
 10
1907.889093
 20
654.98174000000006
 30
0.0
 11
1920.5701469999999
 21
667.66279400000008
 31
0.0
  0
LINE
  5
447
  8
LAYER01
  6
CONTINUOUS
 62
     7
 10
1883.135869
 20
607.77787599999999
 30
0.0
 11
1899.7319230000001
 21
624.37392999999986
 31
0.0
  0
LINE
  5
448
  8
LAYER01
  6
CONTINUOUS
 62
     7
 10
1906.6474330000001
 20
631.28943900000002
 30
0.0
 11
1919.328487
 21
643.97049299999992
 31
0.0
  0
ENDBLK
  5
449
  8
0
  0
ENDSEC
  0
SECTION
  2
ENTITIES
  0
POLYLINE
  5
44A
  8
LAYER01
  6
CONTINUOUS
 62
     7
 66
     1
 10
0.0
 20
0.0
 30
0.0
 70
     1
  0
VERTEX
  5
A37
  8
LAYER01
  6
CONTINUOUS
 62
     7
 10
-806.29240700000014
 20
-952.44140900000002
 30
0.0
  0
VERTEX
  5
A38
  8
LAYER01
  6
CONTINUOUS
 62
     7
 10
-806.29240700000014
 20
1833.7042939999999
 30
0.0
  0
VERTEX
  5
A39
  8
LAYER01
  6
CONTINUOUS
 62
     7
 10
3185.882329
 20
1833.7042939999999
 30
0.0
  0
VERTEX
  5
A3A
  8
LAYER01
  6
CONTINUOUS
 62
     7
 10
3185.882329
 20
-952.44140900000002
 30
0.0
  0
SEQEND
  5
A3B
  8
LAYER01
  6
CONTINUOUS
 62
     7
  0
ARC
  5
450
  8
LAYER01
  6
CONTINUOUS
 62
     7
 10
1069.8883760000001
 20
462.5923919999999
 30
0.0
 40
30.0
 50
270.0
 51
0.0
  0
ARC
  5
451
  8
LAYER01
  6
CONTINUOUS
 62
     7
 10
479.88837599999988
 20
462.5923919999999
 30
0.0
 40
30.0
 50
180.0
 51
270.0
  0
DIMENSION
  5
452
  8
LAYER01
 62
     7
  2
*D0
 10
180.894048
 20
432.59238899999991
 30
0.0
 11
110.894048
 21
632.34465699999987
 31
0.0
 53
90.0
 13
435.09713199999999
 23
832.5923949999999
 33
0.0
 14
435.09713199999999
 24
432.59238899999991
 34
0.0
 50
90.0
  0
TEXT
  5
453
  8
LAYER01
  6
CONTINUOUS
 62
     7
 10
-142.37781000000001
 20
-405.64071200000001
 30
0.0
 40
35.0
  1
Unterbauwaschtisch VP-35-60-12
  7
SIMPLEX
  0
LINE
  5
454
  8
LAYER01
  6
CONTINUOUS
 62
     7
 10
479.8883889999999
 20
432.59238899999991
 30
0.0
 11
1069.888363
 21
432.59238899999991
 31
0.0
  0
POLYLINE
  5
455
  8
LAYER01
  6
CONTINUOUS
 62
     7
 66
     1
 10
0.0
 20
0.0
 30
0.0
  0
VERTEX
  5
A3C
  8
LAYER01
  6
CONTINUOUS
 62
     7
 10
708.88837699999988
 20
49.186616999999998
 30
0.0
  0
VERTEX
  5
A3D
  8
LAYER01
  6
CONTINUOUS
 62
     7
 10
640.48204799999996
 20
53.513936000000001
 30
0.0
  0
VERTEX
  5
A3E
  8
LAYER01
  6
CONTINUOUS
 62
     7
 10
572.07573400000001
 20
57.841248
 30
0.0
  0
VERTEX
  5
A3F
  8
LAYER01
  6
CONTINUOUS
 62
     7
 10
484.83560499999987
 20
63.359968000000002
 30
0.0
  0
SEQEND
  5
A40
  8
LAYER01
  6
CONTINUOUS
 62
     7
  0
POLYLINE
  5
45B
  8
LAYER01
  6
CONTINUOUS
 62
     7
 66
     1
 10
0.0
 20
0.0
 30
0.0
  0
VERTEX
  5
A41
  8
LAYER01
  6
CONTINUOUS
 62
     7
 10
707.98651399999994
 20
37.219687999999998
 30
0.0
  0
VERTEX
  5
A42
  8
LAYER01
  6
CONTINUOUS
 62
     7
 10
635.27292999999997
 20
41.819468000000001
 30
0.0
  0
VERTEX
  5
A43
  8
LAYER01
  6
CONTINUOUS
 62
     7
 10
558.92610000000002
 20
46.649097999999988
 30
0.0
  0
VERTEX
  5
A44
  8
LAYER01
  6
CONTINUOUS
 62
     7
 10
484.0780299999999
 20
51.383912000000002
 30
0.0
  0
SEQEND
  5
A45
  8
LAYER01
  6
CONTINUOUS
 62
     7
  0
INSERT
  5
461
  8
LAYER01
  2
VP356012-G2
 10
0.0
 20
0.0
 30
0.0
  0
LINE
  5
462
  8
LAYER01
  6
CONTINUOUS
 62
     7
 10
1069.8952180000001
 20
168.64112
 30
0.0
 11
479.88153499999987
 21
168.64112
 31
0.0
  0
DIMENSION
  5
463
  8
LAYER01
 62
     7
  2
*D2
 10
474.88836399999991
 20
245.011832
 30
0.0
 11
775.41887899999995
 21
315.01183200000003
 31
0.0
 13
1074.888301
 23
168.63945000000001
 33
0.0
 14
474.88836399999991
 24
168.63945000000001
 34
0.0
  0
ARC
  5
464
  8
LAYER01
  6
CONTINUOUS
 62
     7
 10
485.151273
 20
68.34999599999999
 30
0.0
 40
17.0
 50
183.0
 51
266.38035000000002
  0
LINE
  5
465
  8
LAYER01
  6
CONTINUOUS
 62
     7
 10
474.88836399999991
 20
168.64112
 30
0.0
 11
479.88153499999987
 21
168.64112
 31
0.0
  0
ARC
  5
466
  8
LAYER01
  6
CONTINUOUS
 62
     7
 10
485.15073799999999
 20
68.360209999999995
 30
0.0
 40
5.0000010000000001
 50
183.0
 51
266.51469900000001
  0
POLYLINE
  5
467
  8
LAYER01
  6
CONTINUOUS
 62
     7
 66
     1
 10
0.0
 20
0.0
 30
0.0
  0
VERTEX
  5
A46
  8
LAYER01
  6
CONTINUOUS
 62
     7
 10
484.84678099999991
 20
63.369459999999997
 30
0.0
  0
VERTEX
  5
A47
  8
LAYER01
  6
CONTINUOUS
 62
     7
 10
484.845529
 20
63.36840200000001
 30
0.0
  0
VERTEX
  5
A48
  8
LAYER01
  6
CONTINUOUS
 62
     7
 10
484.84120799999999
 20
63.364713999999999
 30
0.0
  0
VERTEX
  5
A49
  8
LAYER01
  6
CONTINUOUS
 62
     7
 10
484.83560499999987
 20
63.359968000000002
 30
0.0
  0
SEQEND
  5
A4A
  8
LAYER01
  6
CONTINUOUS
 62
     7
  0
ARC
  5
46D
  8
LAYER01
  6
CONTINUOUS
 62
     7
 10
485.151273
 20
68.34999599999999
 30
0.0
 40
5.0
 50
183.0
 51
266.38035000000002
  0
LINE
  5
46E
  8
LAYER01
  6
CONTINUOUS
 62
     7
 10
474.88836399999991
 20
168.64112
 30
0.0
 11
480.15812999999991
 21
68.088315000000009
 31
0.0
  0
LINE
  5
46F
  8
LAYER01
  6
CONTINUOUS
 62
     7
 10
474.88836399999991
 20
168.64112
 30
0.0
 11
449.88838800000002
 21
168.64112
 31
0.0
  0
LINE
  5
470
  8
LAYER01
  6
CONTINUOUS
 62
     7
 10
449.88838800000002
 20
156.64112
 30
0.0
 11
449.88838800000002
 21
168.64112
 31
0.0
  0
LINE
  5
471
  8
LAYER01
  6
CONTINUOUS
 62
     7
 10
455.90908300000001
 20
156.64112
 30
0.0
 11
449.88838800000002
 21
156.64112
 31
0.0
  0
ARC
  5
472
  8
LAYER01
  6
CONTINUOUS
 62
     7
 10
455.90908499999989
 20
148.64112
 30
0.0
 40
8.0
 50
3.0
 51
90.0
  0
LINE
  5
473
  8
LAYER01
  6
CONTINUOUS
 62
     7
 10
463.89813199999998
 20
149.05980700000001
 30
0.0
 11
468.17455699999999
 21
67.460282999999976
 31
0.0
  0
ARC
  5
474
  8
LAYER01
  6
CONTINUOUS
 62
     7
 10
1064.625479
 20
68.34999599999999
 30
0.0
 40
17.0
 50
273.61964999999998
 51
357.0
  0
POLYLINE
  5
475
  8
LAYER01
  6
CONTINUOUS
 62
     7
 66
     1
 10
0.0
 20
0.0
 30
0.0
  0
VERTEX
  5
A4B
  8
LAYER01
  6
CONTINUOUS
 62
     7
 10
1064.9411480000001
 20
63.359968000000002
 30
0.0
  0
VERTEX
  5
A4C
  8
LAYER01
  6
CONTINUOUS
 62
     7
 10
998.03000199999985
 20
59.127241000000012
 30
0.0
  0
VERTEX
  5
A4D
  8
LAYER01
  6
CONTINUOUS
 62
     7
 10
929.62368800000024
 20
54.799928999999999
 30
0.0
  0
VERTEX
  5
A4E
  8
LAYER01
  6
CONTINUOUS
 62
     7
 10
840.88837599999999
 20
49.186616999999998
 30
0.0
  0
SEQEND
  5
A4F
  8
LAYER01
  6
CONTINUOUS
 62
     7
  0
INSERT
  5
47B
  8
LAYER01
  2
VP356012-G4
 10
0.0
 20
0.0
 30
0.0
  0
LINE
  5
47C
  8
LAYER01
  6
CONTINUOUS
 62
     7
 10
809.68070999999986
 20
45.548609999999989
 30
0.0
 11
805.04293199999995
 21
45.548609999999989
 31
0.0
  0
ARC
  5
47D
  8
LAYER01
  6
CONTINUOUS
 62
     7
 10
812.89464999999996
 20
41.718387
 30
0.0
 40
5.0
 50
95.0
 51
130.0
  0
LINE
  5
47E
  8
LAYER01
  6
CONTINUOUS
 62
     7
 10
750.10231399999998
 20
37.152349000000001
 30
0.0
 11
753.40626999999995
 21
37.152349000000001
 31
0.0
  0
LINE
  5
47F
  8
LAYER01
  6
CONTINUOUS
 62
     7
 10
753.40626999999995
 20
37.152349000000001
 30
0.0
 11
796.37048300000004
 21
37.152349000000001
 31
0.0
  0
LINE
  5
480
  8
LAYER01
  6
CONTINUOUS
 62
     7
 10
796.37048300000004
 20
37.152349000000001
 30
0.0
 11
799.67443899999989
 21
37.152349000000001
 31
0.0
  0
LINE
  5
481
  8
LAYER01
  6
CONTINUOUS
 62
     7
 10
809.68070999999986
 20
45.548609999999989
 30
0.0
 11
799.67443899999989
 21
37.152349000000001
 31
0.0
  0
LINE
  5
482
  8
LAYER01
  6
CONTINUOUS
 62
     7
 10
744.73382000000004
 20
45.548609999999989
 30
0.0
 11
740.09604200000001
 21
45.548609999999989
 31
0.0
  0
LINE
  5
483
  8
LAYER01
  6
CONTINUOUS
 62
     7
 10
737.31788099999994
 20
46.699359000000001
 30
0.0
 11
708.88837699999988
 21
49.186616999999998
 31
0.0
  0
LINE
  5
484
  8
LAYER01
  6
CONTINUOUS
 62
     7
 10
805.04293199999995
 20
45.548609999999989
 30
0.0
 11
744.73382000000004
 21
45.548609999999989
 31
0.0
  0
LINE
  5
485
  8
LAYER01
  6
CONTINUOUS
 62
     7
 10
750.10231399999998
 20
37.152349000000001
 30
0.0
 11
740.09604200000001
 21
45.548609999999989
 31
0.0
  0
LINE
  5
486
  8
LAYER01
  6
CONTINUOUS
 62
     7
 10
743.38837599999999
 20
42.786011999999992
 30
0.0
 11
806.38837599999988
 21
42.786011999999992
 31
0.0
  0
POLYLINE
  5
487
  8
LAYER01
  6
CONTINUOUS
 62
     7
 66
     1
 10
0.0
 20
0.0
 30
0.0
  0
VERTEX
  5
A50
  8
LAYER01
  6
CONTINUOUS
 62
     7
 10
1065.698723
 20
51.383912000000002
 30
0.0
  0
VERTEX
  5
A51
  8
LAYER01
  6
CONTINUOUS
 62
     7
 10
994.33521399999995
 20
46.869523000000001
 30
0.0
  0
VERTEX
  5
A52
  8
LAYER01
  6
CONTINUOUS
 62
     7
 10
917.99058999999988
 20
42.040034999999989
 30
0.0
  0
VERTEX
  5
A53
  8
LAYER01
  6
CONTINUOUS
 62
     7
 10
841.79023900000004
 20
37.219687999999998
 30
0.0
  0
SEQEND
  5
A54
  8
LAYER01
  6
CONTINUOUS
 62
     7
  0
LINE
  5
48D
  8
LAYER01
  6
CONTINUOUS
 62
     7
 10
794.82250199999987
 20
24.561955999999999
 30
0.0
 11
797.88837599999999
 21
24.561955999999999
 31
0.0
  0
LINE
  5
48E
  8
LAYER01
  6
CONTINUOUS
 62
     7
 10
754.954251
 20
24.561955999999999
 30
0.0
 11
794.82250199999987
 21
24.561955999999999
 31
0.0
  0
LINE
  5
48F
  8
LAYER01
  6
CONTINUOUS
 62
     7
 10
751.88837599999999
 20
24.561955999999999
 30
0.0
 11
754.954251
 21
24.561955999999999
 31
0.0
  0
LINE
  5
490
  8
LAYER01
  6
CONTINUOUS
 62
     7
 10
797.88837599999999
 20
33.322125
 30
0.0
 11
797.88837599999999
 21
24.561955999999999
 31
0.0
  0
LINE
  5
491
  8
LAYER01
  6
CONTINUOUS
 62
     7
 10
814.88837499999988
 20
24.561955999999999
 30
0.0
 11
797.88837599999999
 21
24.561955999999999
 31
0.0
  0
LINE
  5
492
  8
LAYER01
  6
CONTINUOUS
 62
     7
 10
814.88837499999988
 20
27.535423000000002
 30
0.0
 11
814.88837499999988
 21
24.561955999999999
 31
0.0
  0
ARC
  5
493
  8
LAYER01
  6
CONTINUOUS
 62
     7
 10
822.88837599999999
 20
27.535427000000009
 30
0.0
 40
8.0
 50
95.0
 51
180.0
  0
LINE
  5
494
  8
LAYER01
  6
CONTINUOUS
 62
     7
 10
751.88837599999999
 20
24.561955999999999
 30
0.0
 11
751.88837599999999
 21
33.322125
 31
0.0
  0
ARC
  5
495
  8
LAYER01
  6
CONTINUOUS
 62
     7
 10
726.88837599999999
 20
27.535427000000009
 30
0.0
 40
8.0
 50
0.0
 51
85.0
  0
LINE
  5
496
  8
LAYER01
  6
CONTINUOUS
 62
     7
 10
734.88837699999999
 20
24.561955999999999
 30
0.0
 11
734.88837699999999
 21
27.535423000000002
 31
0.0
  0
LINE
  5
497
  8
LAYER01
  6
CONTINUOUS
 62
     7
 10
751.88837599999999
 20
24.561955999999999
 30
0.0
 11
734.88837699999999
 21
24.561955999999999
 31
0.0
  0
ARC
  5
498
  8
LAYER01
  6
CONTINUOUS
 62
     7
 10
802.88837599999988
 20
33.322127000000002
 30
0.0
 40
5.0
 50
130.0
 51
180.0
  0
LINE
  5
499
  8
LAYER01
  6
CONTINUOUS
 62
     7
 10
841.79023900000004
 20
37.219687999999998
 30
0.0
 11
822.19112900000005
 21
35.504981000000001
 31
0.0
  0
ARC
  5
49A
  8
LAYER01
  6
CONTINUOUS
 62
     7
 10
746.88837599999988
 20
33.322127000000002
 30
0.0
 40
5.0
 50
0.0
 51
50.0
  0
LINE
  5
49B
  8
LAYER01
  6
CONTINUOUS
 62
     7
 10
727.58562400000005
 20
35.504981000000001
 30
0.0
 11
707.98651399999994
 21
37.219687999999998
 31
0.0
  0
ARC
  5
49C
  8
LAYER01
  6
CONTINUOUS
 62
     7
 10
736.88210300000003
 20
41.718387
 30
0.0
 40
5.0
 50
50.0
 51
85.0
  0
LINE
  5
49D
  8
LAYER01
  6
CONTINUOUS
 62
     7
 10
840.88837599999999
 20
49.186616999999998
 30
0.0
 11
812.45887100000004
 21
46.699359000000001
 31
0.0
  0
LINE
  5
49E
  8
LAYER01
  6
CONTINUOUS
 62
     7
 10
1069.8952180000001
 20
168.64112
 30
0.0
 11
1074.8883880000001
 21
168.64112
 31
0.0
  0
ARC
  5
49F
  8
LAYER01
  6
CONTINUOUS
 62
     7
 10
1064.6260150000001
 20
68.360208999999998
 30
0.0
 40
5.0000010000000001
 50
273.48530099999999
 51
357.0
  0
ARC
  5
4A0
  8
LAYER01
  6
CONTINUOUS
 62
     7
 10
1059.945232
 20
57.489131999999998
 30
0.0
 40
7.7088190000000001
 50
49.603155000000001
 51
49.712136999999991
  0
LINE
  5
4A1
  8
LAYER01
  6
CONTINUOUS
 62
     7
 10
1085.87862
 20
149.05980700000001
 30
0.0
 11
1081.602196
 21
67.460282999999976
 31
0.0
  0
ARC
  5
4A2
  8
LAYER01
  6
CONTINUOUS
 62
     7
 10
1093.8676680000001
 20
148.64112
 30
0.0
 40
8.0
 50
90.0
 51
177.0
  0
LINE
  5
4A3
  8
LAYER01
  6
CONTINUOUS
 62
     7
 10
1099.8883639999999
 20
156.64112
 30
0.0
 11
1093.867669
 21
156.64112
 31
0.0
  0
LINE
  5
4A4
  8
LAYER01
  6
CONTINUOUS
 62
     7
 10
1099.8883639999999
 20
168.64112
 30
0.0
 11
1099.8883639999999
 21
156.64112
 31
0.0
  0
LINE
  5
4A5
  8
LAYER01
  6
CONTINUOUS
 62
     7
 10
1099.8883639999999
 20
168.64112
 30
0.0
 11
1074.8883880000001
 21
168.64112
 31
0.0
  0
LINE
  5
4A6
  8
LAYER01
  6
CONTINUOUS
 62
     7
 10
1074.8883880000001
 20
168.64112
 30
0.0
 11
1069.618622
 21
68.088315000000009
 31
0.0
  0
ARC
  5
4A7
  8
LAYER01
  6
CONTINUOUS
 62
     7
 10
1064.625479
 20
68.34999599999999
 30
0.0
 40
5.0
 50
273.61964999999998
 51
357.0
  0
DIMENSION
  5
4A8
  8
LAYER01
 62
     7
  2
*D4
 10
1099.8883639999999
 20
1108.16858
 30
0.0
 11
774.3343799999999
 21
1178.16858
 31
0.0
 13
449.88838800000002
 23
839.49049100000013
 33
0.0
 14
1099.8883639999999
 24
839.49049100000013
 34
0.0
  0
LINE
  5
4A9
  8
LAYER01
  6
CONTINUOUS
 62
     7
 10
1069.888363
 20
832.5923949999999
 30
0.0
 11
479.8883889999999
 21
832.5923949999999
 31
0.0
  0
LINE
  5
4AA
  8
LAYER01
  6
CONTINUOUS
 62
     7
 10
1069.8952180000001
 20
457.5923949999999
 30
0.0
 11
479.88153499999987
 21
457.5923949999999
 31
0.0
  0
LINE
  5
4AB
  8
LAYER01
  6
CONTINUOUS
 62
     7
 10
1069.8952180000001
 20
807.5923889999998
 30
0.0
 11
479.88153499999987
 21
807.5923889999998
 31
0.0
  0
DIMENSION
  5
4AC
  8
LAYER01
 62
     7
  2
*D5
 10
474.88836399999991
 20
953.54544799999996
 30
0.0
 11
774.3343799999999
 21
1023.545448
 31
0.0
 13
1074.8883880000001
 23
839.49049100000013
 33
0.0
 14
474.88836399999991
 24
839.49049100000013
 34
0.0
  0
LINE
  5
4AD
  8
LAYER01
 62
     7
 10
477.06054199999988
 20
459.76455800000002
 30
0.0
 11
542.55814099999986
 21
554.61610199999996
 31
0.0
  0
LINE
  5
4AE
  8
LAYER01
 62
     7
 10
542.55814099999986
 20
554.61610199999996
 30
0.0
 11
592.32710599999984
 21
554.61610199999996
 31
0.0
  0
SOLID
  5
4AF
  8
LAYER01
 62
     7
 10
516.56070199999999
 20
500.54251099999999
 30
0.0
 11
477.06054199999988
 21
459.76455800000002
 31
0.0
 12
501.20094299999988
 22
511.14884699999999
 32
0.0
 13
501.20094299999988
 23
511.14884699999999
 33
0.0
  0
TEXT
  5
4B0
  8
LAYER01
  6
CONTINUOUS
 62
     7
 10
627.32710599999984
 20
519.61610199999996
 30
0.0
 40
70.0
  1
R5
  0
ARC
  5
4B1
  8
LAYER01
  6
CONTINUOUS
 62
     7
 10
479.88837599999988
 20
802.59239200000002
 30
0.0
 40
30.0
 50
90.0
 51
180.0
  0
POLYLINE
  5
4B2
  8
LAYER01
  6
CONTINUOUS
 62
     7
 66
     1
 10
0.0
 20
0.0
 30
0.0
  0
VERTEX
  5
A55
  8
LAYER01
  6
CONTINUOUS
 62
     7
 10
479.88152400000001
 20
807.59239200000013
 30
0.0
  0
VERTEX
  5
A56
  8
LAYER01
  6
CONTINUOUS
 62
     7
 10
478.90668099999988
 20
807.49652100000003
 30
0.0
  0
VERTEX
  5
A57
  8
LAYER01
  6
CONTINUOUS
 62
     7
 10
477.96969599999989
 20
807.21257899999989
 30
0.0
  0
VERTEX
  5
A58
  8
LAYER01
  6
CONTINUOUS
 62
     7
 10
477.10645199999988
 20
806.75143899999989
 30
0.0
  0
VERTEX
  5
A59
  8
LAYER01
  6
CONTINUOUS
 62
     7
 10
476.35000700000001
 20
806.130762
 30
0.0
  0
VERTEX
  5
A5A
  8
LAYER01
  6
CONTINUOUS
 62
     7
 10
475.72932999999989
 20
805.37431700000002
 30
0.0
  0
VERTEX
  5
A5B
  8
LAYER01
  6
CONTINUOUS
 62
     7
 10
475.26819
 20
804.51107200000001
 30
0.0
  0
VERTEX
  5
A5C
  8
LAYER01
  6
CONTINUOUS
 62
     7
 10
474.98424799999998
 20
803.57408699999985
 30
0.0
  0
VERTEX
  5
A5D
  8
LAYER01
  6
CONTINUOUS
 62
     7
 10
474.88837599999999
 20
802.599245
 30
0.0
  0
SEQEND
  5
A5E
  8
LAYER01
  6
CONTINUOUS
 62
     7
  0
DIMENSION
  5
4BD
  8
LAYER01
 62
     7
  2
*D6
 10
330.17963700000001
 20
457.5923949999999
 30
0.0
 11
260.17963700000001
 21
632.34465699999987
 31
0.0
 53
90.0
 13
435.09713199999999
 23
807.5923889999998
 33
0.0
 14
435.09713199999999
 24
457.5923949999999
 34
0.0
 50
90.0
  0
POLYLINE
  5
4BE
  8
LAYER01
  6
CONTINUOUS
 62
     7
 66
     1
 10
0.0
 20
0.0
 30
0.0
  0
VERTEX
  5
A5F
  8
LAYER01
  6
CONTINUOUS
 62
     7
 10
474.88837599999999
 20
462.58553999999998
 30
0.0
  0
VERTEX
  5
A60
  8
LAYER01
  6
CONTINUOUS
 62
     7
 10
474.98424799999998
 20
461.6106969999999
 30
0.0
  0
VERTEX
  5
A61
  8
LAYER01
  6
CONTINUOUS
 62
     7
 10
475.26819
 20
460.67371200000002
 30
0.0
  0
VERTEX
  5
A62
  8
LAYER01
  6
CONTINUOUS
 62
     7
 10
475.72932999999989
 20
459.8104679999999
 30
0.0
  0
VERTEX
  5
A63
  8
LAYER01
  6
CONTINUOUS
 62
     7
 10
476.35000700000001
 20
459.05402299999997
 30
0.0
  0
VERTEX
  5
A64
  8
LAYER01
  6
CONTINUOUS
 62
     7
 10
477.10645199999988
 20
458.43334599999991
 30
0.0
  0
VERTEX
  5
A65
  8
LAYER01
  6
CONTINUOUS
 62
     7
 10
477.96969599999989
 20
457.97220599999991
 30
0.0
  0
VERTEX
  5
A66
  8
LAYER01
  6
CONTINUOUS
 62
     7
 10
478.90668099999988
 20
457.688264
 30
0.0
  0
VERTEX
  5
A67
  8
LAYER01
  6
CONTINUOUS
 62
     7
 10
479.88152400000001
 20
457.59239200000002
 30
0.0
  0
SEQEND
  5
A68
  8
LAYER01
  6
CONTINUOUS
 62
     7
  0
LINE
  5
4C9
  8
LAYER01
  6
CONTINUOUS
 62
     7
 10
449.88838800000002
 20
802.59239400000001
 30
0.0
 11
449.88838800000002
 21
462.59239000000002
 31
0.0
  0
LINE
  5
4CA
  8
LAYER01
  6
CONTINUOUS
 62
     7
 10
474.88836399999991
 20
802.59924899999999
 30
0.0
 11
474.88836399999991
 21
462.58553599999999
 31
0.0
  0
ARC
  5
4CB
  8
LAYER01
  6
CONTINUOUS
 62
     7
 10
1069.8883760000001
 20
802.59239200000002
 30
0.0
 40
30.0
 50
0.0
 51
90.0
  0
POLYLINE
  5
4CC
  8
LAYER01
  6
CONTINUOUS
 62
     7
 66
     1
 10
0.0
 20
0.0
 30
0.0
  0
VERTEX
  5
A69
  8
LAYER01
  6
CONTINUOUS
 62
     7
 10
1074.8883760000001
 20
802.599245
 30
0.0
  0
VERTEX
  5
A6A
  8
LAYER01
  6
CONTINUOUS
 62
     7
 10
1074.7925049999999
 20
803.57408699999985
 30
0.0
  0
VERTEX
  5
A6B
  8
LAYER01
  6
CONTINUOUS
 62
     7
 10
1074.5085630000001
 20
804.51107200000001
 30
0.0
  0
VERTEX
  5
A6C
  8
LAYER01
  6
CONTINUOUS
 62
     7
 10
1074.047423
 20
805.37431700000002
 30
0.0
  0
VERTEX
  5
A6D
  8
LAYER01
  6
CONTINUOUS
 62
     7
 10
1073.4267460000001
 20
806.130762
 30
0.0
  0
VERTEX
  5
A6E
  8
LAYER01
  6
CONTINUOUS
 62
     7
 10
1072.6703010000001
 20
806.75143899999989
 30
0.0
  0
VERTEX
  5
A6F
  8
LAYER01
  6
CONTINUOUS
 62
     7
 10
1071.8070560000001
 20
807.21257899999989
 30
0.0
  0
VERTEX
  5
A70
  8
LAYER01
  6
CONTINUOUS
 62
     7
 10
1070.8700710000001
 20
807.49652100000003
 30
0.0
  0
VERTEX
  5
A71
  8
LAYER01
  6
CONTINUOUS
 62
     7
 10
1069.895229
 20
807.59239200000013
 30
0.0
  0
SEQEND
  5
A72
  8
LAYER01
  6
CONTINUOUS
 62
     7
  0
POLYLINE
  5
4D7
  8
LAYER01
  6
CONTINUOUS
 62
     7
 66
     1
 10
0.0
 20
0.0
 30
0.0
  0
VERTEX
  5
A73
  8
LAYER01
  6
CONTINUOUS
 62
     7
 10
1069.895229
 20
457.59239200000002
 30
0.0
  0
VERTEX
  5
A74
  8
LAYER01
  6
CONTINUOUS
 62
     7
 10
1070.8700710000001
 20
457.688264
 30
0.0
  0
VERTEX
  5
A75
  8
LAYER01
  6
CONTINUOUS
 62
     7
 10
1071.8070560000001
 20
457.97220599999991
 30
0.0
  0
VERTEX
  5
A76
  8
LAYER01
  6
CONTINUOUS
 62
     7
 10
1072.6703010000001
 20
458.43334599999991
 30
0.0
  0
VERTEX
  5
A77
  8
LAYER01
  6
CONTINUOUS
 62
     7
 10
1073.4267460000001
 20
459.05402299999997
 30
0.0
  0
VERTEX
  5
A78
  8
LAYER01
  6
CONTINUOUS
 62
     7
 10
1074.047423
 20
459.8104679999999
 30
0.0
  0
VERTEX
  5
A79
  8
LAYER01
  6
CONTINUOUS
 62
     7
 10
1074.5085630000001
 20
460.67371200000002
 30
0.0
  0
VERTEX
  5
A7A
  8
LAYER01
  6
CONTINUOUS
 62
     7
 10
1074.7925049999999
 20
461.6106969999999
 30
0.0
  0
VERTEX
  5
A7B
  8
LAYER01
  6
CONTINUOUS
 62
     7
 10
1074.8883760000001
 20
462.58553999999998
 30
0.0
  0
SEQEND
  5
A7C
  8
LAYER01
  6
CONTINUOUS
 62
     7
  0
ARC
  5
4E2
  8
LAYER01
  6
CONTINUOUS
 62
     7
 10
774.88837599999999
 20
632.59239200000002
 30
0.0
 40
24.786062000000001
 50
330.077519
 51
29.922481000000008
  0
ARC
  5
4E3
  8
LAYER01
  6
CONTINUOUS
 62
     7
 10
774.88837599999999
 20
632.59239200000002
 30
0.0
 40
24.786062000000001
 50
150.077519
 51
209.922481
  0
ARC
  5
4E4
  8
LAYER01
  6
CONTINUOUS
 62
     7
 10
774.88837599999999
 20
632.59239200000002
 30
0.0
 40
24.786062000000001
 50
209.922481
 51
330.077519
  0
ARC
  5
4E5
  8
LAYER01
  6
CONTINUOUS
 62
     7
 10
774.88837599999999
 20
632.59239200000002
 30
0.0
 40
34.792335999999999
 50
330.077519
 51
29.922481000000008
  0
ARC
  5
4E6
  8
LAYER01
  6
CONTINUOUS
 62
     7
 10
774.88837599999999
 20
632.59239200000002
 30
0.0
 40
24.786062000000001
 50
29.922481000000008
 51
150.077519
  0
ARC
  5
4E7
  8
LAYER01
  6
CONTINUOUS
 62
     7
 10
774.88837599999999
 20
632.59239200000002
 30
0.0
 40
34.792335999999999
 50
150.077519
 51
209.922481
  0
INSERT
  5
4E8
  8
LAYER01
  2
VP356012-G8
 10
0.0
 20
0.0
 30
0.0
  0
ARC
  5
4E9
  8
LAYER01
  6
CONTINUOUS
 62
     7
 10
774.88837599999999
 20
632.59239200000002
 30
0.0
 40
34.792335999999999
 50
209.922481
 51
330.077519
  0
ARC
  5
4EA
  8
LAYER01
  6
CONTINUOUS
 62
     7
 10
774.88837599999999
 20
632.59239200000002
 30
0.0
 40
34.792335999999999
 50
29.922481000000008
 51
150.077519
  0
LINE
  5
4EB
  8
LAYER01
  6
CONTINUOUS
 62
     7
 10
1099.8883639999999
 20
462.59239000000002
 30
0.0
 11
1099.8883639999999
 21
802.59239400000001
 31
0.0
  0
LINE
  5
4EC
  8
LAYER01
  6
CONTINUOUS
 62
     7
 10
1074.8883880000001
 20
802.59924899999999
 30
0.0
 11
1074.8883880000001
 21
462.58553599999999
 31
0.0
  0
TEXT
  5
4ED
  8
LAYER01
  6
STRICHPUNKTIERT
 62
     7
 10
2013.7135002199329
 20
-476.35058007227872
 30
0.0
 40
39.285955799999989
  1
http://www.mineralwerkstoff.de
  0
INSERT
  5
4EE
  8
LAYER01
  2
VP356012-G9
 10
0.0
 20
0.0
 30
0.0
  0
INSERT
  5
4EF
  8
LAYER01
  2
VP356012-G11
 10
0.0
 20
0.0
 30
0.0
  0
TEXT
  5
4F0
  8
LAYER01
  6
CONTINUOUS
 62
     7
 10
2678.2411059999999
 20
-553.10039699999993
 30
0.0
 40
7.5
  1
Diese Zeichnung ist geistiges Eigentum der A. Sprenger GmbH
  7
SIMPLEX
  0
TEXT
  5
4F1
  8
LAYER01
  6
CONTINUOUS
 62
     7
 10
2678.2411059999999
 20
-565.95753899999988
 30
0.0
 40
7.5
  1
und urheberrechtlich geschützt. Ohne unsere Zustimmung darf 
  7
SIMPLEX
  0
TEXT
  5
4F2
  8
LAYER01
  6
CONTINUOUS
 62
     7
 10
2678.2411059999999
 20
-578.81468199999995
 30
0.0
 40
7.5
  1
sie in keiner Form verwendet oder Dritten zugänglich gemacht
  7
SIMPLEX
  0
TEXT
  5
4F3
  8
LAYER01
  6
CONTINUOUS
 62
     7
 10
2678.2411059999999
 20
-591.67182500000001
 30
0.0
 40
7.5
  1
werden. (§106 Urheberrecht)
  7
SIMPLEX
  0
TEXT
  5
4F4
  8
LAYER01
  6
VERDECKT
 62
     1
 10
2686.3512620000001
 20
-707.92206499999998
 30
0.0
 40
25.0
  1
A. Sprenger GmbH
  7
SIMPLEX
  0
TEXT
  5
4F5
  8
LAYER01
  6
VERDECKT
 62
     1
 10
2752.2949899999999
 20
-643.44375300000002
 30
0.0
 40
10.0
  1
1 : 10 (DIN A3)
  7
SIMPLEX
  0
TEXT
  5
4F6
  8
LAYER01
  6
VERDECKT
 62
     1
 10
2686.3512620000001
 20
-806.10494900000003
 30
0.0
 40
35.0
  1
VP-35-60-12
  7
SIMPLEX
  0
TEXT
  5
4F7
  8
LAYER01
  6
VERDECKT
 62
     1
 10
2550.8423550000002
 20
-765.84339999999986
 30
0.0
 40
10.0
  1
b.s.
  7
SIMPLEX
  0
TEXT
  5
4F8
  8
LAYER01
  6
VERDECKT
 62
     1
 10
2454.685199
 20
-765.80686300000002
 30
0.0
 40
10.0
  1
15.4.2021
  7
SIMPLEX
  0
TEXT
  5
4F9
  8
LAYER01
  6
VERDECKT
 62
     1
 10
3010.023584
 20
-643.44375300000002
 30
0.0
 40
10.0
  1
xxx.skd
  7
SIMPLEX
  0
DIMENSION
  5
4FA
  8
LAYER01
 62
     7
  2
*D11
 10
2200.5148669999999
 20
575.00551299999995
 30
0.0
 11
2130.5148669999999
 21
648.86469899999986
 31
0.0
 53
90.0
 13
1976.531581
 23
731.13105899999994
 33
0.0
 14
1976.531581
 24
575.00551299999995
 34
0.0
 50
90.0
  0
DIMENSION
  5
4FB
  8
LAYER01
 62
     7
  2
*D12
 10
1911.879907
 20
836.48072100000002
 30
0.0
 11
1737.114
 21
906.48072100000013
 31
0.0
 70
     1
 13
1561.879913
 23
731.13105899999994
 33
0.0
 14
1911.879907
 24
731.13105899999994
 34
0.0
  0
LINE
  5
4FC
  8
LAYER01
  6
CONTINUOUS
 62
     7
 10
1906.8867660000001
 20
731.13105899999994
 30
0.0
 11
1566.8730539999999
 21
731.13105899999994
 31
0.0
  0
LINE
  5
4FD
  8
LAYER01
  6
CONTINUOUS
 62
     7
 10
1726.538816
 20
595.99216000000001
 30
0.0
 11
1702.0875759999999
 21
595.99216000000001
 31
0.0
  0
LINE
  5
4FE
  8
LAYER01
  6
CONTINUOUS
 62
     7
 10
1712.093848
 20
587.59590700000001
 30
0.0
 11
1702.0875759999999
 21
595.99216000000001
 31
0.0
  0
LINE
  5
4FF
  8
LAYER01
  6
CONTINUOUS
 62
     7
 10
1713.8799100000001
 20
575.00551299999995
 30
0.0
 11
1696.879911
 21
575.00551299999995
 31
0.0
  0
INSERT
  5
500
  8
LAYER01
  2
VP356012-G14
 10
0.0
 20
0.0
 30
0.0
  0
LINE
  5
501
  8
LAYER01
  6
CONTINUOUS
 62
     7
 10
1536.879907
 20
719.13105899999994
 30
0.0
 11
1536.879907
 21
731.13105899999994
 31
0.0
  0
ARC
  5
502
  8
LAYER01
  6
CONTINUOUS
 62
     7
 10
1542.900619
 20
711.13105899999994
 30
0.0
 40
8.0
 50
3.0
 51
90.0
  0
LINE
  5
503
  8
LAYER01
  6
CONTINUOUS
 62
     7
 10
1542.900617
 20
719.13105899999994
 30
0.0
 11
1536.879907
 21
719.13105899999994
 31
0.0
  0
LINE
  5
504
  8
LAYER01
  6
CONTINUOUS
 62
     7
 10
1561.879913
 20
731.13105899999994
 30
0.0
 11
1536.879907
 21
731.13105899999994
 31
0.0
  0
LINE
  5
505
  8
LAYER01
  6
CONTINUOUS
 62
     7
 10
1561.879913
 20
731.13105899999994
 30
0.0
 11
1566.8730539999999
 21
731.13105899999994
 31
0.0
  0
LINE
  5
506
  8
LAYER01
  6
CONTINUOUS
 62
     7
 10
1567.1923859999999
 20
629.76298899999995
 30
0.0
 11
1561.879913
 21
731.13105899999994
 31
0.0
  0
LINE
  5
507
  8
LAYER01
  6
CONTINUOUS
 62
     7
 10
1555.2088269999999
 20
629.13495699999999
 30
0.0
 11
1550.889651
 21
711.54974600000003
 31
0.0
  0
ARC
  5
508
  8
LAYER01
  6
CONTINUOUS
 62
     7
 10
1572.1855330000001
 20
630.02467200000001
 30
0.0
 40
17.0
 50
183.0
 51
255.13028
  0
ARC
  5
509
  8
LAYER01
  6
CONTINUOUS
 62
     7
 10
1572.1855330000001
 20
630.02467200000001
 30
0.0
 40
5.0
 50
183.0
 51
255.13028
  0
POLYLINE
  5
50A
  8
LAYER01
  6
CONTINUOUS
 62
     7
 66
     1
 10
0.0
 20
0.0
 30
0.0
  0
VERTEX
  5
A7D
  8
LAYER01
  6
CONTINUOUS
 62
     7
 10
1668.7874179999999
 20
587.76740499999994
 30
0.0
  0
VERTEX
  5
A7E
  8
LAYER01
  6
CONTINUOUS
 62
     7
 10
1667.8194249999999
 20
588.02671799999985
 30
0.0
  0
VERTEX
  5
A7F
  8
LAYER01
  6
CONTINUOUS
 62
     7
 10
1666.8513379999999
 20
588.28565900000001
 30
0.0
  0
VERTEX
  5
A80
  8
LAYER01
  6
CONTINUOUS
 62
     7
 10
1665.8831369999989
 20
588.54415900000004
 30
0.0
  0
VERTEX
  5
A81
  8
LAYER01
  6
CONTINUOUS
 62
     7
 10
1664.914806
 20
588.80215199999986
 30
0.0
  0
VERTEX
  5
A82
  8
LAYER01
  6
CONTINUOUS
 62
     7
 10
1663.9463270000001
 20
589.05956900000001
 30
0.0
  0
VERTEX
  5
A83
  8
LAYER01
  6
CONTINUOUS
 62
     7
 10
1662.977684
 20
589.31634199999985
 30
0.0
  0
VERTEX
  5
A84
  8
LAYER01
  6
CONTINUOUS
 62
     7
 10
1662.008863
 20
589.57242699999995
 30
0.0
  0
VERTEX
  5
A85
  8
LAYER01
  6
CONTINUOUS
 62
     7
 10
1661.039892
 20
589.82792400000005
 30
0.0
  0
VERTEX
  5
A86
  8
LAYER01
  6
CONTINUOUS
 62
     7
 10
1660.070778
 20
590.08286699999996
 30
0.0
  0
VERTEX
  5
A87
  8
LAYER01
  6
CONTINUOUS
 62
     7
 10
1659.101527
 20
590.33727099999999
 30
0.0
  0
VERTEX
  5
A88
  8
LAYER01
  6
CONTINUOUS
 62
     7
 10
1658.132141
 20
590.59115199999997
 30
0.0
  0
VERTEX
  5
A89
  8
LAYER01
  6
CONTINUOUS
 62
     7
 10
1657.1626249999999
 20
590.84452599999986
 30
0.0
  0
VERTEX
  5
A8A
  8
LAYER01
  6
CONTINUOUS
 62
     7
 10
1656.1929829999999
 20
591.09740899999986
 30
0.0
  0
VERTEX
  5
A8B
  8
LAYER01
  6
CONTINUOUS
 62
     7
 10
1655.223219
 20
591.34981600000003
 30
0.0
  0
VERTEX
  5
A8C
  8
LAYER01
  6
CONTINUOUS
 62
     7
 10
1654.253336
 20
591.60176299999989
 30
0.0
  0
VERTEX
  5
A8D
  8
LAYER01
  6
CONTINUOUS
 62
     7
 10
1653.2833390000001
 20
591.85326199999986
 30
0.0
  0
VERTEX
  5
A8E
  8
LAYER01
  6
CONTINUOUS
 62
     7
 10
1652.3132310000001
 20
592.10432800000001
 30
0.0
  0
VERTEX
  5
A8F
  8
LAYER01
  6
CONTINUOUS
 62
     7
 10
1651.343014
 20
592.35497199999986
 30
0.0
  0
VERTEX
  5
A90
  8
LAYER01
  6
CONTINUOUS
 62
     7
 10
1650.372693
 20
592.60520799999995
 30
0.0
  0
VERTEX
  5
A91
  8
LAYER01
  6
CONTINUOUS
 62
     7
 10
1649.4022709999999
 20
592.85505000000001
 30
0.0
  0
VERTEX
  5
A92
  8
LAYER01
  6
CONTINUOUS
 62
     7
 10
1648.4317510000001
 20
593.104511
 30
0.0
  0
VERTEX
  5
A93
  8
LAYER01
  6
CONTINUOUS
 62
     7
 10
1647.4611359999999
 20
593.3536049999999
 30
0.0
  0
VERTEX
  5
A94
  8
LAYER01
  6
CONTINUOUS
 62
     7
 10
1646.4904309999999
 20
593.60234300000002
 30
0.0
  0
VERTEX
  5
A95
  8
LAYER01
  6
CONTINUOUS
 62
     7
 10
1645.519638
 20
593.85073999999997
 30
0.0
  0
VERTEX
  5
A96
  8
LAYER01
  6
CONTINUOUS
 62
     7
 10
1644.5487599999999
 20
594.09880899999985
 30
0.0
  0
VERTEX
  5
A97
  8
LAYER01
  6
CONTINUOUS
 62
     7
 10
1643.577802
 20
594.34656399999994
 30
0.0
  0
VERTEX
  5
A98
  8
LAYER01
  6
CONTINUOUS
 62
     7
 10
1642.606767
 20
594.59401700000001
 30
0.0
  0
VERTEX
  5
A99
  8
LAYER01
  6
CONTINUOUS
 62
     7
 10
1641.6356579999999
 20
594.841182
 30
0.0
  0
VERTEX
  5
A9A
  8
LAYER01
  6
CONTINUOUS
 62
     7
 10
1640.664477
 20
595.0880699999999
 30
0.0
  0
VERTEX
  5
A9B
  8
LAYER01
  6
CONTINUOUS
 62
     7
 10
1639.693229
 20
595.33469000000002
 30
0.0
  0
VERTEX
  5
A9C
  8
LAYER01
  6
CONTINUOUS
 62
     7
 10
1638.721914
 20
595.58105399999988
 30
0.0
  0
VERTEX
  5
A9D
  8
LAYER01
  6
CONTINUOUS
 62
     7
 10
1637.750536
 20
595.8271729999999
 30
0.0
  0
VERTEX
  5
A9E
  8
LAYER01
  6
CONTINUOUS
 62
     7
 10
1636.779098
 20
596.07305799999995
 30
0.0
  0
VERTEX
  5
A9F
  8
LAYER01
  6
CONTINUOUS
 62
     7
 10
1635.807603
 20
596.31871799999999
 30
0.0
  0
VERTEX
  5
AA0
  8
LAYER01
  6
CONTINUOUS
 62
     7
 10
1634.836053
 20
596.564166
 30
0.0
  0
VERTEX
  5
AA1
  8
LAYER01
  6
CONTINUOUS
 62
     7
 10
1633.864452
 20
596.80941199999995
 30
0.0
  0
VERTEX
  5
AA2
  8
LAYER01
  6
CONTINUOUS
 62
     7
 10
1632.892801
 20
597.05446600000005
 30
0.0
  0
VERTEX
  5
AA3
  8
LAYER01
  6
CONTINUOUS
 62
     7
 10
1631.921104
 20
597.29934000000003
 30
0.0
  0
VERTEX
  5
AA4
  8
LAYER01
  6
CONTINUOUS
 62
     7
 10
1630.9493629999999
 20
597.54404399999987
 30
0.0
  0
VERTEX
  5
AA5
  8
LAYER01
  6
CONTINUOUS
 62
     7
 10
1629.977582
 20
597.78859
 30
0.0
  0
VERTEX
  5
AA6
  8
LAYER01
  6
CONTINUOUS
 62
     7
 10
1629.005762
 20
598.03298700000005
 30
0.0
  0
VERTEX
  5
AA7
  8
LAYER01
  6
CONTINUOUS
 62
     7
 10
1628.0339080000001
 20
598.27724699999999
 30
0.0
  0
VERTEX
  5
AA8
  8
LAYER01
  6
CONTINUOUS
 62
     7
 10
1627.0620200000001
 20
598.52138000000002
 30
0.0
  0
VERTEX
  5
AA9
  8
LAYER01
  6
CONTINUOUS
 62
     7
 10
1626.0901040000001
 20
598.765398
 30
0.0
  0
VERTEX
  5
AAA
  8
LAYER01
  6
CONTINUOUS
 62
     7
 10
1625.11816
 20
599.00930999999991
 30
0.0
  0
VERTEX
  5
AAB
  8
LAYER01
  6
CONTINUOUS
 62
     7
 10
1624.1461919999999
 20
599.25312899999994
 30
0.0
  0
VERTEX
  5
AAC
  8
LAYER01
  6
CONTINUOUS
 62
     7
 10
1623.174203
 20
599.49686399999985
 30
0.0
  0
VERTEX
  5
AAD
  8
LAYER01
  6
CONTINUOUS
 62
     7
 10
1622.2021950000001
 20
599.74052699999993
 30
0.0
  0
VERTEX
  5
AAE
  8
LAYER01
  6
CONTINUOUS
 62
     7
 10
1621.2301709999999
 20
599.98412800000006
 30
0.0
  0
VERTEX
  5
AAF
  8
LAYER01
  6
CONTINUOUS
 62
     7
 10
1620.2581339999999
 20
600.22767799999997
 30
0.0
  0
VERTEX
  5
AB0
  8
LAYER01
  6
CONTINUOUS
 62
     7
 10
1619.286087
 20
600.47118799999998
 30
0.0
  0
VERTEX
  5
AB1
  8
LAYER01
  6
CONTINUOUS
 62
     7
 10
1618.3140330000001
 20
600.71466899999996
 30
0.0
  0
VERTEX
  5
AB2
  8
LAYER01
  6
CONTINUOUS
 62
     7
 10
1617.3419730000001
 20
600.95812799999987
 30
0.0
  0
VERTEX
  5
AB3
  8
LAYER01
  6
CONTINUOUS
 62
     7
 10
1616.369909
 20
601.20157400000005
 30
0.0
  0
VERTEX
  5
AB4
  8
LAYER01
  6
CONTINUOUS
 62
     7
 10
1615.397845
 20
601.44501699999989
 30
0.0
  0
VERTEX
  5
AB5
  8
LAYER01
  6
CONTINUOUS
 62
     7
 10
1614.4257829999999
 20
601.68846799999994
 30
0.0
  0
VERTEX
  5
AB6
  8
LAYER01
  6
CONTINUOUS
 62
     7
 10
1613.4537250000001
 20
601.93193699999995
 30
0.0
  0
VERTEX
  5
AB7
  8
LAYER01
  6
CONTINUOUS
 62
     7
 10
1612.481675
 20
602.17543499999999
 30
0.0
  0
VERTEX
  5
AB8
  8
LAYER01
  6
CONTINUOUS
 62
     7
 10
1611.509634
 20
602.41897099999994
 30
0.0
  0
VERTEX
  5
AB9
  8
LAYER01
  6
CONTINUOUS
 62
     7
 10
1610.537607
 20
602.66255699999999
 30
0.0
  0
VERTEX
  5
ABA
  8
LAYER01
  6
CONTINUOUS
 62
     7
 10
1609.5655939999999
 20
602.90620200000001
 30
0.0
  0
VERTEX
  5
ABB
  8
LAYER01
  6
CONTINUOUS
 62
     7
 10
1608.593599
 20
603.14991799999984
 30
0.0
  0
VERTEX
  5
ABC
  8
LAYER01
  6
CONTINUOUS
 62
     7
 10
1607.6216260000001
 20
603.39371399999993
 30
0.0
  0
VERTEX
  5
ABD
  8
LAYER01
  6
CONTINUOUS
 62
     7
 10
1606.6496749999999
 20
603.63760199999979
 30
0.0
  0
VERTEX
  5
ABE
  8
LAYER01
  6
CONTINUOUS
 62
     7
 10
1605.6777500000001
 20
603.88159100000007
 30
0.0
  0
VERTEX
  5
ABF
  8
LAYER01
  6
CONTINUOUS
 62
     7
 10
1604.705854
 20
604.12569199999984
 30
0.0
  0
VERTEX
  5
AC0
  8
LAYER01
  6
CONTINUOUS
 62
     7
 10
1603.7339890000001
 20
604.36991599999999
 30
0.0
  0
VERTEX
  5
AC1
  8
LAYER01
  6
CONTINUOUS
 62
     7
 10
1602.762158
 20
604.61427200000003
 30
0.0
  0
VERTEX
  5
AC2
  8
LAYER01
  6
CONTINUOUS
 62
     7
 10
1601.790364
 20
604.85877199999993
 30
0.0
  0
VERTEX
  5
AC3
  8
LAYER01
  6
CONTINUOUS
 62
     7
 10
1600.8186089999999
 20
605.10342600000001
 30
0.0
  0
VERTEX
  5
AC4
  8
LAYER01
  6
CONTINUOUS
 62
     7
 10
1599.846896
 20
605.34824300000002
 30
0.0
  0
VERTEX
  5
AC5
  8
LAYER01
  6
CONTINUOUS
 62
     7
 10
1598.875227
 20
605.59323600000005
 30
0.0
  0
VERTEX
  5
AC6
  8
LAYER01
  6
CONTINUOUS
 62
     7
 10
1597.9036060000001
 20
605.83841299999995
 30
0.0
  0
VERTEX
  5
AC7
  8
LAYER01
  6
CONTINUOUS
 62
     7
 10
1596.932035
 20
606.08378600000003
 30
0.0
  0
VERTEX
  5
AC8
  8
LAYER01
  6
CONTINUOUS
 62
     7
 10
1595.9605160000001
 20
606.32936500000005
 30
0.0
  0
VERTEX
  5
AC9
  8
LAYER01
  6
CONTINUOUS
 62
     7
 10
1594.989053
 20
606.57516099999987
 30
0.0
  0
VERTEX
  5
ACA
  8
LAYER01
  6
CONTINUOUS
 62
     7
 10
1594.017648
 20
606.82118300000002
 30
0.0
  0
VERTEX
  5
ACB
  8
LAYER01
  6
CONTINUOUS
 62
     7
 10
1593.0463030000001
 20
607.06744300000003
 30
0.0
  0
VERTEX
  5
ACC
  8
LAYER01
  6
CONTINUOUS
 62
     7
 10
1592.0750210000001
 20
607.31394699999998
 30
0.0
  0
VERTEX
  5
ACD
  8
LAYER01
  6
CONTINUOUS
 62
     7
 10
1591.1038040000001
 20
607.56070599999998
 30
0.0
  0
VERTEX
  5
ACE
  8
LAYER01
  6
CONTINUOUS
 62
     7
 10
1590.1326550000001
 20
607.80773199999999
 30
0.0
  0
VERTEX
  5
ACF
  8
LAYER01
  6
CONTINUOUS
 62
     7
 10
1589.161578
 20
608.05503999999996
 30
0.0
  0
VERTEX
  5
AD0
  8
LAYER01
  6
CONTINUOUS
 62
     7
 10
1588.190576
 20
608.30264199999999
 30
0.0
  0
VERTEX
  5
AD1
  8
LAYER01
  6
CONTINUOUS
 62
     7
 10
1587.219652
 20
608.55055099999993
 30
0.0
  0
VERTEX
  5
AD2
  8
LAYER01
  6
CONTINUOUS
 62
     7
 10
1586.2488109999999
 20
608.79878200000007
 30
0.0
  0
VERTEX
  5
AD3
  8
LAYER01
  6
CONTINUOUS
 62
     7
 10
1585.278055
 20
609.04734699999995
 30
0.0
  0
VERTEX
  5
AD4
  8
LAYER01
  6
CONTINUOUS
 62
     7
 10
1584.3073879999999
 20
609.29625999999985
 30
0.0
  0
VERTEX
  5
AD5
  8
LAYER01
  6
CONTINUOUS
 62
     7
 10
1583.336814
 20
609.54553499999986
 30
0.0
  0
VERTEX
  5
AD6
  8
LAYER01
  6
CONTINUOUS
 62
     7
 10
1582.3663349999999
 20
609.79518399999995
 30
0.0
  0
VERTEX
  5
AD7
  8
LAYER01
  6
CONTINUOUS
 62
     7
 10
1581.395955
 20
610.04522099999997
 30
0.0
  0
VERTEX
  5
AD8
  8
LAYER01
  6
CONTINUOUS
 62
     7
 10
1580.4256780000001
 20
610.29565899999989
 30
0.0
  0
VERTEX
  5
AD9
  8
LAYER01
  6
CONTINUOUS
 62
     7
 10
1579.4555069999999
 20
610.54651299999989
 30
0.0
  0
VERTEX
  5
ADA
  8
LAYER01
  6
CONTINUOUS
 62
     7
 10
1578.485445
 20
610.79779399999995
 30
0.0
  0
VERTEX
  5
ADB
  8
LAYER01
  6
CONTINUOUS
 62
     7
 10
1577.5154950000001
 20
611.04951700000004
 30
0.0
  0
VERTEX
  5
ADC
  8
LAYER01
  6
CONTINUOUS
 62
     7
 10
1576.545662
 20
611.301695
 30
0.0
  0
VERTEX
  5
ADD
  8
LAYER01
  6
CONTINUOUS
 62
     7
 10
1575.575949
 20
611.55434100000002
 30
0.0
  0
VERTEX
  5
ADE
  8
LAYER01
  6
CONTINUOUS
 62
     7
 10
1574.6063590000001
 20
611.80746799999986
 30
0.0
  0
VERTEX
  5
ADF
  8
LAYER01
  6
CONTINUOUS
 62
     7
 10
1573.6368950000001
 20
612.06109100000003
 30
0.0
  0
VERTEX
  5
AE0
  8
LAYER01
  6
CONTINUOUS
 62
     7
 10
1572.667561
 20
612.31522199999995
 30
0.0
  0
VERTEX
  5
AE1
  8
LAYER01
  6
CONTINUOUS
 62
     7
 10
1571.6983600000001
 20
612.56987500000002
 30
0.0
  0
VERTEX
  5
AE2
  8
LAYER01
  6
CONTINUOUS
 62
     7
 10
1570.729296
 20
612.825063
 30
0.0
  0
VERTEX
  5
AE3
  8
LAYER01
  6
CONTINUOUS
 62
     7
 10
1569.760372
 20
613.08079899999996
 30
0.0
  0
VERTEX
  5
AE4
  8
LAYER01
  6
CONTINUOUS
 62
     7
 10
1568.791592
 20
613.33709699999986
 30
0.0
  0
VERTEX
  5
AE5
  8
LAYER01
  6
CONTINUOUS
 62
     7
 10
1567.822958
 20
613.59397100000001
 30
0.0
  0
SEQEND
  5
AE6
  8
LAYER01
  6
CONTINUOUS
 62
     7
  0
POLYLINE
  5
575
  8
LAYER01
  6
CONTINUOUS
 62
     7
 66
     1
 10
0.0
 20
0.0
 30
0.0
  0
VERTEX
  5
AE7
  8
LAYER01
  6
CONTINUOUS
 62
     7
 10
1670.879852
 20
599.6301739999999
 30
0.0
  0
VERTEX
  5
AE8
  8
LAYER01
  6
CONTINUOUS
 62
     7
 10
1666.8848039999989
 20
600.69525499999997
 30
0.0
  0
VERTEX
  5
AE9
  8
LAYER01
  6
CONTINUOUS
 62
     7
 10
1662.848418
 20
601.76033600000005
 30
0.0
  0
VERTEX
  5
AEA
  8
LAYER01
  6
CONTINUOUS
 62
     7
 10
1658.7743049999999
 20
602.82541600000002
 30
0.0
  0
VERTEX
  5
AEB
  8
LAYER01
  6
CONTINUOUS
 62
     7
 10
1654.6660790000001
 20
603.89049699999987
 30
0.0
  0
VERTEX
  5
AEC
  8
LAYER01
  6
CONTINUOUS
 62
     7
 10
1650.5273540000001
 20
604.95557799999995
 30
0.0
  0
VERTEX
  5
AED
  8
LAYER01
  6
CONTINUOUS
 62
     7
 10
1646.361742
 20
606.02065899999991
 30
0.0
  0
VERTEX
  5
AEE
  8
LAYER01
  6
CONTINUOUS
 62
     7
 10
1642.1728579999999
 20
607.08573999999999
 30
0.0
  0
VERTEX
  5
AEF
  8
LAYER01
  6
CONTINUOUS
 62
     7
 10
1637.9643149999999
 20
608.15081999999995
 30
0.0
  0
VERTEX
  5
AF0
  8
LAYER01
  6
CONTINUOUS
 62
     7
 10
1633.7397249999999
 20
609.21590100000003
 30
0.0
  0
VERTEX
  5
AF1
  8
LAYER01
  6
CONTINUOUS
 62
     7
 10
1629.502702
 20
610.28098199999999
 30
0.0
  0
VERTEX
  5
AF2
  8
LAYER01
  6
CONTINUOUS
 62
     7
 10
1625.2568609999989
 20
611.34606299999984
 30
0.0
  0
VERTEX
  5
AF3
  8
LAYER01
  6
CONTINUOUS
 62
     7
 10
1621.005813
 20
612.41114299999992
 30
0.0
  0
VERTEX
  5
AF4
  8
LAYER01
  6
CONTINUOUS
 62
     7
 10
1616.7531719999999
 20
613.476224
 30
0.0
  0
VERTEX
  5
AF5
  8
LAYER01
  6
CONTINUOUS
 62
     7
 10
1612.5025519999999
 20
614.54130499999997
 30
0.0
  0
VERTEX
  5
AF6
  8
LAYER01
  6
CONTINUOUS
 62
     7
 10
1608.257566
 20
615.60638600000004
 30
0.0
  0
VERTEX
  5
AF7
  8
LAYER01
  6
CONTINUOUS
 62
     7
 10
1604.021827
 20
616.67146700000001
 30
0.0
  0
VERTEX
  5
AF8
  8
LAYER01
  6
CONTINUOUS
 62
     7
 10
1599.798949
 20
617.73654699999986
 30
0.0
  0
VERTEX
  5
AF9
  8
LAYER01
  6
CONTINUOUS
 62
     7
 10
1595.592545
 20
618.80162800000005
 30
0.0
  0
VERTEX
  5
AFA
  8
LAYER01
  6
CONTINUOUS
 62
     7
 10
1591.4062289999999
 20
619.86670900000001
 30
0.0
  0
VERTEX
  5
AFB
  8
LAYER01
  6
CONTINUOUS
 62
     7
 10
1587.2436130000001
 20
620.93179000000009
 30
0.0
  0
VERTEX
  5
AFC
  8
LAYER01
  6
CONTINUOUS
 62
     7
 10
1583.108311
 20
621.99686999999994
 30
0.0
  0
VERTEX
  5
AFD
  8
LAYER01
  6
CONTINUOUS
 62
     7
 10
1579.0039360000001
 20
623.06195100000002
 30
0.0
  0
VERTEX
  5
AFE
  8
LAYER01
  6
CONTINUOUS
 62
     7
 10
1574.9341030000001
 20
624.12703199999987
 30
0.0
  0
VERTEX
  5
AFF
  8
LAYER01
  6
CONTINUOUS
 62
     7
 10
1570.902423
 20
625.19211299999995
 30
0.0
  0
SEQEND
  5
B00
  8
LAYER01
  6
CONTINUOUS
 62
     7
  0
LINE
  5
590
  8
LAYER01
  6
CONTINUOUS
 62
     7
 10
1699.3094149999999
 20
597.14291700000001
 30
0.0
 11
1670.8799100000001
 21
599.6301739999999
 31
0.0
  0
LINE
  5
591
  8
LAYER01
  6
CONTINUOUS
 62
     7
 10
1696.879911
 20
575.00551299999995
 30
0.0
 11
1696.879911
 21
577.97897999999986
 31
0.0
  0
ARC
  5
592
  8
LAYER01
  6
CONTINUOUS
 62
     7
 10
1688.8799100000001
 20
577.97898099999986
 30
0.0
 40
8.0
 50
0.0
 51
85.0
  0
LINE
  5
593
  8
LAYER01
  6
CONTINUOUS
 62
     7
 10
1689.5771569999999
 20
585.94853899999987
 30
0.0
 11
1668.787415
 21
587.76740400000006
 31
0.0
  0
ARC
  5
594
  8
LAYER01
  6
CONTINUOUS
 62
     7
 10
1698.8736369999999
 20
592.16194099999996
 30
0.0
 40
5.0
 50
50.0
 51
85.0
  0
DIMENSION
  5
595
  8
LAYER01
 62
     7
  2
*D14
 10
2061.0903109999999
 20
591.79403300000001
 30
0.0
 11
1991.0903109999999
 21
657.25895899999989
 31
0.0
 53
90.0
 13
1944.278775
 23
731.13105899999994
 33
0.0
 14
1944.278775
 24
591.79403300000001
 34
0.0
 50
90.0
  0
LINE
  5
596
  8
LAYER01
  6
CONTINUOUS
 62
     7
 10
1713.8799100000001
 20
575.00551299999995
 30
0.0
 11
1730.043774
 21
575.00551299999995
 31
0.0
  0
LINE
  5
597
  8
LAYER01
  6
CONTINUOUS
 62
     7
 10
1712.093848
 20
587.59590700000001
 30
0.0
 11
1729.5129139999999
 21
587.59590700000001
 31
0.0
  0
LINE
  5
598
  8
LAYER01
  6
CONTINUOUS
 62
     7
 10
1713.8799100000001
 20
575.00551299999995
 30
0.0
 11
1713.8799100000001
 21
583.76568200000008
 31
0.0
  0
ARC
  5
599
  8
LAYER01
  6
CONTINUOUS
 62
     7
 10
1708.8799100000001
 20
583.76568099999986
 30
0.0
 40
5.0
 50
0.0
 51
50.0
  0
INSERT
  5
59A
  8
LAYER01
  2
VP356012-G16
 10
0.0
 20
0.0
 30
0.0
  0
ARC
  5
59B
  8
LAYER01
  6
CONTINUOUS
 62
     7
 10
1774.886184
 20
592.16194099999996
 30
0.0
 40
5.0
 50
95.0
 51
130.0
  0
LINE
  5
59C
  8
LAYER01
  6
CONTINUOUS
 62
     7
 10
1776.879909
 20
575.00551299999995
 30
0.0
 11
1759.8799100000001
 21
575.00551299999995
 31
0.0
  0
LINE
  5
59D
  8
LAYER01
  6
CONTINUOUS
 62
     7
 10
1771.6722440000001
 20
595.99216000000001
 30
0.0
 11
1761.6659729999999
 21
587.59590700000001
 31
0.0
  0
LINE
  5
59E
  8
LAYER01
  6
CONTINUOUS
 62
     7
 10
1759.8799100000001
 20
583.76568200000008
 30
0.0
 11
1759.8799100000001
 21
575.00551299999995
 31
0.0
  0
ARC
  5
59F
  8
LAYER01
  6
CONTINUOUS
 62
     7
 10
1764.8799100000001
 20
583.76568099999986
 30
0.0
 40
5.0
 50
130.0
 51
180.0
  0
LINE
  5
5A0
  8
LAYER01
  6
CONTINUOUS
 62
     7
 10
1730.043774
 20
575.00551299999995
 30
0.0
 11
1743.716046
 21
575.00551299999995
 31
0.0
  0
LINE
  5
5A1
  8
LAYER01
  6
CONTINUOUS
 62
     7
 10
1743.716046
 20
575.00551299999995
 30
0.0
 11
1759.8799100000001
 21
575.00551299999995
 31
0.0
  0
LINE
  5
5A2
  8
LAYER01
  6
CONTINUOUS
 62
     7
 10
1744.2469060000001
 20
587.59590700000001
 30
0.0
 11
1761.6659729999999
 21
587.59590700000001
 31
0.0
  0
LINE
  5
5A3
  8
LAYER01
  6
CONTINUOUS
 62
     7
 10
1729.5129139999999
 20
587.59590700000001
 30
0.0
 11
1744.2469060000001
 21
587.59590700000001
 31
0.0
  0
LINE
  5
5A4
  8
LAYER01
  6
CONTINUOUS
 62
     7
 10
1747.221004
 20
595.99216000000001
 30
0.0
 11
1726.538816
 21
595.99216000000001
 31
0.0
  0
LINE
  5
5A5
  8
LAYER01
  6
CONTINUOUS
 62
     7
 10
1771.6722440000001
 20
595.99216000000001
 30
0.0
 11
1747.221004
 21
595.99216000000001
 31
0.0
  0
LINE
  5
5A6
  8
LAYER01
  6
CONTINUOUS
 62
     7
 10
1802.8799100000001
 20
599.6301739999999
 30
0.0
 11
1774.450405
 21
597.14291700000001
 31
0.0
  0
LINE
  5
5A7
  8
LAYER01
  6
CONTINUOUS
 62
     7
 10
1804.972405
 20
587.76740400000006
 30
0.0
 11
1784.182663
 21
585.94853899999987
 31
0.0
  0
ARC
  5
5A8
  8
LAYER01
  6
CONTINUOUS
 62
     7
 10
1784.8799100000001
 20
577.97898099999986
 30
0.0
 40
8.0
 50
95.0
 51
180.0
  0
LINE
  5
5A9
  8
LAYER01
  6
CONTINUOUS
 62
     7
 10
1776.879909
 20
577.97897999999986
 30
0.0
 11
1776.879909
 21
575.00551299999995
 31
0.0
  0
POLYLINE
  5
5AA
  8
LAYER01
  6
CONTINUOUS
 62
     7
 66
     1
 10
0.0
 20
0.0
 30
0.0
  0
VERTEX
  5
B01
  8
LAYER01
  6
CONTINUOUS
 62
     7
 10
1902.857397
 20
625.19211299999995
 30
0.0
  0
VERTEX
  5
B02
  8
LAYER01
  6
CONTINUOUS
 62
     7
 10
1898.8257180000001
 20
624.12703199999987
 30
0.0
  0
VERTEX
  5
B03
  8
LAYER01
  6
CONTINUOUS
 62
     7
 10
1894.7558839999999
 20
623.06195100000002
 30
0.0
  0
VERTEX
  5
B04
  8
LAYER01
  6
CONTINUOUS
 62
     7
 10
1890.6515099999999
 20
621.99686999999994
 30
0.0
  0
VERTEX
  5
B05
  8
LAYER01
  6
CONTINUOUS
 62
     7
 10
1886.5162079999991
 20
620.93179000000009
 30
0.0
  0
VERTEX
  5
B06
  8
LAYER01
  6
CONTINUOUS
 62
     7
 10
1882.3535919999999
 20
619.86670900000001
 30
0.0
  0
VERTEX
  5
B07
  8
LAYER01
  6
CONTINUOUS
 62
     7
 10
1878.167275
 20
618.80162800000005
 30
0.0
  0
VERTEX
  5
B08
  8
LAYER01
  6
CONTINUOUS
 62
     7
 10
1873.960871
 20
617.73654699999986
 30
0.0
  0
VERTEX
  5
B09
  8
LAYER01
  6
CONTINUOUS
 62
     7
 10
1869.737993
 20
616.67146700000001
 30
0.0
  0
VERTEX
  5
B0A
  8
LAYER01
  6
CONTINUOUS
 62
     7
 10
1865.502254
 20
615.60638600000004
 30
0.0
  0
VERTEX
  5
B0B
  8
LAYER01
  6
CONTINUOUS
 62
     7
 10
1861.2572680000001
 20
614.54130499999997
 30
0.0
  0
VERTEX
  5
B0C
  8
LAYER01
  6
CONTINUOUS
 62
     7
 10
1857.006648
 20
613.476224
 30
0.0
  0
VERTEX
  5
B0D
  8
LAYER01
  6
CONTINUOUS
 62
     7
 10
1852.754007999999
 20
612.41114299999992
 30
0.0
  0
VERTEX
  5
B0E
  8
LAYER01
  6
CONTINUOUS
 62
     7
 10
1848.50296
 20
611.34606299999984
 30
0.0
  0
VERTEX
  5
B0F
  8
LAYER01
  6
CONTINUOUS
 62
     7
 10
1844.257118
 20
610.28098199999999
 30
0.0
  0
VERTEX
  5
B10
  8
LAYER01
  6
CONTINUOUS
 62
     7
 10
1840.0200950000001
 20
609.21590100000003
 30
0.0
  0
VERTEX
  5
B11
  8
LAYER01
  6
CONTINUOUS
 62
     7
 10
1835.7955059999999
 20
608.15081999999995
 30
0.0
  0
VERTEX
  5
B12
  8
LAYER01
  6
CONTINUOUS
 62
     7
 10
1831.5869620000001
 20
607.08573999999999
 30
0.0
  0
VERTEX
  5
B13
  8
LAYER01
  6
CONTINUOUS
 62
     7
 10
1827.3980779999999
 20
606.02065899999991
 30
0.0
  0
VERTEX
  5
B14
  8
LAYER01
  6
CONTINUOUS
 62
     7
 10
1823.2324659999999
 20
604.95557799999995
 30
0.0
  0
VERTEX
  5
B15
  8
LAYER01
  6
CONTINUOUS
 62
     7
 10
1819.0937409999999
 20
603.89049699999987
 30
0.0
  0
VERTEX
  5
B16
  8
LAYER01
  6
CONTINUOUS
 62
     7
 10
1814.9855150000001
 20
602.82541600000002
 30
0.0
  0
VERTEX
  5
B17
  8
LAYER01
  6
CONTINUOUS
 62
     7
 10
1810.9114030000001
 20
601.76033600000005
 30
0.0
  0
VERTEX
  5
B18
  8
LAYER01
  6
CONTINUOUS
 62
     7
 10
1806.875016
 20
600.69525499999997
 30
0.0
  0
VERTEX
  5
B19
  8
LAYER01
  6
CONTINUOUS
 62
     7
 10
1802.8799690000001
 20
599.6301739999999
 30
0.0
  0
SEQEND
  5
B1A
  8
LAYER01
  6
CONTINUOUS
 62
     7
  0
POLYLINE
  5
5C5
  8
LAYER01
  6
CONTINUOUS
 62
     7
 66
     1
 10
0.0
 20
0.0
 30
0.0
  0
VERTEX
  5
B1B
  8
LAYER01
  6
CONTINUOUS
 62
     7
 10
1905.936862
 20
613.59397100000001
 30
0.0
  0
VERTEX
  5
B1C
  8
LAYER01
  6
CONTINUOUS
 62
     7
 10
1904.968228
 20
613.33709699999986
 30
0.0
  0
VERTEX
  5
B1D
  8
LAYER01
  6
CONTINUOUS
 62
     7
 10
1903.999448
 20
613.08079899999996
 30
0.0
  0
VERTEX
  5
B1E
  8
LAYER01
  6
CONTINUOUS
 62
     7
 10
1903.030524
 20
612.825063
 30
0.0
  0
VERTEX
  5
B1F
  8
LAYER01
  6
CONTINUOUS
 62
     7
 10
1902.0614599999999
 20
612.56987500000002
 30
0.0
  0
VERTEX
  5
B20
  8
LAYER01
  6
CONTINUOUS
 62
     7
 10
1901.092259
 20
612.31522199999995
 30
0.0
  0
VERTEX
  5
B21
  8
LAYER01
  6
CONTINUOUS
 62
     7
 10
1900.122924999999
 20
612.06109100000003
 30
0.0
  0
VERTEX
  5
B22
  8
LAYER01
  6
CONTINUOUS
 62
     7
 10
1899.1534610000001
 20
611.80746799999986
 30
0.0
  0
VERTEX
  5
B23
  8
LAYER01
  6
CONTINUOUS
 62
     7
 10
1898.183871
 20
611.55434100000002
 30
0.0
  0
VERTEX
  5
B24
  8
LAYER01
  6
CONTINUOUS
 62
     7
 10
1897.214158
 20
611.301695
 30
0.0
  0
VERTEX
  5
B25
  8
LAYER01
  6
CONTINUOUS
 62
     7
 10
1896.2443249999999
 20
611.04951700000004
 30
0.0
  0
VERTEX
  5
B26
  8
LAYER01
  6
CONTINUOUS
 62
     7
 10
1895.2743760000001
 20
610.79779399999995
 30
0.0
  0
VERTEX
  5
B27
  8
LAYER01
  6
CONTINUOUS
 62
     7
 10
1894.304314
 20
610.54651299999989
 30
0.0
  0
VERTEX
  5
B28
  8
LAYER01
  6
CONTINUOUS
 62
     7
 10
1893.3341419999999
 20
610.29565899999989
 30
0.0
  0
VERTEX
  5
B29
  8
LAYER01
  6
CONTINUOUS
 62
     7
 10
1892.363865
 20
610.04522099999997
 30
0.0
  0
VERTEX
  5
B2A
  8
LAYER01
  6
CONTINUOUS
 62
     7
 10
1891.3934850000001
 20
609.79518399999995
 30
0.0
  0
VERTEX
  5
B2B
  8
LAYER01
  6
CONTINUOUS
 62
     7
 10
1890.423006
 20
609.54553499999986
 30
0.0
  0
VERTEX
  5
B2C
  8
LAYER01
  6
CONTINUOUS
 62
     7
 10
1889.452432
 20
609.29625999999985
 30
0.0
  0
VERTEX
  5
B2D
  8
LAYER01
  6
CONTINUOUS
 62
     7
 10
1888.481765
 20
609.04734699999995
 30
0.0
  0
VERTEX
  5
B2E
  8
LAYER01
  6
CONTINUOUS
 62
     7
 10
1887.5110090000001
 20
608.79878200000007
 30
0.0
  0
VERTEX
  5
B2F
  8
LAYER01
  6
CONTINUOUS
 62
     7
 10
1886.540168
 20
608.55055099999993
 30
0.0
  0
VERTEX
  5
B30
  8
LAYER01
  6
CONTINUOUS
 62
     7
 10
1885.5692449999999
 20
608.30264199999999
 30
0.0
  0
VERTEX
  5
B31
  8
LAYER01
  6
CONTINUOUS
 62
     7
 10
1884.5982429999999
 20
608.05503999999996
 30
0.0
  0
VERTEX
  5
B32
  8
LAYER01
  6
CONTINUOUS
 62
     7
 10
1883.627166
 20
607.80773199999999
 30
0.0
  0
VERTEX
  5
B33
  8
LAYER01
  6
CONTINUOUS
 62
     7
 10
1882.656017
 20
607.56070599999998
 30
0.0
  0
VERTEX
  5
B34
  8
LAYER01
  6
CONTINUOUS
 62
     7
 10
1881.6847990000001
 20
607.31394699999998
 30
0.0
  0
VERTEX
  5
B35
  8
LAYER01
  6
CONTINUOUS
 62
     7
 10
1880.7135169999999
 20
607.06744300000003
 30
0.0
  0
VERTEX
  5
B36
  8
LAYER01
  6
CONTINUOUS
 62
     7
 10
1879.7421730000001
 20
606.82118300000002
 30
0.0
  0
VERTEX
  5
B37
  8
LAYER01
  6
CONTINUOUS
 62
     7
 10
1878.770767
 20
606.57516099999987
 30
0.0
  0
VERTEX
  5
B38
  8
LAYER01
  6
CONTINUOUS
 62
     7
 10
1877.7993039999999
 20
606.32936500000005
 30
0.0
  0
VERTEX
  5
B39
  8
LAYER01
  6
CONTINUOUS
 62
     7
 10
1876.8277849999999
 20
606.08378600000003
 30
0.0
  0
VERTEX
  5
B3A
  8
LAYER01
  6
CONTINUOUS
 62
     7
 10
1875.8562139999999
 20
605.83841299999995
 30
0.0
  0
VERTEX
  5
B3B
  8
LAYER01
  6
CONTINUOUS
 62
     7
 10
1874.884593
 20
605.59323600000005
 30
0.0
  0
VERTEX
  5
B3C
  8
LAYER01
  6
CONTINUOUS
 62
     7
 10
1873.912924
 20
605.34824300000002
 30
0.0
  0
VERTEX
  5
B3D
  8
LAYER01
  6
CONTINUOUS
 62
     7
 10
1872.9412110000001
 20
605.10342600000001
 30
0.0
  0
VERTEX
  5
B3E
  8
LAYER01
  6
CONTINUOUS
 62
     7
 10
1871.969456
 20
604.85877199999993
 30
0.0
  0
VERTEX
  5
B3F
  8
LAYER01
  6
CONTINUOUS
 62
     7
 10
1870.997662
 20
604.61427200000003
 30
0.0
  0
VERTEX
  5
B40
  8
LAYER01
  6
CONTINUOUS
 62
     7
 10
1870.0258309999999
 20
604.36991599999999
 30
0.0
  0
VERTEX
  5
B41
  8
LAYER01
  6
CONTINUOUS
 62
     7
 10
1869.0539659999999
 20
604.12569199999984
 30
0.0
  0
VERTEX
  5
B42
  8
LAYER01
  6
CONTINUOUS
 62
     7
 10
1868.082069999999
 20
603.88159100000007
 30
0.0
  0
VERTEX
  5
B43
  8
LAYER01
  6
CONTINUOUS
 62
     7
 10
1867.1101450000001
 20
603.63760199999979
 30
0.0
  0
VERTEX
  5
B44
  8
LAYER01
  6
CONTINUOUS
 62
     7
 10
1866.138195
 20
603.39371399999993
 30
0.0
  0
VERTEX
  5
B45
  8
LAYER01
  6
CONTINUOUS
 62
     7
 10
1865.166221
 20
603.14991799999984
 30
0.0
  0
VERTEX
  5
B46
  8
LAYER01
  6
CONTINUOUS
 62
     7
 10
1864.1942260000001
 20
602.90620200000001
 30
0.0
  0
VERTEX
  5
B47
  8
LAYER01
  6
CONTINUOUS
 62
     7
 10
1863.2222139999999
 20
602.66255699999999
 30
0.0
  0
VERTEX
  5
B48
  8
LAYER01
  6
CONTINUOUS
 62
     7
 10
1862.250186
 20
602.41897099999994
 30
0.0
  0
VERTEX
  5
B49
  8
LAYER01
  6
CONTINUOUS
 62
     7
 10
1861.278145
 20
602.17543499999999
 30
0.0
  0
VERTEX
  5
B4A
  8
LAYER01
  6
CONTINUOUS
 62
     7
 10
1860.3060949999999
 20
601.93193699999995
 30
0.0
  0
VERTEX
  5
B4B
  8
LAYER01
  6
CONTINUOUS
 62
     7
 10
1859.334038
 20
601.68846799999994
 30
0.0
  0
VERTEX
  5
B4C
  8
LAYER01
  6
CONTINUOUS
 62
     7
 10
1858.361975
 20
601.44501699999989
 30
0.0
  0
VERTEX
  5
B4D
  8
LAYER01
  6
CONTINUOUS
 62
     7
 10
1857.389911
 20
601.20157400000005
 30
0.0
  0
VERTEX
  5
B4E
  8
LAYER01
  6
CONTINUOUS
 62
     7
 10
1856.417848
 20
600.95812799999987
 30
0.0
  0
VERTEX
  5
B4F
  8
LAYER01
  6
CONTINUOUS
 62
     7
 10
1855.445788
 20
600.71466899999996
 30
0.0
  0
VERTEX
  5
B50
  8
LAYER01
  6
CONTINUOUS
 62
     7
 10
1854.473733
 20
600.47118799999998
 30
0.0
  0
VERTEX
  5
B51
  8
LAYER01
  6
CONTINUOUS
 62
     7
 10
1853.5016860000001
 20
600.22767799999997
 30
0.0
  0
VERTEX
  5
B52
  8
LAYER01
  6
CONTINUOUS
 62
     7
 10
1852.5296490000001
 20
599.98412800000006
 30
0.0
  0
VERTEX
  5
B53
  8
LAYER01
  6
CONTINUOUS
 62
     7
 10
1851.5576249999999
 20
599.74052699999993
 30
0.0
  0
VERTEX
  5
B54
  8
LAYER01
  6
CONTINUOUS
 62
     7
 10
1850.5856180000001
 20
599.49686399999985
 30
0.0
  0
VERTEX
  5
B55
  8
LAYER01
  6
CONTINUOUS
 62
     7
 10
1849.6136280000001
 20
599.25312899999994
 30
0.0
  0
VERTEX
  5
B56
  8
LAYER01
  6
CONTINUOUS
 62
     7
 10
1848.64166
 20
599.00930999999991
 30
0.0
  0
VERTEX
  5
B57
  8
LAYER01
  6
CONTINUOUS
 62
     7
 10
1847.669717
 20
598.765398
 30
0.0
  0
VERTEX
  5
B58
  8
LAYER01
  6
CONTINUOUS
 62
     7
 10
1846.6977999999999
 20
598.52138000000002
 30
0.0
  0
VERTEX
  5
B59
  8
LAYER01
  6
CONTINUOUS
 62
     7
 10
1845.725913
 20
598.27724699999999
 30
0.0
  0
VERTEX
  5
B5A
  8
LAYER01
  6
CONTINUOUS
 62
     7
 10
1844.754058
 20
598.03298700000005
 30
0.0
  0
VERTEX
  5
B5B
  8
LAYER01
  6
CONTINUOUS
 62
     7
 10
1843.7822389999999
 20
597.78859
 30
0.0
  0
VERTEX
  5
B5C
  8
LAYER01
  6
CONTINUOUS
 62
     7
 10
1842.810457
 20
597.54404399999987
 30
0.0
  0
VERTEX
  5
B5D
  8
LAYER01
  6
CONTINUOUS
 62
     7
 10
1841.8387170000001
 20
597.29934000000003
 30
0.0
  0
VERTEX
  5
B5E
  8
LAYER01
  6
CONTINUOUS
 62
     7
 10
1840.867019
 20
597.05446600000005
 30
0.0
  0
VERTEX
  5
B5F
  8
LAYER01
  6
CONTINUOUS
 62
     7
 10
1839.8953690000001
 20
596.80941199999995
 30
0.0
  0
VERTEX
  5
B60
  8
LAYER01
  6
CONTINUOUS
 62
     7
 10
1838.923767
 20
596.564166
 30
0.0
  0
VERTEX
  5
B61
  8
LAYER01
  6
CONTINUOUS
 62
     7
 10
1837.952217
 20
596.31871799999999
 30
0.0
  0
VERTEX
  5
B62
  8
LAYER01
  6
CONTINUOUS
 62
     7
 10
1836.980722
 20
596.07305799999995
 30
0.0
  0
VERTEX
  5
B63
  8
LAYER01
  6
CONTINUOUS
 62
     7
 10
1836.009284
 20
595.8271729999999
 30
0.0
  0
VERTEX
  5
B64
  8
LAYER01
  6
CONTINUOUS
 62
     7
 10
1835.037906
 20
595.58105399999988
 30
0.0
  0
VERTEX
  5
B65
  8
LAYER01
  6
CONTINUOUS
 62
     7
 10
1834.0665919999999
 20
595.33469000000002
 30
0.0
  0
VERTEX
  5
B66
  8
LAYER01
  6
CONTINUOUS
 62
     7
 10
1833.095343
 20
595.0880699999999
 30
0.0
  0
VERTEX
  5
B67
  8
LAYER01
  6
CONTINUOUS
 62
     7
 10
1832.1241620000001
 20
594.841182
 30
0.0
  0
VERTEX
  5
B68
  8
LAYER01
  6
CONTINUOUS
 62
     7
 10
1831.153053
 20
594.59401700000001
 30
0.0
  0
VERTEX
  5
B69
  8
LAYER01
  6
CONTINUOUS
 62
     7
 10
1830.182018
 20
594.34656399999994
 30
0.0
  0
VERTEX
  5
B6A
  8
LAYER01
  6
CONTINUOUS
 62
     7
 10
1829.2110600000001
 20
594.09880899999985
 30
0.0
  0
VERTEX
  5
B6B
  8
LAYER01
  6
CONTINUOUS
 62
     7
 10
1828.2401829999999
 20
593.85073999999997
 30
0.0
  0
VERTEX
  5
B6C
  8
LAYER01
  6
CONTINUOUS
 62
     7
 10
1827.2693899999999
 20
593.60234300000002
 30
0.0
  0
VERTEX
  5
B6D
  8
LAYER01
  6
CONTINUOUS
 62
     7
 10
1826.2986840000001
 20
593.3536049999999
 30
0.0
  0
VERTEX
  5
B6E
  8
LAYER01
  6
CONTINUOUS
 62
     7
 10
1825.32807
 20
593.104511
 30
0.0
  0
VERTEX
  5
B6F
  8
LAYER01
  6
CONTINUOUS
 62
     7
 10
1824.3575490000001
 20
592.85505000000001
 30
0.0
  0
VERTEX
  5
B70
  8
LAYER01
  6
CONTINUOUS
 62
     7
 10
1823.387127
 20
592.60520799999995
 30
0.0
  0
VERTEX
  5
B71
  8
LAYER01
  6
CONTINUOUS
 62
     7
 10
1822.416806
 20
592.35497199999986
 30
0.0
  0
VERTEX
  5
B72
  8
LAYER01
  6
CONTINUOUS
 62
     7
 10
1821.44659
 20
592.10432800000001
 30
0.0
  0
VERTEX
  5
B73
  8
LAYER01
  6
CONTINUOUS
 62
     7
 10
1820.4764809999999
 20
591.85326199999986
 30
0.0
  0
VERTEX
  5
B74
  8
LAYER01
  6
CONTINUOUS
 62
     7
 10
1819.506484
 20
591.60176299999989
 30
0.0
  0
VERTEX
  5
B75
  8
LAYER01
  6
CONTINUOUS
 62
     7
 10
1818.5366019999999
 20
591.34981600000003
 30
0.0
  0
VERTEX
  5
B76
  8
LAYER01
  6
CONTINUOUS
 62
     7
 10
1817.566838
 20
591.09740899999986
 30
0.0
  0
VERTEX
  5
B77
  8
LAYER01
  6
CONTINUOUS
 62
     7
 10
1816.5971959999999
 20
590.84452599999986
 30
0.0
  0
VERTEX
  5
B78
  8
LAYER01
  6
CONTINUOUS
 62
     7
 10
1815.6276800000001
 20
590.59115199999997
 30
0.0
  0
VERTEX
  5
B79
  8
LAYER01
  6
CONTINUOUS
 62
     7
 10
1814.6582940000001
 20
590.33727099999999
 30
0.0
  0
VERTEX
  5
B7A
  8
LAYER01
  6
CONTINUOUS
 62
     7
 10
1813.689042
 20
590.08286699999996
 30
0.0
  0
VERTEX
  5
B7B
  8
LAYER01
  6
CONTINUOUS
 62
     7
 10
1812.719928
 20
589.82792400000005
 30
0.0
  0
VERTEX
  5
B7C
  8
LAYER01
  6
CONTINUOUS
 62
     7
 10
1811.750957
 20
589.57242699999995
 30
0.0
  0
VERTEX
  5
B7D
  8
LAYER01
  6
CONTINUOUS
 62
     7
 10
1810.7821369999999
 20
589.31634199999985
 30
0.0
  0
VERTEX
  5
B7E
  8
LAYER01
  6
CONTINUOUS
 62
     7
 10
1809.8134930000001
 20
589.05956900000001
 30
0.0
  0
VERTEX
  5
B7F
  8
LAYER01
  6
CONTINUOUS
 62
     7
 10
1808.845014
 20
588.80215199999986
 30
0.0
  0
VERTEX
  5
B80
  8
LAYER01
  6
CONTINUOUS
 62
     7
 10
1807.876683
 20
588.54415900000004
 30
0.0
  0
VERTEX
  5
B81
  8
LAYER01
  6
CONTINUOUS
 62
     7
 10
1806.9084829999999
 20
588.28565900000001
 30
0.0
  0
VERTEX
  5
B82
  8
LAYER01
  6
CONTINUOUS
 62
     7
 10
1805.9403950000001
 20
588.02671799999985
 30
0.0
  0
VERTEX
  5
B83
  8
LAYER01
  6
CONTINUOUS
 62
     7
 10
1804.972403
 20
587.76740499999994
 30
0.0
  0
SEQEND
  5
B84
  8
LAYER01
  6
CONTINUOUS
 62
     7
  0
ARC
  5
630
  8
LAYER01
  6
CONTINUOUS
 62
     7
 10
1901.5742869999999
 20
630.02467200000001
 30
0.0
 40
5.0
 50
284.86971999999997
 51
357.0
  0
LINE
  5
631
  8
LAYER01
  6
CONTINUOUS
 62
     7
 10
1918.5509930000001
 20
629.13495699999999
 30
0.0
 11
1922.870169
 21
711.54974600000003
 31
0.0
  0
LINE
  5
632
  8
LAYER01
  6
CONTINUOUS
 62
     7
 10
1906.5674349999999
 20
629.76298899999995
 30
0.0
 11
1911.879907
 21
731.13105899999994
 31
0.0
  0
LINE
  5
633
  8
LAYER01
  6
CONTINUOUS
 62
     7
 10
1906.8867660000001
 20
731.13105899999994
 30
0.0
 11
1911.879907
 21
731.13105899999994
 31
0.0
  0
LINE
  5
634
  8
LAYER01
  6
CONTINUOUS
 62
     7
 10
1936.879913
 20
731.13105899999994
 30
0.0
 11
1911.879907
 21
731.13105899999994
 31
0.0
  0
ARC
  5
635
  8
LAYER01
  6
CONTINUOUS
 62
     7
 10
1930.859201
 20
711.13105899999994
 30
0.0
 40
8.0
 50
90.0
 51
177.0
  0
LINE
  5
636
  8
LAYER01
  6
CONTINUOUS
 62
     7
 10
1936.879913
 20
719.13105899999994
 30
0.0
 11
1930.859203
 21
719.13105899999994
 31
0.0
  0
LINE
  5
637
  8
LAYER01
  6
CONTINUOUS
 62
     7
 10
1936.879913
 20
731.13105899999994
 30
0.0
 11
1936.879913
 21
719.13105899999994
 31
0.0
  0
ARC
  5
638
  8
LAYER01
  6
CONTINUOUS
 62
     7
 10
1901.5742869999999
 20
630.02467200000001
 30
0.0
 40
17.0
 50
284.86971999999997
 51
357.0
  0
ENDSEC
  0
EOF
