  0
SECTION
  2
HEADER
  9
$ACADVER
  1
AC1009
  9
$INSBASE
 10
0.0
 20
0.0
 30
0.0
  9
$EXTMIN
 10
-499.77629182412602
 20
-1003.5722314144419
 30
-0.0015258207003583
  9
$EXTMAX
 10
4629.7596902270234
 20
1782.842681338198
 30
0.0000000349246037
  9
$LIMMIN
 10
-574.42559500000004
 20
-1053.01331
  9
$LIMMAX
 10
3561.0064390000011
 20
1871.327914
  9
$ORTHOMODE
 70
     1
  9
$REGENMODE
 70
     1
  9
$FILLMODE
 70
     1
  9
$QTEXTMODE
 70
     0
  9
$MIRRTEXT
 70
     0
  9
$DRAGMODE
 70
     2
  9
$LTSCALE
 40
1.0
  9
$OSMODE
 70
    37
  9
$ATTMODE
 70
     1
  9
$TEXTSIZE
 40
0.0
  9
$TRACEWID
 40
0.05
  9
$TEXTSTYLE
  7
STANDARD
  9
$CLAYER
  8
LAYER01
  9
$CELTYPE
  6
CONTINUOUS
  9
$CECOLOR
 62
     7
  9
$DIMSCALE
 40
1.0
  9
$DIMASZ
 40
0.18
  9
$DIMEXO
 40
0.0625
  9
$DIMDLI
 40
0.38
  9
$DIMRND
 40
0.0
  9
$DIMDLE
 40
0.0
  9
$DIMEXE
 40
0.18
  9
$DIMTP
 40
0.0
  9
$DIMTM
 40
0.0
  9
$DIMTXT
 40
0.18
  9
$DIMCEN
 40
0.09
  9
$DIMTSZ
 40
0.0
  9
$DIMTOL
 70
     0
  9
$DIMLIM
 70
     0
  9
$DIMTIH
 70
     1
  9
$DIMTOH
 70
     1
  9
$DIMSE1
 70
     0
  9
$DIMSE2
 70
     0
  9
$DIMTAD
 70
     0
  9
$DIMZIN
 70
     0
  9
$DIMBLK
  1

  9
$DIMASO
 70
     1
  9
$DIMSHO
 70
     1
  9
$DIMPOST
  1

  9
$DIMAPOST
  1

  9
$DIMALT
 70
     0
  9
$DIMALTD
 70
     2
  9
$DIMALTF
 40
25.399999999999999
  9
$DIMLFAC
 40
1.0
  9
$DIMTOFL
 70
     0
  9
$DIMTVP
 40
0.0
  9
$DIMTIX
 70
     0
  9
$DIMSOXD
 70
     0
  9
$DIMSAH
 70
     0
  9
$DIMBLK1
  1

  9
$DIMBLK2
  1

  9
$DIMSTYLE
  2
STANDARD
  9
$DIMCLRD
 70
     0
  9
$DIMCLRE
 70
     0
  9
$DIMCLRT
 70
     0
  9
$DIMTFAC
 40
1.0
  9
$DIMGAP
 40
0.09
  9
$LUNITS
 70
     2
  9
$LUPREC
 70
     4
  9
$SKETCHINC
 40
0.1
  9
$FILLETRAD
 40
10.0
  9
$AUNITS
 70
     0
  9
$AUPREC
 70
     0
  9
$MENU
  1
acad
  9
$ELEVATION
 40
0.0
  9
$PELEVATION
 40
0.0
  9
$THICKNESS
 40
0.0
  9
$LIMCHECK
 70
     0
  9
$BLIPMODE
 70
     0
  9
$CHAMFERA
 40
10.0
  9
$CHAMFERB
 40
10.0
  9
$SKPOLY
 70
     0
  9
$TDCREATE
 40
2305814.0418976038
  9
$TDUPDATE
 40
2459538.3947936338
  9
$TDINDWG
 40
0.0004261458
  9
$TDUSRTIMER
 40
0.0004258102
  9
$USRTIMER
 70
     1
  9
$ANGBASE
 50
0.0
  9
$ANGDIR
 70
     0
  9
$PDMODE
 70
     0
  9
$PDSIZE
 40
0.0
  9
$PLINEWID
 40
0.0
  9
$COORDS
 70
     0
  9
$SPLFRAME
 70
     0
  9
$SPLINETYPE
 70
     6
  9
$SPLINESEGS
 70
    10
  9
$ATTDIA
 70
     0
  9
$ATTREQ
 70
     1
  9
$HANDLING
 70
     1
  9
$HANDSEED
  5
A5A
  9
$SURFTAB1
 70
     6
  9
$SURFTAB2
 70
     6
  9
$SURFTYPE
 70
     6
  9
$SURFU
 70
     6
  9
$SURFV
 70
     6
  9
$UCSNAME
  2

  9
$UCSORG
 10
0.0
 20
0.0
 30
0.0
  9
$UCSXDIR
 10
1.0
 20
0.0
 30
0.0
  9
$UCSYDIR
 10
0.0
 20
1.0
 30
0.0
  9
$PUCSNAME
  2

  9
$PUCSORG
 10
0.0
 20
0.0
 30
0.0
  9
$PUCSXDIR
 10
1.0
 20
0.0
 30
0.0
  9
$PUCSYDIR
 10
0.0
 20
1.0
 30
0.0
  9
$USERI1
 70
     0
  9
$USERI2
 70
     0
  9
$USERI3
 70
     0
  9
$USERI4
 70
     0
  9
$USERI5
 70
     0
  9
$USERR1
 40
0.0
  9
$USERR2
 40
0.0
  9
$USERR3
 40
0.0
  9
$USERR4
 40
0.0
  9
$USERR5
 40
0.0
  9
$WORLDVIEW
 70
     1
  9
$SHADEDGE
 70
     3
  9
$SHADEDIF
 70
    70
  9
$TILEMODE
 70
     1
  9
$MAXACTVP
 70
    64
  9
$PLIMCHECK
 70
     0
  9
$PEXTMIN
 10
1.0000000000000000E+020
 20
1.0000000000000000E+020
 30
1.0000000000000000E+020
  9
$PEXTMAX
 10
-1.0000000000000000E+020
 20
-1.0000000000000000E+020
 30
-1.0000000000000000E+020
  9
$PLIMMIN
 10
0.0
 20
0.0
  9
$PLIMMAX
 10
12.0
 20
9.0
  9
$UNITMODE
 70
     0
  9
$VISRETAIN
 70
     1
  9
$PLINEGEN
 70
     0
  9
$PSLTSCALE
 70
     1
  0
ENDSEC
  0
SECTION
  2
TABLES
  0
TABLE
  2
VPORT
 70
     1
  0
VPORT
  2
*ACTIVE
 70
     0
 10
0.0
 20
0.0
 11
1.0
 21
1.0
 12
2027.6670476135121
 22
409.15730199999979
 13
0.0
 23
0.0
 14
1.0
 24
1.0
 15
0.0
 25
0.0
 16
0.0
 26
0.0
 36
1.0
 17
0.0
 27
0.0
 37
0.0
 40
2961.436461513742
 41
2.114406779661016
 42
50.0
 43
0.0
 44
0.0
 50
0.0
 51
0.0
 71
     0
 72
   100
 73
     1
 74
     1
 75
     0
 76
     0
 77
     0
 78
     0
  0
ENDTAB
  0
TABLE
  2
LTYPE
 70
    11
  0
LTYPE
  2
CONTINUOUS
 70
     0
  3
Solid line
 72
    65
 73
     0
 40
0.0
  0
LTYPE
  2
GESTRICHELT
 70
     0
  3
__ __ __ __ __ __ __ __ __ __ __ __ __ __ __
 72
    65
 73
     2
 40
0.75
 49
0.5
 49
-0.25
  0
LTYPE
  2
VERDECKT
 70
     0
  3
_ _ _ _ _ _ _ _ _ _ _ _ _ _ _ _ _ _ _ _ _ _ 
 72
    65
 73
     2
 40
0.25
 49
0.125
 49
-0.125
  0
LTYPE
  2
MITTELLINIE
 70
     0
  3
____ _ ____ _ ____ _ ____ _ ____ _ ____ _ __
 72
    65
 73
     4
 40
2.0
 49
1.25
 49
-0.25
 49
0.25
 49
-0.25
  0
LTYPE
  2
PHANTOM
 70
     0
  3
_____ _ _ _____ _ _ _____ _ _ _____ _ _ ____
 72
    65
 73
     6
 40
2.5
 49
1.25
 49
-0.25
 49
0.25
 49
-0.25
 49
0.25
 49
-0.25
  0
LTYPE
  2
PUNKTIERT
 70
     0
  3
............................................
 72
    65
 73
     2
 40
0.25
 49
0.0
 49
-0.25
  0
LTYPE
  2
STRICHPUNKTIERT
 70
     0
  3
__ . __ . __ . __ . __ . __ . __ . __ . __ .
 72
    65
 73
     4
 40
1.0
 49
0.5
 49
-0.25
 49
0.0
 49
-0.25
  0
LTYPE
  2
RAND
 70
     0
  3
__ __ . __ __ . __ __ . __ __ . __ __ . __ _
 72
    65
 73
     6
 40
1.75
 49
0.5
 49
-0.25
 49
0.5
 49
-0.25
 49
0.0
 49
-0.25
  0
LTYPE
  2
TRENNLINIE
 70
     0
  3
__ . . __ . . __ . . __ . . __ . . __ . . __
 72
    65
 73
     6
 40
1.25
 49
0.5
 49
-0.25
 49
0.0
 49
-0.25
 49
0.0
 49
-0.25
  0
LTYPE
  2
ENG_PUNKTIERT
 70
     0
  3
Schließen                                   
 72
    65
 73
     2
 40
0.1
 49
0.05
 49
-0.05
  0
LTYPE
  2
CLOSE
 70
     0
  3
                                            
 72
    65
 73
     0
 40
0.0
  0
ENDTAB
  0
TABLE
  2
LAYER
 70
   256
  0
LAYER
  2
0
 70
     0
 62
     7
  6
CONTINUOUS
  0
LAYER
  2
LAYER01
 70
     0
 62
     7
  6
CONTINUOUS
  0
LAYER
  2
LAYER02
 70
     0
 62
     7
  6
CONTINUOUS
  0
LAYER
  2
LAYER03
 70
     0
 62
     7
  6
CONTINUOUS
  0
LAYER
  2
LAYER04
 70
     0
 62
     7
  6
CONTINUOUS
  0
LAYER
  2
LAYER05
 70
     0
 62
     7
  6
CONTINUOUS
  0
LAYER
  2
LAYER06
 70
     0
 62
     7
  6
CONTINUOUS
  0
LAYER
  2
LAYER07
 70
     0
 62
     7
  6
CONTINUOUS
  0
LAYER
  2
LAYER08
 70
     0
 62
     7
  6
CONTINUOUS
  0
LAYER
  2
LAYER09
 70
     0
 62
     7
  6
CONTINUOUS
  0
LAYER
  2
LAYER10
 70
     0
 62
     7
  6
CONTINUOUS
  0
LAYER
  2
FORMAT
 70
     0
 62
     7
  6
CONTINUOUS
  0
LAYER
  2
2
 70
     0
 62
     7
  6
CONTINUOUS
  0
LAYER
  2
5
 70
     0
 62
     7
  6
CONTINUOUS
  0
LAYER
  2
RAUMAUFM
 70
     0
 62
     7
  6
CONTINUOUS
  0
LAYER
  2
EINRICHT
 70
     0
 62
     7
  6
CONTINUOUS
  0
LAYER
  2
HILFE
 70
     0
 62
     7
  6
CONTINUOUS
  0
LAYER
  2
SCHNITTE
 70
     0
 62
     7
  6
CONTINUOUS
  0
LAYER
  2
SCHRAFF1
 70
     0
 62
     7
  6
CONTINUOUS
  0
LAYER
  2
SCHRAFF2
 70
     0
 62
     7
  6
CONTINUOUS
  0
LAYER
  2
BEMASS-1
 70
     0
 62
     7
  6
CONTINUOUS
  0
LAYER
  2
BEMASS-2
 70
     0
 62
     7
  6
CONTINUOUS
  0
LAYER
  2
TEXT
 70
     0
 62
     7
  6
CONTINUOUS
  0
LAYER
  2
SYMBOLE
 70
     0
 62
     7
  6
CONTINUOUS
  0
LAYER
  2
RAHMEN
 70
     0
 62
     7
  6
CONTINUOUS
  0
LAYER
  2
SCHRIFTF
 70
     0
 62
     7
  6
CONTINUOUS
  0
LAYER
  2
ACHSEN
 70
     0
 62
     7
  6
CONTINUOUS
  0
LAYER
  2
ZEICHN
 70
     0
 62
     7
  6
CONTINUOUS
  0
LAYER
  2
7
 70
     0
 62
     7
  6
CONTINUOUS
  0
LAYER
  2
1
 70
     0
 62
     7
  6
CONTINUOUS
  0
LAYER
  2
6
 70
     0
 62
     7
  6
CONTINUOUS
  0
LAYER
  2
4
 70
     0
 62
     7
  6
CONTINUOUS
  0
LAYER
  2
GRUNDEBENE
 70
     0
 62
     7
  6
CONTINUOUS
  0
LAYER
  2
GRUNDRISS
 70
     0
 62
     7
  6
CONTINUOUS
  0
LAYER
  2
BEMASSUNGGRUNDRISS
 70
     0
 62
     7
  6
CONTINUOUS
  0
LAYER
  2
WANDELEMENTE
 70
     0
 62
     7
  6
CONTINUOUS
  0
LAYER
  2
KUECHE
 70
     0
 62
     7
  6
CONTINUOUS
  0
LAYER
  2
THEKEBROETCHEN
 70
     0
 62
     7
  6
CONTINUOUS
  0
LAYER
  2
CENTERLINIE
 70
     0
 62
     7
  6
CONTINUOUS
  0
LAYER
  2
UMRISSE
 70
     0
 62
     7
  6
CONTINUOUS
  0
LAYER
  2
MAUER
 70
     0
 62
     7
  6
CONTINUOUS
  0
LAYER
  2
SCHRAFFUR
 70
     0
 62
     7
  6
CONTINUOUS
  0
LAYER
  2
MASSLINIE
 70
     0
 62
     7
  6
CONTINUOUS
  0
LAYER
  2
PV
 70
     0
 62
     7
  6
CONTINUOUS
  0
LAYER
  2
BESCHRIFTUNG
 70
     0
 62
     7
  6
CONTINUOUS
  0
LAYER
  2
AS
 70
     0
 62
     7
  6
CONTINUOUS
  0
LAYER
  2
PL
 70
     0
 62
     7
  6
CONTINUOUS
  0
LAYER
  2
UK
 70
     0
 62
     7
  6
CONTINUOUS
  0
LAYER
  2
TEXT3
 70
     0
 62
     7
  6
CONTINUOUS
  0
LAYER
  2
TEXT7
 70
     0
 62
     7
  6
CONTINUOUS
  0
LAYER
  2
BEPL1
 70
     0
 62
     7
  6
CONTINUOUS
  0
LAYER
  2
BEPL2
 70
     0
 62
     7
  6
CONTINUOUS
  0
LAYER
  2
BEPL2V
 70
     0
 62
     7
  6
CONTINUOUS
  0
LAYER
  2
BEPL4
 70
     0
 62
     7
  6
CONTINUOUS
  0
LAYER
  2
BEPL
 70
     0
 62
     7
  6
CONTINUOUS
  0
LAYER
  2
UK1
 70
     0
 62
     7
  6
CONTINUOUS
  0
LAYER
  2
UK2
 70
     0
 62
     7
  6
CONTINUOUS
  0
LAYER
  2
UK2V
 70
     0
 62
     7
  6
CONTINUOUS
  0
LAYER
  2
UK3
 70
     0
 62
     7
  6
CONTINUOUS
  0
LAYER
  2
TEXT2
 70
     0
 62
     7
  6
CONTINUOUS
  0
LAYER
  2
HILF2S
 70
     0
 62
     7
  6
CONTINUOUS
  0
LAYER
  2
UK1V
 70
     0
 62
     7
  6
CONTINUOUS
  0
LAYER
  2
GAIN_ZRA
 70
     0
 62
     7
  6
CONTINUOUS
  0
LAYER
  2
GAIN_ZSF
 70
     0
 62
     7
  6
CONTINUOUS
  0
LAYER
  2
RAHM4
 70
     0
 62
     7
  6
CONTINUOUS
  0
LAYER
  2
KORPUSBAND
 70
     0
 62
     7
  6
CONTINUOUS
  0
LAYER
  2
E---LGPL--------
 70
     0
 62
     7
  6
CONTINUOUS
  0
LAYER
  2
E---NPFL--------
 70
     0
 62
     7
  6
CONTINUOUS
  0
LAYER
  2
E---PLNKTXT-----
 70
     0
 62
     7
  6
CONTINUOUS
  0
LAYER
  2
E---PLNK--------
 70
     0
 62
     7
  6
CONTINUOUS
  0
LAYER
  2
E---PLNR--------
 70
     0
 62
     7
  6
CONTINUOUS
  0
LAYER
  2
D547_ARCHICAD
 70
     0
 62
     7
  6
CONTINUOUS
  0
LAYER
  2
D547_E---TEXT--------
 70
     0
 62
     7
  6
CONTINUOUS
  0
LAYER
  2
E---LEGD--------
 70
     0
 62
     7
  6
CONTINUOUS
  0
LAYER
  2
D43_ARCHICAD
 70
     0
 62
     7
  6
CONTINUOUS
  0
LAYER
  2
D43_FENSTER_VON_B---FASS--
 70
     0
 62
     7
  6
CONTINUOUS
  0
LAYER
  2
D43_E---SCHN--------
 70
     0
 62
     7
  6
CONTINUOUS
  0
LAYER
  2
D43_B---MW-N--------
 70
     0
 62
     7
  6
CONTINUOUS
  0
LAYER
  2
D43_B---DECK--------
 70
     0
 62
     7
  6
CONTINUOUS
  0
LAYER
  2
D43_B---MW-S--------
 70
     0
 62
     7
  6
CONTINUOUS
  0
LAYER
  2
D43_B---MW----------
 70
     0
 62
     7
  6
CONTINUOUS
  0
LAYER
  2
D43_B---FASS--------
 70
     0
 62
     7
  6
CONTINUOUS
  0
LAYER
  2
D43_E---RASG--------
 70
     0
 62
     7
  6
CONTINUOUS
  0
LAYER
  2
D40_ARCHICAD
 70
     0
 62
     7
  6
CONTINUOUS
  0
LAYER
  2
D40_E---MW--------
 70
     0
 62
     7
  6
CONTINUOUS
  0
LAYER
  2
D40_E---FASSKON-----
 70
     0
 62
     7
  6
CONTINUOUS
  0
LAYER
  2
D40_TÜREN_VON_B---MW-N----
 70
     0
 62
     7
  6
CONTINUOUS
  0
LAYER
  2
D40_E---MW-L------
 70
     0
 62
     7
  6
CONTINUOUS
  0
LAYER
  2
D40_TÜREN_VON_B---MW------
 70
     0
 62
     7
  6
CONTINUOUS
  0
LAYER
  2
D40_E---VERM--------
 70
     0
 62
     7
  6
CONTINUOUS
  0
LAYER
  2
D40_FENSTER_VON_E---MW-L--
 70
     0
 62
     7
  6
CONTINUOUS
  0
LAYER
  2
D40_FENSTER_VON_B---MW-N--
 70
     0
 62
     7
  6
CONTINUOUS
  0
LAYER
  2
D40_E---SCHN--------
 70
     0
 62
     7
  6
CONTINUOUS
  0
LAYER
  2
D40_E---AUFZ--------
 70
     0
 62
     7
  6
CONTINUOUS
  0
LAYER
  2
D40_E---DECK--------
 70
     0
 62
     7
  6
CONTINUOUS
  0
LAYER
  2
D40_E---RAUMINF-----
 70
     0
 62
     7
  6
CONTINUOUS
  0
LAYER
  2
D40_E---TEXT--------
 70
     0
 62
     7
  6
CONTINUOUS
  0
LAYER
  2
D40_B---TEXT--------
 70
     0
 62
     7
  6
CONTINUOUS
  0
LAYER
  2
D40_B---MW-N--------
 70
     0
 62
     7
  6
CONTINUOUS
  0
LAYER
  2
D40_B---DECK--------
 70
     0
 62
     7
  6
CONTINUOUS
  0
LAYER
  2
D40_B---AUFZ--------
 70
     0
 62
     7
  6
CONTINUOUS
  0
LAYER
  2
D40_B---MW-S--------
 70
     0
 62
     7
  6
CONTINUOUS
  0
LAYER
  2
D40_B---MW----------
 70
     0
 62
     7
  6
CONTINUOUS
  0
LAYER
  2
D40_E---MOEB--------
 70
     0
 62
     7
  6
CONTINUOUS
  0
LAYER
  2
D40_B---UMGB--------
 70
     0
 62
     7
  6
CONTINUOUS
  0
LAYER
  2
D40_B---FASS--------
 70
     0
 62
     7
  6
CONTINUOUS
  0
LAYER
  2
D40_E---DACH--------
 70
     0
 62
     7
  6
CONTINUOUS
  0
LAYER
  2
D40_E---BODE--------
 70
     0
 62
     7
  6
CONTINUOUS
  0
LAYER
  2
D40_E---TREP--------
 70
     0
 62
     7
  6
CONTINUOUS
  0
LAYER
  2
D40_E---RASG--------
 70
     0
 62
     7
  6
CONTINUOUS
  0
LAYER
  2
D40_B---MW-K--------
 70
     0
 62
     7
  6
CONTINUOUS
  0
LAYER
  2
D40_E---FASSGLA-----
 70
     0
 62
     7
  6
CONTINUOUS
  0
LAYER
  2
D40_B---VERM--------
 70
     0
 62
     7
  6
CONTINUOUS
  0
LAYER
  2
D40_E---UMGBGSG-----
 70
     0
 62
     7
  6
CONTINUOUS
  0
LAYER
  2
D40_E---RASF--------
 70
     0
 62
     7
  6
CONTINUOUS
  0
LAYER
  2
D40_E---PFLA--------
 70
     0
 62
     7
  6
CONTINUOUS
  0
LAYER
  2
D40_E---KONS-ST-----
 70
     0
 62
     7
  6
CONTINUOUS
  0
LAYER
  2
D40_E---WERB--------
 70
     0
 62
     7
  6
CONTINUOUS
  0
LAYER
  2
D40_E---TUERINF-----
 70
     0
 62
     7
  6
CONTINUOUS
  0
LAYER
  2
D40_E---WOLK--------
 70
     0
 62
     7
  6
CONTINUOUS
  0
LAYER
  2
D40_B---MW-L--------
 70
     0
 62
     7
  6
CONTINUOUS
  0
LAYER
  2
D40_B---SANI--------
 70
     0
 62
     7
  6
CONTINUOUS
  0
LAYER
  2
D40_E---SANI--------
 70
     0
 62
     7
  6
CONTINUOUS
  0
LAYER
  2
D40_E---MW-K------
 70
     0
 62
     7
  6
CONTINUOUS
  0
LAYER
  2
D40_E---OBJE--------
 70
     0
 62
     7
  6
CONTINUOUS
  0
LAYER
  2
D40_E---ASPR--------
 70
     0
 62
     7
  6
CONTINUOUS
  0
LAYER
  2
D40_E---VERMTGA-----
 70
     0
 62
     7
  6
CONTINUOUS
  0
LAYER
  2
D40_E---PARK--------
 70
     0
 62
     7
  6
CONTINUOUS
  0
LAYER
  2
D40_E---ISOL--------
 70
     0
 62
     7
  6
CONTINUOUS
  0
LAYER
  2
D40_E---TUER--------
 70
     0
 62
     7
  6
CONTINUOUS
  0
LAYER
  2
D40_E---MW--BRA---
 70
     0
 62
     7
  6
CONTINUOUS
  0
LAYER
  2
D41_ARCHICAD
 70
     0
 62
     7
  6
CONTINUOUS
  0
LAYER
  2
D41_E---MW--------
 70
     0
 62
     7
  6
CONTINUOUS
  0
LAYER
  2
D41_E---FASSKON-----
 70
     0
 62
     7
  6
CONTINUOUS
  0
LAYER
  2
D41_TÜREN_VON_B---MW-N----
 70
     0
 62
     7
  6
CONTINUOUS
  0
LAYER
  2
D41_E---MW-L------
 70
     0
 62
     7
  6
CONTINUOUS
  0
LAYER
  2
D41_TÜREN_VON_B---MW------
 70
     0
 62
     7
  6
CONTINUOUS
  0
LAYER
  2
D41_E---VERM--------
 70
     0
 62
     7
  6
CONTINUOUS
  0
LAYER
  2
D41_FENSTER_VON_E---MW-L--
 70
     0
 62
     7
  6
CONTINUOUS
  0
LAYER
  2
D41_FENSTER_VON_B---MW-N--
 70
     0
 62
     7
  6
CONTINUOUS
  0
LAYER
  2
D41_E---SCHN--------
 70
     0
 62
     7
  6
CONTINUOUS
  0
LAYER
  2
D41_E---AUFZ--------
 70
     0
 62
     7
  6
CONTINUOUS
  0
LAYER
  2
D41_E---DECK--------
 70
     0
 62
     7
  6
CONTINUOUS
  0
LAYER
  2
D41_E---RAUMINF-----
 70
     0
 62
     7
  6
CONTINUOUS
  0
LAYER
  2
D41_E---TEXT--------
 70
     0
 62
     7
  6
CONTINUOUS
  0
LAYER
  2
D41_B---TEXT--------
 70
     0
 62
     7
  6
CONTINUOUS
  0
LAYER
  2
D41_B---MW-N--------
 70
     0
 62
     7
  6
CONTINUOUS
  0
LAYER
  2
D41_B---DECK--------
 70
     0
 62
     7
  6
CONTINUOUS
  0
LAYER
  2
D41_B---AUFZ--------
 70
     0
 62
     7
  6
CONTINUOUS
  0
LAYER
  2
D41_B---MW-S--------
 70
     0
 62
     7
  6
CONTINUOUS
  0
LAYER
  2
D41_B---MW----------
 70
     0
 62
     7
  6
CONTINUOUS
  0
LAYER
  2
D41_E---MOEB--------
 70
     0
 62
     7
  6
CONTINUOUS
  0
LAYER
  2
D41_B---UMGB--------
 70
     0
 62
     7
  6
CONTINUOUS
  0
LAYER
  2
D41_B---FASS--------
 70
     0
 62
     7
  6
CONTINUOUS
  0
LAYER
  2
D41_E---DACH--------
 70
     0
 62
     7
  6
CONTINUOUS
  0
LAYER
  2
D41_E---BODE--------
 70
     0
 62
     7
  6
CONTINUOUS
  0
LAYER
  2
D41_E---TREP--------
 70
     0
 62
     7
  6
CONTINUOUS
  0
LAYER
  2
D41_E---RASG--------
 70
     0
 62
     7
  6
CONTINUOUS
  0
LAYER
  2
D41_B---MW-K--------
 70
     0
 62
     7
  6
CONTINUOUS
  0
LAYER
  2
D41_E---FASSGLA-----
 70
     0
 62
     7
  6
CONTINUOUS
  0
LAYER
  2
D41_B---VERM--------
 70
     0
 62
     7
  6
CONTINUOUS
  0
LAYER
  2
D41_E---UMGBGSG-----
 70
     0
 62
     7
  6
CONTINUOUS
  0
LAYER
  2
D41_E---RASF--------
 70
     0
 62
     7
  6
CONTINUOUS
  0
LAYER
  2
D41_E---PFLA--------
 70
     0
 62
     7
  6
CONTINUOUS
  0
LAYER
  2
D41_E---KONS-ST-----
 70
     0
 62
     7
  6
CONTINUOUS
  0
LAYER
  2
D41_E---WERB--------
 70
     0
 62
     7
  6
CONTINUOUS
  0
LAYER
  2
D41_E---TUERINF-----
 70
     0
 62
     7
  6
CONTINUOUS
  0
LAYER
  2
D41_E---WOLK--------
 70
     0
 62
     7
  6
CONTINUOUS
  0
LAYER
  2
D41_B---MW-L--------
 70
     0
 62
     7
  6
CONTINUOUS
  0
LAYER
  2
D41_B---SANI--------
 70
     0
 62
     7
  6
CONTINUOUS
  0
LAYER
  2
D41_E---SANI--------
 70
     0
 62
     7
  6
CONTINUOUS
  0
LAYER
  2
D41_E---MW-K------
 70
     0
 62
     7
  6
CONTINUOUS
  0
LAYER
  2
D41_E---OBJE--------
 70
     0
 62
     7
  6
CONTINUOUS
  0
LAYER
  2
D41_E---ASPR--------
 70
     0
 62
     7
  6
CONTINUOUS
  0
LAYER
  2
D41_E---VERMTGA-----
 70
     0
 62
     7
  6
CONTINUOUS
  0
LAYER
  2
D41_E---PARK--------
 70
     0
 62
     7
  6
CONTINUOUS
  0
LAYER
  2
D41_E---ISOL--------
 70
     0
 62
     7
  6
CONTINUOUS
  0
LAYER
  2
D41_E---TUER--------
 70
     0
 62
     7
  6
CONTINUOUS
  0
LAYER
  2
D41_E---MW--BRA---
 70
     0
 62
     7
  6
CONTINUOUS
  0
LAYER
  2
D42_ARCHICAD
 70
     0
 62
     7
  6
CONTINUOUS
  0
LAYER
  2
D42_FENSTER_VON_B---FASS--
 70
     0
 62
     7
  6
CONTINUOUS
  0
LAYER
  2
D42_E---SCHN--------
 70
     0
 62
     7
  6
CONTINUOUS
  0
LAYER
  2
D42_B---MW-N--------
 70
     0
 62
     7
  6
CONTINUOUS
  0
LAYER
  2
D42_B---DECK--------
 70
     0
 62
     7
  6
CONTINUOUS
  0
LAYER
  2
D42_B---MW-S--------
 70
     0
 62
     7
  6
CONTINUOUS
  0
LAYER
  2
D42_B---MW----------
 70
     0
 62
     7
  6
CONTINUOUS
  0
LAYER
  2
D42_B---FASS--------
 70
     0
 62
     7
  6
CONTINUOUS
  0
LAYER
  2
D42_E---RASG--------
 70
     0
 62
     7
  6
CONTINUOUS
  0
LAYER
  2
CONSTRUCTION_CLASS
 70
     0
 62
     7
  6
CONTINUOUS
  0
LAYER
  2
PATTERN_CLASS
 70
     0
 62
     7
  6
CONTINUOUS
  0
LAYER
  2
KONSTRUKTION
 70
     0
 62
     7
  6
CONTINUOUS
  0
LAYER
  2
BEMAßUNG
 70
     0
 62
     7
  6
CONTINUOUS
  0
LAYER
  2
HILFSGEOMETRIE
 70
     0
 62
     7
  6
CONTINUOUS
  0
LAYER
  2
UNSICHTBAR
 70
     0
 62
     7
  6
CONTINUOUS
  0
LAYER
  2
LOGO
 70
     0
 62
     7
  6
CONTINUOUS
  0
LAYER
  2
VERWALTUNG
 70
     0
 62
     7
  6
CONTINUOUS
  0
LAYER
  2
UNSICHTBARE_GEWINDE
 70
     0
 62
     7
  6
CONTINUOUS
  0
LAYER
  2
SICHTBARE_GEWINDE
 70
     0
 62
     7
  6
CONTINUOUS
  0
LAYER
  2
DEFPOINTS
 70
     0
 62
     7
  6
CONTINUOUS
  0
LAYER
  2
THICK
 70
     0
 62
     7
  6
CONTINUOUS
  0
LAYER
  2
HIDDEN
 70
     0
 62
     7
  6
CONTINUOUS
  0
LAYER
  2
SCHRAFFURGRUNDRISS
 70
     0
 62
     7
  6
CONTINUOUS
  0
LAYER
  2
BEMASSUNG_GRUNDRISS
 70
     0
 62
     7
  6
CONTINUOUS
  0
LAYER
  2
STATIK
 70
     0
 62
     7
  6
CONTINUOUS
  0
LAYER
  2
TÜREN
 70
     0
 62
     7
  6
CONTINUOUS
  0
LAYER
  2
SANITÄR
 70
     0
 62
     7
  6
CONTINUOUS
  0
LAYER
  2
BEMASSUNG_GIPSKARTON
 70
     0
 62
     7
  6
CONTINUOUS
  0
LAYER
  2
EINRICHTUNGEN
 70
     0
 62
     7
  6
CONTINUOUS
  0
LAYER
  2
BECKEN
 70
     0
 62
     7
  6
CONTINUOUS
  0
LAYER
  2
BELEUCHTUNG
 70
     0
 62
     7
  6
CONTINUOUS
  0
LAYER
  2
BESCHRIFTUNGEN
 70
     0
 62
     7
  6
CONTINUOUS
  0
LAYER
  2
ELEKTRO_1__DOSEN_SCHALTER
 70
     0
 62
     7
  6
CONTINUOUS
  0
LAYER
  2
DEFAULT_1
 70
     0
 62
     7
  6
CONTINUOUS
  0
LAYER
  2
AM_0
 70
     0
 62
     7
  6
CONTINUOUS
  0
LAYER
  2
FRAME0_7
 70
     0
 62
     7
  6
CONTINUOUS
  0
LAYER
  2
AM_BOR
 70
     0
 62
     7
  6
CONTINUOUS
  0
LAYER
  2
RAHM2
 70
     0
 62
     7
  6
CONTINUOUS
  0
LAYER
  2
RAHM3
 70
     0
 62
     7
  6
CONTINUOUS
  0
LAYER
  2
FRAME0_5
 70
     0
 62
     7
  6
CONTINUOUS
  0
LAYER
  2
8
 70
     0
 62
     7
  6
CONTINUOUS
  0
LAYER
  2
AM_5
 70
     0
 62
     7
  6
CONTINUOUS
  0
LAYER
  2
AM_7
 70
     0
 62
     7
  6
CONTINUOUS
  0
LAYER
  2
HILFSLINIEN
 70
     0
 62
     7
  6
CONTINUOUS
  0
LAYER
  2
DRAWING_TEMPLATE
 70
     0
 62
     7
  6
CONTINUOUS
  0
LAYER
  2
TECHNOBOX_EXTERNALREFSYMBO
 70
     0
 62
     7
  6
CONTINUOUS
  0
LAYER
  2
TECHNOBOX_POLYCLIPSYMBOL_L
 70
     0
 62
     7
  6
CONTINUOUS
  0
LAYER
  2
100
 70
     0
 62
     7
  6
CONTINUOUS
  0
LAYER
  2
101
 70
     0
 62
     7
  6
CONTINUOUS
  0
LAYER
  2
KONTUR
 70
     0
 62
     7
  6
CONTINUOUS
  0
LAYER
  2
MITTELLINIE
 70
     0
 62
     7
  6
CONTINUOUS
  0
LAYER
  2
GESTRICHELT
 70
     0
 62
     7
  6
CONTINUOUS
  0
LAYER
  2
HILFSLINIE
 70
     0
 62
     7
  6
CONTINUOUS
  0
LAYER
  2
TEXT-25
 70
     0
 62
     7
  6
CONTINUOUS
  0
LAYER
  2
TEXT35
 70
     0
 62
     7
  6
CONTINUOUS
  0
LAYER
  2
TEXT-50
 70
     0
 62
     7
  6
CONTINUOUS
  0
LAYER
  2
TEXT-70
 70
     0
 62
     7
  6
CONTINUOUS
  0
LAYER
  2
ANSICHTSFENSTER
 70
     0
 62
     7
  6
CONTINUOUS
  0
LAYER
  2
KERA0
 70
     0
 62
     7
  6
CONTINUOUS
  0
LAYER
  2
KERA1
 70
     0
 62
     7
  6
CONTINUOUS
  0
LAYER
  2
KERA2
 70
     0
 62
     7
  6
CONTINUOUS
  0
LAYER
  2
KERA3
 70
     0
 62
     7
  6
CONTINUOUS
  0
LAYER
  2
KERA4
 70
     0
 62
     7
  6
CONTINUOUS
  0
LAYER
  2
KERA5
 70
     0
 62
     7
  6
CONTINUOUS
  0
LAYER
  2
KERA6
 70
     0
 62
     7
  6
CONTINUOUS
  0
LAYER
  2
KERA7
 70
     0
 62
     7
  6
CONTINUOUS
  0
LAYER
  2
20
 70
     0
 62
     7
  6
CONTINUOUS
  0
LAYER
  2
50
 70
     0
 62
     7
  6
CONTINUOUS
  0
LAYER
  2
BECKEN_FUTURA_EBENE_1
 70
     0
 62
     7
  6
CONTINUOUS
  0
LAYER
  2
EBENE_1
 70
     0
 62
     7
  6
CONTINUOUS
  0
LAYER
  2
EBENE_2
 70
     0
 62
     7
  6
CONTINUOUS
  0
LAYER
  2
EBENE_5
 70
     0
 62
     7
  6
CONTINUOUS
  0
LAYER
  2
3
 70
     0
 62
     7
  6
CONTINUOUS
  0
LAYER
  2
GEB-KONTUR-A
 70
     0
 62
     7
  6
CONTINUOUS
  0
LAYER
  2
GEB-SYMETRIE
 70
     0
 62
     7
  6
CONTINUOUS
  0
LAYER
  2
GEB-ART-NR
 70
     0
 62
     7
  6
CONTINUOUS
  0
LAYER
  2
PROJECTION
 70
     0
 62
     7
  6
CONTINUOUS
  0
ENDTAB
  0
TABLE
  2
STYLE
 70
     3
  0
STYLE
  2
STANDARD
 70
     0
 40
0.0
 41
1.0
 50
0.0
 71
     0
 42
0.0
  3
txt
  4

  0
STYLE
  2
ANNOTATIVE
 70
     0
 40
0.0
 41
1.0
 50
0.0
 71
     0
 42
0.2
  3
txt
  4

  0
STYLE
  2
SIMPLEX
 70
     0
 40
0.0
 41
1.0
 50
0.0
 71
     0
 42
0.0
  3
SIMPLEX
  4

  0
ENDTAB
  0
TABLE
  2
VIEW
 70
     0
  0
ENDTAB
  0
TABLE
  2
UCS
 70
     0
  0
ENDTAB
  0
TABLE
  2
APPID
 70
     3
  0
APPID
  2
ACAD
 70
     0
  0
APPID
  2
ACADANNOTATIVE
 70
     0
  0
APPID
  2
ACAD_MLEADERVER
 70
     0
  0
ENDTAB
  0
TABLE
  2
DIMSTYLE
 70
     2
  0
DIMSTYLE
  2
STANDARD
 70
     0
  3

  4

  5

  6

  7

 40
1.0
 41
0.18
 42
0.0625
 43
0.38
 44
0.18
 45
0.0
 46
0.0
 47
0.0
 48
0.0
140
0.18
141
0.09
142
0.0
143
25.399999999999999
144
1.0
145
0.0
146
1.0
147
0.09
 71
     0
 72
     0
 73
     1
 74
     1
 75
     0
 76
     0
 77
     0
 78
     0
170
     0
171
     2
172
     0
173
     0
174
     0
175
     0
176
     0
177
     0
178
     0
  0
DIMSTYLE
  2
ANNOTATIVE
 70
     0
  3

  4

  5

  6

  7

 40
1.0
 41
0.18
 42
0.0625
 43
0.38
 44
0.18
 45
0.0
 46
0.0
 47
0.0
 48
0.0
140
0.18
141
0.09
142
0.0
143
25.399999999999999
144
1.0
145
0.0
146
1.0
147
0.09
 71
     0
 72
     0
 73
     1
 74
     1
 75
     0
 76
     0
 77
     0
 78
     0
170
     0
171
     2
172
     0
173
     0
174
     0
175
     0
176
     0
177
     0
178
     0
  0
ENDTAB
  0
ENDSEC
  0
SECTION
  2
BLOCKS
  0
BLOCK
  8
0
  2
$MODEL_SPACE
 70
     0
 10
0.0
 20
0.0
 30
0.0
  3
$MODEL_SPACE
  1

  0
ENDBLK
  5
76
  8
0
  0
BLOCK
 67
     1
  8
0
  2
$PAPER_SPACE
 70
     0
 10
0.0
 20
0.0
 30
0.0
  3
$PAPER_SPACE
  1

  0
ENDBLK
  5
72
 67
     1
  8
0
  0
BLOCK
  8
0
  2
VP355012-G1
 70
     0
 10
0.0
 20
0.0
 30
0.0
  3
VP355012-G1
  1

  0
LINE
  5
187
  8
LAYER01
  6
CONTINUOUS
 62
     7
 10
811.62744400000008
 20
102.35467300000001
 30
0.0
 11
823.62744399999997
 21
114.35467300000001
 31
0.0
  0
LINE
  5
188
  8
LAYER01
  6
CONTINUOUS
 62
     7
 10
820.91753599999993
 20
89.194124999999985
 30
0.0
 11
832.33560799999987
 21
100.61219699999999
 31
0.0
  0
LINE
  5
189
  8
LAYER01
  6
CONTINUOUS
 62
     7
 10
822.03553199999988
 20
67.861481000000012
 30
0.0
 11
833.45360399999993
 21
79.279553000000007
 31
0.0
  0
LINE
  5
18A
  8
LAYER01
  6
CONTINUOUS
 62
     7
 10
823.15352900000005
 20
46.528837000000003
 30
0.0
 11
834.57160099999999
 21
57.946908999999991
 31
0.0
  0
LINE
  5
18B
  8
LAYER01
  6
CONTINUOUS
 62
     7
 10
824.27152499999988
 20
25.196193000000001
 30
0.0
 11
835.68959700000005
 21
36.61426500000001
 31
0.0
  0
LINE
  5
18C
  8
LAYER01
  6
CONTINUOUS
 62
     7
 10
827.17382599999985
 20
5.6478539999999988
 30
0.0
 11
836.80759399999999
 21
15.281622
 31
0.0
  0
LINE
  5
18D
  8
LAYER01
  6
CONTINUOUS
 62
     7
 10
841.03441199999986
 20
-2.942200999999999
 30
0.0
 11
852.29040899999995
 21
8.3137959999999982
 31
0.0
  0
LINE
  5
18E
  8
LAYER01
  6
CONTINUOUS
 62
     7
 10
862.04372499999999
 20
-4.3835280000000001
 30
0.0
 11
873.29972200000009
 21
6.8724689999999997
 31
0.0
  0
LINE
  5
18F
  8
LAYER01
  6
CONTINUOUS
 62
     7
 10
883.05303800000002
 20
-5.8248550000000003
 30
0.0
 11
894.30903499999999
 21
5.4311419999999986
 31
0.0
  0
LINE
  5
190
  8
LAYER01
  6
CONTINUOUS
 62
     7
 10
904.06235099999992
 20
-7.2661829999999989
 30
0.0
 11
915.31834800000001
 21
3.9898150000000001
 31
0.0
  0
LINE
  5
191
  8
LAYER01
  6
CONTINUOUS
 62
     7
 10
925.07166400000006
 20
-8.7075099999999992
 30
0.0
 11
936.32766099999992
 21
2.5484869999999988
 31
0.0
  0
LINE
  5
192
  8
LAYER01
  6
CONTINUOUS
 62
     7
 10
946.08097699999985
 20
-10.148837
 30
0.0
 11
957.33697400000005
 21
1.1071599999999999
 31
0.0
  0
LINE
  5
193
  8
LAYER01
  6
CONTINUOUS
 62
     7
 10
967.09028999999987
 20
-11.590165000000001
 30
0.0
 11
978.34628699999985
 21
-0.334167
 31
0.0
  0
LINE
  5
194
  8
LAYER01
  6
CONTINUOUS
 62
     7
 10
988.09960299999977
 20
-13.031492
 30
0.0
 11
999.35559999999987
 21
-1.775495
 31
0.0
  0
LINE
  5
195
  8
LAYER01
  6
CONTINUOUS
 62
     7
 10
1009.108916
 20
-14.472818999999999
 30
0.0
 11
1020.282437
 21
-3.2992979999999998
 31
0.0
  0
LINE
  5
196
  8
LAYER01
  6
CONTINUOUS
 62
     7
 10
1029.850171
 20
-16.182205
 30
0.0
 11
1040.926919
 21
-5.1054559999999993
 31
0.0
  0
LINE
  5
197
  8
LAYER01
  6
CONTINUOUS
 62
     7
 10
1041.615395
 20
-26.867619999999999
 30
0.0
 11
1055.050434
 21
-13.432582
 31
0.0
  0
ENDBLK
  5
198
  8
0
  0
BLOCK
  8
0
  2
*D1
 70
     1
 10
0.0
 20
0.0
 30
0.0
  3
*D1
  1

  0
LINE
  5
19B
  8
LAYER01
 62
     7
 10
1331.615395
 20
188.820414
 30
0.0
 11
831.61539500000003
 21
188.820414
 31
0.0
  0
LINE
  5
19C
  8
LAYER01
 62
     7
 10
1331.615395
 20
142.35467299999999
 30
0.0
 11
1331.615395
 21
223.820414
 31
0.0
  0
LINE
  5
19D
  8
LAYER01
 62
     7
 10
831.61539500000003
 20
142.35467299999999
 30
0.0
 11
831.61539500000003
 21
223.820414
 31
0.0
  0
SOLID
  5
19E
  8
LAYER01
 62
     7
 10
1275.615395
 20
198.15337400000001
 30
0.0
 11
1331.615395
 21
188.820414
 31
0.0
 12
1275.615395
 22
179.48745400000001
 32
0.0
 13
1275.615395
 23
179.48745400000001
 33
0.0
  0
SOLID
  5
19F
  8
LAYER01
 62
     7
 10
887.61539499999992
 20
198.15337400000001
 30
0.0
 11
831.61539500000003
 21
188.820414
 31
0.0
 12
887.61539499999992
 22
179.48745400000001
 32
0.0
 13
887.61539499999992
 23
179.48745400000001
 33
0.0
  0
TEXT
  5
1A0
  8
LAYER01
  6
CONTINUOUS
 62
     7
 10
1029.4603159999999
 20
223.820414
 30
0.0
 40
70.0
  1
500
  0
POINT
  5
1A1
  8
LAYER01
 62
     7
 10
1331.615395
 20
114.35467300000001
 30
0.0
  0
POINT
  5
1A2
  8
LAYER01
 62
     7
 10
831.61539500000003
 20
114.35467300000001
 30
0.0
  0
POINT
  5
1A3
  8
LAYER01
 62
     7
 10
831.61539500000003
 20
188.820414
 30
0.0
  0
ENDBLK
  5
1A4
  8
0
  0
BLOCK
  8
0
  2
VP355012-G3
 70
     0
 10
0.0
 20
0.0
 30
0.0
  3
VP355012-G3
  1

  0
LINE
  5
1A7
  8
LAYER01
  6
CONTINUOUS
 62
     7
 10
1108.3192919999999
 20
-27.51564500000001
 30
0.0
 11
1131.5373
 21
-4.2976359999999989
 31
0.0
  0
LINE
  5
1A8
  8
LAYER01
  6
CONTINUOUS
 62
     7
 10
1142.9396819999999
 20
-15.345895000000001
 30
0.0
 11
1155.9675870000001
 21
-2.317988999999999
 31
0.0
  0
LINE
  5
1A9
  8
LAYER01
  6
CONTINUOUS
 62
     7
 10
1167.1577110000001
 20
-13.578506000000001
 30
0.0
 11
1180.071884
 21
-0.664333
 31
0.0
  0
LINE
  5
1AA
  8
LAYER01
  6
CONTINUOUS
 62
     7
 10
1191.2620079999999
 20
-11.924849999999999
 30
0.0
 11
1204.1761799999999
 21
0.989323
 31
0.0
  0
LINE
  5
1AB
  8
LAYER01
  6
CONTINUOUS
 62
     7
 10
1215.3663039999999
 20
-10.271193999999999
 30
0.0
 11
1228.280477
 21
2.6429789999999991
 31
0.0
  0
LINE
  5
1AC
  8
LAYER01
  6
CONTINUOUS
 62
     7
 10
1331.1521069999999
 20
105.51460899999999
 30
0.0
 11
1339.9921710000001
 21
114.35467300000001
 31
0.0
  0
LINE
  5
1AD
  8
LAYER01
  6
CONTINUOUS
 62
     7
 10
1239.470601
 20
-8.6175369999999987
 30
0.0
 11
1252.384773
 21
4.2966350000000002
 31
0.0
  0
LINE
  5
1AE
  8
LAYER01
  6
CONTINUOUS
 62
     7
 10
1329.9104460000001
 20
81.822307999999992
 30
0.0
 11
1342.5915
 21
94.503361999999996
 31
0.0
  0
LINE
  5
1AF
  8
LAYER01
  6
CONTINUOUS
 62
     7
 10
1350.426833
 20
102.338695
 30
0.0
 11
1356.615395
 21
108.52725700000001
 31
0.0
  0
LINE
  5
1B0
  8
LAYER01
  6
CONTINUOUS
 62
     7
 10
1263.574897
 20
-6.9638809999999989
 30
0.0
 11
1276.4890700000001
 21
5.9502909999999991
 31
0.0
  0
LINE
  5
1B1
  8
LAYER01
  6
CONTINUOUS
 62
     7
 10
1287.6791940000001
 20
-5.3102249999999991
 30
0.0
 11
1300.5933660000001
 21
7.603947999999999
 31
0.0
  0
LINE
  5
1B2
  8
LAYER01
  6
CONTINUOUS
 62
     7
 10
1328.6687850000001
 20
58.130006999999992
 30
0.0
 11
1341.349839
 21
70.811060999999995
 31
0.0
  0
LINE
  5
1B3
  8
LAYER01
  6
CONTINUOUS
 62
     7
 10
1327.427124
 20
34.437705999999999
 30
0.0
 11
1340.108178
 21
47.118759999999988
 31
0.0
  0
LINE
  5
1B4
  8
LAYER01
  6
CONTINUOUS
 62
     7
 10
1311.78349
 20
-3.6565690000000002
 30
0.0
 11
1338.866518
 21
23.426459000000001
 31
0.0
  0
ENDBLK
  5
1B5
  8
0
  0
BLOCK
  8
0
  2
*D3
 70
     1
 10
0.0
 20
0.0
 30
0.0
  3
*D3
  1

  0
LINE
  5
1B8
  8
LAYER01
 62
     7
 10
1356.615401
 20
1034.3648880000001
 30
0.0
 11
806.61538899999982
 21
1034.3648880000001
 31
0.0
  0
LINE
  5
1B9
  8
LAYER01
 62
     7
 10
1356.615401
 20
816.88001100000008
 30
0.0
 11
1356.615401
 21
1069.3648880000001
 31
0.0
  0
LINE
  5
1BA
  8
LAYER01
 62
     7
 10
806.61538899999982
 20
816.88001100000008
 30
0.0
 11
806.61538899999982
 21
1069.3648880000001
 31
0.0
  0
SOLID
  5
1BB
  8
LAYER01
 62
     7
 10
1300.615401
 20
1043.697848
 30
0.0
 11
1356.615401
 21
1034.3648880000001
 31
0.0
 12
1300.615401
 22
1025.0319280000001
 32
0.0
 13
1300.615401
 23
1025.0319280000001
 33
0.0
  0
SOLID
  5
1BC
  8
LAYER01
 62
     7
 10
862.61538900000005
 20
1043.697848
 30
0.0
 11
806.61538899999982
 21
1034.3648880000001
 31
0.0
 12
862.61538900000005
 22
1025.0319280000001
 32
0.0
 13
862.61538900000005
 23
1025.0319280000001
 33
0.0
  0
TEXT
  5
1BD
  8
LAYER01
  6
CONTINUOUS
 62
     7
 10
1029.4603159999999
 20
1069.3648880000001
 30
0.0
 40
70.0
  1
550
  0
POINT
  5
1BE
  8
LAYER01
 62
     7
 10
1356.615401
 20
788.88001099999997
 30
0.0
  0
POINT
  5
1BF
  8
LAYER01
 62
     7
 10
806.61538899999982
 20
788.88001099999997
 30
0.0
  0
POINT
  5
1C0
  8
LAYER01
 62
     7
 10
806.61538899999982
 20
1034.3648880000001
 30
0.0
  0
ENDBLK
  5
1C1
  8
0
  0
BLOCK
  8
0
  2
*D4
 70
     1
 10
0.0
 20
0.0
 30
0.0
  3
*D4
  1

  0
LINE
  5
1C4
  8
LAYER01
 62
     7
 10
1331.615395
 20
874.73873499999979
 30
0.0
 11
831.61539500000003
 21
874.73873499999979
 31
0.0
  0
LINE
  5
1C5
  8
LAYER01
 62
     7
 10
1331.615395
 20
816.88001100000008
 30
0.0
 11
1331.615395
 21
909.73873499999991
 31
0.0
  0
LINE
  5
1C6
  8
LAYER01
 62
     7
 10
831.61539500000003
 20
816.88001100000008
 30
0.0
 11
831.61539500000003
 21
909.73873499999991
 31
0.0
  0
SOLID
  5
1C7
  8
LAYER01
 62
     7
 10
1275.615395
 20
884.07169499999986
 30
0.0
 11
1331.615395
 21
874.73873499999979
 31
0.0
 12
1275.615395
 22
865.40577499999995
 32
0.0
 13
1275.615395
 23
865.40577499999995
 33
0.0
  0
SOLID
  5
1C8
  8
LAYER01
 62
     7
 10
887.61539499999992
 20
884.07169499999986
 30
0.0
 11
831.61539500000003
 21
874.73873499999979
 31
0.0
 12
887.61539499999992
 22
865.40577499999995
 32
0.0
 13
887.61539499999992
 23
865.40577499999995
 33
0.0
  0
TEXT
  5
1C9
  8
LAYER01
  6
CONTINUOUS
 62
     7
 10
1029.4603159999999
 20
909.73873499999991
 30
0.0
 40
70.0
  1
500
  0
POINT
  5
1CA
  8
LAYER01
 62
     7
 10
1331.615395
 20
788.88001099999997
 30
0.0
  0
POINT
  5
1CB
  8
LAYER01
 62
     7
 10
831.61539500000003
 20
788.88001099999997
 30
0.0
  0
POINT
  5
1CC
  8
LAYER01
 62
     7
 10
831.61539500000003
 20
874.73873499999979
 30
0.0
  0
ENDBLK
  5
1CD
  8
0
  0
BLOCK
  8
0
  2
*D5
 70
     1
 10
0.0
 20
0.0
 30
0.0
  3
*D5
  1

  0
LINE
  5
1D0
  8
LAYER01
 62
     7
 10
515.63992999999994
 20
781.64022699999998
 30
0.0
 11
515.63992999999994
 21
381.640221
 31
0.0
  0
LINE
  5
1D1
  8
LAYER01
 62
     7
 10
770.15381999999988
 20
781.64022699999998
 30
0.0
 11
480.63992999999988
 21
781.64022699999998
 31
0.0
  0
LINE
  5
1D2
  8
LAYER01
 62
     7
 10
770.15381999999988
 20
381.640221
 30
0.0
 11
480.63992999999988
 21
381.640221
 31
0.0
  0
SOLID
  5
1D3
  8
LAYER01
 62
     7
 10
506.30696999999998
 20
725.64022699999987
 30
0.0
 11
515.63992999999994
 21
781.64022699999998
 31
0.0
 12
524.97289000000001
 22
725.64022699999987
 32
0.0
 13
524.97289000000001
 23
725.64022699999987
 33
0.0
  0
SOLID
  5
1D4
  8
LAYER01
 62
     7
 10
506.30696999999998
 20
437.640221
 30
0.0
 11
515.63992999999994
 21
381.640221
 31
0.0
 12
524.97289000000001
 22
437.640221
 32
0.0
 13
524.97289000000001
 23
437.640221
 33
0.0
  0
TEXT
  5
1D5
  8
LAYER01
  6
CONTINUOUS
 62
     7
 10
480.63992999999988
 20
529.48514499999999
 30
0.0
 40
70.0
  1
400
 50
90.0
  0
POINT
  5
1D6
  8
LAYER01
 62
     7
 10
798.15382
 20
781.64022699999998
 30
0.0
  0
POINT
  5
1D7
  8
LAYER01
 62
     7
 10
798.15382
 20
381.640221
 30
0.0
  0
POINT
  5
1D8
  8
LAYER01
 62
     7
 10
515.63992999999994
 20
381.640221
 30
0.0
  0
ENDBLK
  5
1D9
  8
0
  0
BLOCK
  8
0
  2
*D6
 70
     1
 10
0.0
 20
0.0
 30
0.0
  3
*D6
  1

  0
LINE
  5
1DC
  8
LAYER01
 62
     7
 10
663.08270300000004
 20
756.64022099999988
 30
0.0
 11
663.08270300000004
 21
406.64022699999998
 31
0.0
  0
LINE
  5
1DD
  8
LAYER01
 62
     7
 10
770.15381999999988
 20
756.64022099999988
 30
0.0
 11
628.08270300000004
 21
756.64022099999988
 31
0.0
  0
LINE
  5
1DE
  8
LAYER01
 62
     7
 10
770.15381999999988
 20
406.64022699999998
 30
0.0
 11
628.08270300000004
 21
406.64022699999998
 31
0.0
  0
SOLID
  5
1DF
  8
LAYER01
 62
     7
 10
653.74974299999997
 20
700.640221
 30
0.0
 11
663.08270300000004
 21
756.64022099999988
 31
0.0
 12
672.415663
 22
700.640221
 32
0.0
 13
672.415663
 23
700.640221
 33
0.0
  0
SOLID
  5
1E0
  8
LAYER01
 62
     7
 10
653.74974299999997
 20
462.64022699999992
 30
0.0
 11
663.08270300000004
 21
406.64022699999998
 31
0.0
 12
672.415663
 22
462.64022699999992
 32
0.0
 13
672.415663
 23
462.64022699999992
 33
0.0
  0
TEXT
  5
1E1
  8
LAYER01
  6
CONTINUOUS
 62
     7
 10
628.08270300000004
 20
529.48514499999999
 30
0.0
 40
70.0
  1
350
 50
90.0
  0
POINT
  5
1E2
  8
LAYER01
 62
     7
 10
798.15382
 20
756.64022099999988
 30
0.0
  0
POINT
  5
1E3
  8
LAYER01
 62
     7
 10
798.15382
 20
406.64022699999998
 30
0.0
  0
POINT
  5
1E4
  8
LAYER01
 62
     7
 10
663.08270300000004
 20
406.64022699999998
 30
0.0
  0
ENDBLK
  5
1E5
  8
0
  0
BLOCK
  8
0
  2
VP355012-G8
 70
     0
 10
0.0
 20
0.0
 30
0.0
  3
VP355012-G8
  1

  0
LINE
  5
1E8
  8
LAYER01
  6
CONTINUOUS
 62
     7
 10
1081.8900060000001
 20
581.47480899999994
 30
0.0
 11
1081.8900060000001
 21
583.97480899999994
 31
0.0
  0
LINE
  5
1E9
  8
LAYER01
  6
CONTINUOUS
 62
     7
 10
1081.8900060000001
 20
581.47480899999994
 30
0.0
 11
1079.3900060000001
 21
581.47480899999994
 31
0.0
  0
LINE
  5
1EA
  8
LAYER01
  6
CONTINUOUS
 62
     7
 10
1081.8900060000001
 20
581.47480899999994
 30
0.0
 11
1081.8900060000001
 21
578.97480899999994
 31
0.0
  0
LINE
  5
1EB
  8
LAYER01
  6
CONTINUOUS
 62
     7
 10
1081.8900060000001
 20
581.47480899999994
 30
0.0
 11
1084.3900060000001
 21
581.47480899999994
 31
0.0
  0
LINE
  5
1EC
  8
LAYER01
  6
CONTINUOUS
 62
     7
 10
1081.8900060000001
 20
586.47480899999994
 30
0.0
 11
1081.8900060000001
 21
606.97480899999994
 31
0.0
  0
LINE
  5
1ED
  8
LAYER01
  6
CONTINUOUS
 62
     7
 10
1076.8900060000001
 20
581.47480899999994
 30
0.0
 11
1056.3900060000001
 21
581.47480899999994
 31
0.0
  0
LINE
  5
1EE
  8
LAYER01
  6
CONTINUOUS
 62
     7
 10
1081.8900060000001
 20
576.47480899999994
 30
0.0
 11
1081.8900060000001
 21
555.97480899999994
 31
0.0
  0
LINE
  5
1EF
  8
LAYER01
  6
CONTINUOUS
 62
     7
 10
1086.8900060000001
 20
581.47480899999994
 30
0.0
 11
1107.3900060000001
 21
581.47480899999994
 31
0.0
  0
ENDBLK
  5
1F0
  8
0
  0
BLOCK
  8
0
  2
VP355012-G9
 70
     0
 10
0.0
 20
0.0
 30
0.0
  3
VP355012-G9
  1

  0
LINE
  5
1F3
  8
LAYER01
  6
CONTINUOUS
 62
     7
 10
1081.615395
 20
581.64022399999999
 30
0.0
 11
1081.615395
 21
584.14022399999988
 31
0.0
  0
LINE
  5
1F4
  8
LAYER01
  6
CONTINUOUS
 62
     7
 10
1081.615395
 20
581.64022399999999
 30
0.0
 11
1079.115395
 21
581.64022399999999
 31
0.0
  0
LINE
  5
1F5
  8
LAYER01
  6
CONTINUOUS
 62
     7
 10
1081.615395
 20
581.64022399999999
 30
0.0
 11
1081.615395
 21
579.14022399999999
 31
0.0
  0
LINE
  5
1F6
  8
LAYER01
  6
CONTINUOUS
 62
     7
 10
1081.615395
 20
581.64022399999999
 30
0.0
 11
1084.115395
 21
581.64022399999999
 31
0.0
  0
LINE
  5
1F7
  8
LAYER01
  6
CONTINUOUS
 62
     7
 10
1081.615395
 20
586.64022399999999
 30
0.0
 11
1081.615395
 21
608.92628599999989
 31
0.0
  0
LINE
  5
1F8
  8
LAYER01
  6
CONTINUOUS
 62
     7
 10
1076.615395
 20
581.64022399999999
 30
0.0
 11
1054.3293329999999
 21
581.64022399999999
 31
0.0
  0
LINE
  5
1F9
  8
LAYER01
  6
CONTINUOUS
 62
     7
 10
1081.615395
 20
576.64022399999988
 30
0.0
 11
1081.615395
 21
554.35416199999997
 31
0.0
  0
LINE
  5
1FA
  8
LAYER01
  6
CONTINUOUS
 62
     7
 10
1086.615395
 20
581.64022399999999
 30
0.0
 11
1108.9014569999999
 21
581.64022399999999
 31
0.0
  0
ENDBLK
  5
1FB
  8
0
  0
BLOCK
  8
0
  2
*D9
 70
     1
 10
0.0
 20
0.0
 30
0.0
  3
*D9
  1

  0
LINE
  5
1FE
  8
LAYER01
 62
     7
 10
1902.4733650000001
 20
381.24561
 30
0.0
 11
2014.4733650000001
 21
381.24561
 31
0.0
  0
LINE
  5
1FF
  8
LAYER01
 62
     7
 10
1856.5310549999999
 20
381.24561
 30
0.0
 11
1744.5310549999999
 21
381.24561
 31
0.0
  0
LINE
  5
200
  8
LAYER01
 62
     7
 10
1902.4733650000001
 20
499.88013099999989
 30
0.0
 11
1902.4733650000001
 21
346.24561
 31
0.0
  0
LINE
  5
201
  8
LAYER01
 62
     7
 10
1856.5310549999999
 20
499.88013099999989
 30
0.0
 11
1856.5310549999999
 21
346.24561
 31
0.0
  0
SOLID
  5
202
  8
LAYER01
 62
     7
 10
1958.4733650000001
 20
390.57857000000001
 30
0.0
 11
1902.4733650000001
 21
381.24561
 31
0.0
 12
1958.4733650000001
 22
371.91264999999999
 32
0.0
 13
1958.4733650000001
 23
371.91264999999999
 33
0.0
  0
SOLID
  5
203
  8
LAYER01
 62
     7
 10
1800.5310549999999
 20
390.57857000000001
 30
0.0
 11
1856.5310549999999
 21
381.24561
 31
0.0
 12
1800.5310549999999
 22
371.91264999999999
 32
0.0
 13
1800.5310549999999
 23
371.91264999999999
 33
0.0
  0
TEXT
  5
204
  8
LAYER01
  6
CONTINUOUS
 62
     7
 10
2049.4733649999998
 20
416.24560999999989
 30
0.0
 40
70.0
  1
46
  0
POINT
  5
205
  8
LAYER01
 62
     7
 10
1902.4733650000001
 20
527.88013100000001
 30
0.0
  0
POINT
  5
206
  8
LAYER01
 62
     7
 10
1856.5310549999999
 20
527.88013100000001
 30
0.0
  0
POINT
  5
207
  8
LAYER01
 62
     7
 10
1856.5310549999999
 20
381.24561
 30
0.0
  0
ENDBLK
  5
208
  8
0
  0
BLOCK
  8
0
  2
VP355012-G11
 70
     0
 10
0.0
 20
0.0
 30
0.0
  3
VP355012-G11
  1

  0
POLYLINE
  5
20B
  8
LAYER01
  6
CONTINUOUS
 62
     7
 66
     1
 10
0.0
 20
0.0
 30
0.0
 70
     1
  0
VERTEX
  5
7DA
  8
LAYER01
  6
CONTINUOUS
 62
     7
 10
2295.8037859999999
 20
-177.11403799999999
 30
0.0
  0
VERTEX
  5
7DB
  8
LAYER01
  6
CONTINUOUS
 62
     7
 10
2337.2334729999998
 20
-177.11403799999999
 30
0.0
  0
VERTEX
  5
7DC
  8
LAYER01
  6
CONTINUOUS
 62
     7
 10
2389.2614520000002
 20
-295.62221099999999
 30
0.0
  0
VERTEX
  5
7DD
  8
LAYER01
  6
CONTINUOUS
 62
     7
 10
2441.2894300000012
 20
-177.11403799999999
 30
0.0
  0
VERTEX
  5
7DE
  8
LAYER01
  6
CONTINUOUS
 62
     7
 10
2484.6460790000001
 20
-177.11403799999999
 30
0.0
  0
VERTEX
  5
7DF
  8
LAYER01
  6
CONTINUOUS
 62
     7
 10
2389.2614520000002
 20
-389.07987700000001
 30
0.0
  0
VERTEX
  5
7E0
  8
LAYER01
  6
CONTINUOUS
 62
     7
 10
2295.8037859999999
 20
-177.11403799999999
 30
0.0
  0
VERTEX
  5
7E1
  8
LAYER01
  6
CONTINUOUS
 62
     7
 10
2295.8037859999999
 20
-177.11403799999999
 30
0.0
  0
SEQEND
  5
7E2
  8
LAYER01
  6
CONTINUOUS
 62
     7
  0
POLYLINE
  5
215
  8
LAYER01
  6
CONTINUOUS
 62
     7
 66
     1
 10
0.0
 20
0.0
 30
0.0
 70
     1
  0
VERTEX
  5
7E3
  8
LAYER01
  6
CONTINUOUS
 62
     7
 10
2437.4355059999998
 20
-321.63620100000003
 30
0.0
  0
VERTEX
  5
7E4
  8
LAYER01
  6
CONTINUOUS
 62
     7
 10
2451.8877219999999
 20
-287.91436299999998
 30
0.0
  0
VERTEX
  5
7E5
  8
LAYER01
  6
CONTINUOUS
 62
     7
 10
2514.513993
 20
-287.91436299999998
 30
0.0
  0
VERTEX
  5
7E6
  8
LAYER01
  6
CONTINUOUS
 62
     7
 10
2482.7191170000001
 20
-218.543724
 30
0.0
  0
VERTEX
  5
7E7
  8
LAYER01
  6
CONTINUOUS
 62
     7
 10
2501.0252580000001
 20
-174.22359399999999
 30
0.0
  0
VERTEX
  5
7E8
  8
LAYER01
  6
CONTINUOUS
 62
     7
 10
2586.775075
 20
-355.35803900000002
 30
0.0
  0
VERTEX
  5
7E9
  8
LAYER01
  6
CONTINUOUS
 62
     7
 10
2586.775075
 20
-177.11403799999999
 30
0.0
  0
VERTEX
  5
7EA
  8
LAYER01
  6
CONTINUOUS
 62
     7
 10
2701.4293240000002
 20
-177.11403799999999
 30
0.0
  0
VERTEX
  5
7EB
  8
LAYER01
  6
CONTINUOUS
 62
     7
 10
2701.4293240000002
 20
-177.11403799999999
 30
0.0
  0
VERTEX
  5
7EC
  8
LAYER01
  6
CONTINUOUS
 62
     7
 10
2712.0276159999999
 20
-179.041
 30
0.0
  0
VERTEX
  5
7ED
  8
LAYER01
  6
CONTINUOUS
 62
     7
 10
2721.6624270000002
 20
-182.894924
 30
0.0
  0
VERTEX
  5
7EE
  8
LAYER01
  6
CONTINUOUS
 62
     7
 10
2730.3337569999999
 20
-189.63929200000001
 30
0.0
  0
VERTEX
  5
7EF
  8
LAYER01
  6
CONTINUOUS
 62
     7
 10
2738.0416059999998
 20
-196.38365899999999
 30
0.0
  0
VERTEX
  5
7F0
  8
LAYER01
  6
CONTINUOUS
 62
     7
 10
2744.785973
 20
-205.05498900000001
 30
0.0
  0
VERTEX
  5
7F1
  8
LAYER01
  6
CONTINUOUS
 62
     7
 10
2749.6033790000001
 20
-214.68979999999999
 30
0.0
  0
VERTEX
  5
7F2
  8
LAYER01
  6
CONTINUOUS
 62
     7
 10
2753.4573030000001
 20
-226.25157300000001
 30
0.0
  0
VERTEX
  5
7F3
  8
LAYER01
  6
CONTINUOUS
 62
     7
 10
2754.4207839999999
 20
-236.84986499999999
 30
0.0
  0
VERTEX
  5
7F4
  8
LAYER01
  6
CONTINUOUS
 62
     7
 10
2754.4207839999999
 20
-236.84986499999999
 30
0.0
  0
VERTEX
  5
7F5
  8
LAYER01
  6
CONTINUOUS
 62
     7
 10
2754.4207839999999
 20
-248.41163800000001
 30
0.0
  0
VERTEX
  5
7F6
  8
LAYER01
  6
CONTINUOUS
 62
     7
 10
2752.4938219999999
 20
-258.046449
 30
0.0
  0
VERTEX
  5
7F7
  8
LAYER01
  6
CONTINUOUS
 62
     7
 10
2748.639897
 20
-267.68126000000001
 30
0.0
  0
VERTEX
  5
7F8
  8
LAYER01
  6
CONTINUOUS
 62
     7
 10
2743.8224919999998
 20
-276.35259000000002
 30
0.0
  0
VERTEX
  5
7F9
  8
LAYER01
  6
CONTINUOUS
 62
     7
 10
2737.0781240000001
 20
-284.06043799999998
 30
0.0
  0
VERTEX
  5
7FA
  8
LAYER01
  6
CONTINUOUS
 62
     7
 10
2729.3702760000001
 20
-290.80480599999999
 30
0.0
  0
VERTEX
  5
7FB
  8
LAYER01
  6
CONTINUOUS
 62
     7
 10
2720.698946
 20
-295.62221099999999
 30
0.0
  0
VERTEX
  5
7FC
  8
LAYER01
  6
CONTINUOUS
 62
     7
 10
2710.1006539999998
 20
-299.476136
 30
0.0
  0
VERTEX
  5
7FD
  8
LAYER01
  6
CONTINUOUS
 62
     7
 10
2771.7634440000002
 20
-381.372028
 30
0.0
  0
VERTEX
  5
7FE
  8
LAYER01
  6
CONTINUOUS
 62
     7
 10
2771.7634440000002
 20
-177.11403799999999
 30
0.0
  0
VERTEX
  5
7FF
  8
LAYER01
  6
CONTINUOUS
 62
     7
 10
2812.2296489999999
 20
-177.11403799999999
 30
0.0
  0
VERTEX
  5
800
  8
LAYER01
  6
CONTINUOUS
 62
     7
 10
2812.2296489999999
 20
-383.29899
 30
0.0
  0
VERTEX
  5
801
  8
LAYER01
  6
CONTINUOUS
 62
     7
 10
2725.5163510000002
 20
-383.29899
 30
0.0
  0
VERTEX
  5
802
  8
LAYER01
  6
CONTINUOUS
 62
     7
 10
2641.6934970000002
 20
-276.35259000000002
 30
0.0
  0
VERTEX
  5
803
  8
LAYER01
  6
CONTINUOUS
 62
     7
 10
2684.0866649999998
 20
-276.35259000000002
 30
0.0
  0
VERTEX
  5
804
  8
LAYER01
  6
CONTINUOUS
 62
     7
 10
2684.0866649999998
 20
-276.35259000000002
 30
0.0
  0
VERTEX
  5
805
  8
LAYER01
  6
CONTINUOUS
 62
     7
 10
2689.8675510000012
 20
-275.38910900000002
 30
0.0
  0
VERTEX
  5
806
  8
LAYER01
  6
CONTINUOUS
 62
     7
 10
2695.6484380000002
 20
-273.46214600000002
 30
0.0
  0
VERTEX
  5
807
  8
LAYER01
  6
CONTINUOUS
 62
     7
 10
2700.4658429999999
 20
-270.57170300000001
 30
0.0
  0
VERTEX
  5
808
  8
LAYER01
  6
CONTINUOUS
 62
     7
 10
2705.2832490000001
 20
-266.71777900000001
 30
0.0
  0
VERTEX
  5
809
  8
LAYER01
  6
CONTINUOUS
 62
     7
 10
2708.1736920000012
 20
-261.900373
 30
0.0
  0
VERTEX
  5
80A
  8
LAYER01
  6
CONTINUOUS
 62
     7
 10
2711.0641350000001
 20
-256.11948699999999
 30
0.0
  0
VERTEX
  5
80B
  8
LAYER01
  6
CONTINUOUS
 62
     7
 10
2712.9910970000001
 20
-250.33860000000001
 30
0.0
  0
VERTEX
  5
80C
  8
LAYER01
  6
CONTINUOUS
 62
     7
 10
2712.9910970000001
 20
-243.594233
 30
0.0
  0
VERTEX
  5
80D
  8
LAYER01
  6
CONTINUOUS
 62
     7
 10
2712.9910970000001
 20
-243.594233
 30
0.0
  0
VERTEX
  5
80E
  8
LAYER01
  6
CONTINUOUS
 62
     7
 10
2712.9910970000001
 20
-237.813346
 30
0.0
  0
VERTEX
  5
80F
  8
LAYER01
  6
CONTINUOUS
 62
     7
 10
2711.0641350000001
 20
-232.03245999999999
 30
0.0
  0
VERTEX
  5
810
  8
LAYER01
  6
CONTINUOUS
 62
     7
 10
2709.1371730000001
 20
-226.25157300000001
 30
0.0
  0
VERTEX
  5
811
  8
LAYER01
  6
CONTINUOUS
 62
     7
 10
2705.2832490000001
 20
-221.434168
 30
0.0
  0
VERTEX
  5
812
  8
LAYER01
  6
CONTINUOUS
 62
     7
 10
2701.4293240000002
 20
-217.580243
 30
0.0
  0
VERTEX
  5
813
  8
LAYER01
  6
CONTINUOUS
 62
     7
 10
2695.6484380000002
 20
-214.68979999999999
 30
0.0
  0
VERTEX
  5
814
  8
LAYER01
  6
CONTINUOUS
 62
     7
 10
2689.8675510000012
 20
-212.76283799999999
 30
0.0
  0
VERTEX
  5
815
  8
LAYER01
  6
CONTINUOUS
 62
     7
 10
2684.0866649999998
 20
-211.79935699999999
 30
0.0
  0
VERTEX
  5
816
  8
LAYER01
  6
CONTINUOUS
 62
     7
 10
2630.1317239999998
 20
-211.79935699999999
 30
0.0
  0
VERTEX
  5
817
  8
LAYER01
  6
CONTINUOUS
 62
     7
 10
2630.1317239999998
 20
-383.29899
 30
0.0
  0
VERTEX
  5
818
  8
LAYER01
  6
CONTINUOUS
 62
     7
 10
2560.7610850000001
 20
-383.29899
 30
0.0
  0
VERTEX
  5
819
  8
LAYER01
  6
CONTINUOUS
 62
     7
 10
2531.8566529999998
 20
-321.63620100000003
 30
0.0
  0
VERTEX
  5
81A
  8
LAYER01
  6
CONTINUOUS
 62
     7
 10
2437.4355059999998
 20
-321.63620100000003
 30
0.0
  0
VERTEX
  5
81B
  8
LAYER01
  6
CONTINUOUS
 62
     7
 10
2437.4355059999998
 20
-321.63620100000003
 30
0.0
  0
SEQEND
  5
81C
  8
LAYER01
  6
CONTINUOUS
 62
     7
  0
POLYLINE
  5
250
  8
LAYER01
  6
CONTINUOUS
 62
     7
 66
     1
 10
0.0
 20
0.0
 30
0.0
 70
     1
  0
VERTEX
  5
81D
  8
LAYER01
  6
CONTINUOUS
 62
     7
 10
2999.14498
 20
-190.60277300000001
 30
0.0
  0
VERTEX
  5
81E
  8
LAYER01
  6
CONTINUOUS
 62
     7
 10
2973.130991
 20
-223.36113
 30
0.0
  0
VERTEX
  5
81F
  8
LAYER01
  6
CONTINUOUS
 62
     7
 10
2973.130991
 20
-223.36113
 30
0.0
  0
VERTEX
  5
820
  8
LAYER01
  6
CONTINUOUS
 62
     7
 10
2964.4596609999999
 20
-217.580243
 30
0.0
  0
VERTEX
  5
821
  8
LAYER01
  6
CONTINUOUS
 62
     7
 10
2955.7883310000002
 20
-212.76283799999999
 30
0.0
  0
VERTEX
  5
822
  8
LAYER01
  6
CONTINUOUS
 62
     7
 10
2946.1535210000002
 20
-209.87239500000001
 30
0.0
  0
VERTEX
  5
823
  8
LAYER01
  6
CONTINUOUS
 62
     7
 10
2935.5552290000001
 20
-209.87239500000001
 30
0.0
  0
VERTEX
  5
824
  8
LAYER01
  6
CONTINUOUS
 62
     7
 10
2935.5552290000001
 20
-209.87239500000001
 30
0.0
  0
VERTEX
  5
825
  8
LAYER01
  6
CONTINUOUS
 62
     7
 10
2928.8108609999999
 20
-209.87239500000001
 30
0.0
  0
VERTEX
  5
826
  8
LAYER01
  6
CONTINUOUS
 62
     7
 10
2922.0664929999998
 20
-210.83587600000001
 30
0.0
  0
VERTEX
  5
827
  8
LAYER01
  6
CONTINUOUS
 62
     7
 10
2915.322126
 20
-212.76283799999999
 30
0.0
  0
VERTEX
  5
828
  8
LAYER01
  6
CONTINUOUS
 62
     7
 10
2908.5777579999999
 20
-215.65328099999999
 30
0.0
  0
VERTEX
  5
829
  8
LAYER01
  6
CONTINUOUS
 62
     7
 10
2902.7968719999999
 20
-218.543724
 30
0.0
  0
VERTEX
  5
82A
  8
LAYER01
  6
CONTINUOUS
 62
     7
 10
2897.9794660000011
 20
-222.397649
 30
0.0
  0
VERTEX
  5
82B
  8
LAYER01
  6
CONTINUOUS
 62
     7
 10
2892.1985800000002
 20
-226.25157300000001
 30
0.0
  0
VERTEX
  5
82C
  8
LAYER01
  6
CONTINUOUS
 62
     7
 10
2888.3446549999999
 20
-231.06897900000001
 30
0.0
  0
VERTEX
  5
82D
  8
LAYER01
  6
CONTINUOUS
 62
     7
 10
2883.5272500000001
 20
-236.84986499999999
 30
0.0
  0
VERTEX
  5
82E
  8
LAYER01
  6
CONTINUOUS
 62
     7
 10
2880.6368069999999
 20
-242.630752
 30
0.0
  0
VERTEX
  5
82F
  8
LAYER01
  6
CONTINUOUS
 62
     7
 10
2876.782882
 20
-248.41163800000001
 30
0.0
  0
VERTEX
  5
830
  8
LAYER01
  6
CONTINUOUS
 62
     7
 10
2873.8924390000002
 20
-254.19252499999999
 30
0.0
  0
VERTEX
  5
831
  8
LAYER01
  6
CONTINUOUS
 62
     7
 10
2871.9654770000002
 20
-260.936892
 30
0.0
  0
VERTEX
  5
832
  8
LAYER01
  6
CONTINUOUS
 62
     7
 10
2871.001996
 20
-267.68126000000001
 30
0.0
  0
VERTEX
  5
833
  8
LAYER01
  6
CONTINUOUS
 62
     7
 10
2870.0385150000002
 20
-274.42562700000002
 30
0.0
  0
VERTEX
  5
834
  8
LAYER01
  6
CONTINUOUS
 62
     7
 10
2869.0750330000001
 20
-282.13347599999997
 30
0.0
  0
VERTEX
  5
835
  8
LAYER01
  6
CONTINUOUS
 62
     7
 10
2869.0750330000001
 20
-282.13347599999997
 30
0.0
  0
VERTEX
  5
836
  8
LAYER01
  6
CONTINUOUS
 62
     7
 10
2870.0385150000002
 20
-288.87784399999998
 30
0.0
  0
VERTEX
  5
837
  8
LAYER01
  6
CONTINUOUS
 62
     7
 10
2871.001996
 20
-295.62221099999999
 30
0.0
  0
VERTEX
  5
838
  8
LAYER01
  6
CONTINUOUS
 62
     7
 10
2871.9654770000002
 20
-302.366579
 30
0.0
  0
VERTEX
  5
839
  8
LAYER01
  6
CONTINUOUS
 62
     7
 10
2874.85592
 20
-308.14746600000001
 30
0.0
  0
VERTEX
  5
83A
  8
LAYER01
  6
CONTINUOUS
 62
     7
 10
2876.782882
 20
-313.92835200000002
 30
0.0
  0
VERTEX
  5
83B
  8
LAYER01
  6
CONTINUOUS
 62
     7
 10
2880.6368069999999
 20
-319.70923900000003
 30
0.0
  0
VERTEX
  5
83C
  8
LAYER01
  6
CONTINUOUS
 62
     7
 10
2884.4907309999999
 20
-325.49012499999998
 30
0.0
  0
VERTEX
  5
83D
  8
LAYER01
  6
CONTINUOUS
 62
     7
 10
2888.3446549999999
 20
-330.30753099999998
 30
0.0
  0
VERTEX
  5
83E
  8
LAYER01
  6
CONTINUOUS
 62
     7
 10
2893.162061
 20
-335.12493599999999
 30
0.0
  0
VERTEX
  5
83F
  8
LAYER01
  6
CONTINUOUS
 62
     7
 10
2897.9794660000011
 20
-338.97886
 30
0.0
  0
VERTEX
  5
840
  8
LAYER01
  6
CONTINUOUS
 62
     7
 10
2903.7603530000001
 20
-341.869304
 30
0.0
  0
VERTEX
  5
841
  8
LAYER01
  6
CONTINUOUS
 62
     7
 10
2909.541239000001
 20
-344.759747
 30
0.0
  0
VERTEX
  5
842
  8
LAYER01
  6
CONTINUOUS
 62
     7
 10
2916.2856070000012
 20
-347.65019000000001
 30
0.0
  0
VERTEX
  5
843
  8
LAYER01
  6
CONTINUOUS
 62
     7
 10
2922.0664929999998
 20
-349.57715200000001
 30
0.0
  0
VERTEX
  5
844
  8
LAYER01
  6
CONTINUOUS
 62
     7
 10
2928.8108609999999
 20
-350.54063300000001
 30
0.0
  0
VERTEX
  5
845
  8
LAYER01
  6
CONTINUOUS
 62
     7
 10
2936.5187100000012
 20
-350.54063300000001
 30
0.0
  0
VERTEX
  5
846
  8
LAYER01
  6
CONTINUOUS
 62
     7
 10
2936.5187100000012
 20
-350.54063300000001
 30
0.0
  0
VERTEX
  5
847
  8
LAYER01
  6
CONTINUOUS
 62
     7
 10
2947.117002
 20
-349.57715200000001
 30
0.0
  0
VERTEX
  5
848
  8
LAYER01
  6
CONTINUOUS
 62
     7
 10
2955.7883310000002
 20
-347.65019000000001
 30
0.0
  0
VERTEX
  5
849
  8
LAYER01
  6
CONTINUOUS
 62
     7
 10
2964.4596609999999
 20
-342.832785
 30
0.0
  0
VERTEX
  5
84A
  8
LAYER01
  6
CONTINUOUS
 62
     7
 10
2973.130991
 20
-337.05189799999999
 30
0.0
  0
VERTEX
  5
84B
  8
LAYER01
  6
CONTINUOUS
 62
     7
 10
2998.1814989999998
 20
-370.77373599999999
 30
0.0
  0
VERTEX
  5
84C
  8
LAYER01
  6
CONTINUOUS
 62
     7
 10
2998.1814989999998
 20
-370.77373599999999
 30
0.0
  0
VERTEX
  5
84D
  8
LAYER01
  6
CONTINUOUS
 62
     7
 10
2983.7292830000001
 20
-379.445066
 30
0.0
  0
VERTEX
  5
84E
  8
LAYER01
  6
CONTINUOUS
 62
     7
 10
2976.0214340000002
 20
-382.335509
 30
0.0
  0
VERTEX
  5
84F
  8
LAYER01
  6
CONTINUOUS
 62
     7
 10
2969.277067
 20
-385.225953
 30
0.0
  0
VERTEX
  5
850
  8
LAYER01
  6
CONTINUOUS
 62
     7
 10
2961.5692180000001
 20
-387.15291500000001
 30
0.0
  0
VERTEX
  5
851
  8
LAYER01
  6
CONTINUOUS
 62
     7
 10
2953.8613690000002
 20
-388.11639600000001
 30
0.0
  0
VERTEX
  5
852
  8
LAYER01
  6
CONTINUOUS
 62
     7
 10
2936.5187100000012
 20
-389.07987700000001
 30
0.0
  0
VERTEX
  5
853
  8
LAYER01
  6
CONTINUOUS
 62
     7
 10
2936.5187100000012
 20
-389.07987700000001
 30
0.0
  0
VERTEX
  5
854
  8
LAYER01
  6
CONTINUOUS
 62
     7
 10
2924.9569369999999
 20
-388.11639600000001
 30
0.0
  0
VERTEX
  5
855
  8
LAYER01
  6
CONTINUOUS
 62
     7
 10
2914.3586449999998
 20
-386.18943400000001
 30
0.0
  0
VERTEX
  5
856
  8
LAYER01
  6
CONTINUOUS
 62
     7
 10
2903.7603530000001
 20
-384.262472
 30
0.0
  0
VERTEX
  5
857
  8
LAYER01
  6
CONTINUOUS
 62
     7
 10
2894.1255420000011
 20
-380.408547
 30
0.0
  0
VERTEX
  5
858
  8
LAYER01
  6
CONTINUOUS
 62
     7
 10
2884.4907309999999
 20
-375.59114199999999
 30
0.0
  0
VERTEX
  5
859
  8
LAYER01
  6
CONTINUOUS
 62
     7
 10
2875.8194010000011
 20
-370.77373599999999
 30
0.0
  0
VERTEX
  5
85A
  8
LAYER01
  6
CONTINUOUS
 62
     7
 10
2867.1480710000001
 20
-364.02936899999997
 30
0.0
  0
VERTEX
  5
85B
  8
LAYER01
  6
CONTINUOUS
 62
     7
 10
2859.4402230000001
 20
-357.28500100000002
 30
0.0
  0
VERTEX
  5
85C
  8
LAYER01
  6
CONTINUOUS
 62
     7
 10
2851.7323740000002
 20
-349.57715200000001
 30
0.0
  0
VERTEX
  5
85D
  8
LAYER01
  6
CONTINUOUS
 62
     7
 10
2845.9514870000012
 20
-340.905823
 30
0.0
  0
VERTEX
  5
85E
  8
LAYER01
  6
CONTINUOUS
 62
     7
 10
2840.1706009999998
 20
-332.23449299999999
 30
0.0
  0
VERTEX
  5
85F
  8
LAYER01
  6
CONTINUOUS
 62
     7
 10
2835.3531950000001
 20
-322.59968199999997
 30
0.0
  0
VERTEX
  5
860
  8
LAYER01
  6
CONTINUOUS
 62
     7
 10
2832.4627519999999
 20
-312.96487100000002
 30
0.0
  0
VERTEX
  5
861
  8
LAYER01
  6
CONTINUOUS
 62
     7
 10
2829.5723090000001
 20
-302.366579
 30
0.0
  0
VERTEX
  5
862
  8
LAYER01
  6
CONTINUOUS
 62
     7
 10
2827.6453470000001
 20
-291.76828699999999
 30
0.0
  0
VERTEX
  5
863
  8
LAYER01
  6
CONTINUOUS
 62
     7
 10
2826.6818659999999
 20
-280.20651400000003
 30
0.0
  0
VERTEX
  5
864
  8
LAYER01
  6
CONTINUOUS
 62
     7
 10
2826.6818659999999
 20
-280.20651400000003
 30
0.0
  0
VERTEX
  5
865
  8
LAYER01
  6
CONTINUOUS
 62
     7
 10
2827.6453470000001
 20
-269.60822200000001
 30
0.0
  0
VERTEX
  5
866
  8
LAYER01
  6
CONTINUOUS
 62
     7
 10
2829.5723090000001
 20
-258.046449
 30
0.0
  0
VERTEX
  5
867
  8
LAYER01
  6
CONTINUOUS
 62
     7
 10
2831.4992710000001
 20
-248.41163800000001
 30
0.0
  0
VERTEX
  5
868
  8
LAYER01
  6
CONTINUOUS
 62
     7
 10
2835.3531950000001
 20
-237.813346
 30
0.0
  0
VERTEX
  5
869
  8
LAYER01
  6
CONTINUOUS
 62
     7
 10
2840.1706009999998
 20
-228.17853500000001
 30
0.0
  0
VERTEX
  5
86A
  8
LAYER01
  6
CONTINUOUS
 62
     7
 10
2844.988006
 20
-219.507205
 30
0.0
  0
VERTEX
  5
86B
  8
LAYER01
  6
CONTINUOUS
 62
     7
 10
2851.7323740000002
 20
-210.83587600000001
 30
0.0
  0
VERTEX
  5
86C
  8
LAYER01
  6
CONTINUOUS
 62
     7
 10
2858.4767419999998
 20
-203.128027
 30
0.0
  0
VERTEX
  5
86D
  8
LAYER01
  6
CONTINUOUS
 62
     7
 10
2866.1845899999998
 20
-196.38365899999999
 30
0.0
  0
VERTEX
  5
86E
  8
LAYER01
  6
CONTINUOUS
 62
     7
 10
2874.85592
 20
-189.63929200000001
 30
0.0
  0
VERTEX
  5
86F
  8
LAYER01
  6
CONTINUOUS
 62
     7
 10
2883.5272500000001
 20
-184.82188600000001
 30
0.0
  0
VERTEX
  5
870
  8
LAYER01
  6
CONTINUOUS
 62
     7
 10
2893.162061
 20
-180.004481
 30
0.0
  0
VERTEX
  5
871
  8
LAYER01
  6
CONTINUOUS
 62
     7
 10
2902.7968719999999
 20
-176.15055699999999
 30
0.0
  0
VERTEX
  5
872
  8
LAYER01
  6
CONTINUOUS
 62
     7
 10
2913.395164
 20
-173.26011299999999
 30
0.0
  0
VERTEX
  5
873
  8
LAYER01
  6
CONTINUOUS
 62
     7
 10
2924.9569369999999
 20
-172.29663199999999
 30
0.0
  0
VERTEX
  5
874
  8
LAYER01
  6
CONTINUOUS
 62
     7
 10
2935.5552290000001
 20
-171.33315099999999
 30
0.0
  0
VERTEX
  5
875
  8
LAYER01
  6
CONTINUOUS
 62
     7
 10
2935.5552290000001
 20
-171.33315099999999
 30
0.0
  0
VERTEX
  5
876
  8
LAYER01
  6
CONTINUOUS
 62
     7
 10
2952.897888
 20
-172.29663199999999
 30
0.0
  0
VERTEX
  5
877
  8
LAYER01
  6
CONTINUOUS
 62
     7
 10
2961.5692180000001
 20
-173.26011299999999
 30
0.0
  0
VERTEX
  5
878
  8
LAYER01
  6
CONTINUOUS
 62
     7
 10
2969.277067
 20
-175.18707499999999
 30
0.0
  0
VERTEX
  5
879
  8
LAYER01
  6
CONTINUOUS
 62
     7
 10
2976.0214340000002
 20
-178.077519
 30
0.0
  0
VERTEX
  5
87A
  8
LAYER01
  6
CONTINUOUS
 62
     7
 10
2983.7292830000001
 20
-180.967962
 30
0.0
  0
VERTEX
  5
87B
  8
LAYER01
  6
CONTINUOUS
 62
     7
 10
2991.437132
 20
-185.78536700000001
 30
0.0
  0
VERTEX
  5
87C
  8
LAYER01
  6
CONTINUOUS
 62
     7
 10
2999.14498
 20
-190.60277300000001
 30
0.0
  0
VERTEX
  5
87D
  8
LAYER01
  6
CONTINUOUS
 62
     7
 10
2999.14498
 20
-190.60277300000001
 30
0.0
  0
SEQEND
  5
87E
  8
LAYER01
  6
CONTINUOUS
 62
     7
  0
POLYLINE
  5
2B3
  8
LAYER01
  6
CONTINUOUS
 62
     7
 66
     1
 10
0.0
 20
0.0
 30
0.0
 70
     1
  0
VERTEX
  5
87F
  8
LAYER01
  6
CONTINUOUS
 62
     7
 10
3092.6026459999998
 20
-172.29663199999999
 30
0.0
  0
VERTEX
  5
880
  8
LAYER01
  6
CONTINUOUS
 62
     7
 10
3092.6026459999998
 20
-172.29663199999999
 30
0.0
  0
VERTEX
  5
881
  8
LAYER01
  6
CONTINUOUS
 62
     7
 10
3082.0043540000001
 20
-173.26011299999999
 30
0.0
  0
VERTEX
  5
882
  8
LAYER01
  6
CONTINUOUS
 62
     7
 10
3070.4425809999998
 20
-174.22359399999999
 30
0.0
  0
VERTEX
  5
883
  8
LAYER01
  6
CONTINUOUS
 62
     7
 10
3060.8077699999999
 20
-177.11403799999999
 30
0.0
  0
VERTEX
  5
884
  8
LAYER01
  6
CONTINUOUS
 62
     7
 10
3050.2094780000011
 20
-180.967962
 30
0.0
  0
VERTEX
  5
885
  8
LAYER01
  6
CONTINUOUS
 62
     7
 10
3040.5746669999999
 20
-184.82188600000001
 30
0.0
  0
VERTEX
  5
886
  8
LAYER01
  6
CONTINUOUS
 62
     7
 10
3031.9033370000011
 20
-190.60277300000001
 30
0.0
  0
VERTEX
  5
887
  8
LAYER01
  6
CONTINUOUS
 62
     7
 10
3023.232008
 20
-196.38365899999999
 30
0.0
  0
VERTEX
  5
888
  8
LAYER01
  6
CONTINUOUS
 62
     7
 10
3015.5241590000001
 20
-204.091508
 30
0.0
  0
VERTEX
  5
889
  8
LAYER01
  6
CONTINUOUS
 62
     7
 10
3008.7797909999999
 20
-211.79935699999999
 30
0.0
  0
VERTEX
  5
88A
  8
LAYER01
  6
CONTINUOUS
 62
     7
 10
3002.0354240000001
 20
-219.507205
 30
0.0
  0
VERTEX
  5
88B
  8
LAYER01
  6
CONTINUOUS
 62
     7
 10
2996.2545369999998
 20
-228.17853500000001
 30
0.0
  0
VERTEX
  5
88C
  8
LAYER01
  6
CONTINUOUS
 62
     7
 10
2991.437132
 20
-237.813346
 30
0.0
  0
VERTEX
  5
88D
  8
LAYER01
  6
CONTINUOUS
 62
     7
 10
2988.5466879999999
 20
-248.41163800000001
 30
0.0
  0
VERTEX
  5
88E
  8
LAYER01
  6
CONTINUOUS
 62
     7
 10
2985.6562450000001
 20
-258.046449
 30
0.0
  0
VERTEX
  5
88F
  8
LAYER01
  6
CONTINUOUS
 62
     7
 10
2983.7292830000001
 20
-269.60822200000001
 30
0.0
  0
VERTEX
  5
890
  8
LAYER01
  6
CONTINUOUS
 62
     7
 10
2982.7658019999999
 20
-280.20651400000003
 30
0.0
  0
VERTEX
  5
891
  8
LAYER01
  6
CONTINUOUS
 62
     7
 10
2982.7658019999999
 20
-280.20651400000003
 30
0.0
  0
VERTEX
  5
892
  8
LAYER01
  6
CONTINUOUS
 62
     7
 10
2983.7292830000001
 20
-291.76828699999999
 30
0.0
  0
VERTEX
  5
893
  8
LAYER01
  6
CONTINUOUS
 62
     7
 10
2984.6927639999999
 20
-302.366579
 30
0.0
  0
VERTEX
  5
894
  8
LAYER01
  6
CONTINUOUS
 62
     7
 10
2987.5832070000001
 20
-312.96487100000002
 30
0.0
  0
VERTEX
  5
895
  8
LAYER01
  6
CONTINUOUS
 62
     7
 10
2991.437132
 20
-322.59968199999997
 30
0.0
  0
VERTEX
  5
896
  8
LAYER01
  6
CONTINUOUS
 62
     7
 10
2995.291056
 20
-332.23449299999999
 30
0.0
  0
VERTEX
  5
897
  8
LAYER01
  6
CONTINUOUS
 62
     7
 10
3001.0719429999999
 20
-340.905823
 30
0.0
  0
VERTEX
  5
898
  8
LAYER01
  6
CONTINUOUS
 62
     7
 10
3006.8528289999999
 20
-349.57715200000001
 30
0.0
  0
VERTEX
  5
899
  8
LAYER01
  6
CONTINUOUS
 62
     7
 10
3013.5971970000001
 20
-357.28500100000002
 30
0.0
  0
VERTEX
  5
89A
  8
LAYER01
  6
CONTINUOUS
 62
     7
 10
3021.3050450000001
 20
-364.99284999999998
 30
0.0
  0
VERTEX
  5
89B
  8
LAYER01
  6
CONTINUOUS
 62
     7
 10
3029.9763750000002
 20
-370.77373599999999
 30
0.0
  0
VERTEX
  5
89C
  8
LAYER01
  6
CONTINUOUS
 62
     7
 10
3038.6477049999999
 20
-376.55462299999999
 30
0.0
  0
VERTEX
  5
89D
  8
LAYER01
  6
CONTINUOUS
 62
     7
 10
3048.2825160000002
 20
-381.372028
 30
0.0
  0
VERTEX
  5
89E
  8
LAYER01
  6
CONTINUOUS
 62
     7
 10
3057.9173270000001
 20
-385.225953
 30
0.0
  0
VERTEX
  5
89F
  8
LAYER01
  6
CONTINUOUS
 62
     7
 10
3068.5156190000012
 20
-387.15291500000001
 30
0.0
  0
VERTEX
  5
8A0
  8
LAYER01
  6
CONTINUOUS
 62
     7
 10
3079.1139109999999
 20
-389.07987700000001
 30
0.0
  0
VERTEX
  5
8A1
  8
LAYER01
  6
CONTINUOUS
 62
     7
 10
3089.712203
 20
-390.04335800000001
 30
0.0
  0
VERTEX
  5
8A2
  8
LAYER01
  6
CONTINUOUS
 62
     7
 10
3089.712203
 20
-390.04335800000001
 30
0.0
  0
VERTEX
  5
8A3
  8
LAYER01
  6
CONTINUOUS
 62
     7
 10
3101.2739759999999
 20
-389.07987700000001
 30
0.0
  0
VERTEX
  5
8A4
  8
LAYER01
  6
CONTINUOUS
 62
     7
 10
3111.8722680000001
 20
-387.15291500000001
 30
0.0
  0
VERTEX
  5
8A5
  8
LAYER01
  6
CONTINUOUS
 62
     7
 10
3122.4705600000002
 20
-384.262472
 30
0.0
  0
VERTEX
  5
8A6
  8
LAYER01
  6
CONTINUOUS
 62
     7
 10
3132.1053710000001
 20
-380.408547
 30
0.0
  0
VERTEX
  5
8A7
  8
LAYER01
  6
CONTINUOUS
 62
     7
 10
3141.7401810000001
 20
-375.59114199999999
 30
0.0
  0
VERTEX
  5
8A8
  8
LAYER01
  6
CONTINUOUS
 62
     7
 10
3150.4115109999998
 20
-369.81025499999998
 30
0.0
  0
VERTEX
  5
8A9
  8
LAYER01
  6
CONTINUOUS
 62
     7
 10
3159.0828409999999
 20
-364.02936899999997
 30
0.0
  0
VERTEX
  5
8AA
  8
LAYER01
  6
CONTINUOUS
 62
     7
 10
3166.7906899999998
 20
-356.32152000000002
 30
0.0
  0
VERTEX
  5
8AB
  8
LAYER01
  6
CONTINUOUS
 62
     7
 10
3173.5350570000001
 20
-348.61367100000001
 30
0.0
  0
VERTEX
  5
8AC
  8
LAYER01
  6
CONTINUOUS
 62
     7
 10
3179.3159439999999
 20
-339.942341
 30
0.0
  0
VERTEX
  5
8AD
  8
LAYER01
  6
CONTINUOUS
 62
     7
 10
3184.1333490000002
 20
-331.27101199999998
 30
0.0
  0
VERTEX
  5
8AE
  8
LAYER01
  6
CONTINUOUS
 62
     7
 10
3188.9507549999998
 20
-321.63620100000003
 30
0.0
  0
VERTEX
  5
8AF
  8
LAYER01
  6
CONTINUOUS
 62
     7
 10
3192.8046789999999
 20
-311.03790900000001
 30
0.0
  0
VERTEX
  5
8B0
  8
LAYER01
  6
CONTINUOUS
 62
     7
 10
3194.7316409999999
 20
-300.439617
 30
0.0
  0
VERTEX
  5
8B1
  8
LAYER01
  6
CONTINUOUS
 62
     7
 10
3195.6951220000001
 20
-289.84132499999998
 30
0.0
  0
VERTEX
  5
8B2
  8
LAYER01
  6
CONTINUOUS
 62
     7
 10
3196.6586030000012
 20
-278.27955200000002
 30
0.0
  0
VERTEX
  5
8B3
  8
LAYER01
  6
CONTINUOUS
 62
     7
 10
3196.6586030000012
 20
-278.27955200000002
 30
0.0
  0
VERTEX
  5
8B4
  8
LAYER01
  6
CONTINUOUS
 62
     7
 10
3195.6951220000001
 20
-267.68126000000001
 30
0.0
  0
VERTEX
  5
8B5
  8
LAYER01
  6
CONTINUOUS
 62
     7
 10
3193.7681600000001
 20
-257.08296799999999
 30
0.0
  0
VERTEX
  5
8B6
  8
LAYER01
  6
CONTINUOUS
 62
     7
 10
3190.8777170000012
 20
-247.44815700000001
 30
0.0
  0
VERTEX
  5
8B7
  8
LAYER01
  6
CONTINUOUS
 62
     7
 10
3187.9872740000001
 20
-237.813346
 30
0.0
  0
VERTEX
  5
8B8
  8
LAYER01
  6
CONTINUOUS
 62
     7
 10
3183.169868
 20
-229.14201600000001
 30
0.0
  0
VERTEX
  5
8B9
  8
LAYER01
  6
CONTINUOUS
 62
     7
 10
3178.3524630000002
 20
-220.470687
 30
0.0
  0
VERTEX
  5
8BA
  8
LAYER01
  6
CONTINUOUS
 62
     7
 10
3172.5715760000012
 20
-211.79935699999999
 30
0.0
  0
VERTEX
  5
8BB
  8
LAYER01
  6
CONTINUOUS
 62
     7
 10
3165.827209
 20
-205.05498900000001
 30
0.0
  0
VERTEX
  5
8BC
  8
LAYER01
  6
CONTINUOUS
 62
     7
 10
3158.1193600000011
 20
-198.310622
 30
0.0
  0
VERTEX
  5
8BD
  8
LAYER01
  6
CONTINUOUS
 62
     7
 10
3150.4115109999998
 20
-191.56625399999999
 30
0.0
  0
VERTEX
  5
8BE
  8
LAYER01
  6
CONTINUOUS
 62
     7
 10
3141.7401810000001
 20
-186.74884800000001
 30
0.0
  0
VERTEX
  5
8BF
  8
LAYER01
  6
CONTINUOUS
 62
     7
 10
3133.0688519999999
 20
-181.931443
 30
0.0
  0
VERTEX
  5
8C0
  8
LAYER01
  6
CONTINUOUS
 62
     7
 10
3123.434041
 20
-178.077519
 30
0.0
  0
VERTEX
  5
8C1
  8
LAYER01
  6
CONTINUOUS
 62
     7
 10
3113.7992300000001
 20
-175.18707499999999
 30
0.0
  0
VERTEX
  5
8C2
  8
LAYER01
  6
CONTINUOUS
 62
     7
 10
3103.200938
 20
-173.26011299999999
 30
0.0
  0
VERTEX
  5
8C3
  8
LAYER01
  6
CONTINUOUS
 62
     7
 10
3092.6026459999998
 20
-172.29663199999999
 30
0.0
  0
VERTEX
  5
8C4
  8
LAYER01
  6
CONTINUOUS
 62
     7
 10
3092.6026459999998
 20
-172.29663199999999
 30
0.0
  0
SEQEND
  5
8C5
  8
LAYER01
  6
CONTINUOUS
 62
     7
  0
POLYLINE
  5
2FB
  8
LAYER01
  6
CONTINUOUS
 62
     7
 66
     1
 10
0.0
 20
0.0
 30
0.0
 70
     1
  0
VERTEX
  5
8C6
  8
LAYER01
  6
CONTINUOUS
 62
     7
 10
3089.712203
 20
-350.54063300000001
 30
0.0
  0
VERTEX
  5
8C7
  8
LAYER01
  6
CONTINUOUS
 62
     7
 10
3089.712203
 20
-350.54063300000001
 30
0.0
  0
VERTEX
  5
8C8
  8
LAYER01
  6
CONTINUOUS
 62
     7
 10
3082.9678349999999
 20
-349.57715200000001
 30
0.0
  0
VERTEX
  5
8C9
  8
LAYER01
  6
CONTINUOUS
 62
     7
 10
3076.2234669999998
 20
-348.61367100000001
 30
0.0
  0
VERTEX
  5
8CA
  8
LAYER01
  6
CONTINUOUS
 62
     7
 10
3069.4791000000009
 20
-347.65019000000001
 30
0.0
  0
VERTEX
  5
8CB
  8
LAYER01
  6
CONTINUOUS
 62
     7
 10
3062.7347319999999
 20
-344.759747
 30
0.0
  0
VERTEX
  5
8CC
  8
LAYER01
  6
CONTINUOUS
 62
     7
 10
3056.9538459999999
 20
-341.869304
 30
0.0
  0
VERTEX
  5
8CD
  8
LAYER01
  6
CONTINUOUS
 62
     7
 10
3051.172959
 20
-338.015379
 30
0.0
  0
VERTEX
  5
8CE
  8
LAYER01
  6
CONTINUOUS
 62
     7
 10
3046.3555540000002
 20
-334.16145499999999
 30
0.0
  0
VERTEX
  5
8CF
  8
LAYER01
  6
CONTINUOUS
 62
     7
 10
3041.5381480000001
 20
-329.34404999999998
 30
0.0
  0
VERTEX
  5
8D0
  8
LAYER01
  6
CONTINUOUS
 62
     7
 10
3036.7207429999999
 20
-324.52664399999998
 30
0.0
  0
VERTEX
  5
8D1
  8
LAYER01
  6
CONTINUOUS
 62
     7
 10
3032.866818
 20
-319.70923900000003
 30
0.0
  0
VERTEX
  5
8D2
  8
LAYER01
  6
CONTINUOUS
 62
     7
 10
3029.9763750000002
 20
-313.92835200000002
 30
0.0
  0
VERTEX
  5
8D3
  8
LAYER01
  6
CONTINUOUS
 62
     7
 10
3027.085932
 20
-307.18398400000001
 30
0.0
  0
VERTEX
  5
8D4
  8
LAYER01
  6
CONTINUOUS
 62
     7
 10
3024.1954890000002
 20
-301.403098
 30
0.0
  0
VERTEX
  5
8D5
  8
LAYER01
  6
CONTINUOUS
 62
     7
 10
3023.232008
 20
-294.65872999999999
 30
0.0
  0
VERTEX
  5
8D6
  8
LAYER01
  6
CONTINUOUS
 62
     7
 10
3021.3050450000001
 20
-287.91436299999998
 30
0.0
  0
VERTEX
  5
8D7
  8
LAYER01
  6
CONTINUOUS
 62
     7
 10
3021.3050450000001
 20
-280.20651400000003
 30
0.0
  0
VERTEX
  5
8D8
  8
LAYER01
  6
CONTINUOUS
 62
     7
 10
3021.3050450000001
 20
-280.20651400000003
 30
0.0
  0
VERTEX
  5
8D9
  8
LAYER01
  6
CONTINUOUS
 62
     7
 10
3022.2685270000002
 20
-273.46214600000002
 30
0.0
  0
VERTEX
  5
8DA
  8
LAYER01
  6
CONTINUOUS
 62
     7
 10
3023.232008
 20
-266.71777900000001
 30
0.0
  0
VERTEX
  5
8DB
  8
LAYER01
  6
CONTINUOUS
 62
     7
 10
3025.15897
 20
-259.973411
 30
0.0
  0
VERTEX
  5
8DC
  8
LAYER01
  6
CONTINUOUS
 62
     7
 10
3027.085932
 20
-253.22904399999999
 30
0.0
  0
VERTEX
  5
8DD
  8
LAYER01
  6
CONTINUOUS
 62
     7
 10
3029.9763750000002
 20
-247.44815700000001
 30
0.0
  0
VERTEX
  5
8DE
  8
LAYER01
  6
CONTINUOUS
 62
     7
 10
3033.8303000000001
 20
-241.66727
 30
0.0
  0
VERTEX
  5
8DF
  8
LAYER01
  6
CONTINUOUS
 62
     7
 10
3037.6842240000001
 20
-236.84986499999999
 30
0.0
  0
VERTEX
  5
8E0
  8
LAYER01
  6
CONTINUOUS
 62
     7
 10
3042.5016289999999
 20
-232.03245999999999
 30
0.0
  0
VERTEX
  5
8E1
  8
LAYER01
  6
CONTINUOUS
 62
     7
 10
3047.319035
 20
-227.21505400000001
 30
0.0
  0
VERTEX
  5
8E2
  8
LAYER01
  6
CONTINUOUS
 62
     7
 10
3052.1364400000002
 20
-223.36113
 30
0.0
  0
VERTEX
  5
8E3
  8
LAYER01
  6
CONTINUOUS
 62
     7
 10
3057.9173270000001
 20
-219.507205
 30
0.0
  0
VERTEX
  5
8E4
  8
LAYER01
  6
CONTINUOUS
 62
     7
 10
3064.6616940000008
 20
-216.61676199999999
 30
0.0
  0
VERTEX
  5
8E5
  8
LAYER01
  6
CONTINUOUS
 62
     7
 10
3070.4425809999998
 20
-214.68979999999999
 30
0.0
  0
VERTEX
  5
8E6
  8
LAYER01
  6
CONTINUOUS
 62
     7
 10
3077.1869489999999
 20
-212.76283799999999
 30
0.0
  0
VERTEX
  5
8E7
  8
LAYER01
  6
CONTINUOUS
 62
     7
 10
3083.9313160000011
 20
-211.79935699999999
 30
0.0
  0
VERTEX
  5
8E8
  8
LAYER01
  6
CONTINUOUS
 62
     7
 10
3091.639165
 20
-211.79935699999999
 30
0.0
  0
VERTEX
  5
8E9
  8
LAYER01
  6
CONTINUOUS
 62
     7
 10
3091.639165
 20
-211.79935699999999
 30
0.0
  0
VERTEX
  5
8EA
  8
LAYER01
  6
CONTINUOUS
 62
     7
 10
3098.3835319999998
 20
-212.76283799999999
 30
0.0
  0
VERTEX
  5
8EB
  8
LAYER01
  6
CONTINUOUS
 62
     7
 10
3105.1279
 20
-213.72631899999999
 30
0.0
  0
VERTEX
  5
8EC
  8
LAYER01
  6
CONTINUOUS
 62
     7
 10
3110.9087869999998
 20
-215.65328099999999
 30
0.0
  0
VERTEX
  5
8ED
  8
LAYER01
  6
CONTINUOUS
 62
     7
 10
3117.6531540000001
 20
-217.580243
 30
0.0
  0
VERTEX
  5
8EE
  8
LAYER01
  6
CONTINUOUS
 62
     7
 10
3122.4705600000002
 20
-220.470687
 30
0.0
  0
VERTEX
  5
8EF
  8
LAYER01
  6
CONTINUOUS
 62
     7
 10
3128.2514460000002
 20
-224.324611
 30
0.0
  0
VERTEX
  5
8F0
  8
LAYER01
  6
CONTINUOUS
 62
     7
 10
3133.0688519999999
 20
-228.17853500000001
 30
0.0
  0
VERTEX
  5
8F1
  8
LAYER01
  6
CONTINUOUS
 62
     7
 10
3137.8862570000001
 20
-232.03245999999999
 30
0.0
  0
VERTEX
  5
8F2
  8
LAYER01
  6
CONTINUOUS
 62
     7
 10
3141.7401810000001
 20
-236.84986499999999
 30
0.0
  0
VERTEX
  5
8F3
  8
LAYER01
  6
CONTINUOUS
 62
     7
 10
3145.594106
 20
-242.630752
 30
0.0
  0
VERTEX
  5
8F4
  8
LAYER01
  6
CONTINUOUS
 62
     7
 10
3149.44803
 20
-247.44815700000001
 30
0.0
  0
VERTEX
  5
8F5
  8
LAYER01
  6
CONTINUOUS
 62
     7
 10
3152.3384729999998
 20
-253.22904399999999
 30
0.0
  0
VERTEX
  5
8F6
  8
LAYER01
  6
CONTINUOUS
 62
     7
 10
3154.265436000001
 20
-259.973411
 30
0.0
  0
VERTEX
  5
8F7
  8
LAYER01
  6
CONTINUOUS
 62
     7
 10
3156.1923980000001
 20
-265.75429800000001
 30
0.0
  0
VERTEX
  5
8F8
  8
LAYER01
  6
CONTINUOUS
 62
     7
 10
3157.1558789999999
 20
-272.49866500000002
 30
0.0
  0
VERTEX
  5
8F9
  8
LAYER01
  6
CONTINUOUS
 62
     7
 10
3157.1558789999999
 20
-279.24303300000003
 30
0.0
  0
VERTEX
  5
8FA
  8
LAYER01
  6
CONTINUOUS
 62
     7
 10
3157.1558789999999
 20
-279.24303300000003
 30
0.0
  0
VERTEX
  5
8FB
  8
LAYER01
  6
CONTINUOUS
 62
     7
 10
3157.1558789999999
 20
-286.95088199999998
 30
0.0
  0
VERTEX
  5
8FC
  8
LAYER01
  6
CONTINUOUS
 62
     7
 10
3156.1923980000001
 20
-293.69524899999999
 30
0.0
  0
VERTEX
  5
8FD
  8
LAYER01
  6
CONTINUOUS
 62
     7
 10
3155.2289169999999
 20
-300.439617
 30
0.0
  0
VERTEX
  5
8FE
  8
LAYER01
  6
CONTINUOUS
 62
     7
 10
3152.3384729999998
 20
-306.22050300000001
 30
0.0
  0
VERTEX
  5
8FF
  8
LAYER01
  6
CONTINUOUS
 62
     7
 10
3150.4115109999998
 20
-312.96487100000002
 30
0.0
  0
VERTEX
  5
900
  8
LAYER01
  6
CONTINUOUS
 62
     7
 10
3146.5575869999998
 20
-318.74575800000002
 30
0.0
  0
VERTEX
  5
901
  8
LAYER01
  6
CONTINUOUS
 62
     7
 10
3142.7036629999998
 20
-324.52664399999998
 30
0.0
  0
VERTEX
  5
902
  8
LAYER01
  6
CONTINUOUS
 62
     7
 10
3137.8862570000001
 20
-329.34404999999998
 30
0.0
  0
VERTEX
  5
903
  8
LAYER01
  6
CONTINUOUS
 62
     7
 10
3133.0688519999999
 20
-334.16145499999999
 30
0.0
  0
VERTEX
  5
904
  8
LAYER01
  6
CONTINUOUS
 62
     7
 10
3128.2514460000002
 20
-338.015379
 30
0.0
  0
VERTEX
  5
905
  8
LAYER01
  6
CONTINUOUS
 62
     7
 10
3122.4705600000002
 20
-341.869304
 30
0.0
  0
VERTEX
  5
906
  8
LAYER01
  6
CONTINUOUS
 62
     7
 10
3116.6896729999999
 20
-344.759747
 30
0.0
  0
VERTEX
  5
907
  8
LAYER01
  6
CONTINUOUS
 62
     7
 10
3109.9453060000001
 20
-346.68670900000001
 30
0.0
  0
VERTEX
  5
908
  8
LAYER01
  6
CONTINUOUS
 62
     7
 10
3103.200938
 20
-348.61367100000001
 30
0.0
  0
VERTEX
  5
909
  8
LAYER01
  6
CONTINUOUS
 62
     7
 10
3096.4565699999998
 20
-349.57715200000001
 30
0.0
  0
VERTEX
  5
90A
  8
LAYER01
  6
CONTINUOUS
 62
     7
 10
3089.712203
 20
-350.54063300000001
 30
0.0
  0
VERTEX
  5
90B
  8
LAYER01
  6
CONTINUOUS
 62
     7
 10
3089.712203
 20
-350.54063300000001
 30
0.0
  0
SEQEND
  5
90C
  8
LAYER01
  6
CONTINUOUS
 62
     7
  0
POLYLINE
  5
343
  8
LAYER01
  6
CONTINUOUS
 62
     7
 66
     1
 10
0.0
 20
0.0
 30
0.0
 70
     1
  0
VERTEX
  5
90D
  8
LAYER01
  6
CONTINUOUS
 62
     7
 10
3166.7906899999998
 20
-177.11403799999999
 30
0.0
  0
VERTEX
  5
90E
  8
LAYER01
  6
CONTINUOUS
 62
     7
 10
3268.9196849999998
 20
-177.11403799999999
 30
0.0
  0
VERTEX
  5
90F
  8
LAYER01
  6
CONTINUOUS
 62
     7
 10
3268.9196849999998
 20
-177.11403799999999
 30
0.0
  0
VERTEX
  5
910
  8
LAYER01
  6
CONTINUOUS
 62
     7
 10
3280.4814580000002
 20
-179.041
 30
0.0
  0
VERTEX
  5
911
  8
LAYER01
  6
CONTINUOUS
 62
     7
 10
3291.0797499999999
 20
-183.858405
 30
0.0
  0
VERTEX
  5
912
  8
LAYER01
  6
CONTINUOUS
 62
     7
 10
3299.75108
 20
-189.63929200000001
 30
0.0
  0
VERTEX
  5
913
  8
LAYER01
  6
CONTINUOUS
 62
     7
 10
3307.4589289999999
 20
-197.34714
 30
0.0
  0
VERTEX
  5
914
  8
LAYER01
  6
CONTINUOUS
 62
     7
 10
3314.2032960000001
 20
-205.05498900000001
 30
0.0
  0
VERTEX
  5
915
  8
LAYER01
  6
CONTINUOUS
 62
     7
 10
3319.0207019999989
 20
-214.68979999999999
 30
0.0
  0
VERTEX
  5
916
  8
LAYER01
  6
CONTINUOUS
 62
     7
 10
3321.911145
 20
-226.25157300000001
 30
0.0
  0
VERTEX
  5
917
  8
LAYER01
  6
CONTINUOUS
 62
     7
 10
3322.8746259999998
 20
-236.84986499999999
 30
0.0
  0
VERTEX
  5
918
  8
LAYER01
  6
CONTINUOUS
 62
     7
 10
3322.8746259999998
 20
-236.84986499999999
 30
0.0
  0
VERTEX
  5
919
  8
LAYER01
  6
CONTINUOUS
 62
     7
 10
3321.911145
 20
-248.41163800000001
 30
0.0
  0
VERTEX
  5
91A
  8
LAYER01
  6
CONTINUOUS
 62
     7
 10
3319.9841830000009
 20
-258.046449
 30
0.0
  0
VERTEX
  5
91B
  8
LAYER01
  6
CONTINUOUS
 62
     7
 10
3316.1302580000001
 20
-267.68126000000001
 30
0.0
  0
VERTEX
  5
91C
  8
LAYER01
  6
CONTINUOUS
 62
     7
 10
3311.3128529999999
 20
-276.35259000000002
 30
0.0
  0
VERTEX
  5
91D
  8
LAYER01
  6
CONTINUOUS
 62
     7
 10
3304.5684849999998
 20
-284.06043799999998
 30
0.0
  0
VERTEX
  5
91E
  8
LAYER01
  6
CONTINUOUS
 62
     7
 10
3297.824118
 20
-289.84132499999998
 30
0.0
  0
VERTEX
  5
91F
  8
LAYER01
  6
CONTINUOUS
 62
     7
 10
3288.189307000001
 20
-295.62221099999999
 30
0.0
  0
VERTEX
  5
920
  8
LAYER01
  6
CONTINUOUS
 62
     7
 10
3278.5544960000002
 20
-299.476136
 30
0.0
  0
VERTEX
  5
921
  8
LAYER01
  6
CONTINUOUS
 62
     7
 10
3341.1807669999998
 20
-383.29899
 30
0.0
  0
VERTEX
  5
922
  8
LAYER01
  6
CONTINUOUS
 62
     7
 10
3293.0067119999999
 20
-383.29899
 30
0.0
  0
VERTEX
  5
923
  8
LAYER01
  6
CONTINUOUS
 62
     7
 10
3209.1838579999999
 20
-276.35259000000002
 30
0.0
  0
VERTEX
  5
924
  8
LAYER01
  6
CONTINUOUS
 62
     7
 10
3256.3944310000002
 20
-276.35259000000002
 30
0.0
  0
VERTEX
  5
925
  8
LAYER01
  6
CONTINUOUS
 62
     7
 10
3256.3944310000002
 20
-276.35259000000002
 30
0.0
  0
VERTEX
  5
926
  8
LAYER01
  6
CONTINUOUS
 62
     7
 10
3262.1753170000002
 20
-274.42562700000002
 30
0.0
  0
VERTEX
  5
927
  8
LAYER01
  6
CONTINUOUS
 62
     7
 10
3266.9927229999998
 20
-272.49866500000002
 30
0.0
  0
VERTEX
  5
928
  8
LAYER01
  6
CONTINUOUS
 62
     7
 10
3270.8466469999998
 20
-268.64474100000001
 30
0.0
  0
VERTEX
  5
929
  8
LAYER01
  6
CONTINUOUS
 62
     7
 10
3274.7005720000002
 20
-264.790817
 30
0.0
  0
VERTEX
  5
92A
  8
LAYER01
  6
CONTINUOUS
 62
     7
 10
3277.591015
 20
-259.973411
 30
0.0
  0
VERTEX
  5
92B
  8
LAYER01
  6
CONTINUOUS
 62
     7
 10
3280.4814580000002
 20
-255.15600599999999
 30
0.0
  0
VERTEX
  5
92C
  8
LAYER01
  6
CONTINUOUS
 62
     7
 10
3281.444939
 20
-249.37511900000001
 30
0.0
  0
VERTEX
  5
92D
  8
LAYER01
  6
CONTINUOUS
 62
     7
 10
3281.444939
 20
-243.594233
 30
0.0
  0
VERTEX
  5
92E
  8
LAYER01
  6
CONTINUOUS
 62
     7
 10
3281.444939
 20
-243.594233
 30
0.0
  0
VERTEX
  5
92F
  8
LAYER01
  6
CONTINUOUS
 62
     7
 10
3281.444939
 20
-237.813346
 30
0.0
  0
VERTEX
  5
930
  8
LAYER01
  6
CONTINUOUS
 62
     7
 10
3279.517977
 20
-232.99594099999999
 30
0.0
  0
VERTEX
  5
931
  8
LAYER01
  6
CONTINUOUS
 62
     7
 10
3277.591015
 20
-228.17853500000001
 30
0.0
  0
VERTEX
  5
932
  8
LAYER01
  6
CONTINUOUS
 62
     7
 10
3274.7005720000002
 20
-223.36113
 30
0.0
  0
VERTEX
  5
933
  8
LAYER01
  6
CONTINUOUS
 62
     7
 10
3270.8466469999998
 20
-219.507205
 30
0.0
  0
VERTEX
  5
934
  8
LAYER01
  6
CONTINUOUS
 62
     7
 10
3266.9927229999998
 20
-216.61676199999999
 30
0.0
  0
VERTEX
  5
935
  8
LAYER01
  6
CONTINUOUS
 62
     7
 10
3261.2118359999999
 20
-213.72631899999999
 30
0.0
  0
VERTEX
  5
936
  8
LAYER01
  6
CONTINUOUS
 62
     7
 10
3256.3944310000002
 20
-211.79935699999999
 30
0.0
  0
VERTEX
  5
937
  8
LAYER01
  6
CONTINUOUS
 62
     7
 10
3201.476009
 20
-211.79935699999999
 30
0.0
  0
VERTEX
  5
938
  8
LAYER01
  6
CONTINUOUS
 62
     7
 10
3166.7906899999998
 20
-177.11403799999999
 30
0.0
  0
VERTEX
  5
939
  8
LAYER01
  6
CONTINUOUS
 62
     7
 10
3166.7906899999998
 20
-177.11403799999999
 30
0.0
  0
SEQEND
  5
93A
  8
LAYER01
  6
CONTINUOUS
 62
     7
  0
POLYLINE
  5
372
  8
LAYER01
  6
CONTINUOUS
 62
     7
 66
     1
 10
0.0
 20
0.0
 30
0.0
 70
     1
  0
VERTEX
  5
93B
  8
LAYER01
  6
CONTINUOUS
 62
     7
 10
3367.1947560000008
 20
-228.17853500000001
 30
0.0
  0
VERTEX
  5
93C
  8
LAYER01
  6
CONTINUOUS
 62
     7
 10
3367.1947560000008
 20
-228.17853500000001
 30
0.0
  0
VERTEX
  5
93D
  8
LAYER01
  6
CONTINUOUS
 62
     7
 10
3372.0121610000001
 20
-227.21505400000001
 30
0.0
  0
VERTEX
  5
93E
  8
LAYER01
  6
CONTINUOUS
 62
     7
 10
3376.8295670000002
 20
-226.25157300000001
 30
0.0
  0
VERTEX
  5
93F
  8
LAYER01
  6
CONTINUOUS
 62
     7
 10
3381.646972
 20
-223.36113
 30
0.0
  0
VERTEX
  5
940
  8
LAYER01
  6
CONTINUOUS
 62
     7
 10
3385.5008969999999
 20
-220.470687
 30
0.0
  0
VERTEX
  5
941
  8
LAYER01
  6
CONTINUOUS
 62
     7
 10
3388.3913400000001
 20
-216.61676199999999
 30
0.0
  0
VERTEX
  5
942
  8
LAYER01
  6
CONTINUOUS
 62
     7
 10
3390.3183020000001
 20
-212.76283799999999
 30
0.0
  0
VERTEX
  5
943
  8
LAYER01
  6
CONTINUOUS
 62
     7
 10
3392.2452640000001
 20
-207.94543200000001
 30
0.0
  0
VERTEX
  5
944
  8
LAYER01
  6
CONTINUOUS
 62
     7
 10
3392.2452640000001
 20
-202.164546
 30
0.0
  0
VERTEX
  5
945
  8
LAYER01
  6
CONTINUOUS
 62
     7
 10
3392.2452640000001
 20
-202.164546
 30
0.0
  0
VERTEX
  5
946
  8
LAYER01
  6
CONTINUOUS
 62
     7
 10
3392.2452640000001
 20
-197.34714
 30
0.0
  0
VERTEX
  5
947
  8
LAYER01
  6
CONTINUOUS
 62
     7
 10
3390.3183020000001
 20
-192.52973499999999
 30
0.0
  0
VERTEX
  5
948
  8
LAYER01
  6
CONTINUOUS
 62
     7
 10
3388.3913400000001
 20
-188.67581100000001
 30
0.0
  0
VERTEX
  5
949
  8
LAYER01
  6
CONTINUOUS
 62
     7
 10
3385.5008969999999
 20
-184.82188600000001
 30
0.0
  0
VERTEX
  5
94A
  8
LAYER01
  6
CONTINUOUS
 62
     7
 10
3381.646972
 20
-181.931443
 30
0.0
  0
VERTEX
  5
94B
  8
LAYER01
  6
CONTINUOUS
 62
     7
 10
3376.8295670000002
 20
-179.041
 30
0.0
  0
VERTEX
  5
94C
  8
LAYER01
  6
CONTINUOUS
 62
     7
 10
3372.0121610000001
 20
-178.077519
 30
0.0
  0
VERTEX
  5
94D
  8
LAYER01
  6
CONTINUOUS
 62
     7
 10
3367.1947560000008
 20
-177.11403799999999
 30
0.0
  0
VERTEX
  5
94E
  8
LAYER01
  6
CONTINUOUS
 62
     7
 10
3367.1947560000008
 20
-177.11403799999999
 30
0.0
  0
VERTEX
  5
94F
  8
LAYER01
  6
CONTINUOUS
 62
     7
 10
3362.3773510000001
 20
-178.077519
 30
0.0
  0
VERTEX
  5
950
  8
LAYER01
  6
CONTINUOUS
 62
     7
 10
3357.5599450000009
 20
-179.041
 30
0.0
  0
VERTEX
  5
951
  8
LAYER01
  6
CONTINUOUS
 62
     7
 10
3352.7425400000002
 20
-181.931443
 30
0.0
  0
VERTEX
  5
952
  8
LAYER01
  6
CONTINUOUS
 62
     7
 10
3348.8886149999998
 20
-184.82188600000001
 30
0.0
  0
VERTEX
  5
953
  8
LAYER01
  6
CONTINUOUS
 62
     7
 10
3345.9981720000001
 20
-188.67581100000001
 30
0.0
  0
VERTEX
  5
954
  8
LAYER01
  6
CONTINUOUS
 62
     7
 10
3344.0712100000001
 20
-192.52973499999999
 30
0.0
  0
VERTEX
  5
955
  8
LAYER01
  6
CONTINUOUS
 62
     7
 10
3342.1442480000001
 20
-197.34714
 30
0.0
  0
VERTEX
  5
956
  8
LAYER01
  6
CONTINUOUS
 62
     7
 10
3342.1442480000001
 20
-202.164546
 30
0.0
  0
VERTEX
  5
957
  8
LAYER01
  6
CONTINUOUS
 62
     7
 10
3342.1442480000001
 20
-202.164546
 30
0.0
  0
VERTEX
  5
958
  8
LAYER01
  6
CONTINUOUS
 62
     7
 10
3342.1442480000001
 20
-207.94543200000001
 30
0.0
  0
VERTEX
  5
959
  8
LAYER01
  6
CONTINUOUS
 62
     7
 10
3344.0712100000001
 20
-212.76283799999999
 30
0.0
  0
VERTEX
  5
95A
  8
LAYER01
  6
CONTINUOUS
 62
     7
 10
3345.9981720000001
 20
-216.61676199999999
 30
0.0
  0
VERTEX
  5
95B
  8
LAYER01
  6
CONTINUOUS
 62
     7
 10
3348.8886149999998
 20
-220.470687
 30
0.0
  0
VERTEX
  5
95C
  8
LAYER01
  6
CONTINUOUS
 62
     7
 10
3352.7425400000002
 20
-223.36113
 30
0.0
  0
VERTEX
  5
95D
  8
LAYER01
  6
CONTINUOUS
 62
     7
 10
3357.5599450000009
 20
-226.25157300000001
 30
0.0
  0
VERTEX
  5
95E
  8
LAYER01
  6
CONTINUOUS
 62
     7
 10
3362.3773510000001
 20
-227.21505400000001
 30
0.0
  0
VERTEX
  5
95F
  8
LAYER01
  6
CONTINUOUS
 62
     7
 10
3367.1947560000008
 20
-228.17853500000001
 30
0.0
  0
VERTEX
  5
960
  8
LAYER01
  6
CONTINUOUS
 62
     7
 10
3367.1947560000008
 20
-228.17853500000001
 30
0.0
  0
SEQEND
  5
961
  8
LAYER01
  6
CONTINUOUS
 62
     7
  0
POLYLINE
  5
39A
  8
LAYER01
  6
CONTINUOUS
 62
     7
 66
     1
 10
0.0
 20
0.0
 30
0.0
 70
     1
  0
VERTEX
  5
962
  8
LAYER01
  6
CONTINUOUS
 62
     7
 10
3367.1947560000008
 20
-180.967962
 30
0.0
  0
VERTEX
  5
963
  8
LAYER01
  6
CONTINUOUS
 62
     7
 10
3367.1947560000008
 20
-180.967962
 30
0.0
  0
VERTEX
  5
964
  8
LAYER01
  6
CONTINUOUS
 62
     7
 10
3371.0486799999999
 20
-181.931443
 30
0.0
  0
VERTEX
  5
965
  8
LAYER01
  6
CONTINUOUS
 62
     7
 10
3374.9026050000002
 20
-182.894924
 30
0.0
  0
VERTEX
  5
966
  8
LAYER01
  6
CONTINUOUS
 62
     7
 10
3378.7565289999998
 20
-184.82188600000001
 30
0.0
  0
VERTEX
  5
967
  8
LAYER01
  6
CONTINUOUS
 62
     7
 10
3381.646972
 20
-187.71233000000001
 30
0.0
  0
VERTEX
  5
968
  8
LAYER01
  6
CONTINUOUS
 62
     7
 10
3384.5374160000001
 20
-190.60277300000001
 30
0.0
  0
VERTEX
  5
969
  8
LAYER01
  6
CONTINUOUS
 62
     7
 10
3386.4643780000001
 20
-194.45669699999999
 30
0.0
  0
VERTEX
  5
96A
  8
LAYER01
  6
CONTINUOUS
 62
     7
 10
3388.3913400000001
 20
-198.310622
 30
0.0
  0
VERTEX
  5
96B
  8
LAYER01
  6
CONTINUOUS
 62
     7
 10
3388.3913400000001
 20
-202.164546
 30
0.0
  0
VERTEX
  5
96C
  8
LAYER01
  6
CONTINUOUS
 62
     7
 10
3388.3913400000001
 20
-202.164546
 30
0.0
  0
VERTEX
  5
96D
  8
LAYER01
  6
CONTINUOUS
 62
     7
 10
3388.3913400000001
 20
-206.98195100000001
 30
0.0
  0
VERTEX
  5
96E
  8
LAYER01
  6
CONTINUOUS
 62
     7
 10
3386.4643780000001
 20
-210.83587600000001
 30
0.0
  0
VERTEX
  5
96F
  8
LAYER01
  6
CONTINUOUS
 62
     7
 10
3384.5374160000001
 20
-214.68979999999999
 30
0.0
  0
VERTEX
  5
970
  8
LAYER01
  6
CONTINUOUS
 62
     7
 10
3381.646972
 20
-217.580243
 30
0.0
  0
VERTEX
  5
971
  8
LAYER01
  6
CONTINUOUS
 62
     7
 10
3378.7565289999998
 20
-220.470687
 30
0.0
  0
VERTEX
  5
972
  8
LAYER01
  6
CONTINUOUS
 62
     7
 10
3374.9026050000002
 20
-222.397649
 30
0.0
  0
VERTEX
  5
973
  8
LAYER01
  6
CONTINUOUS
 62
     7
 10
3371.0486799999999
 20
-223.36113
 30
0.0
  0
VERTEX
  5
974
  8
LAYER01
  6
CONTINUOUS
 62
     7
 10
3367.1947560000008
 20
-223.36113
 30
0.0
  0
VERTEX
  5
975
  8
LAYER01
  6
CONTINUOUS
 62
     7
 10
3367.1947560000008
 20
-223.36113
 30
0.0
  0
VERTEX
  5
976
  8
LAYER01
  6
CONTINUOUS
 62
     7
 10
3363.3408319999999
 20
-223.36113
 30
0.0
  0
VERTEX
  5
977
  8
LAYER01
  6
CONTINUOUS
 62
     7
 10
3358.5234260000002
 20
-222.397649
 30
0.0
  0
VERTEX
  5
978
  8
LAYER01
  6
CONTINUOUS
 62
     7
 10
3355.632983
 20
-220.470687
 30
0.0
  0
VERTEX
  5
979
  8
LAYER01
  6
CONTINUOUS
 62
     7
 10
3351.779059
 20
-217.580243
 30
0.0
  0
VERTEX
  5
97A
  8
LAYER01
  6
CONTINUOUS
 62
     7
 10
3349.8520960000001
 20
-214.68979999999999
 30
0.0
  0
VERTEX
  5
97B
  8
LAYER01
  6
CONTINUOUS
 62
     7
 10
3347.9251340000001
 20
-210.83587600000001
 30
0.0
  0
VERTEX
  5
97C
  8
LAYER01
  6
CONTINUOUS
 62
     7
 10
3345.9981720000001
 20
-206.98195100000001
 30
0.0
  0
VERTEX
  5
97D
  8
LAYER01
  6
CONTINUOUS
 62
     7
 10
3345.9981720000001
 20
-202.164546
 30
0.0
  0
VERTEX
  5
97E
  8
LAYER01
  6
CONTINUOUS
 62
     7
 10
3345.9981720000001
 20
-202.164546
 30
0.0
  0
VERTEX
  5
97F
  8
LAYER01
  6
CONTINUOUS
 62
     7
 10
3345.9981720000001
 20
-198.310622
 30
0.0
  0
VERTEX
  5
980
  8
LAYER01
  6
CONTINUOUS
 62
     7
 10
3347.9251340000001
 20
-194.45669699999999
 30
0.0
  0
VERTEX
  5
981
  8
LAYER01
  6
CONTINUOUS
 62
     7
 10
3349.8520960000001
 20
-190.60277300000001
 30
0.0
  0
VERTEX
  5
982
  8
LAYER01
  6
CONTINUOUS
 62
     7
 10
3351.779059
 20
-187.71233000000001
 30
0.0
  0
VERTEX
  5
983
  8
LAYER01
  6
CONTINUOUS
 62
     7
 10
3355.632983
 20
-184.82188600000001
 30
0.0
  0
VERTEX
  5
984
  8
LAYER01
  6
CONTINUOUS
 62
     7
 10
3358.5234260000002
 20
-182.894924
 30
0.0
  0
VERTEX
  5
985
  8
LAYER01
  6
CONTINUOUS
 62
     7
 10
3363.3408319999999
 20
-181.931443
 30
0.0
  0
VERTEX
  5
986
  8
LAYER01
  6
CONTINUOUS
 62
     7
 10
3367.1947560000008
 20
-180.967962
 30
0.0
  0
VERTEX
  5
987
  8
LAYER01
  6
CONTINUOUS
 62
     7
 10
3367.1947560000008
 20
-180.967962
 30
0.0
  0
SEQEND
  5
988
  8
LAYER01
  6
CONTINUOUS
 62
     7
  0
POLYLINE
  5
3C2
  8
LAYER01
  6
CONTINUOUS
 62
     7
 66
     1
 10
0.0
 20
0.0
 30
0.0
 70
     1
  0
VERTEX
  5
989
  8
LAYER01
  6
CONTINUOUS
 62
     7
 10
3371.0486799999999
 20
-204.091508
 30
0.0
  0
VERTEX
  5
98A
  8
LAYER01
  6
CONTINUOUS
 62
     7
 10
3371.0486799999999
 20
-204.091508
 30
0.0
  0
VERTEX
  5
98B
  8
LAYER01
  6
CONTINUOUS
 62
     7
 10
3373.939124
 20
-203.128027
 30
0.0
  0
VERTEX
  5
98C
  8
LAYER01
  6
CONTINUOUS
 62
     7
 10
3376.8295670000002
 20
-202.164546
 30
0.0
  0
VERTEX
  5
98D
  8
LAYER01
  6
CONTINUOUS
 62
     7
 10
3378.7565289999998
 20
-199.274103
 30
0.0
  0
VERTEX
  5
98E
  8
LAYER01
  6
CONTINUOUS
 62
     7
 10
3378.7565289999998
 20
-196.38365899999999
 30
0.0
  0
VERTEX
  5
98F
  8
LAYER01
  6
CONTINUOUS
 62
     7
 10
3378.7565289999998
 20
-196.38365899999999
 30
0.0
  0
VERTEX
  5
990
  8
LAYER01
  6
CONTINUOUS
 62
     7
 10
3378.7565289999998
 20
-192.52973499999999
 30
0.0
  0
VERTEX
  5
991
  8
LAYER01
  6
CONTINUOUS
 62
     7
 10
3375.866086
 20
-189.63929200000001
 30
0.0
  0
VERTEX
  5
992
  8
LAYER01
  6
CONTINUOUS
 62
     7
 10
3372.9756430000002
 20
-188.67581100000001
 30
0.0
  0
VERTEX
  5
993
  8
LAYER01
  6
CONTINUOUS
 62
     7
 10
3369.1217180000008
 20
-188.67581100000001
 30
0.0
  0
VERTEX
  5
994
  8
LAYER01
  6
CONTINUOUS
 62
     7
 10
3357.5599450000009
 20
-188.67581100000001
 30
0.0
  0
VERTEX
  5
995
  8
LAYER01
  6
CONTINUOUS
 62
     7
 10
3357.5599450000009
 20
-216.61676199999999
 30
0.0
  0
VERTEX
  5
996
  8
LAYER01
  6
CONTINUOUS
 62
     7
 10
3361.4138700000012
 20
-216.61676199999999
 30
0.0
  0
VERTEX
  5
997
  8
LAYER01
  6
CONTINUOUS
 62
     7
 10
3361.4138700000012
 20
-204.091508
 30
0.0
  0
VERTEX
  5
998
  8
LAYER01
  6
CONTINUOUS
 62
     7
 10
3367.1947560000008
 20
-204.091508
 30
0.0
  0
VERTEX
  5
999
  8
LAYER01
  6
CONTINUOUS
 62
     7
 10
3373.939124
 20
-216.61676199999999
 30
0.0
  0
VERTEX
  5
99A
  8
LAYER01
  6
CONTINUOUS
 62
     7
 10
3378.7565289999998
 20
-216.61676199999999
 30
0.0
  0
VERTEX
  5
99B
  8
LAYER01
  6
CONTINUOUS
 62
     7
 10
3371.0486799999999
 20
-204.091508
 30
0.0
  0
VERTEX
  5
99C
  8
LAYER01
  6
CONTINUOUS
 62
     7
 10
3371.0486799999999
 20
-204.091508
 30
0.0
  0
SEQEND
  5
99D
  8
LAYER01
  6
CONTINUOUS
 62
     7
  0
POLYLINE
  5
3D8
  8
LAYER01
  6
CONTINUOUS
 62
     7
 66
     1
 10
0.0
 20
0.0
 30
0.0
 70
     1
  0
VERTEX
  5
99E
  8
LAYER01
  6
CONTINUOUS
 62
     7
 10
3368.1582369999992
 20
-192.52973499999999
 30
0.0
  0
VERTEX
  5
99F
  8
LAYER01
  6
CONTINUOUS
 62
     7
 10
3368.1582369999992
 20
-192.52973499999999
 30
0.0
  0
VERTEX
  5
9A0
  8
LAYER01
  6
CONTINUOUS
 62
     7
 10
3372.9756430000002
 20
-193.49321599999999
 30
0.0
  0
VERTEX
  5
9A1
  8
LAYER01
  6
CONTINUOUS
 62
     7
 10
3374.9026050000002
 20
-194.45669699999999
 30
0.0
  0
VERTEX
  5
9A2
  8
LAYER01
  6
CONTINUOUS
 62
     7
 10
3374.9026050000002
 20
-196.38365899999999
 30
0.0
  0
VERTEX
  5
9A3
  8
LAYER01
  6
CONTINUOUS
 62
     7
 10
3374.9026050000002
 20
-196.38365899999999
 30
0.0
  0
VERTEX
  5
9A4
  8
LAYER01
  6
CONTINUOUS
 62
     7
 10
3373.939124
 20
-198.310622
 30
0.0
  0
VERTEX
  5
9A5
  8
LAYER01
  6
CONTINUOUS
 62
     7
 10
3372.0121610000001
 20
-199.274103
 30
0.0
  0
VERTEX
  5
9A6
  8
LAYER01
  6
CONTINUOUS
 62
     7
 10
3366.2312750000001
 20
-200.237584
 30
0.0
  0
VERTEX
  5
9A7
  8
LAYER01
  6
CONTINUOUS
 62
     7
 10
3361.4138700000012
 20
-200.237584
 30
0.0
  0
VERTEX
  5
9A8
  8
LAYER01
  6
CONTINUOUS
 62
     7
 10
3361.4138700000012
 20
-192.52973499999999
 30
0.0
  0
VERTEX
  5
9A9
  8
LAYER01
  6
CONTINUOUS
 62
     7
 10
3368.1582369999992
 20
-192.52973499999999
 30
0.0
  0
VERTEX
  5
9AA
  8
LAYER01
  6
CONTINUOUS
 62
     7
 10
3368.1582369999992
 20
-192.52973499999999
 30
0.0
  0
SEQEND
  5
9AB
  8
LAYER01
  6
CONTINUOUS
 62
     7
  0
ENDBLK
  5
3E7
  8
0
  0
BLOCK
  8
0
  2
VP355012-G13
 70
     0
 10
0.0
 20
0.0
 30
0.0
  3
VP355012-G13
  1

  0
TEXT
  5
3EA
  8
LAYER01
  6
VERDECKT
 62
     1
 10
2376.7908929999999
 20
-683.31338899999992
 30
0.0
 40
10.0
  1
A. Sprenger GmbH
  7
SIMPLEX
  0
TEXT
  5
3EB
  8
LAYER01
  6
VERDECKT
 62
     1
 10
2376.7908929999999
 20
-700.45624699999985
 30
0.0
 40
10.0
  1
Berner Str. 10
  7
SIMPLEX
  0
TEXT
  5
3EC
  8
LAYER01
  6
VERDECKT
 62
     1
 10
2376.7908929999999
 20
-717.59910400000001
 30
0.0
 40
10.0
  1
60437 Frankfurt
  7
SIMPLEX
  0
TEXT
  5
3ED
  8
LAYER01
  6
VERDECKT
 62
     1
 10
2376.7908929999999
 20
-734.74196100000006
 30
0.0
 40
10.0
  1
Tel.: 069 - 507 27 41
  7
SIMPLEX
  0
TEXT
  5
3EE
  8
LAYER01
  6
VERDECKT
 62
     1
 10
2376.7908929999999
 20
-751.88481799999988
 30
0.0
 40
10.0
  1
Fax: 069 - 507 72 91
  7
SIMPLEX
  0
TEXT
  5
3EF
  8
LAYER01
  6
VERDECKT
 62
     1
 10
2376.7908929999999
 20
-769.02767500000004
 30
0.0
 40
10.0
  1
info@varicor.org
  7
SIMPLEX
  0
ENDBLK
  5
3F0
  8
0
  0
BLOCK
  8
0
  2
VP355012-G12
 70
     0
 10
0.0
 20
0.0
 30
0.0
  3
VP355012-G12
  1

  0
TEXT
  5
3F3
  8
LAYER01
  6
CONTINUOUS
 62
     1
 10
3427.609347999999
 20
-918.39357699999994
 30
0.0
 40
10.0
  1
Blatt
  7
SIMPLEX
  0
LINE
  5
3F4
  8
LAYER01
  6
CONTINUOUS
 62
     1
 10
2362.609348
 20
-848.39357699999982
 30
0.0
 11
2962.609348
 21
-848.39357699999982
 31
0.0
  0
LINE
  5
3F5
  8
LAYER01
  6
CONTINUOUS
 62
     1
 10
2362.609348
 20
-873.39357700000005
 30
0.0
 11
2962.609348
 21
-873.39357700000005
 31
0.0
  0
LINE
  5
3F6
  8
LAYER01
  6
CONTINUOUS
 62
     1
 10
2362.609348
 20
-898.39357700000005
 30
0.0
 11
3492.609348
 21
-898.39357700000005
 31
0.0
  0
LINE
  5
3F7
  8
LAYER01
  6
CONTINUOUS
 62
     1
 10
2362.609348
 20
-973.39357700000005
 30
0.0
 11
3492.609348
 21
-973.39357700000005
 31
0.0
  0
LINE
  5
3F8
  8
LAYER01
  6
CONTINUOUS
 62
     1
 10
2362.609348
 20
-773.39357699999994
 30
0.0
 11
3492.609348
 21
-773.39357699999994
 31
0.0
  0
POLYLINE
  5
3F9
  8
LAYER01
  6
CONTINUOUS
 62
     1
 66
     1
 10
0.0
 20
0.0
 30
0.0
 70
     1
  0
VERTEX
  5
9AC
  8
LAYER01
  6
CONTINUOUS
 62
     1
 10
2362.609348
 20
-1003.3935770000001
 30
0.0
  0
VERTEX
  5
9AD
  8
LAYER01
  6
CONTINUOUS
 62
     1
 10
2362.609348
 20
-668.39357699999994
 30
0.0
  0
VERTEX
  5
9AE
  8
LAYER01
  6
CONTINUOUS
 62
     1
 10
3492.609348
 20
-668.39357699999994
 30
0.0
  0
VERTEX
  5
9AF
  8
LAYER01
  6
CONTINUOUS
 62
     1
 10
3492.609348
 20
-1003.3935770000001
 30
0.0
  0
SEQEND
  5
9B0
  8
LAYER01
  6
CONTINUOUS
 62
     1
  0
LINE
  5
3FF
  8
LAYER01
  6
CONTINUOUS
 62
     1
 10
2362.609348
 20
-798.39357699999994
 30
0.0
 11
2962.609348
 21
-798.39357699999994
 31
0.0
  0
LINE
  5
400
  8
LAYER01
  6
CONTINUOUS
 62
     1
 10
2362.609348
 20
-823.39357699999982
 30
0.0
 11
2962.609348
 21
-823.39357699999982
 31
0.0
  0
LINE
  5
401
  8
LAYER01
  6
CONTINUOUS
 62
     1
 10
2687.609348
 20
-668.39357699999994
 30
0.0
 11
2687.609348
 21
-1003.3935770000001
 31
0.0
  0
INSERT
  5
402
  8
LAYER01
  2
VP355012-G13
 10
0.0
 20
0.0
 30
0.0
  0
LINE
  5
403
  8
LAYER01
  6
CONTINUOUS
 62
     1
 10
2362.609348
 20
-948.39357700000005
 30
0.0
 11
2687.609348
 21
-948.39357700000005
 31
0.0
  0
LINE
  5
404
  8
LAYER01
  6
CONTINUOUS
 62
     1
 10
2362.609348
 20
-923.39357700000005
 30
0.0
 11
2687.609348
 21
-923.39357700000005
 31
0.0
  0
LINE
  5
405
  8
LAYER01
  6
CONTINUOUS
 62
     1
 10
2407.609348
 20
-773.39357699999994
 30
0.0
 11
2407.609348
 21
-1003.3935770000001
 31
0.0
  0
TEXT
  5
406
  8
LAYER01
  6
CONTINUOUS
 62
     1
 10
2371.008613
 20
-993.39357699999994
 30
0.0
 40
9.5
  1
Zust
  7
SIMPLEX
  0
LINE
  5
407
  8
LAYER01
  6
CONTINUOUS
 62
     1
 10
2565.393963
 20
-1003.3935770000001
 30
0.0
 11
2565.393963
 21
-773.39357699999994
 31
0.0
  0
LINE
  5
408
  8
LAYER01
  6
CONTINUOUS
 62
     1
 10
2642.609348
 20
-773.39357699999994
 30
0.0
 11
2642.609348
 21
-1003.3935770000001
 31
0.0
  0
TEXT
  5
409
  8
LAYER01
  6
CONTINUOUS
 62
     1
 10
2451.7378899999999
 20
-993.39357699999994
 30
0.0
 40
9.5
  1
Änderung
  7
SIMPLEX
  0
TEXT
  5
40A
  8
LAYER01
  6
CONTINUOUS
 62
     1
 10
2579.4634919999999
 20
-993.39357699999994
 30
0.0
 40
9.5
  1
Datum
  7
SIMPLEX
  0
TEXT
  5
40B
  8
LAYER01
  6
CONTINUOUS
 62
     1
 10
2646.373251
 20
-993.39357699999994
 30
0.0
 40
9.5
  1
Name
  7
SIMPLEX
  0
LINE
  5
40C
  8
LAYER01
  6
CONTINUOUS
 62
     1
 10
3492.609348
 20
-708.39357699999994
 30
0.0
 11
2962.609348
 21
-708.39357699999994
 31
0.0
  0
LINE
  5
40D
  8
LAYER01
  6
CONTINUOUS
 62
     1
 10
2752.609348
 20
-873.39357700000005
 30
0.0
 11
2752.609348
 21
-773.39357699999994
 31
0.0
  0
TEXT
  5
40E
  8
LAYER01
  6
CONTINUOUS
 62
     1
 10
2697.609348
 20
-818.39357699999994
 30
0.0
 40
10.0
  1
Bearb.
  7
SIMPLEX
  0
TEXT
  5
40F
  8
LAYER01
  6
CONTINUOUS
 62
     1
 10
2697.609348
 20
-868.39357699999994
 30
0.0
 40
10.0
  1
Norm
  7
SIMPLEX
  0
TEXT
  5
410
  8
LAYER01
  6
CONTINUOUS
 62
     1
 10
2697.609348
 20
-843.39357699999994
 30
0.0
 40
10.0
  1
Gepr.
  7
SIMPLEX
  0
TEXT
  5
411
  8
LAYER01
  6
CONTINUOUS
 62
     1
 10
2777.609348
 20
-793.39357699999994
 30
0.0
 40
10.0
  1
Datum
  7
SIMPLEX
  0
TEXT
  5
412
  8
LAYER01
  6
CONTINUOUS
 62
     1
 10
2877.609348
 20
-793.39357699999994
 30
0.0
 40
10.0
  1
Name
  7
SIMPLEX
  0
TEXT
  5
413
  8
LAYER01
  6
CONTINUOUS
 62
     1
 10
3467.609348
 20
-968.39357699999994
 30
0.0
 40
10.0
  1
Bl.
  7
SIMPLEX
  0
LINE
  5
414
  8
LAYER01
  6
CONTINUOUS
 62
     1
 10
2962.609348
 20
-1003.3935770000001
 30
0.0
 11
2962.609348
 21
-668.39357699999994
 31
0.0
  0
LINE
  5
415
  8
LAYER01
  6
CONTINUOUS
 62
     1
 10
2847.609348
 20
-898.39357700000005
 30
0.0
 11
2847.609348
 21
-668.39357699999994
 31
0.0
  0
LINE
  5
416
  8
LAYER01
  6
CONTINUOUS
 62
     1
 10
3277.609348
 20
-668.39357699999994
 30
0.0
 11
3277.609348
 21
-708.39357699999994
 31
0.0
  0
TEXT
  5
417
  8
LAYER01
  6
CONTINUOUS
 62
     1
 10
2973.5033469999998
 20
-693.92357900000002
 30
0.0
 40
10.0
  1
Maßstab
  7
SIMPLEX
  0
LINE
  5
418
  8
LAYER01
  6
CONTINUOUS
 62
     1
 10
3417.609348
 20
-898.39357700000005
 30
0.0
 11
3417.609348
 21
-973.39357700000005
 31
0.0
  0
LINE
  5
419
  8
LAYER01
  6
CONTINUOUS
 62
     1
 10
3417.609348
 20
-948.39357700000005
 30
0.0
 11
3492.609348
 21
-948.39357700000005
 31
0.0
  0
ENDBLK
  5
41A
  8
0
  0
BLOCK
  8
0
  2
VP355012-G14
 70
     0
 10
0.0
 20
0.0
 30
0.0
  3
VP355012-G14
  1

  0
LINE
  5
41D
  8
LAYER01
  6
CONTINUOUS
 62
     7
 10
1909.9806100000001
 20
535.92894999999999
 30
0.0
 11
1933.5512189999999
 21
559.49955799999987
 31
0.0
  0
LINE
  5
41E
  8
LAYER01
  6
CONTINUOUS
 62
     7
 10
1944.953624
 20
548.451323
 30
0.0
 11
1958.959556
 21
562.45725500000003
 31
0.0
  0
LINE
  5
41F
  8
LAYER01
  6
CONTINUOUS
 62
     7
 10
2053.3869810000001
 20
656.88468
 30
0.0
 11
2076.5104099999999
 21
680.00810899999988
 31
0.0
  0
LINE
  5
420
  8
LAYER01
  6
CONTINUOUS
 62
     7
 10
1970.9216329999999
 20
551.96869200000003
 30
0.0
 11
1985.034711
 21
566.08176900000001
 31
0.0
  0
LINE
  5
421
  8
LAYER01
  6
CONTINUOUS
 62
     7
 10
2052.1453200000001
 20
633.19237800000008
 30
0.0
 11
2064.8263740000002
 21
645.87343199999987
 31
0.0
  0
LINE
  5
422
  8
LAYER01
  6
CONTINUOUS
 62
     7
 10
1997.0121919999999
 20
555.60861099999988
 30
0.0
 11
2011.077947
 21
569.67436500000008
 31
0.0
  0
LINE
  5
423
  8
LAYER01
  6
CONTINUOUS
 62
     7
 10
2050.9036590000001
 20
609.50007699999992
 30
0.0
 11
2063.5847130000002
 21
622.18113099999994
 31
0.0
  0
LINE
  5
424
  8
LAYER01
  6
CONTINUOUS
 62
     7
 10
2023.1027509999999
 20
559.24852899999985
 30
0.0
 11
2037.172849
 21
573.31862699999999
 31
0.0
  0
LINE
  5
425
  8
LAYER01
  6
CONTINUOUS
 62
     7
 10
2049.661998
 20
585.80777599999988
 30
0.0
 11
2062.3430520000011
 21
598.48883000000001
 31
0.0
  0
LINE
  5
426
  8
LAYER01
  6
CONTINUOUS
 62
     7
 10
2049.4912530000001
 20
563.18639099999996
 30
0.0
 11
2060.4178999999999
 21
574.11303699999985
 31
0.0
  0
ENDBLK
  5
427
  8
0
  0
BLOCK
  8
0
  2
*D14
 70
     1
 10
0.0
 20
0.0
 30
0.0
  3
*D14
  1

  0
LINE
  5
42A
  8
LAYER01
 62
     7
 10
2054.598825
 20
806.19218499999999
 30
0.0
 11
1704.598831
 21
806.19218499999999
 31
0.0
  0
LINE
  5
42B
  8
LAYER01
 62
     7
 10
2054.598825
 20
708.00810899999999
 30
0.0
 11
2054.598825
 21
841.19218499999999
 31
0.0
  0
LINE
  5
42C
  8
LAYER01
 62
     7
 10
1704.598831
 20
708.00810899999999
 30
0.0
 11
1704.598831
 21
841.19218499999999
 31
0.0
  0
SOLID
  5
42D
  8
LAYER01
 62
     7
 10
1998.598825
 20
815.52514500000007
 30
0.0
 11
2054.598825
 21
806.19218499999999
 31
0.0
 12
1998.598825
 22
796.85922500000004
 32
0.0
 13
1998.598825
 23
796.85922500000004
 33
0.0
  0
SOLID
  5
42E
  8
LAYER01
 62
     7
 10
1760.598831
 20
815.52514500000007
 30
0.0
 11
1704.598831
 21
806.19218499999999
 31
0.0
 12
1760.598831
 22
796.85922500000004
 32
0.0
 13
1760.598831
 23
796.85922500000004
 33
0.0
  0
TEXT
  5
42F
  8
LAYER01
  6
CONTINUOUS
 62
     7
 10
1827.4437479999999
 20
841.19218499999999
 30
0.0
 40
70.0
  1
350
  0
POINT
  5
430
  8
LAYER01
 62
     7
 10
2054.598825
 20
680.00810899999988
 30
0.0
  0
POINT
  5
431
  8
LAYER01
 62
     7
 10
1704.598831
 20
680.00810899999988
 30
0.0
  0
POINT
  5
432
  8
LAYER01
 62
     7
 10
1704.598831
 20
806.19218499999999
 30
0.0
  0
ENDBLK
  5
433
  8
0
  0
BLOCK
  8
0
  2
*D15
 70
     1
 10
0.0
 20
0.0
 30
0.0
  3
*D15
  1

  0
LINE
  5
436
  8
LAYER01
 62
     7
 10
1679.598825
 20
961.00285600000007
 30
0.0
 11
2079.5988309999998
 21
961.00285600000007
 31
0.0
  0
LINE
  5
437
  8
LAYER01
 62
     7
 10
1679.598825
 20
708.00810899999999
 30
0.0
 11
1679.598825
 21
996.00285600000007
 31
0.0
  0
LINE
  5
438
  8
LAYER01
 62
     7
 10
2079.5988309999998
 20
708.00810899999999
 30
0.0
 11
2079.5988309999998
 21
996.00285600000007
 31
0.0
  0
SOLID
  5
439
  8
LAYER01
 62
     7
 10
1735.598825
 20
951.66989600000011
 30
0.0
 11
1679.598825
 21
961.00285600000007
 31
0.0
 12
1735.598825
 22
970.33581600000002
 32
0.0
 13
1735.598825
 23
970.33581600000002
 33
0.0
  0
SOLID
  5
43A
  8
LAYER01
 62
     7
 10
2023.598831
 20
951.66989600000011
 30
0.0
 11
2079.5988309999998
 21
961.00285600000007
 31
0.0
 12
2023.598831
 22
970.33581600000002
 32
0.0
 13
2023.598831
 23
970.33581600000002
 33
0.0
  0
TEXT
  5
43B
  8
LAYER01
  6
CONTINUOUS
 62
     7
 10
1827.4437479999999
 20
996.00285600000007
 30
0.0
 40
70.0
  1
400
  0
POINT
  5
43C
  8
LAYER01
 62
     7
 10
1679.598825
 20
680.00810899999988
 30
0.0
  0
POINT
  5
43D
  8
LAYER01
 62
     7
 10
2079.5988309999998
 20
680.00810899999988
 30
0.0
  0
POINT
  5
43E
  8
LAYER01
 62
     7
 10
2079.5988309999998
 20
961.00285600000007
 30
0.0
  0
ENDBLK
  5
43F
  8
0
  0
BLOCK
  8
0
  2
VP355012-G17
 70
     0
 10
0.0
 20
0.0
 30
0.0
  3
VP355012-G17
  1

  0
LINE
  5
442
  8
LAYER01
  6
CONTINUOUS
 62
     7
 10
1682.8495250000001
 20
668.00810899999988
 30
0.0
 11
1694.8495250000001
 21
680.00810899999988
 31
0.0
  0
LINE
  5
443
  8
LAYER01
  6
CONTINUOUS
 62
     7
 10
1693.813257
 20
656.52120100000002
 30
0.0
 11
1705.231329
 21
667.93927299999996
 31
0.0
  0
LINE
  5
444
  8
LAYER01
  6
CONTINUOUS
 62
     7
 10
1694.931253
 20
635.18855699999995
 30
0.0
 11
1706.349326
 21
646.606629
 31
0.0
  0
LINE
  5
445
  8
LAYER01
  6
CONTINUOUS
 62
     7
 10
1696.04925
 20
613.85591299999987
 30
0.0
 11
1707.467322
 21
625.27398499999993
 31
0.0
  0
LINE
  5
446
  8
LAYER01
  6
CONTINUOUS
 62
     7
 10
1697.167246
 20
592.52326900000003
 30
0.0
 11
1708.585319
 21
603.94134099999985
 31
0.0
  0
LINE
  5
447
  8
LAYER01
  6
CONTINUOUS
 62
     7
 10
1699.4405380000001
 20
572.34592099999986
 30
0.0
 11
1709.703315
 21
582.608698
 31
0.0
  0
LINE
  5
448
  8
LAYER01
  6
CONTINUOUS
 62
     7
 10
1712.161429
 20
562.61617199999989
 30
0.0
 11
1722.760419
 21
573.21516099999997
 31
0.0
  0
LINE
  5
449
  8
LAYER01
  6
CONTINUOUS
 62
     7
 10
1731.838274
 20
559.84237599999994
 30
0.0
 11
1742.451603
 21
570.45570499999997
 31
0.0
  0
LINE
  5
44A
  8
LAYER01
  6
CONTINUOUS
 62
     7
 10
1751.54027
 20
557.09373200000005
 30
0.0
 11
1762.182395
 21
567.7358569999999
 31
0.0
  0
LINE
  5
44B
  8
LAYER01
  6
CONTINUOUS
 62
     7
 10
1771.242266
 20
554.34508700000004
 30
0.0
 11
1781.9091969999999
 21
565.01201800000001
 31
0.0
  0
LINE
  5
44C
  8
LAYER01
  6
CONTINUOUS
 62
     7
 10
1790.944262
 20
551.59644300000002
 30
0.0
 11
1801.612069
 21
562.26424999999995
 31
0.0
  0
LINE
  5
44D
  8
LAYER01
  6
CONTINUOUS
 62
     7
 10
1810.646258
 20
548.8477989999999
 30
0.0
 11
1821.6478689999999
 21
559.84940999999992
 31
0.0
  0
LINE
  5
44E
  8
LAYER01
  6
CONTINUOUS
 62
     7
 10
1831.2156030000001
 20
546.96650299999988
 30
0.0
 11
1842.274764
 21
558.02566399999989
 31
0.0
  0
LINE
  5
44F
  8
LAYER01
  6
CONTINUOUS
 62
     7
 10
1842.6286889999999
 20
535.92894999999999
 30
0.0
 11
1855.0159219999989
 21
548.31618200000003
 31
0.0
  0
ENDBLK
  5
450
  8
0
  0
BLOCK
  8
0
  2
*D17
 70
     1
 10
0.0
 20
0.0
 30
0.0
  3
*D17
  1

  0
LINE
  5
453
  8
LAYER01
 62
     7
 10
2186.930781
 20
680.00810899999988
 30
0.0
 11
2186.930781
 21
556.91559900000004
 31
0.0
  0
LINE
  5
454
  8
LAYER01
 62
     7
 10
2114.5364300000001
 20
680.00810899999988
 30
0.0
 11
2221.930781
 21
680.00810899999988
 31
0.0
  0
LINE
  5
455
  8
LAYER01
 62
     7
 10
2114.5364300000001
 20
556.91559900000004
 30
0.0
 11
2221.930781
 21
556.91559900000004
 31
0.0
  0
SOLID
  5
456
  8
LAYER01
 62
     7
 10
2177.5978209999998
 20
624.00810899999999
 30
0.0
 11
2186.930781
 21
680.00810899999988
 31
0.0
 12
2196.2637410000002
 22
624.00810899999999
 32
0.0
 13
2196.2637410000002
 23
624.00810899999999
 33
0.0
  0
SOLID
  5
457
  8
LAYER01
 62
     7
 10
2177.5978209999998
 20
612.91559900000004
 30
0.0
 11
2186.930781
 21
556.91559900000004
 31
0.0
 12
2196.2637410000002
 22
612.91559900000004
 32
0.0
 13
2196.2637410000002
 23
612.91559900000004
 33
0.0
  0
TEXT
  5
458
  8
LAYER01
  6
CONTINUOUS
 62
     7
 10
2151.930781
 20
566.30677400000002
 30
0.0
 40
70.0
  1
123
 50
90.0
  0
POINT
  5
459
  8
LAYER01
 62
     7
 10
2086.5364300000001
 20
680.00810899999988
 30
0.0
  0
POINT
  5
45A
  8
LAYER01
 62
     7
 10
2086.5364300000001
 20
556.91559900000004
 30
0.0
  0
POINT
  5
45B
  8
LAYER01
 62
     7
 10
2186.930781
 20
556.91559900000004
 30
0.0
  0
ENDBLK
  5
45C
  8
0
  0
BLOCK
  8
0
  2
*D18
 70
     1
 10
0.0
 20
0.0
 30
0.0
  3
*D18
  1

  0
LINE
  5
45F
  8
LAYER01
 62
     7
 10
2312.1352299999999
 20
680.00810899999988
 30
0.0
 11
2312.1352299999999
 21
535.928945
 31
0.0
  0
LINE
  5
460
  8
LAYER01
 62
     7
 10
2114.5364300000001
 20
680.00810899999988
 30
0.0
 11
2347.1352299999999
 21
680.00810899999988
 31
0.0
  0
LINE
  5
461
  8
LAYER01
 62
     7
 10
2114.5364300000001
 20
535.928945
 30
0.0
 11
2347.1352299999999
 21
535.928945
 31
0.0
  0
SOLID
  5
462
  8
LAYER01
 62
     7
 10
2302.8022700000001
 20
624.00810899999999
 30
0.0
 11
2312.1352299999999
 21
680.00810899999988
 31
0.0
 12
2321.46819
 22
624.00810899999999
 32
0.0
 13
2321.46819
 23
624.00810899999999
 33
0.0
  0
SOLID
  5
463
  8
LAYER01
 62
     7
 10
2302.8022700000001
 20
591.92894499999989
 30
0.0
 11
2312.1352299999999
 21
535.928945
 31
0.0
 12
2321.46819
 22
591.92894499999989
 32
0.0
 13
2321.46819
 23
591.92894499999989
 33
0.0
  0
TEXT
  5
464
  8
LAYER01
  6
CONTINUOUS
 62
     7
 10
2277.1352299999999
 20
555.81344799999988
 30
0.0
 40
70.0
  1
144
 50
90.0
  0
POINT
  5
465
  8
LAYER01
 62
     7
 10
2086.5364300000001
 20
680.00810899999988
 30
0.0
  0
POINT
  5
466
  8
LAYER01
 62
     7
 10
2086.5364300000001
 20
535.928945
 30
0.0
  0
POINT
  5
467
  8
LAYER01
 62
     7
 10
2312.1352299999999
 20
535.928945
 30
0.0
  0
ENDBLK
  5
468
  8
0
  0
ENDSEC
  0
SECTION
  2
ENTITIES
  0
POLYLINE
  5
469
  8
LAYER01
  6
CONTINUOUS
 62
     7
 66
     1
 10
0.0
 20
0.0
 30
0.0
 70
     1
  0
VERTEX
  5
9B1
  8
LAYER01
  6
CONTINUOUS
 62
     7
 10
-499.56538799999993
 20
-1003.3935770000001
 30
0.0
  0
VERTEX
  5
9B2
  8
LAYER01
  6
CONTINUOUS
 62
     7
 10
-499.56538799999993
 20
1782.752127
 30
0.0
  0
VERTEX
  5
9B3
  8
LAYER01
  6
CONTINUOUS
 62
     7
 10
3492.609348
 20
1782.752127
 30
0.0
  0
VERTEX
  5
9B4
  8
LAYER01
  6
CONTINUOUS
 62
     7
 10
3492.609348
 20
-1003.3935770000001
 30
0.0
  0
SEQEND
  5
9B5
  8
LAYER01
  6
CONTINUOUS
 62
     7
  0
TEXT
  5
46F
  8
LAYER01
  6
CONTINUOUS
 62
     7
 10
185.68185600000001
 20
-458.1554559999999
 30
0.0
 40
35.0
  1
Unterbauwaschtisch VP-35-50-12
  7
SIMPLEX
  0
INSERT
  5
470
  8
LAYER01
  2
VP355012-G1
 10
0.0
 20
0.0
 30
0.0
  0
POLYLINE
  5
471
  8
LAYER01
  6
CONTINUOUS
 62
     7
 66
     1
 10
0.0
 20
0.0
 30
0.0
  0
VERTEX
  5
9B6
  8
LAYER01
  6
CONTINUOUS
 62
     7
 10
1014.681719
 20
-14.855143
 30
0.0
  0
VERTEX
  5
9B7
  8
LAYER01
  6
CONTINUOUS
 62
     7
 10
952.24805900000001
 20
-10.571923999999999
 30
0.0
  0
VERTEX
  5
9B8
  8
LAYER01
  6
CONTINUOUS
 62
     7
 10
895.83205399999974
 20
-6.701547999999999
 30
0.0
  0
VERTEX
  5
9B9
  8
LAYER01
  6
CONTINUOUS
 62
     7
 10
840.71599600000013
 20
-2.9203559999999991
 30
0.0
  0
SEQEND
  5
9BA
  8
LAYER01
  6
CONTINUOUS
 62
     7
  0
POLYLINE
  5
477
  8
LAYER01
  6
CONTINUOUS
 62
     7
 66
     1
 10
0.0
 20
0.0
 30
0.0
  0
VERTEX
  5
9BB
  8
LAYER01
  6
CONTINUOUS
 62
     7
 10
1015.615396
 20
-2.8909859999999998
 30
0.0
  0
VERTEX
  5
9BC
  8
LAYER01
  6
CONTINUOUS
 62
     7
 10
957.79458399999987
 20
1.0757620000000001
 30
0.0
  0
VERTEX
  5
9BD
  8
LAYER01
  6
CONTINUOUS
 62
     7
 10
899.01847300000009
 20
5.1080540000000001
 30
0.0
  0
VERTEX
  5
9BE
  8
LAYER01
  6
CONTINUOUS
 62
     7
 10
841.5373189999998
 20
9.0515050000000006
 30
0.0
  0
SEQEND
  5
9BF
  8
LAYER01
  6
CONTINUOUS
 62
     7
  0
LINE
  5
47D
  8
LAYER01
  6
CONTINUOUS
 62
     7
 10
1326.622255
 20
114.35467300000001
 30
0.0
 11
836.60853600000007
 21
114.35467300000001
 31
0.0
  0
DIMENSION
  5
47E
  8
LAYER01
 62
     7
  2
*D1
 10
831.61539500000003
 20
188.820414
 30
0.0
 11
1081.615395
 21
258.82041400000003
 31
0.0
 13
1331.615395
 23
114.35467300000001
 33
0.0
 14
831.61539500000003
 24
114.35467300000001
 34
0.0
  0
ARC
  5
47F
  8
LAYER01
  6
CONTINUOUS
 62
     7
 10
841.87953800000025
 20
14.039778999999999
 30
0.0
 40
17.0
 50
183.0
 51
266.07541800000001
  0
LINE
  5
480
  8
LAYER01
  6
CONTINUOUS
 62
     7
 10
820.62513300000001
 20
94.773360999999994
 30
0.0
 11
824.90283899999986
 21
13.150069
 31
0.0
  0
ARC
  5
481
  8
LAYER01
  6
CONTINUOUS
 62
     7
 10
812.63610400000005
 20
94.354672999999991
 30
0.0
 40
8.0
 50
3.0
 51
90.0
  0
LINE
  5
482
  8
LAYER01
  6
CONTINUOUS
 62
     7
 10
812.63611400000002
 20
102.35467300000001
 30
0.0
 11
806.61538899999982
 21
102.35467300000001
 31
0.0
  0
LINE
  5
483
  8
LAYER01
  6
CONTINUOUS
 62
     7
 10
806.61538899999982
 20
102.35467300000001
 30
0.0
 11
806.61538899999982
 21
114.35467300000001
 31
0.0
  0
LINE
  5
484
  8
LAYER01
  6
CONTINUOUS
 62
     7
 10
831.61539500000003
 20
114.35467300000001
 30
0.0
 11
806.61538899999982
 21
114.35467300000001
 31
0.0
  0
LINE
  5
485
  8
LAYER01
  6
CONTINUOUS
 62
     7
 10
831.61539500000003
 20
114.35467300000001
 30
0.0
 11
836.88638300000002
 21
13.778100999999999
 31
0.0
  0
ARC
  5
486
  8
LAYER01
  6
CONTINUOUS
 62
     7
 10
841.87953800000025
 20
14.039778999999999
 30
0.0
 40
5.0
 50
183.0
 51
266.07541800000001
  0
LINE
  5
487
  8
LAYER01
  6
CONTINUOUS
 62
     7
 10
831.61539500000003
 20
114.35467300000001
 30
0.0
 11
836.60853600000007
 21
114.35467300000001
 31
0.0
  0
INSERT
  5
488
  8
LAYER01
  2
VP355012-G3
 10
0.0
 20
0.0
 30
0.0
  0
LINE
  5
489
  8
LAYER01
  6
CONTINUOUS
 62
     7
 10
1116.407729
 20
-6.5289929999999989
 30
0.0
 11
1106.401458
 21
-14.925253
 31
0.0
  0
LINE
  5
48A
  8
LAYER01
  6
CONTINUOUS
 62
     7
 10
1056.8293329999999
 20
-14.925253
 30
0.0
 11
1046.8230610000001
 21
-6.5289929999999989
 31
0.0
  0
POLYLINE
  5
48B
  8
LAYER01
  6
CONTINUOUS
 62
     7
 66
     1
 10
0.0
 20
0.0
 30
0.0
  0
VERTEX
  5
9C0
  8
LAYER01
  6
CONTINUOUS
 62
     7
 10
1322.5147939999999
 20
-2.9203559999999991
 30
0.0
  0
VERTEX
  5
9C1
  8
LAYER01
  6
CONTINUOUS
 62
     7
 10
1261.26305
 20
-7.122484
 30
0.0
  0
VERTEX
  5
9C2
  8
LAYER01
  6
CONTINUOUS
 62
     7
 10
1204.8498830000001
 20
-10.992658
 30
0.0
  0
VERTEX
  5
9C3
  8
LAYER01
  6
CONTINUOUS
 62
     7
 10
1148.549072
 20
-14.855143
 30
0.0
  0
SEQEND
  5
9C4
  8
LAYER01
  6
CONTINUOUS
 62
     7
  0
LINE
  5
491
  8
LAYER01
  6
CONTINUOUS
 62
     7
 10
1101.9853330000001
 20
-14.925253
 30
0.0
 11
1106.401458
 21
-14.925253
 31
0.0
  0
LINE
  5
492
  8
LAYER01
  6
CONTINUOUS
 62
     7
 10
1121.6153939999999
 20
-27.515647000000001
 30
0.0
 11
1104.615395
 21
-27.515647000000001
 31
0.0
  0
ARC
  5
493
  8
LAYER01
  6
CONTINUOUS
 62
     7
 10
1109.615395
 20
-18.755478
 30
0.0
 40
5.0
 50
130.0
 51
180.0
  0
LINE
  5
494
  8
LAYER01
  6
CONTINUOUS
 62
     7
 10
1121.6153939999999
 20
-24.542179999999998
 30
0.0
 11
1121.6153939999999
 21
-27.515647000000001
 31
0.0
  0
ARC
  5
495
  8
LAYER01
  6
CONTINUOUS
 62
     7
 10
1129.615395
 20
-24.542178
 30
0.0
 40
8.0
 50
95.0
 51
180.0
  0
LINE
  5
496
  8
LAYER01
  6
CONTINUOUS
 62
     7
 10
1148.549072
 20
-14.855143
 30
0.0
 11
1128.918148
 21
-16.572621999999999
 31
0.0
  0
LINE
  5
497
  8
LAYER01
  6
CONTINUOUS
 62
     7
 10
1100.5174939999999
 20
-27.515647000000001
 30
0.0
 11
1104.615395
 21
-27.515647000000001
 31
0.0
  0
LINE
  5
498
  8
LAYER01
  6
CONTINUOUS
 62
     7
 10
1104.615395
 20
-18.755478
 30
0.0
 11
1104.615395
 21
-27.515647000000001
 31
0.0
  0
LINE
  5
499
  8
LAYER01
  6
CONTINUOUS
 62
     7
 10
1056.8293329999999
 20
-14.925253
 30
0.0
 11
1061.2454580000001
 21
-14.925253
 31
0.0
  0
LINE
  5
49A
  8
LAYER01
  6
CONTINUOUS
 62
     7
 10
1058.615395
 20
-27.515647000000001
 30
0.0
 11
1062.7132959999999
 21
-27.515647000000001
 31
0.0
  0
ARC
  5
49B
  8
LAYER01
  6
CONTINUOUS
 62
     7
 10
1053.615395
 20
-18.755478
 30
0.0
 40
5.0
 50
0.0
 51
50.0
  0
LINE
  5
49C
  8
LAYER01
  6
CONTINUOUS
 62
     7
 10
1034.3126420000001
 20
-16.572621999999999
 30
0.0
 11
1014.681719
 21
-14.855143
 31
0.0
  0
ARC
  5
49D
  8
LAYER01
  6
CONTINUOUS
 62
     7
 10
1033.615395
 20
-24.542178
 30
0.0
 40
8.0
 50
0.0
 51
85.0
  0
LINE
  5
49E
  8
LAYER01
  6
CONTINUOUS
 62
     7
 10
1041.6153959999999
 20
-27.515647000000001
 30
0.0
 11
1041.6153959999999
 21
-24.542179999999998
 31
0.0
  0
LINE
  5
49F
  8
LAYER01
  6
CONTINUOUS
 62
     7
 10
1058.615395
 20
-27.515647000000001
 30
0.0
 11
1041.6153959999999
 21
-27.515647000000001
 31
0.0
  0
LINE
  5
4A0
  8
LAYER01
  6
CONTINUOUS
 62
     7
 10
1058.615395
 20
-27.515647000000001
 30
0.0
 11
1058.615395
 21
-18.755478
 31
0.0
  0
LINE
  5
4A1
  8
LAYER01
  6
CONTINUOUS
 62
     7
 10
1061.2454580000001
 20
-14.925253
 30
0.0
 11
1101.9853330000001
 21
-14.925253
 31
0.0
  0
LINE
  5
4A2
  8
LAYER01
  6
CONTINUOUS
 62
     7
 10
1062.7132959999999
 20
-27.515647000000001
 30
0.0
 11
1100.5174939999999
 21
-27.515647000000001
 31
0.0
  0
LINE
  5
4A3
  8
LAYER01
  6
CONTINUOUS
 62
     7
 10
1050.115395
 20
-9.2915929999999989
 30
0.0
 11
1113.115395
 21
-9.2915929999999989
 31
0.0
  0
LINE
  5
4A4
  8
LAYER01
  6
CONTINUOUS
 62
     7
 10
1116.407729
 20
-6.5289929999999989
 30
0.0
 11
1110.2087939999999
 21
-6.5289929999999989
 31
0.0
  0
ARC
  5
4A5
  8
LAYER01
  6
CONTINUOUS
 62
     7
 10
1119.6216690000001
 20
-10.359218
 30
0.0
 40
5.0
 50
95.0
 51
130.0
  0
LINE
  5
4A6
  8
LAYER01
  6
CONTINUOUS
 62
     7
 10
1053.0219970000001
 20
-6.5289929999999989
 30
0.0
 11
1046.8230610000001
 21
-6.5289929999999989
 31
0.0
  0
ARC
  5
4A7
  8
LAYER01
  6
CONTINUOUS
 62
     7
 10
1043.6091220000001
 20
-10.359218
 30
0.0
 40
5.0
 50
50.0
 51
85.0
  0
LINE
  5
4A8
  8
LAYER01
  6
CONTINUOUS
 62
     7
 10
1110.2087939999999
 20
-6.5289929999999989
 30
0.0
 11
1053.0219970000001
 21
-6.5289929999999989
 31
0.0
  0
LINE
  5
4A9
  8
LAYER01
  6
CONTINUOUS
 62
     7
 10
1147.615395
 20
-2.8909859999999998
 30
0.0
 11
1119.18589
 21
-5.3782430000000003
 31
0.0
  0
LINE
  5
4AA
  8
LAYER01
  6
CONTINUOUS
 62
     7
 10
1044.0449000000001
 20
-5.3782430000000003
 30
0.0
 11
1015.615396
 21
-2.8909859999999998
 31
0.0
  0
ARC
  5
4AB
  8
LAYER01
  6
CONTINUOUS
 62
     7
 10
1321.351253
 20
14.039778999999999
 30
0.0
 40
5.0
 50
273.92458199999999
 51
357.0
  0
LINE
  5
4AC
  8
LAYER01
  6
CONTINUOUS
 62
     7
 10
1331.615395
 20
114.35467300000001
 30
0.0
 11
1326.344407
 21
13.778100999999999
 31
0.0
  0
LINE
  5
4AD
  8
LAYER01
  6
CONTINUOUS
 62
     7
 10
1356.615401
 20
114.35467300000001
 30
0.0
 11
1331.615395
 21
114.35467300000001
 31
0.0
  0
LINE
  5
4AE
  8
LAYER01
  6
CONTINUOUS
 62
     7
 10
1356.615401
 20
114.35467300000001
 30
0.0
 11
1356.615401
 21
102.35467300000001
 31
0.0
  0
LINE
  5
4AF
  8
LAYER01
  6
CONTINUOUS
 62
     7
 10
1356.615401
 20
102.35467300000001
 30
0.0
 11
1350.5946759999999
 21
102.35467300000001
 31
0.0
  0
ARC
  5
4B0
  8
LAYER01
  6
CONTINUOUS
 62
     7
 10
1350.594687
 20
94.354672999999991
 30
0.0
 40
8.0
 50
90.0
 51
177.0
  0
LINE
  5
4B1
  8
LAYER01
  6
CONTINUOUS
 62
     7
 10
1342.6056570000001
 20
94.773360999999994
 30
0.0
 11
1338.327951
 21
13.150069
 31
0.0
  0
ARC
  5
4B2
  8
LAYER01
  6
CONTINUOUS
 62
     7
 10
1321.351253
 20
14.039778999999999
 30
0.0
 40
17.0
 50
273.92458199999999
 51
357.0
  0
LINE
  5
4B3
  8
LAYER01
  6
CONTINUOUS
 62
     7
 10
1326.622255
 20
114.35467300000001
 30
0.0
 11
1331.615395
 21
114.35467300000001
 31
0.0
  0
POLYLINE
  5
4B4
  8
LAYER01
  6
CONTINUOUS
 62
     7
 66
     1
 10
0.0
 20
0.0
 30
0.0
  0
VERTEX
  5
9C5
  8
LAYER01
  6
CONTINUOUS
 62
     7
 10
1321.6934719999999
 20
9.0515050000000006
 30
0.0
  0
VERTEX
  5
9C6
  8
LAYER01
  6
CONTINUOUS
 62
     7
 10
1265.167616
 20
5.1735889999999989
 30
0.0
  0
VERTEX
  5
9C7
  8
LAYER01
  6
CONTINUOUS
 62
     7
 10
1206.3915050000001
 20
1.141305
 30
0.0
  0
VERTEX
  5
9C8
  8
LAYER01
  6
CONTINUOUS
 62
     7
 10
1147.615395
 20
-2.8909859999999998
 30
0.0
  0
SEQEND
  5
9C9
  8
LAYER01
  6
CONTINUOUS
 62
     7
  0
DIMENSION
  5
4BA
  8
LAYER01
 62
     7
  2
*D3
 10
806.61538899999982
 20
1034.3648880000001
 30
0.0
 11
1081.615395
 21
1104.3648880000001
 31
0.0
 13
1356.615401
 23
788.88001099999997
 33
0.0
 14
806.61538899999982
 24
788.88001099999997
 34
0.0
  0
LINE
  5
4BB
  8
LAYER01
 62
     7
 10
834.59321299999988
 20
409.47873099999998
 30
0.0
 11
904.98199899999986
 21
490.45799599999992
 31
0.0
  0
LINE
  5
4BC
  8
LAYER01
 62
     7
 10
904.98199899999986
 20
490.45799599999992
 30
0.0
 11
938.33723399999985
 21
490.45799599999992
 31
0.0
  0
SOLID
  5
4BD
  8
LAYER01
 62
     7
 10
878.37481600000001
 20
445.62116299999991
 30
0.0
 11
834.59321299999988
 21
409.47873099999998
 31
0.0
 12
864.28700100000015
 22
457.86657200000002
 32
0.0
 13
864.28700100000015
 23
457.86657200000002
 33
0.0
  0
TEXT
  5
4BE
  8
LAYER01
  6
CONTINUOUS
 62
     7
 10
973.33723399999997
 20
455.45799599999992
 30
0.0
 40
70.0
  1
R5
  0
DIMENSION
  5
4BF
  8
LAYER01
 62
     7
  2
*D4
 10
831.61539500000003
 20
874.73873499999979
 30
0.0
 11
1081.615395
 21
944.73873499999991
 31
0.0
 13
1331.615395
 23
788.88001099999997
 33
0.0
 14
831.61539500000003
 24
788.88001099999997
 34
0.0
  0
LINE
  5
4C0
  8
LAYER01
  6
CONTINUOUS
 62
     7
 10
1326.622255
 20
756.64022099999988
 30
0.0
 11
836.60853600000007
 21
756.64022099999988
 31
0.0
  0
LINE
  5
4C1
  8
LAYER01
  6
CONTINUOUS
 62
     7
 10
1326.6153999999999
 20
781.64022699999998
 30
0.0
 11
836.61539000000005
 21
781.64022699999998
 31
0.0
  0
LINE
  5
4C2
  8
LAYER01
  6
CONTINUOUS
 62
     7
 10
1326.622255
 20
406.64022699999998
 30
0.0
 11
836.60853600000007
 21
406.64022699999998
 31
0.0
  0
LINE
  5
4C3
  8
LAYER01
  6
CONTINUOUS
 62
     7
 10
836.61539000000005
 20
381.640221
 30
0.0
 11
1326.6153999999999
 21
381.640221
 31
0.0
  0
DIMENSION
  5
4C4
  8
LAYER01
 62
     7
  2
*D5
 10
515.63992999999994
 20
381.640221
 30
0.0
 11
445.63992999999999
 21
581.64022399999999
 31
0.0
 53
90.0
 13
798.15382
 23
781.64022699999998
 33
0.0
 14
798.15382
 24
381.640221
 34
0.0
 50
90.0
  0
DIMENSION
  5
4C5
  8
LAYER01
 62
     7
  2
*D6
 10
663.08270300000004
 20
406.64022699999998
 30
0.0
 11
593.08270300000004
 21
581.64022399999999
 31
0.0
 53
90.0
 13
798.15382
 23
756.64022099999988
 33
0.0
 14
798.15382
 24
406.64022699999998
 34
0.0
 50
90.0
  0
LINE
  5
4C6
  8
LAYER01
  6
CONTINUOUS
 62
     7
 10
831.61539500000003
 20
751.64708099999984
 30
0.0
 11
831.61539500000003
 21
411.63336800000002
 31
0.0
  0
LINE
  5
4C7
  8
LAYER01
  6
CONTINUOUS
 62
     7
 10
806.61538899999982
 20
751.64022599999987
 30
0.0
 11
806.61538899999982
 21
411.64022299999999
 31
0.0
  0
ARC
  5
4C8
  8
LAYER01
  6
CONTINUOUS
 62
     7
 10
836.61539500000015
 20
411.64022399999999
 30
0.0
 40
30.0
 50
180.0
 51
270.0
  0
POLYLINE
  5
4C9
  8
LAYER01
  6
CONTINUOUS
 62
     7
 66
     1
 10
0.0
 20
0.0
 30
0.0
  0
VERTEX
  5
9CA
  8
LAYER01
  6
CONTINUOUS
 62
     7
 10
831.61539500000003
 20
411.63337200000001
 30
0.0
  0
VERTEX
  5
9CB
  8
LAYER01
  6
CONTINUOUS
 62
     7
 10
831.71126700000002
 20
410.65852899999987
 30
0.0
  0
VERTEX
  5
9CC
  8
LAYER01
  6
CONTINUOUS
 62
     7
 10
831.99520899999993
 20
409.72154399999999
 30
0.0
  0
VERTEX
  5
9CD
  8
LAYER01
  6
CONTINUOUS
 62
     7
 10
832.45634900000005
 20
408.85829999999987
 30
0.0
  0
VERTEX
  5
9CE
  8
LAYER01
  6
CONTINUOUS
 62
     7
 10
833.07702599999993
 20
408.101855
 30
0.0
  0
VERTEX
  5
9CF
  8
LAYER01
  6
CONTINUOUS
 62
     7
 10
833.83347099999992
 20
407.481178
 30
0.0
  0
VERTEX
  5
9D0
  8
LAYER01
  6
CONTINUOUS
 62
     7
 10
834.69671500000015
 20
407.020038
 30
0.0
  0
VERTEX
  5
9D1
  8
LAYER01
  6
CONTINUOUS
 62
     7
 10
835.63369999999986
 20
406.73609599999997
 30
0.0
  0
VERTEX
  5
9D2
  8
LAYER01
  6
CONTINUOUS
 62
     7
 10
836.60854300000005
 20
406.64022399999999
 30
0.0
  0
SEQEND
  5
9D3
  8
LAYER01
  6
CONTINUOUS
 62
     7
  0
POLYLINE
  5
4D4
  8
LAYER01
  6
CONTINUOUS
 62
     7
 66
     1
 10
0.0
 20
0.0
 30
0.0
  0
VERTEX
  5
9D4
  8
LAYER01
  6
CONTINUOUS
 62
     7
 10
836.60854300000005
 20
756.64022399999999
 30
0.0
  0
VERTEX
  5
9D5
  8
LAYER01
  6
CONTINUOUS
 62
     7
 10
835.63369999999986
 20
756.544353
 30
0.0
  0
VERTEX
  5
9D6
  8
LAYER01
  6
CONTINUOUS
 62
     7
 10
834.69671500000015
 20
756.26041100000009
 30
0.0
  0
VERTEX
  5
9D7
  8
LAYER01
  6
CONTINUOUS
 62
     7
 10
833.83347099999992
 20
755.79927099999986
 30
0.0
  0
VERTEX
  5
9D8
  8
LAYER01
  6
CONTINUOUS
 62
     7
 10
833.07702599999993
 20
755.17859400000009
 30
0.0
  0
VERTEX
  5
9D9
  8
LAYER01
  6
CONTINUOUS
 62
     7
 10
832.45634900000005
 20
754.42214899999988
 30
0.0
  0
VERTEX
  5
9DA
  8
LAYER01
  6
CONTINUOUS
 62
     7
 10
831.99520899999993
 20
753.55890399999987
 30
0.0
  0
VERTEX
  5
9DB
  8
LAYER01
  6
CONTINUOUS
 62
     7
 10
831.71126700000002
 20
752.62191900000005
 30
0.0
  0
VERTEX
  5
9DC
  8
LAYER01
  6
CONTINUOUS
 62
     7
 10
831.61539500000003
 20
751.64707699999985
 30
0.0
  0
SEQEND
  5
9DD
  8
LAYER01
  6
CONTINUOUS
 62
     7
  0
ARC
  5
4DF
  8
LAYER01
  6
CONTINUOUS
 62
     7
 10
836.61539500000015
 20
751.64022399999988
 30
0.0
 40
30.0
 50
90.0
 51
180.0
  0
LINE
  5
4E0
  8
LAYER01
  6
CONTINUOUS
 62
     7
 10
1331.615395
 20
751.64708099999984
 30
0.0
 11
1331.615395
 21
411.63336800000002
 31
0.0
  0
LINE
  5
4E1
  8
LAYER01
  6
CONTINUOUS
 62
     7
 10
1356.615401
 20
411.64022299999999
 30
0.0
 11
1356.615401
 21
751.64022599999987
 31
0.0
  0
ARC
  5
4E2
  8
LAYER01
  6
CONTINUOUS
 62
     7
 10
1081.8900060000001
 20
581.47480899999994
 30
0.0
 40
34.792335999999999
 50
344.57295199999999
 51
15.427047999999999
  0
ARC
  5
4E3
  8
LAYER01
  6
CONTINUOUS
 62
     7
 10
1081.8900060000001
 20
581.47480899999994
 30
0.0
 40
34.792335999999999
 50
164.57295199999999
 51
195.42704800000001
  0
ARC
  5
4E4
  8
LAYER01
  6
CONTINUOUS
 62
     7
 10
1081.8900060000001
 20
581.47480899999994
 30
0.0
 40
24.786062000000001
 50
15.427047999999999
 51
164.57295199999999
  0
INSERT
  5
4E5
  8
LAYER01
  2
VP355012-G8
 10
0.0
 20
0.0
 30
0.0
  0
ARC
  5
4E6
  8
LAYER01
  6
CONTINUOUS
 62
     7
 10
1081.8900060000001
 20
581.47480899999994
 30
0.0
 40
34.792335999999999
 50
195.42704800000001
 51
344.57295199999999
  0
ARC
  5
4E7
  8
LAYER01
  6
CONTINUOUS
 62
     7
 10
1081.8900060000001
 20
581.47480899999994
 30
0.0
 40
24.786062000000001
 50
344.57295199999999
 51
15.427047999999999
  0
ARC
  5
4E8
  8
LAYER01
  6
CONTINUOUS
 62
     7
 10
1081.8900060000001
 20
581.47480899999994
 30
0.0
 40
24.786062000000001
 50
195.42704800000001
 51
344.57295199999999
  0
ARC
  5
4E9
  8
LAYER01
  6
CONTINUOUS
 62
     7
 10
1081.8900060000001
 20
581.47480899999994
 30
0.0
 40
24.786062000000001
 50
164.57295199999999
 51
195.42704800000001
  0
ARC
  5
4EA
  8
LAYER01
  6
CONTINUOUS
 62
     7
 10
1081.8900060000001
 20
581.47480899999994
 30
0.0
 40
34.792335999999999
 50
15.427047999999999
 51
164.57295199999999
  0
ARC
  5
4EB
  8
LAYER01
  6
CONTINUOUS
 62
     7
 10
1081.615395
 20
581.64022399999999
 30
0.0
 40
34.792335999999999
 50
29.922481000000008
 51
150.077519
  0
ARC
  5
4EC
  8
LAYER01
  6
CONTINUOUS
 62
     7
 10
1081.615395
 20
581.64022399999999
 30
0.0
 40
34.792335999999999
 50
209.922481
 51
330.077519
  0
INSERT
  5
4ED
  8
LAYER01
  2
VP355012-G9
 10
0.0
 20
0.0
 30
0.0
  0
ARC
  5
4EE
  8
LAYER01
  6
CONTINUOUS
 62
     7
 10
1081.615395
 20
581.64022399999999
 30
0.0
 40
34.792335999999999
 50
150.077519
 51
209.922481
  0
ARC
  5
4EF
  8
LAYER01
  6
CONTINUOUS
 62
     7
 10
1081.615395
 20
581.64022399999999
 30
0.0
 40
24.786062000000001
 50
29.922481000000008
 51
150.077519
  0
ARC
  5
4F0
  8
LAYER01
  6
CONTINUOUS
 62
     7
 10
1081.615395
 20
581.64022399999999
 30
0.0
 40
34.792335999999999
 50
330.077519
 51
29.922481000000008
  0
ARC
  5
4F1
  8
LAYER01
  6
CONTINUOUS
 62
     7
 10
1081.615395
 20
581.64022399999999
 30
0.0
 40
24.786062000000001
 50
209.922481
 51
330.077519
  0
ARC
  5
4F2
  8
LAYER01
  6
CONTINUOUS
 62
     7
 10
1081.615395
 20
581.64022399999999
 30
0.0
 40
24.786062000000001
 50
150.077519
 51
209.922481
  0
ARC
  5
4F3
  8
LAYER01
  6
CONTINUOUS
 62
     7
 10
1081.615395
 20
581.64022399999999
 30
0.0
 40
24.786062000000001
 50
330.077519
 51
29.922481000000008
  0
ARC
  5
4F4
  8
LAYER01
  6
CONTINUOUS
 62
     7
 10
1326.615395
 20
411.64022399999999
 30
0.0
 40
30.0
 50
270.0
 51
0.0
  0
POLYLINE
  5
4F5
  8
LAYER01
  6
CONTINUOUS
 62
     7
 66
     1
 10
0.0
 20
0.0
 30
0.0
  0
VERTEX
  5
9DE
  8
LAYER01
  6
CONTINUOUS
 62
     7
 10
1326.6222479999999
 20
406.64022399999999
 30
0.0
  0
VERTEX
  5
9DF
  8
LAYER01
  6
CONTINUOUS
 62
     7
 10
1327.59709
 20
406.73609599999997
 30
0.0
  0
VERTEX
  5
9E0
  8
LAYER01
  6
CONTINUOUS
 62
     7
 10
1328.534075
 20
407.020038
 30
0.0
  0
VERTEX
  5
9E1
  8
LAYER01
  6
CONTINUOUS
 62
     7
 10
1329.39732
 20
407.481178
 30
0.0
  0
VERTEX
  5
9E2
  8
LAYER01
  6
CONTINUOUS
 62
     7
 10
1330.153765
 20
408.101855
 30
0.0
  0
VERTEX
  5
9E3
  8
LAYER01
  6
CONTINUOUS
 62
     7
 10
1330.7744419999999
 20
408.85829999999987
 30
0.0
  0
VERTEX
  5
9E4
  8
LAYER01
  6
CONTINUOUS
 62
     7
 10
1331.235582
 20
409.72154399999999
 30
0.0
  0
VERTEX
  5
9E5
  8
LAYER01
  6
CONTINUOUS
 62
     7
 10
1331.519524
 20
410.65852899999987
 30
0.0
  0
VERTEX
  5
9E6
  8
LAYER01
  6
CONTINUOUS
 62
     7
 10
1331.615395
 20
411.63337200000001
 30
0.0
  0
SEQEND
  5
9E7
  8
LAYER01
  6
CONTINUOUS
 62
     7
  0
POLYLINE
  5
500
  8
LAYER01
  6
CONTINUOUS
 62
     7
 66
     1
 10
0.0
 20
0.0
 30
0.0
  0
VERTEX
  5
9E8
  8
LAYER01
  6
CONTINUOUS
 62
     7
 10
1331.615395
 20
751.64707699999985
 30
0.0
  0
VERTEX
  5
9E9
  8
LAYER01
  6
CONTINUOUS
 62
     7
 10
1331.519524
 20
752.62191900000005
 30
0.0
  0
VERTEX
  5
9EA
  8
LAYER01
  6
CONTINUOUS
 62
     7
 10
1331.235582
 20
753.55890399999987
 30
0.0
  0
VERTEX
  5
9EB
  8
LAYER01
  6
CONTINUOUS
 62
     7
 10
1330.7744419999999
 20
754.42214899999988
 30
0.0
  0
VERTEX
  5
9EC
  8
LAYER01
  6
CONTINUOUS
 62
     7
 10
1330.153765
 20
755.17859400000009
 30
0.0
  0
VERTEX
  5
9ED
  8
LAYER01
  6
CONTINUOUS
 62
     7
 10
1329.39732
 20
755.79927099999986
 30
0.0
  0
VERTEX
  5
9EE
  8
LAYER01
  6
CONTINUOUS
 62
     7
 10
1328.534075
 20
756.26041100000009
 30
0.0
  0
VERTEX
  5
9EF
  8
LAYER01
  6
CONTINUOUS
 62
     7
 10
1327.59709
 20
756.544353
 30
0.0
  0
VERTEX
  5
9F0
  8
LAYER01
  6
CONTINUOUS
 62
     7
 10
1326.6222479999999
 20
756.64022399999999
 30
0.0
  0
SEQEND
  5
9F1
  8
LAYER01
  6
CONTINUOUS
 62
     7
  0
ARC
  5
50B
  8
LAYER01
  6
CONTINUOUS
 62
     7
 10
1326.615395
 20
751.64022399999988
 30
0.0
 40
30.0
 50
0.0
 51
90.0
  0
DIMENSION
  5
50C
  8
LAYER01
 62
     7
  2
*D9
 10
1856.5310549999999
 20
381.24561
 30
0.0
 11
2084.243418
 21
451.24560999999989
 31
0.0
 13
1902.4733650000001
 23
527.88013100000001
 33
0.0
 14
1856.5310549999999
 24
527.88013100000001
 34
0.0
  0
INSERT
  5
50D
  8
LAYER01
  2
VP355012-G11
 10
0.0
 20
0.0
 30
0.0
  0
INSERT
  5
50E
  8
LAYER01
  2
VP355012-G12
 10
0.0
 20
0.0
 30
0.0
  0
TEXT
  5
50F
  8
LAYER01
  6
STRICHPUNKTIERT
 62
     7
 10
2312.892758249533
 20
-514.0408183148752
 30
0.0
 40
43.651061999999989
  1
http://www.mineralwerkstoff.de
  0
TEXT
  5
510
  8
LAYER01
  6
VERDECKT
 62
     1
 10
2993.0782810000001
 20
-758.874233
 30
0.0
 40
25.0
  1
A. Sprenger GmbH
  7
SIMPLEX
  0
TEXT
  5
511
  8
LAYER01
  6
CONTINUOUS
 62
     7
 10
2984.9681249999999
 20
-604.05256399999985
 30
0.0
 40
7.5
  1
Diese Zeichnung ist geistiges Eigentum der A. Sprenger GmbH
  7
SIMPLEX
  0
TEXT
  5
512
  8
LAYER01
  6
CONTINUOUS
 62
     7
 10
2984.9681249999999
 20
-616.90970700000003
 30
0.0
 40
7.5
  1
und urheberrechtlich geschützt. Ohne unsere Zustimmung darf 
  7
SIMPLEX
  0
TEXT
  5
513
  8
LAYER01
  6
CONTINUOUS
 62
     7
 10
2984.9681249999999
 20
-629.76684999999998
 30
0.0
 40
7.5
  1
sie in keiner Form verwendet oder Dritten zugänglich gemacht
  7
SIMPLEX
  0
TEXT
  5
514
  8
LAYER01
  6
CONTINUOUS
 62
     7
 10
2984.9681249999999
 20
-642.62399299999993
 30
0.0
 40
7.5
  1
werden. (§106 Urheberrecht)
  7
SIMPLEX
  0
TEXT
  5
515
  8
LAYER01
  6
VERDECKT
 62
     1
 10
2993.0782810000001
 20
-857.05711699999995
 30
0.0
 40
35.0
  1
VP-35-50-12
  7
SIMPLEX
  0
TEXT
  5
516
  8
LAYER01
  6
VERDECKT
 62
     1
 10
2857.5693740000002
 20
-816.795568
 30
0.0
 40
10.0
  1
b.s.
  7
SIMPLEX
  0
TEXT
  5
517
  8
LAYER01
  6
VERDECKT
 62
     1
 10
2761.4122179999999
 20
-816.75903099999994
 30
0.0
 40
10.0
  1
15.4.2021
  7
SIMPLEX
  0
TEXT
  5
518
  8
LAYER01
  6
VERDECKT
 62
     1
 10
3316.750603
 20
-694.39592100000004
 30
0.0
 40
10.0
  1
xxx.skd
  7
SIMPLEX
  0
TEXT
  5
519
  8
LAYER01
  6
VERDECKT
 62
     1
 10
3059.0220089999998
 20
-694.39592100000004
 30
0.0
 40
10.0
  1
1 : 10 (DIN A3)
  7
SIMPLEX
  0
INSERT
  5
51A
  8
LAYER01
  2
VP355012-G14
 10
0.0
 20
0.0
 30
0.0
  0
LINE
  5
51B
  8
LAYER01
  6
CONTINUOUS
 62
     7
 10
2049.6056840000001
 20
680.00810899999988
 30
0.0
 11
1709.5919719999999
 21
680.00810899999988
 31
0.0
  0
POLYLINE
  5
51C
  8
LAYER01
  6
CONTINUOUS
 62
     7
 66
     1
 10
0.0
 20
0.0
 30
0.0
  0
VERTEX
  5
9F2
  8
LAYER01
  6
CONTINUOUS
 62
     7
 10
2045.0265240000001
 20
574.42327499999999
 30
0.0
  0
VERTEX
  5
9F3
  8
LAYER01
  6
CONTINUOUS
 62
     7
 10
2040.975925
 20
573.84537199999988
 30
0.0
  0
VERTEX
  5
9F4
  8
LAYER01
  6
CONTINUOUS
 62
     7
 10
2036.8987059999999
 20
573.26747
 30
0.0
  0
VERTEX
  5
9F5
  8
LAYER01
  6
CONTINUOUS
 62
     7
 10
2032.7974039999999
 20
572.68956700000001
 30
0.0
  0
VERTEX
  5
9F6
  8
LAYER01
  6
CONTINUOUS
 62
     7
 10
2028.6745539999999
 20
572.11166399999991
 30
0.0
  0
VERTEX
  5
9F7
  8
LAYER01
  6
CONTINUOUS
 62
     7
 10
2024.532694
 20
571.53376100000003
 30
0.0
  0
VERTEX
  5
9F8
  8
LAYER01
  6
CONTINUOUS
 62
     7
 10
2020.3743609999999
 20
570.95585900000003
 30
0.0
  0
VERTEX
  5
9F9
  8
LAYER01
  6
CONTINUOUS
 62
     7
 10
2016.2020910000001
 20
570.37795599999993
 30
0.0
  0
VERTEX
  5
9FA
  8
LAYER01
  6
CONTINUOUS
 62
     7
 10
2012.018421
 20
569.80005300000005
 30
0.0
  0
VERTEX
  5
9FB
  8
LAYER01
  6
CONTINUOUS
 62
     7
 10
2007.8258880000001
 20
569.22215000000006
 30
0.0
  0
VERTEX
  5
9FC
  8
LAYER01
  6
CONTINUOUS
 62
     7
 10
2003.6270280000001
 20
568.64424800000006
 30
0.0
  0
VERTEX
  5
9FD
  8
LAYER01
  6
CONTINUOUS
 62
     7
 10
1999.4243779999999
 20
568.06634499999996
 30
0.0
  0
VERTEX
  5
9FE
  8
LAYER01
  6
CONTINUOUS
 62
     7
 10
1995.2204750000001
 20
567.48844199999985
 30
0.0
  0
VERTEX
  5
9FF
  8
LAYER01
  6
CONTINUOUS
 62
     7
 10
1991.0178559999999
 20
566.91054000000008
 30
0.0
  0
VERTEX
  5
A00
  8
LAYER01
  6
CONTINUOUS
 62
     7
 10
1986.819056
 20
566.33263699999998
 30
0.0
  0
VERTEX
  5
A01
  8
LAYER01
  6
CONTINUOUS
 62
     7
 10
1982.626614
 20
565.75473399999987
 30
0.0
  0
VERTEX
  5
A02
  8
LAYER01
  6
CONTINUOUS
 62
     7
 10
1978.443066
 20
565.17683099999999
 30
0.0
  0
VERTEX
  5
A03
  8
LAYER01
  6
CONTINUOUS
 62
     7
 10
1974.2709480000001
 20
564.598929
 30
0.0
  0
VERTEX
  5
A04
  8
LAYER01
  6
CONTINUOUS
 62
     7
 10
1970.112797
 20
564.02102599999989
 30
0.0
  0
VERTEX
  5
A05
  8
LAYER01
  6
CONTINUOUS
 62
     7
 10
1965.971151
 20
563.44312300000001
 30
0.0
  0
VERTEX
  5
A06
  8
LAYER01
  6
CONTINUOUS
 62
     7
 10
1961.8485439999999
 20
562.86522000000002
 30
0.0
  0
VERTEX
  5
A07
  8
LAYER01
  6
CONTINUOUS
 62
     7
 10
1957.7475159999999
 20
562.28731799999991
 30
0.0
  0
VERTEX
  5
A08
  8
LAYER01
  6
CONTINUOUS
 62
     7
 10
1953.670601
 20
561.70941500000004
 30
0.0
  0
VERTEX
  5
A09
  8
LAYER01
  6
CONTINUOUS
 62
     7
 10
1949.6203370000001
 20
561.13151200000004
 30
0.0
  0
VERTEX
  5
A0A
  8
LAYER01
  6
CONTINUOUS
 62
     7
 10
1945.59926
 20
560.55360899999994
 30
0.0
  0
SEQEND
  5
A0B
  8
LAYER01
  6
CONTINUOUS
 62
     7
  0
POLYLINE
  5
537
  8
LAYER01
  6
CONTINUOUS
 62
     7
 66
     1
 10
0.0
 20
0.0
 30
0.0
  0
VERTEX
  5
A0C
  8
LAYER01
  6
CONTINUOUS
 62
     7
 10
2046.7272370000001
 20
562.54440399999987
 30
0.0
  0
VERTEX
  5
A0D
  8
LAYER01
  6
CONTINUOUS
 62
     7
 10
2042.5729309999999
 20
561.95165799999995
 30
0.0
  0
VERTEX
  5
A0E
  8
LAYER01
  6
CONTINUOUS
 62
     7
 10
2038.4181020000001
 20
561.36265700000001
 30
0.0
  0
VERTEX
  5
A0F
  8
LAYER01
  6
CONTINUOUS
 62
     7
 10
2034.2628010000001
 20
560.77704299999994
 30
0.0
  0
VERTEX
  5
A10
  8
LAYER01
  6
CONTINUOUS
 62
     7
 10
2030.1070769999999
 20
560.19445999999994
 30
0.0
  0
VERTEX
  5
A11
  8
LAYER01
  6
CONTINUOUS
 62
     7
 10
2025.950981
 20
559.61454900000001
 30
0.0
  0
VERTEX
  5
A12
  8
LAYER01
  6
CONTINUOUS
 62
     7
 10
2021.7945609999999
 20
559.03695300000004
 30
0.0
  0
VERTEX
  5
A13
  8
LAYER01
  6
CONTINUOUS
 62
     7
 10
2017.6378689999999
 20
558.46131500000001
 30
0.0
  0
VERTEX
  5
A14
  8
LAYER01
  6
CONTINUOUS
 62
     7
 10
2013.4809540000001
 20
557.88727800000004
 30
0.0
  0
VERTEX
  5
A15
  8
LAYER01
  6
CONTINUOUS
 62
     7
 10
2009.323866
 20
557.314483
 30
0.0
  0
VERTEX
  5
A16
  8
LAYER01
  6
CONTINUOUS
 62
     7
 10
2005.166655
 20
556.74257399999999
 30
0.0
  0
VERTEX
  5
A17
  8
LAYER01
  6
CONTINUOUS
 62
     7
 10
2001.00937
 20
556.17119300000002
 30
0.0
  0
VERTEX
  5
A18
  8
LAYER01
  6
CONTINUOUS
 62
     7
 10
1996.8520619999999
 20
555.59998299999995
 30
0.0
  0
VERTEX
  5
A19
  8
LAYER01
  6
CONTINUOUS
 62
     7
 10
1992.6947809999999
 20
555.02858600000002
 30
0.0
  0
VERTEX
  5
A1A
  8
LAYER01
  6
CONTINUOUS
 62
     7
 10
1988.5375759999999
 20
554.45664499999987
 30
0.0
  0
VERTEX
  5
A1B
  8
LAYER01
  6
CONTINUOUS
 62
     7
 10
1984.3804970000001
 20
553.88380199999995
 30
0.0
  0
VERTEX
  5
A1C
  8
LAYER01
  6
CONTINUOUS
 62
     7
 10
1980.2235949999999
 20
553.30970000000002
 30
0.0
  0
VERTEX
  5
A1D
  8
LAYER01
  6
CONTINUOUS
 62
     7
 10
1976.066918
 20
552.73398199999997
 30
0.0
  0
VERTEX
  5
A1E
  8
LAYER01
  6
CONTINUOUS
 62
     7
 10
1971.9105179999999
 20
552.15629000000001
 30
0.0
  0
VERTEX
  5
A1F
  8
LAYER01
  6
CONTINUOUS
 62
     7
 10
1967.7544439999999
 20
551.57626699999992
 30
0.0
  0
VERTEX
  5
A20
  8
LAYER01
  6
CONTINUOUS
 62
     7
 10
1963.598745
 20
550.99355500000001
 30
0.0
  0
VERTEX
  5
A21
  8
LAYER01
  6
CONTINUOUS
 62
     7
 10
1959.4434719999999
 20
550.40779599999996
 30
0.0
  0
VERTEX
  5
A22
  8
LAYER01
  6
CONTINUOUS
 62
     7
 10
1955.288675
 20
549.81863399999997
 30
0.0
  0
VERTEX
  5
A23
  8
LAYER01
  6
CONTINUOUS
 62
     7
 10
1951.134403
 20
549.22571100000005
 30
0.0
  0
VERTEX
  5
A24
  8
LAYER01
  6
CONTINUOUS
 62
     7
 10
1946.980706999999
 20
548.62867000000006
 30
0.0
  0
SEQEND
  5
A25
  8
LAYER01
  6
CONTINUOUS
 62
     7
  0
DIMENSION
  5
552
  8
LAYER01
 62
     7
  2
*D14
 10
1704.598831
 20
806.19218499999999
 30
0.0
 11
1879.5988279999999
 21
876.19218499999999
 31
0.0
 13
2054.598825
 23
680.00810899999988
 33
0.0
 14
1704.598831
 24
680.00810899999988
 34
0.0
  0
DIMENSION
  5
553
  8
LAYER01
 62
     7
  2
*D15
 10
2079.5988309999998
 20
961.00285600000007
 30
0.0
 11
1879.5988279999999
 21
1031.0028560000001
 31
0.0
 13
1679.598825
 23
680.00810899999988
 33
0.0
 14
2079.5988309999998
 24
680.00810899999988
 34
0.0
  0
INSERT
  5
554
  8
LAYER01
  2
VP355012-G17
 10
0.0
 20
0.0
 30
0.0
  0
POLYLINE
  5
555
  8
LAYER01
  6
CONTINUOUS
 62
     7
 66
     1
 10
0.0
 20
0.0
 30
0.0
  0
VERTEX
  5
A26
  8
LAYER01
  6
CONTINUOUS
 62
     7
 10
1812.2169490000001
 20
548.62867000000006
 30
0.0
  0
VERTEX
  5
A27
  8
LAYER01
  6
CONTINUOUS
 62
     7
 10
1808.063253
 20
549.22571100000005
 30
0.0
  0
VERTEX
  5
A28
  8
LAYER01
  6
CONTINUOUS
 62
     7
 10
1803.908981
 20
549.81863399999997
 30
0.0
  0
VERTEX
  5
A29
  8
LAYER01
  6
CONTINUOUS
 62
     7
 10
1799.7541839999999
 20
550.40779599999996
 30
0.0
  0
VERTEX
  5
A2A
  8
LAYER01
  6
CONTINUOUS
 62
     7
 10
1795.598911
 20
550.99355500000001
 30
0.0
  0
VERTEX
  5
A2B
  8
LAYER01
  6
CONTINUOUS
 62
     7
 10
1791.443213
 20
551.57626699999992
 30
0.0
  0
VERTEX
  5
A2C
  8
LAYER01
  6
CONTINUOUS
 62
     7
 10
1787.2871379999999
 20
552.15629000000001
 30
0.0
  0
VERTEX
  5
A2D
  8
LAYER01
  6
CONTINUOUS
 62
     7
 10
1783.1307380000001
 20
552.73398199999997
 30
0.0
  0
VERTEX
  5
A2E
  8
LAYER01
  6
CONTINUOUS
 62
     7
 10
1778.974062
 20
553.30970000000002
 30
0.0
  0
VERTEX
  5
A2F
  8
LAYER01
  6
CONTINUOUS
 62
     7
 10
1774.8171589999999
 20
553.88380199999995
 30
0.0
  0
VERTEX
  5
A30
  8
LAYER01
  6
CONTINUOUS
 62
     7
 10
1770.660081
 20
554.45664499999987
 30
0.0
  0
VERTEX
  5
A31
  8
LAYER01
  6
CONTINUOUS
 62
     7
 10
1766.502876
 20
555.02858600000002
 30
0.0
  0
VERTEX
  5
A32
  8
LAYER01
  6
CONTINUOUS
 62
     7
 10
1762.3455939999999
 20
555.59998299999995
 30
0.0
  0
VERTEX
  5
A33
  8
LAYER01
  6
CONTINUOUS
 62
     7
 10
1758.1882860000001
 20
556.17119300000002
 30
0.0
  0
VERTEX
  5
A34
  8
LAYER01
  6
CONTINUOUS
 62
     7
 10
1754.0310019999999
 20
556.74257399999999
 30
0.0
  0
VERTEX
  5
A35
  8
LAYER01
  6
CONTINUOUS
 62
     7
 10
1749.8737900000001
 20
557.314483
 30
0.0
  0
VERTEX
  5
A36
  8
LAYER01
  6
CONTINUOUS
 62
     7
 10
1745.7167019999999
 20
557.88727800000004
 30
0.0
  0
VERTEX
  5
A37
  8
LAYER01
  6
CONTINUOUS
 62
     7
 10
1741.5597869999999
 20
558.46131500000001
 30
0.0
  0
VERTEX
  5
A38
  8
LAYER01
  6
CONTINUOUS
 62
     7
 10
1737.4030949999999
 20
559.03695300000004
 30
0.0
  0
VERTEX
  5
A39
  8
LAYER01
  6
CONTINUOUS
 62
     7
 10
1733.246676
 20
559.61454900000001
 30
0.0
  0
VERTEX
  5
A3A
  8
LAYER01
  6
CONTINUOUS
 62
     7
 10
1729.0905789999999
 20
560.19445999999994
 30
0.0
  0
VERTEX
  5
A3B
  8
LAYER01
  6
CONTINUOUS
 62
     7
 10
1724.934855
 20
560.77704299999994
 30
0.0
  0
VERTEX
  5
A3C
  8
LAYER01
  6
CONTINUOUS
 62
     7
 10
1720.779554
 20
561.36265700000001
 30
0.0
  0
VERTEX
  5
A3D
  8
LAYER01
  6
CONTINUOUS
 62
     7
 10
1716.6247249999999
 20
561.95165799999995
 30
0.0
  0
VERTEX
  5
A3E
  8
LAYER01
  6
CONTINUOUS
 62
     7
 10
1712.470419
 20
562.54440399999987
 30
0.0
  0
SEQEND
  5
A3F
  8
LAYER01
  6
CONTINUOUS
 62
     7
  0
POLYLINE
  5
570
  8
LAYER01
  6
CONTINUOUS
 62
     7
 66
     1
 10
0.0
 20
0.0
 30
0.0
  0
VERTEX
  5
A40
  8
LAYER01
  6
CONTINUOUS
 62
     7
 10
1813.5983960000001
 20
560.55360899999994
 30
0.0
  0
VERTEX
  5
A41
  8
LAYER01
  6
CONTINUOUS
 62
     7
 10
1809.577319
 20
561.13151200000004
 30
0.0
  0
VERTEX
  5
A42
  8
LAYER01
  6
CONTINUOUS
 62
     7
 10
1805.5270559999999
 20
561.70941500000004
 30
0.0
  0
VERTEX
  5
A43
  8
LAYER01
  6
CONTINUOUS
 62
     7
 10
1801.450141
 20
562.28731799999991
 30
0.0
  0
VERTEX
  5
A44
  8
LAYER01
  6
CONTINUOUS
 62
     7
 10
1797.3491120000001
 20
562.86522000000002
 30
0.0
  0
VERTEX
  5
A45
  8
LAYER01
  6
CONTINUOUS
 62
     7
 10
1793.226506
 20
563.44312300000001
 30
0.0
  0
VERTEX
  5
A46
  8
LAYER01
  6
CONTINUOUS
 62
     7
 10
1789.0848590000001
 20
564.02102599999989
 30
0.0
  0
VERTEX
  5
A47
  8
LAYER01
  6
CONTINUOUS
 62
     7
 10
1784.9267079999991
 20
564.598929
 30
0.0
  0
VERTEX
  5
A48
  8
LAYER01
  6
CONTINUOUS
 62
     7
 10
1780.75459
 20
565.17683099999999
 30
0.0
  0
VERTEX
  5
A49
  8
LAYER01
  6
CONTINUOUS
 62
     7
 10
1776.571042
 20
565.75473399999987
 30
0.0
  0
VERTEX
  5
A4A
  8
LAYER01
  6
CONTINUOUS
 62
     7
 10
1772.3786
 20
566.33263699999998
 30
0.0
  0
VERTEX
  5
A4B
  8
LAYER01
  6
CONTINUOUS
 62
     7
 10
1768.179801
 20
566.91054000000008
 30
0.0
  0
VERTEX
  5
A4C
  8
LAYER01
  6
CONTINUOUS
 62
     7
 10
1763.977181
 20
567.48844199999985
 30
0.0
  0
VERTEX
  5
A4D
  8
LAYER01
  6
CONTINUOUS
 62
     7
 10
1759.7732779999999
 20
568.06634499999996
 30
0.0
  0
VERTEX
  5
A4E
  8
LAYER01
  6
CONTINUOUS
 62
     7
 10
1755.5706290000001
 20
568.64424800000006
 30
0.0
  0
VERTEX
  5
A4F
  8
LAYER01
  6
CONTINUOUS
 62
     7
 10
1751.3717690000001
 20
569.22215000000006
 30
0.0
  0
VERTEX
  5
A50
  8
LAYER01
  6
CONTINUOUS
 62
     7
 10
1747.1792350000001
 20
569.80005300000005
 30
0.0
  0
VERTEX
  5
A51
  8
LAYER01
  6
CONTINUOUS
 62
     7
 10
1742.9955649999999
 20
570.37795599999993
 30
0.0
  0
VERTEX
  5
A52
  8
LAYER01
  6
CONTINUOUS
 62
     7
 10
1738.8232949999999
 20
570.95585900000003
 30
0.0
  0
VERTEX
  5
A53
  8
LAYER01
  6
CONTINUOUS
 62
     7
 10
1734.6649620000001
 20
571.53376100000003
 30
0.0
  0
VERTEX
  5
A54
  8
LAYER01
  6
CONTINUOUS
 62
     7
 10
1730.5231020000001
 20
572.11166399999991
 30
0.0
  0
VERTEX
  5
A55
  8
LAYER01
  6
CONTINUOUS
 62
     7
 10
1726.400253
 20
572.68956700000001
 30
0.0
  0
VERTEX
  5
A56
  8
LAYER01
  6
CONTINUOUS
 62
     7
 10
1722.2989500000001
 20
573.26747
 30
0.0
  0
VERTEX
  5
A57
  8
LAYER01
  6
CONTINUOUS
 62
     7
 10
1718.2217310000001
 20
573.84537199999988
 30
0.0
  0
VERTEX
  5
A58
  8
LAYER01
  6
CONTINUOUS
 62
     7
 10
1714.1711319999999
 20
574.42327499999999
 30
0.0
  0
SEQEND
  5
A59
  8
LAYER01
  6
CONTINUOUS
 62
     7
  0
LINE
  5
58B
  8
LAYER01
  6
CONTINUOUS
 62
     7
 10
1856.5988279999999
 20
535.928945
 30
0.0
 11
1856.5988279999999
 21
544.6891149999999
 31
0.0
  0
LINE
  5
58C
  8
LAYER01
  6
CONTINUOUS
 62
     7
 10
1856.5988279999999
 20
535.928945
 30
0.0
 11
1839.598829
 21
535.928945
 31
0.0
  0
LINE
  5
58D
  8
LAYER01
  6
CONTINUOUS
 62
     7
 10
1839.598829
 20
535.928945
 30
0.0
 11
1839.598829
 21
538.90241300000002
 31
0.0
  0
ARC
  5
58E
  8
LAYER01
  6
CONTINUOUS
 62
     7
 10
1831.5988279999999
 20
538.9024169999999
 30
0.0
 40
8.0
 50
0.0
 51
85.0
  0
LINE
  5
58F
  8
LAYER01
  6
CONTINUOUS
 62
     7
 10
1832.296075
 20
546.87197100000003
 30
0.0
 11
1812.2169469999999
 21
548.62866899999995
 31
0.0
  0
LINE
  5
590
  8
LAYER01
  6
CONTINUOUS
 62
     7
 10
1842.028333
 20
558.06634899999995
 30
0.0
 11
1813.598829
 21
560.55360599999995
 31
0.0
  0
ARC
  5
591
  8
LAYER01
  6
CONTINUOUS
 62
     7
 10
1841.5925549999999
 20
553.08537699999999
 30
0.0
 40
5.0
 50
50.0
 51
85.0
  0
LINE
  5
592
  8
LAYER01
  6
CONTINUOUS
 62
     7
 10
1854.812766
 20
548.51933899999995
 30
0.0
 11
1844.8064939999999
 21
556.91559900000004
 31
0.0
  0
ARC
  5
593
  8
LAYER01
  6
CONTINUOUS
 62
     7
 10
1851.5988279999999
 20
544.6891159999999
 30
0.0
 40
5.0
 50
0.0
 51
50.0
  0
LINE
  5
594
  8
LAYER01
  6
CONTINUOUS
 62
     7
 10
1856.5988279999999
 20
535.928945
 30
0.0
 11
1868.1257880000001
 21
535.928945
 31
0.0
  0
LINE
  5
595
  8
LAYER01
  6
CONTINUOUS
 62
     7
 10
1854.812766
 20
548.51933899999995
 30
0.0
 11
1867.2348500000001
 21
548.51933899999995
 31
0.0
  0
LINE
  5
596
  8
LAYER01
  6
CONTINUOUS
 62
     7
 10
1862.243442
 20
556.91559900000004
 30
0.0
 11
1844.8064939999999
 21
556.91559900000004
 31
0.0
  0
LINE
  5
597
  8
LAYER01
  6
CONTINUOUS
 62
     7
 10
1945.5988279999999
 20
560.55360599999995
 30
0.0
 11
1917.1693230000001
 21
558.06634899999995
 31
0.0
  0
LINE
  5
598
  8
LAYER01
  6
CONTINUOUS
 62
     7
 10
1946.9807089999999
 20
548.62866899999995
 30
0.0
 11
1926.9015810000001
 21
546.87197100000003
 31
0.0
  0
LINE
  5
599
  8
LAYER01
  6
CONTINUOUS
 62
     7
 10
1685.619535
 20
668.00810899999988
 30
0.0
 11
1679.598825
 21
668.00810899999988
 31
0.0
  0
LINE
  5
59A
  8
LAYER01
  6
CONTINUOUS
 62
     7
 10
1679.598825
 20
668.00810899999988
 30
0.0
 11
1679.598825
 21
680.00810899999988
 31
0.0
  0
LINE
  5
59B
  8
LAYER01
  6
CONTINUOUS
 62
     7
 10
1704.598831
 20
680.00810899999988
 30
0.0
 11
1679.598825
 21
680.00810899999988
 31
0.0
  0
LINE
  5
59C
  8
LAYER01
  6
CONTINUOUS
 62
     7
 10
1704.598831
 20
680.00810899999988
 30
0.0
 11
1709.5919719999999
 21
680.00810899999988
 31
0.0
  0
ARC
  5
59D
  8
LAYER01
  6
CONTINUOUS
 62
     7
 10
1685.619537
 20
660.00810899999988
 30
0.0
 40
8.0
 50
3.0
 51
90.0
  0
ARC
  5
59E
  8
LAYER01
  6
CONTINUOUS
 62
     7
 10
1714.8797629999999
 20
579.37280499999986
 30
0.0
 40
5.0
 50
183.0
 51
261.852259
  0
ARC
  5
59F
  8
LAYER01
  6
CONTINUOUS
 62
     7
 10
1714.8797629999999
 20
579.37280499999986
 30
0.0
 40
17.0
 50
183.0
 51
261.852259
  0
LINE
  5
5A0
  8
LAYER01
  6
CONTINUOUS
 62
     7
 10
1709.8866129999999
 20
579.11112500000002
 30
0.0
 11
1704.598831
 21
680.00810899999988
 31
0.0
  0
LINE
  5
5A1
  8
LAYER01
  6
CONTINUOUS
 62
     7
 10
1697.9030540000001
 20
578.48309299999994
 30
0.0
 11
1693.608569
 21
660.42679699999985
 31
0.0
  0
LINE
  5
5A2
  8
LAYER01
  6
CONTINUOUS
 62
     7
 10
1867.2348500000001
 20
548.51933899999995
 30
0.0
 11
1891.962806
 21
548.51933899999995
 31
0.0
  0
LINE
  5
5A3
  8
LAYER01
  6
CONTINUOUS
 62
     7
 10
1896.9542140000001
 20
556.91559900000004
 30
0.0
 11
1862.243442
 21
556.91559900000004
 31
0.0
  0
LINE
  5
5A4
  8
LAYER01
  6
CONTINUOUS
 62
     7
 10
1902.5988279999999
 20
544.6891149999999
 30
0.0
 11
1902.5988279999999
 21
535.928945
 31
0.0
  0
ARC
  5
5A5
  8
LAYER01
  6
CONTINUOUS
 62
     7
 10
1907.5988279999999
 20
544.6891159999999
 30
0.0
 40
5.0
 50
130.0
 51
180.0
  0
LINE
  5
5A6
  8
LAYER01
  6
CONTINUOUS
 62
     7
 10
1891.962806
 20
548.51933899999995
 30
0.0
 11
1904.3848909999999
 21
548.51933899999995
 31
0.0
  0
ARC
  5
5A7
  8
LAYER01
  6
CONTINUOUS
 62
     7
 10
1927.5988279999999
 20
538.9024169999999
 30
0.0
 40
8.0
 50
95.0
 51
180.0
  0
LINE
  5
5A8
  8
LAYER01
  6
CONTINUOUS
 62
     7
 10
1868.1257880000001
 20
535.928945
 30
0.0
 11
1891.071868
 21
535.928945
 31
0.0
  0
LINE
  5
5A9
  8
LAYER01
  6
CONTINUOUS
 62
     7
 10
1919.598827
 20
535.928945
 30
0.0
 11
1902.5988279999999
 21
535.928945
 31
0.0
  0
LINE
  5
5AA
  8
LAYER01
  6
CONTINUOUS
 62
     7
 10
1891.071868
 20
535.928945
 30
0.0
 11
1902.5988279999999
 21
535.928945
 31
0.0
  0
LINE
  5
5AB
  8
LAYER01
  6
CONTINUOUS
 62
     7
 10
1919.598827
 20
538.90241300000002
 30
0.0
 11
1919.598827
 21
535.928945
 31
0.0
  0
LINE
  5
5AC
  8
LAYER01
  6
CONTINUOUS
 62
     7
 10
1914.3911619999999
 20
556.91559900000004
 30
0.0
 11
1904.3848909999999
 21
548.51933899999995
 31
0.0
  0
LINE
  5
5AD
  8
LAYER01
  6
CONTINUOUS
 62
     7
 10
1914.3911619999999
 20
556.91559900000004
 30
0.0
 11
1896.9542140000001
 21
556.91559900000004
 31
0.0
  0
ARC
  5
5AE
  8
LAYER01
  6
CONTINUOUS
 62
     7
 10
1917.605102
 20
553.08537699999999
 30
0.0
 40
5.0
 50
95.0
 51
130.0
  0
ARC
  5
5AF
  8
LAYER01
  6
CONTINUOUS
 62
     7
 10
2044.317894
 20
579.37280499999986
 30
0.0
 40
5.0
 50
278.147741
 51
357.0
  0
ARC
  5
5B0
  8
LAYER01
  6
CONTINUOUS
 62
     7
 10
2044.317894
 20
579.37280499999986
 30
0.0
 40
17.0
 50
278.147741
 51
357.0
  0
DIMENSION
  5
5B1
  8
LAYER01
 62
     7
  2
*D17
 10
2186.930781
 20
556.91559900000004
 30
0.0
 11
2116.930781
 21
618.46185400000002
 31
0.0
 53
90.0
 13
2086.5364300000001
 23
680.00810899999988
 33
0.0
 14
2086.5364300000001
 24
556.91559900000004
 34
0.0
 50
90.0
  0
DIMENSION
  5
5B2
  8
LAYER01
 62
     7
  2
*D18
 10
2312.1352299999999
 20
535.928945
 30
0.0
 11
2242.1352299999999
 21
607.96852699999988
 31
0.0
 53
90.0
 13
2086.5364300000001
 23
680.00810899999988
 33
0.0
 14
2086.5364300000001
 24
535.928945
 34
0.0
 50
90.0
  0
LINE
  5
5B3
  8
LAYER01
  6
CONTINUOUS
 62
     7
 10
2079.5988309999998
 20
680.00810899999988
 30
0.0
 11
2054.598825
 21
680.00810899999988
 31
0.0
  0
LINE
  5
5B4
  8
LAYER01
  6
CONTINUOUS
 62
     7
 10
2079.5988309999998
 20
680.00810899999988
 30
0.0
 11
2079.5988309999998
 21
668.00810899999988
 31
0.0
  0
LINE
  5
5B5
  8
LAYER01
  6
CONTINUOUS
 62
     7
 10
2079.5988309999998
 20
668.00810899999988
 30
0.0
 11
2073.578121
 21
668.00810899999988
 31
0.0
  0
ARC
  5
5B6
  8
LAYER01
  6
CONTINUOUS
 62
     7
 10
2073.5781200000001
 20
660.00810899999988
 30
0.0
 40
8.0
 50
90.0
 51
177.0
  0
LINE
  5
5B7
  8
LAYER01
  6
CONTINUOUS
 62
     7
 10
2049.6056840000001
 20
680.00810899999988
 30
0.0
 11
2054.598825
 21
680.00810899999988
 31
0.0
  0
LINE
  5
5B8
  8
LAYER01
  6
CONTINUOUS
 62
     7
 10
2061.2946019999999
 20
578.48309299999994
 30
0.0
 11
2065.5890870000012
 21
660.42679699999985
 31
0.0
  0
LINE
  5
5B9
  8
LAYER01
  6
CONTINUOUS
 62
     7
 10
2049.311044
 20
579.11112500000002
 30
0.0
 11
2054.598825
 21
680.00810899999988
 31
0.0
  0
ENDSEC
  0
EOF