  0
SECTION
  2
HEADER
  9
$ACADVER
  1
AC1004
  9
$INSBASE
 10
0.0
 20
0.0
  9
$EXTMIN
 10
-624.757249
 20
-1103.344964
  9
$EXTMAX
 10
3510.674785
 20
1900.971716
  9
$LIMMIN
 10
-624.757249
 20
-1103.344964
  9
$LIMMAX
 10
3510.674785
 20
1820.99626
  9
$VIEWCTR
 10
6.0
 20
4.5
  9
$VIEWSIZE
 40
9.0
  9
$SNAPMODE
 70
     0
  9
$SNAPUNIT
 10
10.0
 20
10.0
  9
$SNAPBASE
 10
0.0
 20
0.0
  9
$SNAPANG
 50
0.0
  9
$SNAPSTYLE
 70
     0
  9
$SNAPISOPAIR
 70
     0
  9
$GRIDMODE
 70
     0
  9
$GRIDUNIT
 10
10.0
 20
10.0
  9
$ORTHOMODE
 70
     1
  9
$REGENMODE
 70
     1
  9
$FILLMODE
 70
     1
  9
$QTEXTMODE
 70
     0
  9
$DRAGMODE
 70
     2
  9
$LTSCALE
 40
1.0
  9
$OSMODE
 70
    23
  9
$ATTMODE
 70
     1
  9
$TEXTSIZE
 40
0.2
  9
$TRACEWID
 40
0.05
  9
$TEXTSTYLE
  7
STANDARD
  9
$CLAYER
  8
LAYER01
  9
$CELTYPE
  6
CONTINUOUS
  9
$CECOLOR
 62
     7
  9
$DIMSCALE
 40
1.0
  9
$DIMASZ
 40
0.18
  9
$DIMEXO
 40
0.0625
  9
$DIMDLI
 40
0.38
  9
$DIMRND
 40
0.0
  9
$DIMDLE
 40
0.0
  9
$DIMEXE
 40
0.18
  9
$DIMTP
 40
0.0
  9
$DIMTM
 40
0.0
  9
$DIMTXT
 40
0.18
  9
$DIMCEN
 40
0.09
  9
$DIMTSZ
 40
0.0
  9
$DIMTOL
 70
     0
  9
$DIMLIM
 70
     0
  9
$DIMTIH
 70
     1
  9
$DIMTOH
 70
     1
  9
$DIMSE1
 70
     0
  9
$DIMSE2
 70
     0
  9
$DIMTAD
 70
     0
  9
$DIMZIN
 70
     0
  9
$DIMBLK
  1

  9
$DIMASO
 70
     1
  9
$DIMSHO
 70
     1
  9
$DIMPOST
  1

  9
$DIMAPOST
  1

  9
$DIMALT
 70
     0
  9
$DIMALTD
 70
     2
  9
$DIMALTF
 40
25.4
  9
$DIMLFAC
 40
1.0
  9
$LUNITS
 70
     2
  9
$LUPREC
 70
     4
  9
$AXISMODE
 70
     0
  9
$AXISUNIT
 10
0.0
 20
0.0
  9
$SKETCHINC
 40
0.1
  9
$FILLETRAD
 40
5.0
  9
$AUNITS
 70
     0
  9
$AUPREC
 70
     0
  9
$MENU
  1
acad
  9
$ELEVATION
 40
0.0
  9
$THICKNESS
 40
0.0
  9
$VIEWDIR
 10
0.0
 20
0.0
 30
1.0
  9
$LIMCHECK
 70
     0
  9
$BLIPMODE
 70
     1
  9
$CHAMFERA
 40
10.0
  9
$CHAMFERB
 40
10.0
  9
$FASTZOOM
 70
     1
  9
$SKPOLY
 70
     0
  9
$TDCREATE
 40
0.0
  9
$TDUPDATE
 40
0.0
  9
$TDINDWG
 40
0.0
  9
$TDUSRTIMER
 40
0.0
  9
$USRTIMER
 70
     1
  9
$ANGBASE
 50
0.0
  9
$ANGDIR
 70
     0
  9
$PDMODE
 70
     0
  9
$PDSIZE
 40
0.0
  9
$PLINEWID
 40
0.0
  9
$COORDS
 70
     1
  9
$SPLFRAME
 70
     0
  9
$SPLINESEGS
 70
    10
  9
$ATTDIA
 70
     0
  9
$ATTREQ
 70
     1
  9
$USERI1
 70
     0
  9
$USERI2
 70
     0
  9
$USERI3
 70
     0
  9
$USERI4
 70
     0
  9
$USERI5
 70
     0
  9
$USERR1
 40
0.0
  9
$USERR2
 40
0.0
  9
$USERR3
 40
0.0
  9
$USERR4
 40
0.0
  9
$USERR5
 40
0.0
  0
ENDSEC
  0
SECTION
  2
TABLES
  0
TABLE
  2
LTYPE
 70
    11
  0
LTYPE
  2
CONTINUOUS
 70
     0
  3
Solid line
 72
    65
 73
     0
 40
0.0
  0
LTYPE
  2
GESTRICHELT
 70
     0
  3
__ __ __ __ __ __ __ __ __ __ __ __ __ __ __
 72
    65
 73
     2
 40
0.75
 49
0.5
 49
-0.25
  0
LTYPE
  2
VERDECKT
 70
     0
  3
_ _ _ _ _ _ _ _ _ _ _ _ _ _ _ _ _ _ _ _ _ _ 
 72
    65
 73
     2
 40
0.25
 49
0.125
 49
-0.125
  0
LTYPE
  2
MITTELLINIE
 70
     0
  3
____ _ ____ _ ____ _ ____ _ ____ _ ____ _ __
 72
    65
 73
     4
 40
2.0
 49
1.25
 49
-0.25
 49
0.25
 49
-0.25
  0
LTYPE
  2
PHANTOM
 70
     0
  3
_____ _ _ _____ _ _ _____ _ _ _____ _ _ ____
 72
    65
 73
     6
 40
2.5
 49
1.25
 49
-0.25
 49
0.25
 49
-0.25
 49
0.25
 49
-0.25
  0
LTYPE
  2
PUNKTIERT
 70
     0
  3
............................................
 72
    65
 73
     2
 40
0.25
 49
0.0
 49
-0.25
  0
LTYPE
  2
STRICHPUNKTIERT
 70
     0
  3
__ . __ . __ . __ . __ . __ . __ . __ . __ .
 72
    65
 73
     4
 40
1.0
 49
0.5
 49
-0.25
 49
0.0
 49
-0.25
  0
LTYPE
  2
RAND
 70
     0
  3
__ __ . __ __ . __ __ . __ __ . __ __ . __ _
 72
    65
 73
     6
 40
1.75
 49
0.5
 49
-0.25
 49
0.5
 49
-0.25
 49
0.0
 49
-0.25
  0
LTYPE
  2
TRENNLINIE
 70
     0
  3
__ . . __ . . __ . . __ . . __ . . __ . . __
 72
    65
 73
     6
 40
1.25
 49
0.5
 49
-0.25
 49
0.0
 49
-0.25
 49
0.0
 49
-0.25
  0
LTYPE
  2
ENG_PUNKTIERT
 70
     0
  3
Schließen                                   
 72
    65
 73
     2
 40
0.1
 49
0.05
 49
-0.05
  0
LTYPE
  2
CLOSE
 70
     0
  3
                                            
 72
    65
 73
     0
 40
0.0
  0
ENDTAB
  0
TABLE
  2
LAYER
 70
   256
  0
LAYER
  2
0
 70
     0
 62
     7
  6
CONTINUOUS
  0
LAYER
  2
LAYER01
 70
     0
 62
     7
  6
CONTINUOUS
  0
LAYER
  2
LAYER02
 70
     0
 62
     7
  6
CONTINUOUS
  0
LAYER
  2
LAYER03
 70
     0
 62
     7
  6
CONTINUOUS
  0
LAYER
  2
LAYER04
 70
     0
 62
     7
  6
CONTINUOUS
  0
LAYER
  2
LAYER05
 70
     0
 62
     7
  6
CONTINUOUS
  0
LAYER
  2
LAYER06
 70
     0
 62
     7
  6
CONTINUOUS
  0
LAYER
  2
LAYER07
 70
     0
 62
     7
  6
CONTINUOUS
  0
LAYER
  2
LAYER08
 70
     0
 62
     7
  6
CONTINUOUS
  0
LAYER
  2
LAYER09
 70
     0
 62
     7
  6
CONTINUOUS
  0
LAYER
  2
LAYER10
 70
     0
 62
     7
  6
CONTINUOUS
  0
LAYER
  2
FORMAT
 70
     0
 62
     7
  6
CONTINUOUS
  0
LAYER
  2
2
 70
     0
 62
     7
  6
CONTINUOUS
  0
LAYER
  2
5
 70
     0
 62
     7
  6
CONTINUOUS
  0
LAYER
  2
RAUMAUFM
 70
     0
 62
     7
  6
CONTINUOUS
  0
LAYER
  2
EINRICHT
 70
     0
 62
     7
  6
CONTINUOUS
  0
LAYER
  2
HILFE
 70
     0
 62
     7
  6
CONTINUOUS
  0
LAYER
  2
SCHNITTE
 70
     0
 62
     7
  6
CONTINUOUS
  0
LAYER
  2
SCHRAFF1
 70
     0
 62
     7
  6
CONTINUOUS
  0
LAYER
  2
SCHRAFF2
 70
     0
 62
     7
  6
CONTINUOUS
  0
LAYER
  2
BEMASS-1
 70
     0
 62
     7
  6
CONTINUOUS
  0
LAYER
  2
BEMASS-2
 70
     0
 62
     7
  6
CONTINUOUS
  0
LAYER
  2
TEXT
 70
     0
 62
     7
  6
CONTINUOUS
  0
LAYER
  2
SYMBOLE
 70
     0
 62
     7
  6
CONTINUOUS
  0
LAYER
  2
RAHMEN
 70
     0
 62
     7
  6
CONTINUOUS
  0
LAYER
  2
SCHRIFTF
 70
     0
 62
     7
  6
CONTINUOUS
  0
LAYER
  2
ACHSEN
 70
     0
 62
     7
  6
CONTINUOUS
  0
LAYER
  2
ZEICHN
 70
     0
 62
     7
  6
CONTINUOUS
  0
LAYER
  2
7
 70
     0
 62
     7
  6
CONTINUOUS
  0
LAYER
  2
1
 70
     0
 62
     7
  6
CONTINUOUS
  0
LAYER
  2
6
 70
     0
 62
     7
  6
CONTINUOUS
  0
LAYER
  2
4
 70
     0
 62
     7
  6
CONTINUOUS
  0
LAYER
  2
GRUNDEBENE
 70
     0
 62
     7
  6
CONTINUOUS
  0
LAYER
  2
GRUNDRISS
 70
     0
 62
     7
  6
CONTINUOUS
  0
LAYER
  2
BEMASSUNGGRUNDRISS
 70
     0
 62
     7
  6
CONTINUOUS
  0
LAYER
  2
WANDELEMENTE
 70
     0
 62
     7
  6
CONTINUOUS
  0
LAYER
  2
KUECHE
 70
     0
 62
     7
  6
CONTINUOUS
  0
LAYER
  2
THEKEBROETCHEN
 70
     0
 62
     7
  6
CONTINUOUS
  0
LAYER
  2
CENTERLINIE
 70
     0
 62
     7
  6
CONTINUOUS
  0
LAYER
  2
UMRISSE
 70
     0
 62
     7
  6
CONTINUOUS
  0
LAYER
  2
MAUER
 70
     0
 62
     7
  6
CONTINUOUS
  0
LAYER
  2
SCHRAFFUR
 70
     0
 62
     7
  6
CONTINUOUS
  0
LAYER
  2
MASSLINIE
 70
     0
 62
     7
  6
CONTINUOUS
  0
LAYER
  2
PV
 70
     0
 62
     7
  6
CONTINUOUS
  0
LAYER
  2
BESCHRIFTUNG
 70
     0
 62
     7
  6
CONTINUOUS
  0
LAYER
  2
AS
 70
     0
 62
     7
  6
CONTINUOUS
  0
LAYER
  2
PL
 70
     0
 62
     7
  6
CONTINUOUS
  0
LAYER
  2
UK
 70
     0
 62
     7
  6
CONTINUOUS
  0
LAYER
  2
TEXT3
 70
     0
 62
     7
  6
CONTINUOUS
  0
LAYER
  2
TEXT7
 70
     0
 62
     7
  6
CONTINUOUS
  0
LAYER
  2
BEPL1
 70
     0
 62
     7
  6
CONTINUOUS
  0
LAYER
  2
BEPL2
 70
     0
 62
     7
  6
CONTINUOUS
  0
LAYER
  2
BEPL2V
 70
     0
 62
     7
  6
CONTINUOUS
  0
LAYER
  2
BEPL4
 70
     0
 62
     7
  6
CONTINUOUS
  0
LAYER
  2
BEPL
 70
     0
 62
     7
  6
CONTINUOUS
  0
LAYER
  2
UK1
 70
     0
 62
     7
  6
CONTINUOUS
  0
LAYER
  2
UK2
 70
     0
 62
     7
  6
CONTINUOUS
  0
LAYER
  2
UK2V
 70
     0
 62
     7
  6
CONTINUOUS
  0
LAYER
  2
UK3
 70
     0
 62
     7
  6
CONTINUOUS
  0
LAYER
  2
TEXT2
 70
     0
 62
     7
  6
CONTINUOUS
  0
LAYER
  2
HILF2S
 70
     0
 62
     7
  6
CONTINUOUS
  0
LAYER
  2
UK1V
 70
     0
 62
     7
  6
CONTINUOUS
  0
LAYER
  2
GAIN_ZRA
 70
     0
 62
     7
  6
CONTINUOUS
  0
LAYER
  2
GAIN_ZSF
 70
     0
 62
     7
  6
CONTINUOUS
  0
LAYER
  2
RAHM4
 70
     0
 62
     7
  6
CONTINUOUS
  0
LAYER
  2
KORPUSBAND
 70
     0
 62
     7
  6
CONTINUOUS
  0
LAYER
  2
E---LGPL--------
 70
     0
 62
     7
  6
CONTINUOUS
  0
LAYER
  2
E---NPFL--------
 70
     0
 62
     7
  6
CONTINUOUS
  0
LAYER
  2
E---PLNKTXT-----
 70
     0
 62
     7
  6
CONTINUOUS
  0
LAYER
  2
E---PLNK--------
 70
     0
 62
     7
  6
CONTINUOUS
  0
LAYER
  2
E---PLNR--------
 70
     0
 62
     7
  6
CONTINUOUS
  0
LAYER
  2
D547_ARCHICAD
 70
     0
 62
     7
  6
CONTINUOUS
  0
LAYER
  2
D547_E---TEXT--------
 70
     0
 62
     7
  6
CONTINUOUS
  0
LAYER
  2
E---LEGD--------
 70
     0
 62
     7
  6
CONTINUOUS
  0
LAYER
  2
D43_ARCHICAD
 70
     0
 62
     7
  6
CONTINUOUS
  0
LAYER
  2
D43_FENSTER_VON_B---FASS--
 70
     0
 62
     7
  6
CONTINUOUS
  0
LAYER
  2
D43_E---SCHN--------
 70
     0
 62
     7
  6
CONTINUOUS
  0
LAYER
  2
D43_B---MW-N--------
 70
     0
 62
     7
  6
CONTINUOUS
  0
LAYER
  2
D43_B---DECK--------
 70
     0
 62
     7
  6
CONTINUOUS
  0
LAYER
  2
D43_B---MW-S--------
 70
     0
 62
     7
  6
CONTINUOUS
  0
LAYER
  2
D43_B---MW----------
 70
     0
 62
     7
  6
CONTINUOUS
  0
LAYER
  2
D43_B---FASS--------
 70
     0
 62
     7
  6
CONTINUOUS
  0
LAYER
  2
D43_E---RASG--------
 70
     0
 62
     7
  6
CONTINUOUS
  0
LAYER
  2
D40_ARCHICAD
 70
     0
 62
     7
  6
CONTINUOUS
  0
LAYER
  2
D40_E---MW--------
 70
     0
 62
     7
  6
CONTINUOUS
  0
LAYER
  2
D40_E---FASSKON-----
 70
     0
 62
     7
  6
CONTINUOUS
  0
LAYER
  2
D40_TÜREN_VON_B---MW-N----
 70
     0
 62
     7
  6
CONTINUOUS
  0
LAYER
  2
D40_E---MW-L------
 70
     0
 62
     7
  6
CONTINUOUS
  0
LAYER
  2
D40_TÜREN_VON_B---MW------
 70
     0
 62
     7
  6
CONTINUOUS
  0
LAYER
  2
D40_E---VERM--------
 70
     0
 62
     7
  6
CONTINUOUS
  0
LAYER
  2
D40_FENSTER_VON_E---MW-L--
 70
     0
 62
     7
  6
CONTINUOUS
  0
LAYER
  2
D40_FENSTER_VON_B---MW-N--
 70
     0
 62
     7
  6
CONTINUOUS
  0
LAYER
  2
D40_E---SCHN--------
 70
     0
 62
     7
  6
CONTINUOUS
  0
LAYER
  2
D40_E---AUFZ--------
 70
     0
 62
     7
  6
CONTINUOUS
  0
LAYER
  2
D40_E---DECK--------
 70
     0
 62
     7
  6
CONTINUOUS
  0
LAYER
  2
D40_E---RAUMINF-----
 70
     0
 62
     7
  6
CONTINUOUS
  0
LAYER
  2
D40_E---TEXT--------
 70
     0
 62
     7
  6
CONTINUOUS
  0
LAYER
  2
D40_B---TEXT--------
 70
     0
 62
     7
  6
CONTINUOUS
  0
LAYER
  2
D40_B---MW-N--------
 70
     0
 62
     7
  6
CONTINUOUS
  0
LAYER
  2
D40_B---DECK--------
 70
     0
 62
     7
  6
CONTINUOUS
  0
LAYER
  2
D40_B---AUFZ--------
 70
     0
 62
     7
  6
CONTINUOUS
  0
LAYER
  2
D40_B---MW-S--------
 70
     0
 62
     7
  6
CONTINUOUS
  0
LAYER
  2
D40_B---MW----------
 70
     0
 62
     7
  6
CONTINUOUS
  0
LAYER
  2
D40_E---MOEB--------
 70
     0
 62
     7
  6
CONTINUOUS
  0
LAYER
  2
D40_B---UMGB--------
 70
     0
 62
     7
  6
CONTINUOUS
  0
LAYER
  2
D40_B---FASS--------
 70
     0
 62
     7
  6
CONTINUOUS
  0
LAYER
  2
D40_E---DACH--------
 70
     0
 62
     7
  6
CONTINUOUS
  0
LAYER
  2
D40_E---BODE--------
 70
     0
 62
     7
  6
CONTINUOUS
  0
LAYER
  2
D40_E---TREP--------
 70
     0
 62
     7
  6
CONTINUOUS
  0
LAYER
  2
D40_E---RASG--------
 70
     0
 62
     7
  6
CONTINUOUS
  0
LAYER
  2
D40_B---MW-K--------
 70
     0
 62
     7
  6
CONTINUOUS
  0
LAYER
  2
D40_E---FASSGLA-----
 70
     0
 62
     7
  6
CONTINUOUS
  0
LAYER
  2
D40_B---VERM--------
 70
     0
 62
     7
  6
CONTINUOUS
  0
LAYER
  2
D40_E---UMGBGSG-----
 70
     0
 62
     7
  6
CONTINUOUS
  0
LAYER
  2
D40_E---RASF--------
 70
     0
 62
     7
  6
CONTINUOUS
  0
LAYER
  2
D40_E---PFLA--------
 70
     0
 62
     7
  6
CONTINUOUS
  0
LAYER
  2
D40_E---KONS-ST-----
 70
     0
 62
     7
  6
CONTINUOUS
  0
LAYER
  2
D40_E---WERB--------
 70
     0
 62
     7
  6
CONTINUOUS
  0
LAYER
  2
D40_E---TUERINF-----
 70
     0
 62
     7
  6
CONTINUOUS
  0
LAYER
  2
D40_E---WOLK--------
 70
     0
 62
     7
  6
CONTINUOUS
  0
LAYER
  2
D40_B---MW-L--------
 70
     0
 62
     7
  6
CONTINUOUS
  0
LAYER
  2
D40_B---SANI--------
 70
     0
 62
     7
  6
CONTINUOUS
  0
LAYER
  2
D40_E---SANI--------
 70
     0
 62
     7
  6
CONTINUOUS
  0
LAYER
  2
D40_E---MW-K------
 70
     0
 62
     7
  6
CONTINUOUS
  0
LAYER
  2
D40_E---OBJE--------
 70
     0
 62
     7
  6
CONTINUOUS
  0
LAYER
  2
D40_E---ASPR--------
 70
     0
 62
     7
  6
CONTINUOUS
  0
LAYER
  2
D40_E---VERMTGA-----
 70
     0
 62
     7
  6
CONTINUOUS
  0
LAYER
  2
D40_E---PARK--------
 70
     0
 62
     7
  6
CONTINUOUS
  0
LAYER
  2
D40_E---ISOL--------
 70
     0
 62
     7
  6
CONTINUOUS
  0
LAYER
  2
D40_E---TUER--------
 70
     0
 62
     7
  6
CONTINUOUS
  0
LAYER
  2
D40_E---MW--BRA---
 70
     0
 62
     7
  6
CONTINUOUS
  0
LAYER
  2
D41_ARCHICAD
 70
     0
 62
     7
  6
CONTINUOUS
  0
LAYER
  2
D41_E---MW--------
 70
     0
 62
     7
  6
CONTINUOUS
  0
LAYER
  2
D41_E---FASSKON-----
 70
     0
 62
     7
  6
CONTINUOUS
  0
LAYER
  2
D41_TÜREN_VON_B---MW-N----
 70
     0
 62
     7
  6
CONTINUOUS
  0
LAYER
  2
D41_E---MW-L------
 70
     0
 62
     7
  6
CONTINUOUS
  0
LAYER
  2
D41_TÜREN_VON_B---MW------
 70
     0
 62
     7
  6
CONTINUOUS
  0
LAYER
  2
D41_E---VERM--------
 70
     0
 62
     7
  6
CONTINUOUS
  0
LAYER
  2
D41_FENSTER_VON_E---MW-L--
 70
     0
 62
     7
  6
CONTINUOUS
  0
LAYER
  2
D41_FENSTER_VON_B---MW-N--
 70
     0
 62
     7
  6
CONTINUOUS
  0
LAYER
  2
D41_E---SCHN--------
 70
     0
 62
     7
  6
CONTINUOUS
  0
LAYER
  2
D41_E---AUFZ--------
 70
     0
 62
     7
  6
CONTINUOUS
  0
LAYER
  2
D41_E---DECK--------
 70
     0
 62
     7
  6
CONTINUOUS
  0
LAYER
  2
D41_E---RAUMINF-----
 70
     0
 62
     7
  6
CONTINUOUS
  0
LAYER
  2
D41_E---TEXT--------
 70
     0
 62
     7
  6
CONTINUOUS
  0
LAYER
  2
D41_B---TEXT--------
 70
     0
 62
     7
  6
CONTINUOUS
  0
LAYER
  2
D41_B---MW-N--------
 70
     0
 62
     7
  6
CONTINUOUS
  0
LAYER
  2
D41_B---DECK--------
 70
     0
 62
     7
  6
CONTINUOUS
  0
LAYER
  2
D41_B---AUFZ--------
 70
     0
 62
     7
  6
CONTINUOUS
  0
LAYER
  2
D41_B---MW-S--------
 70
     0
 62
     7
  6
CONTINUOUS
  0
LAYER
  2
D41_B---MW----------
 70
     0
 62
     7
  6
CONTINUOUS
  0
LAYER
  2
D41_E---MOEB--------
 70
     0
 62
     7
  6
CONTINUOUS
  0
LAYER
  2
D41_B---UMGB--------
 70
     0
 62
     7
  6
CONTINUOUS
  0
LAYER
  2
D41_B---FASS--------
 70
     0
 62
     7
  6
CONTINUOUS
  0
LAYER
  2
D41_E---DACH--------
 70
     0
 62
     7
  6
CONTINUOUS
  0
LAYER
  2
D41_E---BODE--------
 70
     0
 62
     7
  6
CONTINUOUS
  0
LAYER
  2
D41_E---TREP--------
 70
     0
 62
     7
  6
CONTINUOUS
  0
LAYER
  2
D41_E---RASG--------
 70
     0
 62
     7
  6
CONTINUOUS
  0
LAYER
  2
D41_B---MW-K--------
 70
     0
 62
     7
  6
CONTINUOUS
  0
LAYER
  2
D41_E---FASSGLA-----
 70
     0
 62
     7
  6
CONTINUOUS
  0
LAYER
  2
D41_B---VERM--------
 70
     0
 62
     7
  6
CONTINUOUS
  0
LAYER
  2
D41_E---UMGBGSG-----
 70
     0
 62
     7
  6
CONTINUOUS
  0
LAYER
  2
D41_E---RASF--------
 70
     0
 62
     7
  6
CONTINUOUS
  0
LAYER
  2
D41_E---PFLA--------
 70
     0
 62
     7
  6
CONTINUOUS
  0
LAYER
  2
D41_E---KONS-ST-----
 70
     0
 62
     7
  6
CONTINUOUS
  0
LAYER
  2
D41_E---WERB--------
 70
     0
 62
     7
  6
CONTINUOUS
  0
LAYER
  2
D41_E---TUERINF-----
 70
     0
 62
     7
  6
CONTINUOUS
  0
LAYER
  2
D41_E---WOLK--------
 70
     0
 62
     7
  6
CONTINUOUS
  0
LAYER
  2
D41_B---MW-L--------
 70
     0
 62
     7
  6
CONTINUOUS
  0
LAYER
  2
D41_B---SANI--------
 70
     0
 62
     7
  6
CONTINUOUS
  0
LAYER
  2
D41_E---SANI--------
 70
     0
 62
     7
  6
CONTINUOUS
  0
LAYER
  2
D41_E---MW-K------
 70
     0
 62
     7
  6
CONTINUOUS
  0
LAYER
  2
D41_E---OBJE--------
 70
     0
 62
     7
  6
CONTINUOUS
  0
LAYER
  2
D41_E---ASPR--------
 70
     0
 62
     7
  6
CONTINUOUS
  0
LAYER
  2
D41_E---VERMTGA-----
 70
     0
 62
     7
  6
CONTINUOUS
  0
LAYER
  2
D41_E---PARK--------
 70
     0
 62
     7
  6
CONTINUOUS
  0
LAYER
  2
D41_E---ISOL--------
 70
     0
 62
     7
  6
CONTINUOUS
  0
LAYER
  2
D41_E---TUER--------
 70
     0
 62
     7
  6
CONTINUOUS
  0
LAYER
  2
D41_E---MW--BRA---
 70
     0
 62
     7
  6
CONTINUOUS
  0
LAYER
  2
D42_ARCHICAD
 70
     0
 62
     7
  6
CONTINUOUS
  0
LAYER
  2
D42_FENSTER_VON_B---FASS--
 70
     0
 62
     7
  6
CONTINUOUS
  0
LAYER
  2
D42_E---SCHN--------
 70
     0
 62
     7
  6
CONTINUOUS
  0
LAYER
  2
D42_B---MW-N--------
 70
     0
 62
     7
  6
CONTINUOUS
  0
LAYER
  2
D42_B---DECK--------
 70
     0
 62
     7
  6
CONTINUOUS
  0
LAYER
  2
D42_B---MW-S--------
 70
     0
 62
     7
  6
CONTINUOUS
  0
LAYER
  2
D42_B---MW----------
 70
     0
 62
     7
  6
CONTINUOUS
  0
LAYER
  2
D42_B---FASS--------
 70
     0
 62
     7
  6
CONTINUOUS
  0
LAYER
  2
D42_E---RASG--------
 70
     0
 62
     7
  6
CONTINUOUS
  0
LAYER
  2
CONSTRUCTION_CLASS
 70
     0
 62
     7
  6
CONTINUOUS
  0
LAYER
  2
PATTERN_CLASS
 70
     0
 62
     7
  6
CONTINUOUS
  0
LAYER
  2
KONSTRUKTION
 70
     0
 62
     7
  6
CONTINUOUS
  0
LAYER
  2
BEMAßUNG
 70
     0
 62
     7
  6
CONTINUOUS
  0
LAYER
  2
HILFSGEOMETRIE
 70
     0
 62
     7
  6
CONTINUOUS
  0
LAYER
  2
UNSICHTBAR
 70
     0
 62
     7
  6
CONTINUOUS
  0
LAYER
  2
LOGO
 70
     0
 62
     7
  6
CONTINUOUS
  0
LAYER
  2
VERWALTUNG
 70
     0
 62
     7
  6
CONTINUOUS
  0
LAYER
  2
UNSICHTBARE_GEWINDE
 70
     0
 62
     7
  6
CONTINUOUS
  0
LAYER
  2
SICHTBARE_GEWINDE
 70
     0
 62
     7
  6
CONTINUOUS
  0
LAYER
  2
DEFPOINTS
 70
     0
 62
     7
  6
CONTINUOUS
  0
LAYER
  2
THICK
 70
     0
 62
     7
  6
CONTINUOUS
  0
LAYER
  2
HIDDEN
 70
     0
 62
     7
  6
CONTINUOUS
  0
LAYER
  2
SCHRAFFURGRUNDRISS
 70
     0
 62
     7
  6
CONTINUOUS
  0
LAYER
  2
BEMASSUNG_GRUNDRISS
 70
     0
 62
     7
  6
CONTINUOUS
  0
LAYER
  2
STATIK
 70
     0
 62
     7
  6
CONTINUOUS
  0
LAYER
  2
TÜREN
 70
     0
 62
     7
  6
CONTINUOUS
  0
LAYER
  2
SANITÄR
 70
     0
 62
     7
  6
CONTINUOUS
  0
LAYER
  2
BEMASSUNG_GIPSKARTON
 70
     0
 62
     7
  6
CONTINUOUS
  0
LAYER
  2
EINRICHTUNGEN
 70
     0
 62
     7
  6
CONTINUOUS
  0
LAYER
  2
BECKEN
 70
     0
 62
     7
  6
CONTINUOUS
  0
LAYER
  2
BELEUCHTUNG
 70
     0
 62
     7
  6
CONTINUOUS
  0
LAYER
  2
BESCHRIFTUNGEN
 70
     0
 62
     7
  6
CONTINUOUS
  0
LAYER
  2
ELEKTRO_1__DOSEN_SCHALTER
 70
     0
 62
     7
  6
CONTINUOUS
  0
LAYER
  2
DEFAULT_1
 70
     0
 62
     7
  6
CONTINUOUS
  0
LAYER
  2
AM_0
 70
     0
 62
     7
  6
CONTINUOUS
  0
LAYER
  2
FRAME0_7
 70
     0
 62
     7
  6
CONTINUOUS
  0
LAYER
  2
AM_BOR
 70
     0
 62
     7
  6
CONTINUOUS
  0
LAYER
  2
RAHM2
 70
     0
 62
     7
  6
CONTINUOUS
  0
LAYER
  2
RAHM3
 70
     0
 62
     7
  6
CONTINUOUS
  0
LAYER
  2
FRAME0_5
 70
     0
 62
     7
  6
CONTINUOUS
  0
LAYER
  2
8
 70
     0
 62
     7
  6
CONTINUOUS
  0
LAYER
  2
AM_5
 70
     0
 62
     7
  6
CONTINUOUS
  0
LAYER
  2
AM_7
 70
     0
 62
     7
  6
CONTINUOUS
  0
LAYER
  2
HILFSLINIEN
 70
     0
 62
     7
  6
CONTINUOUS
  0
LAYER
  2
DRAWING_TEMPLATE
 70
     0
 62
     7
  6
CONTINUOUS
  0
LAYER
  2
TECHNOBOX_EXTERNALREFSYMBO
 70
     0
 62
     7
  6
CONTINUOUS
  0
LAYER
  2
TECHNOBOX_POLYCLIPSYMBOL_L
 70
     0
 62
     7
  6
CONTINUOUS
  0
LAYER
  2
100
 70
     0
 62
     7
  6
CONTINUOUS
  0
LAYER
  2
101
 70
     0
 62
     7
  6
CONTINUOUS
  0
LAYER
  2
KONTUR
 70
     0
 62
     7
  6
CONTINUOUS
  0
LAYER
  2
MITTELLINIE
 70
     0
 62
     7
  6
CONTINUOUS
  0
LAYER
  2
GESTRICHELT
 70
     0
 62
     7
  6
CONTINUOUS
  0
LAYER
  2
HILFSLINIE
 70
     0
 62
     7
  6
CONTINUOUS
  0
LAYER
  2
TEXT-25
 70
     0
 62
     7
  6
CONTINUOUS
  0
LAYER
  2
TEXT35
 70
     0
 62
     7
  6
CONTINUOUS
  0
LAYER
  2
TEXT-50
 70
     0
 62
     7
  6
CONTINUOUS
  0
LAYER
  2
TEXT-70
 70
     0
 62
     7
  6
CONTINUOUS
  0
LAYER
  2
ANSICHTSFENSTER
 70
     0
 62
     7
  6
CONTINUOUS
  0
LAYER
  2
KERA0
 70
     0
 62
     7
  6
CONTINUOUS
  0
LAYER
  2
KERA1
 70
     0
 62
     7
  6
CONTINUOUS
  0
LAYER
  2
KERA2
 70
     0
 62
     7
  6
CONTINUOUS
  0
LAYER
  2
KERA3
 70
     0
 62
     7
  6
CONTINUOUS
  0
LAYER
  2
KERA4
 70
     0
 62
     7
  6
CONTINUOUS
  0
LAYER
  2
KERA5
 70
     0
 62
     7
  6
CONTINUOUS
  0
LAYER
  2
KERA6
 70
     0
 62
     7
  6
CONTINUOUS
  0
LAYER
  2
KERA7
 70
     0
 62
     7
  6
CONTINUOUS
  0
LAYER
  2
20
 70
     0
 62
     7
  6
CONTINUOUS
  0
LAYER
  2
50
 70
     0
 62
     7
  6
CONTINUOUS
  0
LAYER
  2
BECKEN_FUTURA_EBENE_1
 70
     0
 62
     7
  6
CONTINUOUS
  0
LAYER
  2
EBENE_1
 70
     0
 62
     7
  6
CONTINUOUS
  0
LAYER
  2
EBENE_2
 70
     0
 62
     7
  6
CONTINUOUS
  0
LAYER
  2
EBENE_5
 70
     0
 62
     7
  6
CONTINUOUS
  0
LAYER
  2
3
 70
     0
 62
     7
  6
CONTINUOUS
  0
LAYER
  2
GEB-KONTUR-A
 70
     0
 62
     7
  6
CONTINUOUS
  0
LAYER
  2
GEB-SYMETRIE
 70
     0
 62
     7
  6
CONTINUOUS
  0
LAYER
  2
GEB-ART-NR
 70
     0
 62
     7
  6
CONTINUOUS
  0
LAYER
  2
PROJECTION
 70
     0
 62
     7
  6
CONTINUOUS
  0
ENDTAB
  0
TABLE
  2
STYLE
 70
     2
  0
STYLE
  2
STANDARD
 70
     0
 40
0.0
 41
1.0
 50
0.0
 71
     0
 42
0.0
  3
txt
  4

  0
STYLE
  2
simplex
 70
     0
 40
0.0
 41
1.0
 50
0.0
 71
     0
 42
0.0
  3
SIMPLEX
  4

  0
ENDTAB
  0
TABLE
  2
VIEW
 70
     0
  0
ENDTAB
  0
ENDSEC
  0
SECTION
  2
BLOCKS
  0
BLOCK
  8
0
  2
*D0
 70
    65
 10
0.0
 20
0.0
  0
LINE
  8
LAYER01
 62
     7
 10
1577.736336
 20
570.396877
 11
1577.736336
 21
427.772216
  0
LINE
  8
LAYER01
 62
     7
 10
1754.737938
 20
570.396877
 11
1542.736336
 21
570.396877
  0
LINE
  8
LAYER01
 62
     7
 10
1754.737938
 20
427.772216
 11
1542.736336
 21
427.772216
  0
SOLID
  8
LAYER01
 62
     7
 10
1568.403376
 20
514.396877
 11
1577.736336
 21
570.396877
 12
1587.069296
 22
514.396877
 13
1587.069296
 23
514.396877
  0
SOLID
  8
LAYER01
 62
     7
 10
1568.403376
 20
483.772216
 11
1577.736336
 21
427.772216
 12
1587.069296
 22
483.772216
 13
1587.069296
 23
483.772216
  0
TEXT
  8
LAYER01
  6
CONTINUOUS
 62
     7
 10
1542.736336
 20
446.256753
 40
70.0
  1
143
 50
90.0
  0
POINT
  8
LAYER01
 62
     7
 10
1782.737938
 20
570.396877
  0
POINT
  8
LAYER01
 62
     7
 10
1782.737938
 20
427.772216
  0
POINT
  8
LAYER01
 62
     7
 10
1577.736336
 20
427.772216
  0
ENDBLK
  8
0
  0
BLOCK
  8
0
  2
*D1
 70
    65
 10
0.0
 20
0.0
  0
LINE
  8
LAYER01
 62
     7
 10
430.611822
 20
770.39688
 11
430.611822
 21
370.396874
  0
LINE
  8
LAYER01
 62
     7
 10
667.265768
 20
770.39688
 11
395.611822
 21
770.39688
  0
LINE
  8
LAYER01
 62
     7
 10
667.265768
 20
370.396874
 11
395.611822
 21
370.396874
  0
SOLID
  8
LAYER01
 62
     7
 10
421.278862
 20
714.39688
 11
430.611822
 21
770.39688
 12
439.944782
 22
714.39688
 13
439.944782
 23
714.39688
  0
SOLID
  8
LAYER01
 62
     7
 10
421.278862
 20
426.396874
 11
430.611822
 21
370.396874
 12
439.944782
 22
426.396874
 13
439.944782
 23
426.396874
  0
TEXT
  8
LAYER01
  6
CONTINUOUS
 62
     7
 10
395.611822
 20
518.241797
 40
70.0
  1
400
 50
90.0
  0
POINT
  8
LAYER01
 62
     7
 10
695.265768
 20
770.39688
  0
POINT
  8
LAYER01
 62
     7
 10
695.265768
 20
370.396874
  0
POINT
  8
LAYER01
 62
     7
 10
430.611822
 20
370.396874
  0
ENDBLK
  8
0
  0
BLOCK
  8
0
  2
*D2
 70
    65
 10
0.0
 20
0.0
  0
LINE
  8
LAYER01
 62
     7
 10
539.663352
 20
745.396874
 11
539.663352
 21
395.39688
  0
LINE
  8
LAYER01
 62
     7
 10
667.265768
 20
745.396874
 11
504.663352
 21
745.396874
  0
LINE
  8
LAYER01
 62
     7
 10
667.265768
 20
395.39688
 11
504.663352
 21
395.39688
  0
SOLID
  8
LAYER01
 62
     7
 10
530.330392
 20
689.396874
 11
539.663352
 21
745.396874
 12
548.996312
 22
689.396874
 13
548.996312
 23
689.396874
  0
SOLID
  8
LAYER01
 62
     7
 10
530.330392
 20
451.39688
 11
539.663352
 21
395.39688
 12
548.996312
 22
451.39688
 13
548.996312
 23
451.39688
  0
TEXT
  8
LAYER01
  6
CONTINUOUS
 62
     7
 10
504.663352
 20
518.241797
 40
70.0
  1
350
 50
90.0
  0
POINT
  8
LAYER01
 62
     7
 10
695.265768
 20
745.396874
  0
POINT
  8
LAYER01
 62
     7
 10
695.265768
 20
395.39688
  0
POINT
  8
LAYER01
 62
     7
 10
539.663352
 20
395.39688
  0
ENDBLK
  8
0
  0
BLOCK
  8
0
  2
*D3
 70
    65
 10
0.0
 20
0.0
  0
LINE
  8
LAYER01
 62
     7
 10
739.143529
 20
401.43065
 11
784.948107
 21
465.441097
  0
LINE
  8
LAYER01
 62
     7
 10
784.948107
 20
465.441097
 11
862.390498
 21
465.441097
  0
SOLID
  8
LAYER01
 62
     7
 10
779.321771
 20
441.540661
 11
739.143529
 21
401.43065
 12
764.141984
 22
452.403009
 13
764.141984
 23
452.403009
  0
TEXT
  8
LAYER01
  6
CONTINUOUS
 62
     7
 10
897.390498
 20
430.441097
 40
70.0
  1
R20
  0
POINT
  8
LAYER01
 62
     7
 10
727.504833
 20
385.165941
  0
POINT
  8
LAYER01
 62
     7
 10
784.948107
 20
465.441097
  0
ENDBLK
  8
0
  0
BLOCK
  8
0
  2
VS357012-G5
 70
     0
 10
0.0
 20
0.0
  0
LINE
  8
LAYER01
  6
CONTINUOUS
 62
     7
 10
713.686861
 20
50.940036
 11
725.686861
 21
62.940036
  0
LINE
  8
LAYER01
  6
CONTINUOUS
 62
     7
 10
723.714206
 20
38.516741
 11
734.091997
 21
48.894531
  0
LINE
  8
LAYER01
  6
CONTINUOUS
 62
     7
 10
727.092358
 20
19.444252
 11
737.457263
 21
29.809157
  0
LINE
  8
LAYER01
  6
CONTINUOUS
 62
     7
 10
731.930304
 20
1.831557
 11
741.339535
 21
11.240789
  0
LINE
  8
LAYER01
  6
CONTINUOUS
 62
     7
 10
739.316626
 20
-13.232761
 11
748.09919
 21
-4.450197
  0
LINE
  8
LAYER01
  6
CONTINUOUS
 62
     7
 10
748.915897
 20
-26.08413
 11
757.42188
 21
-17.578147
  0
LINE
  8
LAYER01
  6
CONTINUOUS
 62
     7
 10
760.457099
 20
-36.993568
 11
769.018035
 21
-28.432632
  0
LINE
  8
LAYER01
  6
CONTINUOUS
 62
     7
 10
774.06298
 20
-45.838327
 11
782.987463
 21
-36.913845
  0
LINE
  8
LAYER01
  6
CONTINUOUS
 62
     7
 10
789.901114
 20
-52.450834
 11
799.700289
 21
-42.651659
  0
LINE
  8
LAYER01
  6
CONTINUOUS
 62
     7
 10
808.667245
 20
-56.135343
 11
819.994672
 21
-44.807916
  0
LINE
  8
LAYER01
  6
CONTINUOUS
 62
     7
 10
829.917396
 20
-57.335833
 11
841.327316
 21
-45.925913
  0
LINE
  8
LAYER01
  6
CONTINUOUS
 62
     7
 10
851.249099
 20
-58.45477
 11
862.659959
 21
-47.043909
  0
LINE
  8
LAYER01
  6
CONTINUOUS
 62
     7
 10
872.580802
 20
-59.573707
 11
883.992603
 21
-48.161906
  0
LINE
  8
LAYER01
  6
CONTINUOUS
 62
     7
 10
893.912505
 20
-60.692644
 11
905.325247
 21
-49.279902
  0
LINE
  8
LAYER01
  6
CONTINUOUS
 62
     7
 10
915.244208
 20
-61.811582
 11
926.657891
 21
-50.397899
  0
LINE
  8
LAYER01
  6
CONTINUOUS
 62
     7
 10
936.575911
 20
-62.930519
 11
947.990535
 21
-51.515895
  0
LINE
  8
LAYER01
  6
CONTINUOUS
 62
     7
 10
957.907614
 20
-64.049456
 11
969.323178
 21
-52.633892
  0
LINE
  8
LAYER01
  6
CONTINUOUS
 62
     7
 10
979.239317
 20
-65.168393
 11
990.655822
 21
-53.751888
  0
LINE
  8
LAYER01
  6
CONTINUOUS
 62
     7
 10
1000.57102
 20
-66.287331
 11
1011.988466
 21
-54.869885
  0
LINE
  8
LAYER01
  6
CONTINUOUS
 62
     7
 10
1021.6732
 20
-67.635791
 11
1032.749948
 21
-56.559043
  0
LINE
  8
LAYER01
  6
CONTINUOUS
 62
     7
 10
1039.918947
 20
-71.840684
 11
1050.215261
 21
-61.54437
  0
LINE
  8
LAYER01
  6
CONTINUOUS
 62
     7
 10
1054.525648
 20
-79.684624
 11
1058.615395
 21
-75.594876
  0
ENDBLK
  8
0
  0
BLOCK
  8
0
  2
*D5
 70
    65
 10
0.0
 20
0.0
  0
LINE
  8
LAYER01
 62
     7
 10
731.615401
 20
146.391045
 11
1431.615389
 21
146.391045
  0
LINE
  8
LAYER01
 62
     7
 10
731.615401
 20
90.940036
 11
731.615401
 21
181.391045
  0
LINE
  8
LAYER01
 62
     7
 10
1431.615389
 20
90.940036
 11
1431.615389
 21
181.391045
  0
SOLID
  8
LAYER01
 62
     7
 10
787.615401
 20
137.058085
 11
731.615401
 21
146.391045
 12
787.615401
 22
155.724005
 13
787.615401
 23
155.724005
  0
SOLID
  8
LAYER01
 62
     7
 10
1375.615389
 20
137.058085
 11
1431.615389
 21
146.391045
 12
1375.615389
 22
155.724005
 13
1375.615389
 23
155.724005
  0
TEXT
  8
LAYER01
  6
CONTINUOUS
 62
     7
 10
1029.460316
 20
181.391045
 40
70.0
  1
700
  0
POINT
  8
LAYER01
 62
     7
 10
731.615401
 20
62.940036
  0
POINT
  8
LAYER01
 62
     7
 10
1431.615389
 20
62.940036
  0
POINT
  8
LAYER01
 62
     7
 10
1431.615389
 20
146.391045
  0
ENDBLK
  8
0
  0
BLOCK
  8
0
  2
VS357012-G7
 70
     0
 10
0.0
 20
0.0
  0
LINE
  8
LAYER01
  6
CONTINUOUS
 62
     7
 10
1104.615395
 20
-74.496157
 11
1121.792366
 21
-57.319186
  0
LINE
  8
LAYER01
  6
CONTINUOUS
 62
     7
 10
1133.194747
 20
-68.367445
 11
1146.395502
 21
-55.166691
  0
LINE
  8
LAYER01
  6
CONTINUOUS
 62
     7
 10
1157.451911
 20
-66.560922
 11
1170.134066
 21
-53.878766
  0
LINE
  8
LAYER01
  6
CONTINUOUS
 62
     7
 10
1181.144212
 20
-65.319261
 11
1193.827527
 21
-52.635946
  0
LINE
  8
LAYER01
  6
CONTINUOUS
 62
     7
 10
1204.836513
 20
-64.077601
 11
1217.520987
 21
-51.393126
  0
LINE
  8
LAYER01
  6
CONTINUOUS
 62
     7
 10
1228.528814
 20
-62.83594
 11
1241.214448
 21
-50.150306
  0
LINE
  8
LAYER01
  6
CONTINUOUS
 62
     7
 10
1252.221115
 20
-61.594279
 11
1264.907908
 21
-48.907486
  0
LINE
  8
LAYER01
  6
CONTINUOUS
 62
     7
 10
1275.913417
 20
-60.352618
 11
1288.601369
 21
-47.664666
  0
LINE
  8
LAYER01
  6
CONTINUOUS
 62
     7
 10
1299.605718
 20
-59.110957
 11
1312.294829
 21
-46.421845
  0
LINE
  8
LAYER01
  6
CONTINUOUS
 62
     7
 10
1323.298019
 20
-57.869296
 11
1335.98829
 21
-45.179025
  0
LINE
  8
LAYER01
  6
CONTINUOUS
 62
     7
 10
1428.941192
 20
47.773877
 11
1444.107351
 21
62.940036
  0
LINE
  8
LAYER01
  6
CONTINUOUS
 62
     7
 10
1346.99032
 20
-56.627635
 11
1360.350383
 21
-43.267573
  0
LINE
  8
LAYER01
  6
CONTINUOUS
 62
     7
 10
1424.134401
 20
20.516445
 11
1438.928731
 21
35.310776
  0
LINE
  8
LAYER01
  6
CONTINUOUS
 62
     7
 10
1454.557991
 20
50.940036
 11
1456.615395
 21
52.99744
  0
LINE
  8
LAYER01
  6
CONTINUOUS
 62
     7
 10
1373.744482
 20
-52.324114
 11
1432.964139
 21
6.895543
  0
ENDBLK
  8
0
  0
BLOCK
  8
0
  2
*D7
 70
    65
 10
0.0
 20
0.0
  0
LINE
  8
LAYER01
 62
     7
 10
731.615401
 20
887.625359
 11
1431.615389
 21
887.625359
  0
LINE
  8
LAYER01
 62
     7
 10
731.615401
 20
814.476114
 11
731.615401
 21
922.625359
  0
LINE
  8
LAYER01
 62
     7
 10
1431.615389
 20
814.476114
 11
1431.615389
 21
922.625359
  0
SOLID
  8
LAYER01
 62
     7
 10
787.615401
 20
878.292399
 11
731.615401
 21
887.625359
 12
787.615401
 22
896.958319
 13
787.615401
 23
896.958319
  0
SOLID
  8
LAYER01
 62
     7
 10
1375.615389
 20
878.292399
 11
1431.615389
 21
887.625359
 12
1375.615389
 22
896.958319
 13
1375.615389
 23
896.958319
  0
TEXT
  8
LAYER01
  6
CONTINUOUS
 62
     7
 10
1029.460316
 20
922.625359
 40
70.0
  1
700
  0
POINT
  8
LAYER01
 62
     7
 10
731.615401
 20
786.476114
  0
POINT
  8
LAYER01
 62
     7
 10
1431.615389
 20
786.476114
  0
POINT
  8
LAYER01
 62
     7
 10
1431.615389
 20
887.625359
  0
ENDBLK
  8
0
  0
BLOCK
  8
0
  2
*D8
 70
    65
 10
0.0
 20
0.0
  0
LINE
  8
LAYER01
 62
     7
 10
1456.615395
 20
1010.901002
 11
706.615395
 21
1010.901002
  0
LINE
  8
LAYER01
 62
     7
 10
1456.615395
 20
814.476114
 11
1456.615395
 21
1045.901002
  0
LINE
  8
LAYER01
 62
     7
 10
706.615395
 20
814.476114
 11
706.615395
 21
1045.901002
  0
SOLID
  8
LAYER01
 62
     7
 10
1400.615395
 20
1020.233962
 11
1456.615395
 21
1010.901002
 12
1400.615395
 22
1001.568042
 13
1400.615395
 23
1001.568042
  0
SOLID
  8
LAYER01
 62
     7
 10
762.615395
 20
1020.233962
 11
706.615395
 21
1010.901002
 12
762.615395
 22
1001.568042
 13
762.615395
 23
1001.568042
  0
TEXT
  8
LAYER01
  6
CONTINUOUS
 62
     7
 10
1029.460316
 20
1045.901002
 40
70.0
  1
750
  0
POINT
  8
LAYER01
 62
     7
 10
1456.615395
 20
786.476114
  0
POINT
  8
LAYER01
 62
     7
 10
706.615395
 20
786.476114
  0
POINT
  8
LAYER01
 62
     7
 10
706.615395
 20
1010.901002
  0
ENDBLK
  8
0
  0
BLOCK
  8
0
  2
VS357012-G10
 70
     0
 10
0.0
 20
0.0
  0
LINE
  8
LAYER01
  6
CONTINUOUS
 62
   255
 10
1081.615395
 20
570.396877
 11
1081.615395
 21
572.896877
  0
LINE
  8
LAYER01
  6
CONTINUOUS
 62
   255
 10
1081.615395
 20
570.396877
 11
1079.115395
 21
570.396877
  0
LINE
  8
LAYER01
  6
CONTINUOUS
 62
   255
 10
1081.615395
 20
570.396877
 11
1081.615395
 21
567.896877
  0
LINE
  8
LAYER01
  6
CONTINUOUS
 62
   255
 10
1081.615395
 20
570.396877
 11
1084.115395
 21
570.396877
  0
LINE
  8
LAYER01
  6
CONTINUOUS
 62
   255
 10
1081.615395
 20
575.396877
 11
1081.615395
 21
595.896877
  0
LINE
  8
LAYER01
  6
CONTINUOUS
 62
   255
 10
1076.615395
 20
570.396877
 11
1056.115395
 21
570.396877
  0
LINE
  8
LAYER01
  6
CONTINUOUS
 62
   255
 10
1081.615395
 20
565.396877
 11
1081.615395
 21
544.896877
  0
LINE
  8
LAYER01
  6
CONTINUOUS
 62
   255
 10
1086.615395
 20
570.396877
 11
1107.115395
 21
570.396877
  0
ENDBLK
  8
0
  0
BLOCK
  8
0
  2
*D10
 70
    65
 10
0.0
 20
0.0
  0
LINE
  8
LAYER01
 62
     7
 10
2005.737941
 20
314.552625
 11
2117.737941
 21
314.552625
  0
LINE
  8
LAYER01
 62
     7
 10
1959.737941
 20
314.552625
 11
1847.737941
 21
314.552625
  0
LINE
  8
LAYER01
 62
     7
 10
2005.737941
 20
399.772216
 11
2005.737941
 21
279.552625
  0
LINE
  8
LAYER01
 62
     7
 10
1959.737941
 20
399.772216
 11
1959.737941
 21
279.552625
  0
SOLID
  8
LAYER01
 62
     7
 10
2061.737941
 20
323.885585
 11
2005.737941
 21
314.552625
 12
2061.737941
 22
305.219665
 13
2061.737941
 23
305.219665
  0
SOLID
  8
LAYER01
 62
     7
 10
1903.737941
 20
323.885585
 11
1959.737941
 21
314.552625
 12
1903.737941
 22
305.219665
 13
1903.737941
 23
305.219665
  0
TEXT
  8
LAYER01
  6
CONTINUOUS
 62
     7
 10
2152.737941
 20
349.552625
 40
70.0
  1
46
  0
POINT
  8
LAYER01
 62
     7
 10
2005.737941
 20
427.772216
  0
POINT
  8
LAYER01
 62
     7
 10
1959.737941
 20
427.772216
  0
POINT
  8
LAYER01
 62
     7
 10
1959.737941
 20
314.552625
  0
ENDBLK
  8
0
  0
BLOCK
  8
0
  2
VS357012-G12
 70
     0
 10
0.0
 20
0.0
  0
POLYLINE
  8
LAYER01
  6
CONTINUOUS
 62
     7
 66
     1
 70
     1
  0
VERTEX
  8
LAYER01
 10
2295.803786
 20
-177.114038
  0
VERTEX
  8
LAYER01
 10
2337.233473
 20
-177.114038
  0
VERTEX
  8
LAYER01
 10
2389.261452
 20
-295.622211
  0
VERTEX
  8
LAYER01
 10
2441.28943
 20
-177.114038
  0
VERTEX
  8
LAYER01
 10
2484.646079
 20
-177.114038
  0
VERTEX
  8
LAYER01
 10
2389.261452
 20
-389.079877
  0
VERTEX
  8
LAYER01
 10
2295.803786
 20
-177.114038
  0
VERTEX
  8
LAYER01
 10
2295.803786
 20
-177.114038
  0
SEQEND
  8
LAYER01
  0
POLYLINE
  8
LAYER01
  6
CONTINUOUS
 62
     7
 66
     1
 70
     1
  0
VERTEX
  8
LAYER01
 10
2437.435506
 20
-321.636201
  0
VERTEX
  8
LAYER01
 10
2451.887722
 20
-287.914363
  0
VERTEX
  8
LAYER01
 10
2514.513993
 20
-287.914363
  0
VERTEX
  8
LAYER01
 10
2482.719117
 20
-218.543724
  0
VERTEX
  8
LAYER01
 10
2501.025258
 20
-174.223594
  0
VERTEX
  8
LAYER01
 10
2586.775075
 20
-355.358039
  0
VERTEX
  8
LAYER01
 10
2586.775075
 20
-177.114038
  0
VERTEX
  8
LAYER01
 10
2701.429324
 20
-177.114038
  0
VERTEX
  8
LAYER01
 10
2701.429324
 20
-177.114038
  0
VERTEX
  8
LAYER01
 10
2712.027616
 20
-179.041
  0
VERTEX
  8
LAYER01
 10
2721.662427
 20
-182.894924
  0
VERTEX
  8
LAYER01
 10
2730.333757
 20
-189.639292
  0
VERTEX
  8
LAYER01
 10
2738.041606
 20
-196.383659
  0
VERTEX
  8
LAYER01
 10
2744.785973
 20
-205.054989
  0
VERTEX
  8
LAYER01
 10
2749.603379
 20
-214.6898
  0
VERTEX
  8
LAYER01
 10
2753.457303
 20
-226.251573
  0
VERTEX
  8
LAYER01
 10
2754.420784
 20
-236.849865
  0
VERTEX
  8
LAYER01
 10
2754.420784
 20
-236.849865
  0
VERTEX
  8
LAYER01
 10
2754.420784
 20
-248.411638
  0
VERTEX
  8
LAYER01
 10
2752.493822
 20
-258.046449
  0
VERTEX
  8
LAYER01
 10
2748.639897
 20
-267.68126
  0
VERTEX
  8
LAYER01
 10
2743.822492
 20
-276.35259
  0
VERTEX
  8
LAYER01
 10
2737.078124
 20
-284.060438
  0
VERTEX
  8
LAYER01
 10
2729.370276
 20
-290.804806
  0
VERTEX
  8
LAYER01
 10
2720.698946
 20
-295.622211
  0
VERTEX
  8
LAYER01
 10
2710.100654
 20
-299.476136
  0
VERTEX
  8
LAYER01
 10
2771.763444
 20
-381.372028
  0
VERTEX
  8
LAYER01
 10
2771.763444
 20
-177.114038
  0
VERTEX
  8
LAYER01
 10
2812.229649
 20
-177.114038
  0
VERTEX
  8
LAYER01
 10
2812.229649
 20
-383.29899
  0
VERTEX
  8
LAYER01
 10
2725.516351
 20
-383.29899
  0
VERTEX
  8
LAYER01
 10
2641.693497
 20
-276.35259
  0
VERTEX
  8
LAYER01
 10
2684.086665
 20
-276.35259
  0
VERTEX
  8
LAYER01
 10
2684.086665
 20
-276.35259
  0
VERTEX
  8
LAYER01
 10
2689.867551
 20
-275.389109
  0
VERTEX
  8
LAYER01
 10
2695.648438
 20
-273.462146
  0
VERTEX
  8
LAYER01
 10
2700.465843
 20
-270.571703
  0
VERTEX
  8
LAYER01
 10
2705.283249
 20
-266.717779
  0
VERTEX
  8
LAYER01
 10
2708.173692
 20
-261.900373
  0
VERTEX
  8
LAYER01
 10
2711.064135
 20
-256.119487
  0
VERTEX
  8
LAYER01
 10
2712.991097
 20
-250.3386
  0
VERTEX
  8
LAYER01
 10
2712.991097
 20
-243.594233
  0
VERTEX
  8
LAYER01
 10
2712.991097
 20
-243.594233
  0
VERTEX
  8
LAYER01
 10
2712.991097
 20
-237.813346
  0
VERTEX
  8
LAYER01
 10
2711.064135
 20
-232.03246
  0
VERTEX
  8
LAYER01
 10
2709.137173
 20
-226.251573
  0
VERTEX
  8
LAYER01
 10
2705.283249
 20
-221.434168
  0
VERTEX
  8
LAYER01
 10
2701.429324
 20
-217.580243
  0
VERTEX
  8
LAYER01
 10
2695.648438
 20
-214.6898
  0
VERTEX
  8
LAYER01
 10
2689.867551
 20
-212.762838
  0
VERTEX
  8
LAYER01
 10
2684.086665
 20
-211.799357
  0
VERTEX
  8
LAYER01
 10
2630.131724
 20
-211.799357
  0
VERTEX
  8
LAYER01
 10
2630.131724
 20
-383.29899
  0
VERTEX
  8
LAYER01
 10
2560.761085
 20
-383.29899
  0
VERTEX
  8
LAYER01
 10
2531.856653
 20
-321.636201
  0
VERTEX
  8
LAYER01
 10
2437.435506
 20
-321.636201
  0
VERTEX
  8
LAYER01
 10
2437.435506
 20
-321.636201
  0
SEQEND
  8
LAYER01
  0
POLYLINE
  8
LAYER01
  6
CONTINUOUS
 62
     7
 66
     1
 70
     1
  0
VERTEX
  8
LAYER01
 10
2999.14498
 20
-190.602773
  0
VERTEX
  8
LAYER01
 10
2973.130991
 20
-223.36113
  0
VERTEX
  8
LAYER01
 10
2973.130991
 20
-223.36113
  0
VERTEX
  8
LAYER01
 10
2964.459661
 20
-217.580243
  0
VERTEX
  8
LAYER01
 10
2955.788331
 20
-212.762838
  0
VERTEX
  8
LAYER01
 10
2946.153521
 20
-209.872395
  0
VERTEX
  8
LAYER01
 10
2935.555229
 20
-209.872395
  0
VERTEX
  8
LAYER01
 10
2935.555229
 20
-209.872395
  0
VERTEX
  8
LAYER01
 10
2928.810861
 20
-209.872395
  0
VERTEX
  8
LAYER01
 10
2922.066493
 20
-210.835876
  0
VERTEX
  8
LAYER01
 10
2915.322126
 20
-212.762838
  0
VERTEX
  8
LAYER01
 10
2908.577758
 20
-215.653281
  0
VERTEX
  8
LAYER01
 10
2902.796872
 20
-218.543724
  0
VERTEX
  8
LAYER01
 10
2897.979466
 20
-222.397649
  0
VERTEX
  8
LAYER01
 10
2892.19858
 20
-226.251573
  0
VERTEX
  8
LAYER01
 10
2888.344655
 20
-231.068979
  0
VERTEX
  8
LAYER01
 10
2883.52725
 20
-236.849865
  0
VERTEX
  8
LAYER01
 10
2880.636807
 20
-242.630752
  0
VERTEX
  8
LAYER01
 10
2876.782882
 20
-248.411638
  0
VERTEX
  8
LAYER01
 10
2873.892439
 20
-254.192525
  0
VERTEX
  8
LAYER01
 10
2871.965477
 20
-260.936892
  0
VERTEX
  8
LAYER01
 10
2871.001996
 20
-267.68126
  0
VERTEX
  8
LAYER01
 10
2870.038515
 20
-274.425627
  0
VERTEX
  8
LAYER01
 10
2869.075033
 20
-282.133476
  0
VERTEX
  8
LAYER01
 10
2869.075033
 20
-282.133476
  0
VERTEX
  8
LAYER01
 10
2870.038515
 20
-288.877844
  0
VERTEX
  8
LAYER01
 10
2871.001996
 20
-295.622211
  0
VERTEX
  8
LAYER01
 10
2871.965477
 20
-302.366579
  0
VERTEX
  8
LAYER01
 10
2874.85592
 20
-308.147466
  0
VERTEX
  8
LAYER01
 10
2876.782882
 20
-313.928352
  0
VERTEX
  8
LAYER01
 10
2880.636807
 20
-319.709239
  0
VERTEX
  8
LAYER01
 10
2884.490731
 20
-325.490125
  0
VERTEX
  8
LAYER01
 10
2888.344655
 20
-330.307531
  0
VERTEX
  8
LAYER01
 10
2893.162061
 20
-335.124936
  0
VERTEX
  8
LAYER01
 10
2897.979466
 20
-338.97886
  0
VERTEX
  8
LAYER01
 10
2903.760353
 20
-341.869304
  0
VERTEX
  8
LAYER01
 10
2909.541239
 20
-344.759747
  0
VERTEX
  8
LAYER01
 10
2916.285607
 20
-347.65019
  0
VERTEX
  8
LAYER01
 10
2922.066493
 20
-349.577152
  0
VERTEX
  8
LAYER01
 10
2928.810861
 20
-350.540633
  0
VERTEX
  8
LAYER01
 10
2936.51871
 20
-350.540633
  0
VERTEX
  8
LAYER01
 10
2936.51871
 20
-350.540633
  0
VERTEX
  8
LAYER01
 10
2947.117002
 20
-349.577152
  0
VERTEX
  8
LAYER01
 10
2955.788331
 20
-347.65019
  0
VERTEX
  8
LAYER01
 10
2964.459661
 20
-342.832785
  0
VERTEX
  8
LAYER01
 10
2973.130991
 20
-337.051898
  0
VERTEX
  8
LAYER01
 10
2998.181499
 20
-370.773736
  0
VERTEX
  8
LAYER01
 10
2998.181499
 20
-370.773736
  0
VERTEX
  8
LAYER01
 10
2983.729283
 20
-379.445066
  0
VERTEX
  8
LAYER01
 10
2976.021434
 20
-382.335509
  0
VERTEX
  8
LAYER01
 10
2969.277067
 20
-385.225953
  0
VERTEX
  8
LAYER01
 10
2961.569218
 20
-387.152915
  0
VERTEX
  8
LAYER01
 10
2953.861369
 20
-388.116396
  0
VERTEX
  8
LAYER01
 10
2936.51871
 20
-389.079877
  0
VERTEX
  8
LAYER01
 10
2936.51871
 20
-389.079877
  0
VERTEX
  8
LAYER01
 10
2924.956937
 20
-388.116396
  0
VERTEX
  8
LAYER01
 10
2914.358645
 20
-386.189434
  0
VERTEX
  8
LAYER01
 10
2903.760353
 20
-384.262472
  0
VERTEX
  8
LAYER01
 10
2894.125542
 20
-380.408547
  0
VERTEX
  8
LAYER01
 10
2884.490731
 20
-375.591142
  0
VERTEX
  8
LAYER01
 10
2875.819401
 20
-370.773736
  0
VERTEX
  8
LAYER01
 10
2867.148071
 20
-364.029369
  0
VERTEX
  8
LAYER01
 10
2859.440223
 20
-357.285001
  0
VERTEX
  8
LAYER01
 10
2851.732374
 20
-349.577152
  0
VERTEX
  8
LAYER01
 10
2845.951487
 20
-340.905823
  0
VERTEX
  8
LAYER01
 10
2840.170601
 20
-332.234493
  0
VERTEX
  8
LAYER01
 10
2835.353195
 20
-322.599682
  0
VERTEX
  8
LAYER01
 10
2832.462752
 20
-312.964871
  0
VERTEX
  8
LAYER01
 10
2829.572309
 20
-302.366579
  0
VERTEX
  8
LAYER01
 10
2827.645347
 20
-291.768287
  0
VERTEX
  8
LAYER01
 10
2826.681866
 20
-280.206514
  0
VERTEX
  8
LAYER01
 10
2826.681866
 20
-280.206514
  0
VERTEX
  8
LAYER01
 10
2827.645347
 20
-269.608222
  0
VERTEX
  8
LAYER01
 10
2829.572309
 20
-258.046449
  0
VERTEX
  8
LAYER01
 10
2831.499271
 20
-248.411638
  0
VERTEX
  8
LAYER01
 10
2835.353195
 20
-237.813346
  0
VERTEX
  8
LAYER01
 10
2840.170601
 20
-228.178535
  0
VERTEX
  8
LAYER01
 10
2844.988006
 20
-219.507205
  0
VERTEX
  8
LAYER01
 10
2851.732374
 20
-210.835876
  0
VERTEX
  8
LAYER01
 10
2858.476742
 20
-203.128027
  0
VERTEX
  8
LAYER01
 10
2866.18459
 20
-196.383659
  0
VERTEX
  8
LAYER01
 10
2874.85592
 20
-189.639292
  0
VERTEX
  8
LAYER01
 10
2883.52725
 20
-184.821886
  0
VERTEX
  8
LAYER01
 10
2893.162061
 20
-180.004481
  0
VERTEX
  8
LAYER01
 10
2902.796872
 20
-176.150557
  0
VERTEX
  8
LAYER01
 10
2913.395164
 20
-173.260113
  0
VERTEX
  8
LAYER01
 10
2924.956937
 20
-172.296632
  0
VERTEX
  8
LAYER01
 10
2935.555229
 20
-171.333151
  0
VERTEX
  8
LAYER01
 10
2935.555229
 20
-171.333151
  0
VERTEX
  8
LAYER01
 10
2952.897888
 20
-172.296632
  0
VERTEX
  8
LAYER01
 10
2961.569218
 20
-173.260113
  0
VERTEX
  8
LAYER01
 10
2969.277067
 20
-175.187075
  0
VERTEX
  8
LAYER01
 10
2976.021434
 20
-178.077519
  0
VERTEX
  8
LAYER01
 10
2983.729283
 20
-180.967962
  0
VERTEX
  8
LAYER01
 10
2991.437132
 20
-185.785367
  0
VERTEX
  8
LAYER01
 10
2999.14498
 20
-190.602773
  0
VERTEX
  8
LAYER01
 10
2999.14498
 20
-190.602773
  0
SEQEND
  8
LAYER01
  0
POLYLINE
  8
LAYER01
  6
CONTINUOUS
 62
     7
 66
     1
 70
     1
  0
VERTEX
  8
LAYER01
 10
3092.602646
 20
-172.296632
  0
VERTEX
  8
LAYER01
 10
3092.602646
 20
-172.296632
  0
VERTEX
  8
LAYER01
 10
3082.004354
 20
-173.260113
  0
VERTEX
  8
LAYER01
 10
3070.442581
 20
-174.223594
  0
VERTEX
  8
LAYER01
 10
3060.80777
 20
-177.114038
  0
VERTEX
  8
LAYER01
 10
3050.209478
 20
-180.967962
  0
VERTEX
  8
LAYER01
 10
3040.574667
 20
-184.821886
  0
VERTEX
  8
LAYER01
 10
3031.903337
 20
-190.602773
  0
VERTEX
  8
LAYER01
 10
3023.232008
 20
-196.383659
  0
VERTEX
  8
LAYER01
 10
3015.524159
 20
-204.091508
  0
VERTEX
  8
LAYER01
 10
3008.779791
 20
-211.799357
  0
VERTEX
  8
LAYER01
 10
3002.035424
 20
-219.507205
  0
VERTEX
  8
LAYER01
 10
2996.254537
 20
-228.178535
  0
VERTEX
  8
LAYER01
 10
2991.437132
 20
-237.813346
  0
VERTEX
  8
LAYER01
 10
2988.546688
 20
-248.411638
  0
VERTEX
  8
LAYER01
 10
2985.656245
 20
-258.046449
  0
VERTEX
  8
LAYER01
 10
2983.729283
 20
-269.608222
  0
VERTEX
  8
LAYER01
 10
2982.765802
 20
-280.206514
  0
VERTEX
  8
LAYER01
 10
2982.765802
 20
-280.206514
  0
VERTEX
  8
LAYER01
 10
2983.729283
 20
-291.768287
  0
VERTEX
  8
LAYER01
 10
2984.692764
 20
-302.366579
  0
VERTEX
  8
LAYER01
 10
2987.583207
 20
-312.964871
  0
VERTEX
  8
LAYER01
 10
2991.437132
 20
-322.599682
  0
VERTEX
  8
LAYER01
 10
2995.291056
 20
-332.234493
  0
VERTEX
  8
LAYER01
 10
3001.071943
 20
-340.905823
  0
VERTEX
  8
LAYER01
 10
3006.852829
 20
-349.577152
  0
VERTEX
  8
LAYER01
 10
3013.597197
 20
-357.285001
  0
VERTEX
  8
LAYER01
 10
3021.305045
 20
-364.99285
  0
VERTEX
  8
LAYER01
 10
3029.976375
 20
-370.773736
  0
VERTEX
  8
LAYER01
 10
3038.647705
 20
-376.554623
  0
VERTEX
  8
LAYER01
 10
3048.282516
 20
-381.372028
  0
VERTEX
  8
LAYER01
 10
3057.917327
 20
-385.225953
  0
VERTEX
  8
LAYER01
 10
3068.515619
 20
-387.152915
  0
VERTEX
  8
LAYER01
 10
3079.113911
 20
-389.079877
  0
VERTEX
  8
LAYER01
 10
3089.712203
 20
-390.043358
  0
VERTEX
  8
LAYER01
 10
3089.712203
 20
-390.043358
  0
VERTEX
  8
LAYER01
 10
3101.273976
 20
-389.079877
  0
VERTEX
  8
LAYER01
 10
3111.872268
 20
-387.152915
  0
VERTEX
  8
LAYER01
 10
3122.47056
 20
-384.262472
  0
VERTEX
  8
LAYER01
 10
3132.105371
 20
-380.408547
  0
VERTEX
  8
LAYER01
 10
3141.740181
 20
-375.591142
  0
VERTEX
  8
LAYER01
 10
3150.411511
 20
-369.810255
  0
VERTEX
  8
LAYER01
 10
3159.082841
 20
-364.029369
  0
VERTEX
  8
LAYER01
 10
3166.79069
 20
-356.32152
  0
VERTEX
  8
LAYER01
 10
3173.535057
 20
-348.613671
  0
VERTEX
  8
LAYER01
 10
3179.315944
 20
-339.942341
  0
VERTEX
  8
LAYER01
 10
3184.133349
 20
-331.271012
  0
VERTEX
  8
LAYER01
 10
3188.950755
 20
-321.636201
  0
VERTEX
  8
LAYER01
 10
3192.804679
 20
-311.037909
  0
VERTEX
  8
LAYER01
 10
3194.731641
 20
-300.439617
  0
VERTEX
  8
LAYER01
 10
3195.695122
 20
-289.841325
  0
VERTEX
  8
LAYER01
 10
3196.658603
 20
-278.279552
  0
VERTEX
  8
LAYER01
 10
3196.658603
 20
-278.279552
  0
VERTEX
  8
LAYER01
 10
3195.695122
 20
-267.68126
  0
VERTEX
  8
LAYER01
 10
3193.76816
 20
-257.082968
  0
VERTEX
  8
LAYER01
 10
3190.877717
 20
-247.448157
  0
VERTEX
  8
LAYER01
 10
3187.987274
 20
-237.813346
  0
VERTEX
  8
LAYER01
 10
3183.169868
 20
-229.142016
  0
VERTEX
  8
LAYER01
 10
3178.352463
 20
-220.470687
  0
VERTEX
  8
LAYER01
 10
3172.571576
 20
-211.799357
  0
VERTEX
  8
LAYER01
 10
3165.827209
 20
-205.054989
  0
VERTEX
  8
LAYER01
 10
3158.11936
 20
-198.310622
  0
VERTEX
  8
LAYER01
 10
3150.411511
 20
-191.566254
  0
VERTEX
  8
LAYER01
 10
3141.740181
 20
-186.748848
  0
VERTEX
  8
LAYER01
 10
3133.068852
 20
-181.931443
  0
VERTEX
  8
LAYER01
 10
3123.434041
 20
-178.077519
  0
VERTEX
  8
LAYER01
 10
3113.79923
 20
-175.187075
  0
VERTEX
  8
LAYER01
 10
3103.200938
 20
-173.260113
  0
VERTEX
  8
LAYER01
 10
3092.602646
 20
-172.296632
  0
VERTEX
  8
LAYER01
 10
3092.602646
 20
-172.296632
  0
SEQEND
  8
LAYER01
  0
POLYLINE
  8
LAYER01
  6
CONTINUOUS
 62
     7
 66
     1
 70
     1
  0
VERTEX
  8
LAYER01
 10
3089.712203
 20
-350.540633
  0
VERTEX
  8
LAYER01
 10
3089.712203
 20
-350.540633
  0
VERTEX
  8
LAYER01
 10
3082.967835
 20
-349.577152
  0
VERTEX
  8
LAYER01
 10
3076.223467
 20
-348.613671
  0
VERTEX
  8
LAYER01
 10
3069.4791
 20
-347.65019
  0
VERTEX
  8
LAYER01
 10
3062.734732
 20
-344.759747
  0
VERTEX
  8
LAYER01
 10
3056.953846
 20
-341.869304
  0
VERTEX
  8
LAYER01
 10
3051.172959
 20
-338.015379
  0
VERTEX
  8
LAYER01
 10
3046.355554
 20
-334.161455
  0
VERTEX
  8
LAYER01
 10
3041.538148
 20
-329.34405
  0
VERTEX
  8
LAYER01
 10
3036.720743
 20
-324.526644
  0
VERTEX
  8
LAYER01
 10
3032.866818
 20
-319.709239
  0
VERTEX
  8
LAYER01
 10
3029.976375
 20
-313.928352
  0
VERTEX
  8
LAYER01
 10
3027.085932
 20
-307.183984
  0
VERTEX
  8
LAYER01
 10
3024.195489
 20
-301.403098
  0
VERTEX
  8
LAYER01
 10
3023.232008
 20
-294.65873
  0
VERTEX
  8
LAYER01
 10
3021.305045
 20
-287.914363
  0
VERTEX
  8
LAYER01
 10
3021.305045
 20
-280.206514
  0
VERTEX
  8
LAYER01
 10
3021.305045
 20
-280.206514
  0
VERTEX
  8
LAYER01
 10
3022.268527
 20
-273.462146
  0
VERTEX
  8
LAYER01
 10
3023.232008
 20
-266.717779
  0
VERTEX
  8
LAYER01
 10
3025.15897
 20
-259.973411
  0
VERTEX
  8
LAYER01
 10
3027.085932
 20
-253.229044
  0
VERTEX
  8
LAYER01
 10
3029.976375
 20
-247.448157
  0
VERTEX
  8
LAYER01
 10
3033.8303
 20
-241.66727
  0
VERTEX
  8
LAYER01
 10
3037.684224
 20
-236.849865
  0
VERTEX
  8
LAYER01
 10
3042.501629
 20
-232.03246
  0
VERTEX
  8
LAYER01
 10
3047.319035
 20
-227.215054
  0
VERTEX
  8
LAYER01
 10
3052.13644
 20
-223.36113
  0
VERTEX
  8
LAYER01
 10
3057.917327
 20
-219.507205
  0
VERTEX
  8
LAYER01
 10
3064.661694
 20
-216.616762
  0
VERTEX
  8
LAYER01
 10
3070.442581
 20
-214.6898
  0
VERTEX
  8
LAYER01
 10
3077.186949
 20
-212.762838
  0
VERTEX
  8
LAYER01
 10
3083.931316
 20
-211.799357
  0
VERTEX
  8
LAYER01
 10
3091.639165
 20
-211.799357
  0
VERTEX
  8
LAYER01
 10
3091.639165
 20
-211.799357
  0
VERTEX
  8
LAYER01
 10
3098.383532
 20
-212.762838
  0
VERTEX
  8
LAYER01
 10
3105.1279
 20
-213.726319
  0
VERTEX
  8
LAYER01
 10
3110.908787
 20
-215.653281
  0
VERTEX
  8
LAYER01
 10
3117.653154
 20
-217.580243
  0
VERTEX
  8
LAYER01
 10
3122.47056
 20
-220.470687
  0
VERTEX
  8
LAYER01
 10
3128.251446
 20
-224.324611
  0
VERTEX
  8
LAYER01
 10
3133.068852
 20
-228.178535
  0
VERTEX
  8
LAYER01
 10
3137.886257
 20
-232.03246
  0
VERTEX
  8
LAYER01
 10
3141.740181
 20
-236.849865
  0
VERTEX
  8
LAYER01
 10
3145.594106
 20
-242.630752
  0
VERTEX
  8
LAYER01
 10
3149.44803
 20
-247.448157
  0
VERTEX
  8
LAYER01
 10
3152.338473
 20
-253.229044
  0
VERTEX
  8
LAYER01
 10
3154.265436
 20
-259.973411
  0
VERTEX
  8
LAYER01
 10
3156.192398
 20
-265.754298
  0
VERTEX
  8
LAYER01
 10
3157.155879
 20
-272.498665
  0
VERTEX
  8
LAYER01
 10
3157.155879
 20
-279.243033
  0
VERTEX
  8
LAYER01
 10
3157.155879
 20
-279.243033
  0
VERTEX
  8
LAYER01
 10
3157.155879
 20
-286.950882
  0
VERTEX
  8
LAYER01
 10
3156.192398
 20
-293.695249
  0
VERTEX
  8
LAYER01
 10
3155.228917
 20
-300.439617
  0
VERTEX
  8
LAYER01
 10
3152.338473
 20
-306.220503
  0
VERTEX
  8
LAYER01
 10
3150.411511
 20
-312.964871
  0
VERTEX
  8
LAYER01
 10
3146.557587
 20
-318.745758
  0
VERTEX
  8
LAYER01
 10
3142.703663
 20
-324.526644
  0
VERTEX
  8
LAYER01
 10
3137.886257
 20
-329.34405
  0
VERTEX
  8
LAYER01
 10
3133.068852
 20
-334.161455
  0
VERTEX
  8
LAYER01
 10
3128.251446
 20
-338.015379
  0
VERTEX
  8
LAYER01
 10
3122.47056
 20
-341.869304
  0
VERTEX
  8
LAYER01
 10
3116.689673
 20
-344.759747
  0
VERTEX
  8
LAYER01
 10
3109.945306
 20
-346.686709
  0
VERTEX
  8
LAYER01
 10
3103.200938
 20
-348.613671
  0
VERTEX
  8
LAYER01
 10
3096.45657
 20
-349.577152
  0
VERTEX
  8
LAYER01
 10
3089.712203
 20
-350.540633
  0
VERTEX
  8
LAYER01
 10
3089.712203
 20
-350.540633
  0
SEQEND
  8
LAYER01
  0
POLYLINE
  8
LAYER01
  6
CONTINUOUS
 62
     7
 66
     1
 70
     1
  0
VERTEX
  8
LAYER01
 10
3166.79069
 20
-177.114038
  0
VERTEX
  8
LAYER01
 10
3268.919685
 20
-177.114038
  0
VERTEX
  8
LAYER01
 10
3268.919685
 20
-177.114038
  0
VERTEX
  8
LAYER01
 10
3280.481458
 20
-179.041
  0
VERTEX
  8
LAYER01
 10
3291.07975
 20
-183.858405
  0
VERTEX
  8
LAYER01
 10
3299.75108
 20
-189.639292
  0
VERTEX
  8
LAYER01
 10
3307.458929
 20
-197.34714
  0
VERTEX
  8
LAYER01
 10
3314.203296
 20
-205.054989
  0
VERTEX
  8
LAYER01
 10
3319.020702
 20
-214.6898
  0
VERTEX
  8
LAYER01
 10
3321.911145
 20
-226.251573
  0
VERTEX
  8
LAYER01
 10
3322.874626
 20
-236.849865
  0
VERTEX
  8
LAYER01
 10
3322.874626
 20
-236.849865
  0
VERTEX
  8
LAYER01
 10
3321.911145
 20
-248.411638
  0
VERTEX
  8
LAYER01
 10
3319.984183
 20
-258.046449
  0
VERTEX
  8
LAYER01
 10
3316.130258
 20
-267.68126
  0
VERTEX
  8
LAYER01
 10
3311.312853
 20
-276.35259
  0
VERTEX
  8
LAYER01
 10
3304.568485
 20
-284.060438
  0
VERTEX
  8
LAYER01
 10
3297.824118
 20
-289.841325
  0
VERTEX
  8
LAYER01
 10
3288.189307
 20
-295.622211
  0
VERTEX
  8
LAYER01
 10
3278.554496
 20
-299.476136
  0
VERTEX
  8
LAYER01
 10
3341.180767
 20
-383.29899
  0
VERTEX
  8
LAYER01
 10
3293.006712
 20
-383.29899
  0
VERTEX
  8
LAYER01
 10
3209.183858
 20
-276.35259
  0
VERTEX
  8
LAYER01
 10
3256.394431
 20
-276.35259
  0
VERTEX
  8
LAYER01
 10
3256.394431
 20
-276.35259
  0
VERTEX
  8
LAYER01
 10
3262.175317
 20
-274.425627
  0
VERTEX
  8
LAYER01
 10
3266.992723
 20
-272.498665
  0
VERTEX
  8
LAYER01
 10
3270.846647
 20
-268.644741
  0
VERTEX
  8
LAYER01
 10
3274.700572
 20
-264.790817
  0
VERTEX
  8
LAYER01
 10
3277.591015
 20
-259.973411
  0
VERTEX
  8
LAYER01
 10
3280.481458
 20
-255.156006
  0
VERTEX
  8
LAYER01
 10
3281.444939
 20
-249.375119
  0
VERTEX
  8
LAYER01
 10
3281.444939
 20
-243.594233
  0
VERTEX
  8
LAYER01
 10
3281.444939
 20
-243.594233
  0
VERTEX
  8
LAYER01
 10
3281.444939
 20
-237.813346
  0
VERTEX
  8
LAYER01
 10
3279.517977
 20
-232.995941
  0
VERTEX
  8
LAYER01
 10
3277.591015
 20
-228.178535
  0
VERTEX
  8
LAYER01
 10
3274.700572
 20
-223.36113
  0
VERTEX
  8
LAYER01
 10
3270.846647
 20
-219.507205
  0
VERTEX
  8
LAYER01
 10
3266.992723
 20
-216.616762
  0
VERTEX
  8
LAYER01
 10
3261.211836
 20
-213.726319
  0
VERTEX
  8
LAYER01
 10
3256.394431
 20
-211.799357
  0
VERTEX
  8
LAYER01
 10
3201.476009
 20
-211.799357
  0
VERTEX
  8
LAYER01
 10
3166.79069
 20
-177.114038
  0
VERTEX
  8
LAYER01
 10
3166.79069
 20
-177.114038
  0
SEQEND
  8
LAYER01
  0
POLYLINE
  8
LAYER01
  6
CONTINUOUS
 62
     7
 66
     1
 70
     1
  0
VERTEX
  8
LAYER01
 10
3367.194756
 20
-228.178535
  0
VERTEX
  8
LAYER01
 10
3367.194756
 20
-228.178535
  0
VERTEX
  8
LAYER01
 10
3372.012161
 20
-227.215054
  0
VERTEX
  8
LAYER01
 10
3376.829567
 20
-226.251573
  0
VERTEX
  8
LAYER01
 10
3381.646972
 20
-223.36113
  0
VERTEX
  8
LAYER01
 10
3385.500897
 20
-220.470687
  0
VERTEX
  8
LAYER01
 10
3388.39134
 20
-216.616762
  0
VERTEX
  8
LAYER01
 10
3390.318302
 20
-212.762838
  0
VERTEX
  8
LAYER01
 10
3392.245264
 20
-207.945432
  0
VERTEX
  8
LAYER01
 10
3392.245264
 20
-202.164546
  0
VERTEX
  8
LAYER01
 10
3392.245264
 20
-202.164546
  0
VERTEX
  8
LAYER01
 10
3392.245264
 20
-197.34714
  0
VERTEX
  8
LAYER01
 10
3390.318302
 20
-192.529735
  0
VERTEX
  8
LAYER01
 10
3388.39134
 20
-188.675811
  0
VERTEX
  8
LAYER01
 10
3385.500897
 20
-184.821886
  0
VERTEX
  8
LAYER01
 10
3381.646972
 20
-181.931443
  0
VERTEX
  8
LAYER01
 10
3376.829567
 20
-179.041
  0
VERTEX
  8
LAYER01
 10
3372.012161
 20
-178.077519
  0
VERTEX
  8
LAYER01
 10
3367.194756
 20
-177.114038
  0
VERTEX
  8
LAYER01
 10
3367.194756
 20
-177.114038
  0
VERTEX
  8
LAYER01
 10
3362.377351
 20
-178.077519
  0
VERTEX
  8
LAYER01
 10
3357.559945
 20
-179.041
  0
VERTEX
  8
LAYER01
 10
3352.74254
 20
-181.931443
  0
VERTEX
  8
LAYER01
 10
3348.888615
 20
-184.821886
  0
VERTEX
  8
LAYER01
 10
3345.998172
 20
-188.675811
  0
VERTEX
  8
LAYER01
 10
3344.07121
 20
-192.529735
  0
VERTEX
  8
LAYER01
 10
3342.144248
 20
-197.34714
  0
VERTEX
  8
LAYER01
 10
3342.144248
 20
-202.164546
  0
VERTEX
  8
LAYER01
 10
3342.144248
 20
-202.164546
  0
VERTEX
  8
LAYER01
 10
3342.144248
 20
-207.945432
  0
VERTEX
  8
LAYER01
 10
3344.07121
 20
-212.762838
  0
VERTEX
  8
LAYER01
 10
3345.998172
 20
-216.616762
  0
VERTEX
  8
LAYER01
 10
3348.888615
 20
-220.470687
  0
VERTEX
  8
LAYER01
 10
3352.74254
 20
-223.36113
  0
VERTEX
  8
LAYER01
 10
3357.559945
 20
-226.251573
  0
VERTEX
  8
LAYER01
 10
3362.377351
 20
-227.215054
  0
VERTEX
  8
LAYER01
 10
3367.194756
 20
-228.178535
  0
VERTEX
  8
LAYER01
 10
3367.194756
 20
-228.178535
  0
SEQEND
  8
LAYER01
  0
POLYLINE
  8
LAYER01
  6
CONTINUOUS
 62
     7
 66
     1
 70
     1
  0
VERTEX
  8
LAYER01
 10
3367.194756
 20
-180.967962
  0
VERTEX
  8
LAYER01
 10
3367.194756
 20
-180.967962
  0
VERTEX
  8
LAYER01
 10
3371.04868
 20
-181.931443
  0
VERTEX
  8
LAYER01
 10
3374.902605
 20
-182.894924
  0
VERTEX
  8
LAYER01
 10
3378.756529
 20
-184.821886
  0
VERTEX
  8
LAYER01
 10
3381.646972
 20
-187.71233
  0
VERTEX
  8
LAYER01
 10
3384.537416
 20
-190.602773
  0
VERTEX
  8
LAYER01
 10
3386.464378
 20
-194.456697
  0
VERTEX
  8
LAYER01
 10
3388.39134
 20
-198.310622
  0
VERTEX
  8
LAYER01
 10
3388.39134
 20
-202.164546
  0
VERTEX
  8
LAYER01
 10
3388.39134
 20
-202.164546
  0
VERTEX
  8
LAYER01
 10
3388.39134
 20
-206.981951
  0
VERTEX
  8
LAYER01
 10
3386.464378
 20
-210.835876
  0
VERTEX
  8
LAYER01
 10
3384.537416
 20
-214.6898
  0
VERTEX
  8
LAYER01
 10
3381.646972
 20
-217.580243
  0
VERTEX
  8
LAYER01
 10
3378.756529
 20
-220.470687
  0
VERTEX
  8
LAYER01
 10
3374.902605
 20
-222.397649
  0
VERTEX
  8
LAYER01
 10
3371.04868
 20
-223.36113
  0
VERTEX
  8
LAYER01
 10
3367.194756
 20
-223.36113
  0
VERTEX
  8
LAYER01
 10
3367.194756
 20
-223.36113
  0
VERTEX
  8
LAYER01
 10
3363.340832
 20
-223.36113
  0
VERTEX
  8
LAYER01
 10
3358.523426
 20
-222.397649
  0
VERTEX
  8
LAYER01
 10
3355.632983
 20
-220.470687
  0
VERTEX
  8
LAYER01
 10
3351.779059
 20
-217.580243
  0
VERTEX
  8
LAYER01
 10
3349.852096
 20
-214.6898
  0
VERTEX
  8
LAYER01
 10
3347.925134
 20
-210.835876
  0
VERTEX
  8
LAYER01
 10
3345.998172
 20
-206.981951
  0
VERTEX
  8
LAYER01
 10
3345.998172
 20
-202.164546
  0
VERTEX
  8
LAYER01
 10
3345.998172
 20
-202.164546
  0
VERTEX
  8
LAYER01
 10
3345.998172
 20
-198.310622
  0
VERTEX
  8
LAYER01
 10
3347.925134
 20
-194.456697
  0
VERTEX
  8
LAYER01
 10
3349.852096
 20
-190.602773
  0
VERTEX
  8
LAYER01
 10
3351.779059
 20
-187.71233
  0
VERTEX
  8
LAYER01
 10
3355.632983
 20
-184.821886
  0
VERTEX
  8
LAYER01
 10
3358.523426
 20
-182.894924
  0
VERTEX
  8
LAYER01
 10
3363.340832
 20
-181.931443
  0
VERTEX
  8
LAYER01
 10
3367.194756
 20
-180.967962
  0
VERTEX
  8
LAYER01
 10
3367.194756
 20
-180.967962
  0
SEQEND
  8
LAYER01
  0
POLYLINE
  8
LAYER01
  6
CONTINUOUS
 62
     7
 66
     1
 70
     1
  0
VERTEX
  8
LAYER01
 10
3371.04868
 20
-204.091508
  0
VERTEX
  8
LAYER01
 10
3371.04868
 20
-204.091508
  0
VERTEX
  8
LAYER01
 10
3373.939124
 20
-203.128027
  0
VERTEX
  8
LAYER01
 10
3376.829567
 20
-202.164546
  0
VERTEX
  8
LAYER01
 10
3378.756529
 20
-199.274103
  0
VERTEX
  8
LAYER01
 10
3378.756529
 20
-196.383659
  0
VERTEX
  8
LAYER01
 10
3378.756529
 20
-196.383659
  0
VERTEX
  8
LAYER01
 10
3378.756529
 20
-192.529735
  0
VERTEX
  8
LAYER01
 10
3375.866086
 20
-189.639292
  0
VERTEX
  8
LAYER01
 10
3372.975643
 20
-188.675811
  0
VERTEX
  8
LAYER01
 10
3369.121718
 20
-188.675811
  0
VERTEX
  8
LAYER01
 10
3357.559945
 20
-188.675811
  0
VERTEX
  8
LAYER01
 10
3357.559945
 20
-216.616762
  0
VERTEX
  8
LAYER01
 10
3361.41387
 20
-216.616762
  0
VERTEX
  8
LAYER01
 10
3361.41387
 20
-204.091508
  0
VERTEX
  8
LAYER01
 10
3367.194756
 20
-204.091508
  0
VERTEX
  8
LAYER01
 10
3373.939124
 20
-216.616762
  0
VERTEX
  8
LAYER01
 10
3378.756529
 20
-216.616762
  0
VERTEX
  8
LAYER01
 10
3371.04868
 20
-204.091508
  0
VERTEX
  8
LAYER01
 10
3371.04868
 20
-204.091508
  0
SEQEND
  8
LAYER01
  0
POLYLINE
  8
LAYER01
  6
CONTINUOUS
 62
     7
 66
     1
 70
     1
  0
VERTEX
  8
LAYER01
 10
3368.158237
 20
-192.529735
  0
VERTEX
  8
LAYER01
 10
3368.158237
 20
-192.529735
  0
VERTEX
  8
LAYER01
 10
3372.975643
 20
-193.493216
  0
VERTEX
  8
LAYER01
 10
3374.902605
 20
-194.456697
  0
VERTEX
  8
LAYER01
 10
3374.902605
 20
-196.383659
  0
VERTEX
  8
LAYER01
 10
3374.902605
 20
-196.383659
  0
VERTEX
  8
LAYER01
 10
3373.939124
 20
-198.310622
  0
VERTEX
  8
LAYER01
 10
3372.012161
 20
-199.274103
  0
VERTEX
  8
LAYER01
 10
3366.231275
 20
-200.237584
  0
VERTEX
  8
LAYER01
 10
3361.41387
 20
-200.237584
  0
VERTEX
  8
LAYER01
 10
3361.41387
 20
-192.529735
  0
VERTEX
  8
LAYER01
 10
3368.158237
 20
-192.529735
  0
VERTEX
  8
LAYER01
 10
3368.158237
 20
-192.529735
  0
SEQEND
  8
LAYER01
  0
ENDBLK
  8
0
  0
BLOCK
  8
0
  2
VS357012-G14
 70
     0
 10
0.0
 20
0.0
  0
TEXT
  8
LAYER01
  6
VERDECKT
 62
     1
 10
2376.790893
 20
-683.313389
 40
10.0
  1
A. Sprenger GmbH
  7
simplex
  0
TEXT
  8
LAYER01
  6
VERDECKT
 62
     1
 10
2376.790893
 20
-700.456247
 40
10.0
  1
Berner Str. 10
  7
simplex
  0
TEXT
  8
LAYER01
  6
VERDECKT
 62
     1
 10
2376.790893
 20
-717.599104
 40
10.0
  1
60437 Frankfurt
  7
simplex
  0
TEXT
  8
LAYER01
  6
VERDECKT
 62
     1
 10
2376.790893
 20
-734.741961
 40
10.0
  1
Tel.: 069 - 507 27 41
  7
simplex
  0
TEXT
  8
LAYER01
  6
VERDECKT
 62
     1
 10
2376.790893
 20
-751.884818
 40
10.0
  1
Fax: 069 - 507 72 91
  7
simplex
  0
TEXT
  8
LAYER01
  6
VERDECKT
 62
     1
 10
2376.790893
 20
-769.027675
 40
10.0
  1
info@varicor.org
  7
simplex
  0
ENDBLK
  8
0
  0
BLOCK
  8
0
  2
VS357012-G13
 70
     0
 10
0.0
 20
0.0
  0
TEXT
  8
LAYER01
  6
CONTINUOUS
 62
     1
 10
3427.609348
 20
-918.393577
 40
10.0
  1
Blatt
  7
simplex
  0
LINE
  8
LAYER01
  6
CONTINUOUS
 62
     1
 10
2362.609348
 20
-848.393577
 11
2962.609348
 21
-848.393577
  0
LINE
  8
LAYER01
  6
CONTINUOUS
 62
     1
 10
2362.609348
 20
-873.393577
 11
2962.609348
 21
-873.393577
  0
LINE
  8
LAYER01
  6
CONTINUOUS
 62
     1
 10
2362.609348
 20
-898.393577
 11
3492.609348
 21
-898.393577
  0
LINE
  8
LAYER01
  6
CONTINUOUS
 62
     1
 10
2362.609348
 20
-973.393577
 11
3492.609348
 21
-973.393577
  0
LINE
  8
LAYER01
  6
CONTINUOUS
 62
     1
 10
2362.609348
 20
-773.393577
 11
3492.609348
 21
-773.393577
  0
POLYLINE
  8
LAYER01
  6
CONTINUOUS
 62
     1
 66
     1
 70
     1
  0
VERTEX
  8
LAYER01
 10
2362.609348
 20
-1003.393577
  0
VERTEX
  8
LAYER01
 10
2362.609348
 20
-668.393577
  0
VERTEX
  8
LAYER01
 10
3492.609348
 20
-668.393577
  0
VERTEX
  8
LAYER01
 10
3492.609348
 20
-1003.393577
  0
SEQEND
  8
LAYER01
  0
LINE
  8
LAYER01
  6
CONTINUOUS
 62
     1
 10
2362.609348
 20
-798.393577
 11
2962.609348
 21
-798.393577
  0
LINE
  8
LAYER01
  6
CONTINUOUS
 62
     1
 10
2362.609348
 20
-823.393577
 11
2962.609348
 21
-823.393577
  0
LINE
  8
LAYER01
  6
CONTINUOUS
 62
     1
 10
2687.609348
 20
-668.393577
 11
2687.609348
 21
-1003.393577
  0
INSERT
  8
LAYER01
  2
VS357012-G14
 10
0.0
 20
0.0
  0
LINE
  8
LAYER01
  6
CONTINUOUS
 62
     1
 10
2362.609348
 20
-948.393577
 11
2687.609348
 21
-948.393577
  0
LINE
  8
LAYER01
  6
CONTINUOUS
 62
     1
 10
2362.609348
 20
-923.393577
 11
2687.609348
 21
-923.393577
  0
LINE
  8
LAYER01
  6
CONTINUOUS
 62
     1
 10
2407.609348
 20
-773.393577
 11
2407.609348
 21
-1003.393577
  0
TEXT
  8
LAYER01
  6
CONTINUOUS
 62
     1
 10
2371.008613
 20
-993.393577
 40
9.5
  1
Zust
  7
simplex
  0
LINE
  8
LAYER01
  6
CONTINUOUS
 62
     1
 10
2565.393963
 20
-1003.393577
 11
2565.393963
 21
-773.393577
  0
LINE
  8
LAYER01
  6
CONTINUOUS
 62
     1
 10
2642.609348
 20
-773.393577
 11
2642.609348
 21
-1003.393577
  0
TEXT
  8
LAYER01
  6
CONTINUOUS
 62
     1
 10
2451.73789
 20
-993.393577
 40
9.5
  1
Änderung
  7
simplex
  0
TEXT
  8
LAYER01
  6
CONTINUOUS
 62
     1
 10
2579.463492
 20
-993.393577
 40
9.5
  1
Datum
  7
simplex
  0
TEXT
  8
LAYER01
  6
CONTINUOUS
 62
     1
 10
2646.373251
 20
-993.393577
 40
9.5
  1
Name
  7
simplex
  0
LINE
  8
LAYER01
  6
CONTINUOUS
 62
     1
 10
3492.609348
 20
-708.393577
 11
2962.609348
 21
-708.393577
  0
LINE
  8
LAYER01
  6
CONTINUOUS
 62
     1
 10
2752.609348
 20
-873.393577
 11
2752.609348
 21
-773.393577
  0
TEXT
  8
LAYER01
  6
CONTINUOUS
 62
     1
 10
2697.609348
 20
-818.393577
 40
10.0
  1
Bearb.
  7
simplex
  0
TEXT
  8
LAYER01
  6
CONTINUOUS
 62
     1
 10
2697.609348
 20
-868.393577
 40
10.0
  1
Norm
  7
simplex
  0
TEXT
  8
LAYER01
  6
CONTINUOUS
 62
     1
 10
2697.609348
 20
-843.393577
 40
10.0
  1
Gepr.
  7
simplex
  0
TEXT
  8
LAYER01
  6
CONTINUOUS
 62
     1
 10
2777.609348
 20
-793.393577
 40
10.0
  1
Datum
  7
simplex
  0
TEXT
  8
LAYER01
  6
CONTINUOUS
 62
     1
 10
2877.609348
 20
-793.393577
 40
10.0
  1
Name
  7
simplex
  0
TEXT
  8
LAYER01
  6
CONTINUOUS
 62
     1
 10
3467.609348
 20
-968.393577
 40
10.0
  1
Bl.
  7
simplex
  0
LINE
  8
LAYER01
  6
CONTINUOUS
 62
     1
 10
2962.609348
 20
-1003.393577
 11
2962.609348
 21
-668.393577
  0
LINE
  8
LAYER01
  6
CONTINUOUS
 62
     1
 10
2847.609348
 20
-898.393577
 11
2847.609348
 21
-668.393577
  0
LINE
  8
LAYER01
  6
CONTINUOUS
 62
     1
 10
3277.609348
 20
-668.393577
 11
3277.609348
 21
-708.393577
  0
TEXT
  8
LAYER01
  6
CONTINUOUS
 62
     1
 10
2973.503347
 20
-693.923579
 40
10.0
  1
Maßstab
  7
simplex
  0
LINE
  8
LAYER01
  6
CONTINUOUS
 62
     1
 10
3417.609348
 20
-898.393577
 11
3417.609348
 21
-973.393577
  0
LINE
  8
LAYER01
  6
CONTINUOUS
 62
     1
 10
3417.609348
 20
-948.393577
 11
3492.609348
 21
-948.393577
  0
ENDBLK
  8
0
  0
BLOCK
  8
0
  2
*D14
 70
    65
 10
0.0
 20
0.0
  0
LINE
  8
LAYER01
 62
     7
 10
2182.737944
 20
781.494916
 11
1782.737938
 21
781.494916
  0
LINE
  8
LAYER01
 62
     7
 10
2182.737944
 20
603.620405
 11
2182.737944
 21
816.494916
  0
LINE
  8
LAYER01
 62
     7
 10
1782.737938
 20
603.620405
 11
1782.737938
 21
816.494916
  0
SOLID
  8
LAYER01
 62
     7
 10
2126.737944
 20
790.827876
 11
2182.737944
 21
781.494916
 12
2126.737944
 22
772.161956
 13
2126.737944
 23
772.161956
  0
SOLID
  8
LAYER01
 62
     7
 10
1838.737938
 20
790.827876
 11
1782.737938
 21
781.494916
 12
1838.737938
 22
772.161956
 13
1838.737938
 23
772.161956
  0
TEXT
  8
LAYER01
  6
CONTINUOUS
 62
     7
 10
1929.910148
 20
816.494916
 40
70.0
  1
400
  0
POINT
  8
LAYER01
 62
     7
 10
2182.737944
 20
575.620405
  0
POINT
  8
LAYER01
 62
     7
 10
1782.737938
 20
575.620405
  0
POINT
  8
LAYER01
 62
     7
 10
1782.737938
 20
781.494916
  0
ENDBLK
  8
0
  0
BLOCK
  8
0
  2
*D15
 70
    65
 10
0.0
 20
0.0
  0
LINE
  8
LAYER01
 62
     7
 10
2158.585784
 20
661.197919
 11
1807.737944
 21
661.197919
  0
LINE
  8
LAYER01
 62
     7
 10
2158.585784
 20
603.620405
 11
2158.585784
 21
696.197919
  0
LINE
  8
LAYER01
 62
     7
 10
1807.737944
 20
603.620405
 11
1807.737944
 21
696.197919
  0
SOLID
  8
LAYER01
 62
     7
 10
2102.585784
 20
670.530879
 11
2158.585784
 21
661.197919
 12
2102.585784
 22
651.864959
 13
2102.585784
 23
651.864959
  0
SOLID
  8
LAYER01
 62
     7
 10
1863.737944
 20
670.530879
 11
1807.737944
 21
661.197919
 12
1863.737944
 22
651.864959
 13
1863.737944
 23
651.864959
  0
TEXT
  8
LAYER01
  6
CONTINUOUS
 62
     7
 10
1930.334071
 20
696.197919
 40
70.0
  1
350
  0
POINT
  8
LAYER01
 62
     7
 10
2158.585784
 20
575.620405
  0
POINT
  8
LAYER01
 62
     7
 10
1807.737944
 20
575.620405
  0
POINT
  8
LAYER01
 62
     7
 10
1807.737944
 20
661.197919
  0
ENDBLK
  8
0
  0
BLOCK
  8
0
  2
VS357012-G17
 70
     0
 10
0.0
 20
0.0
  0
LINE
  8
LAYER01
  6
CONTINUOUS
 62
     7
 10
1788.68526
 20
558.396877
 11
1800.68526
 21
570.396877
  0
LINE
  8
LAYER01
  6
CONTINUOUS
 62
     7
 10
1799.619417
 20
546.880394
 11
1810.046037
 21
557.307014
  0
LINE
  8
LAYER01
  6
CONTINUOUS
 62
     7
 10
1802.761733
 20
527.57207
 11
1813.411303
 21
538.22164
  0
LINE
  8
LAYER01
  6
CONTINUOUS
 62
     7
 10
1806.724674
 20
509.08437
 11
1816.776889
 21
519.136585
  0
LINE
  8
LAYER01
  6
CONTINUOUS
 62
     7
 10
1812.583729
 20
492.492785
 11
1821.664252
 21
501.573308
  0
LINE
  8
LAYER01
  6
CONTINUOUS
 62
     7
 10
1820.917245
 20
478.37566
 11
1829.521329
 21
486.979745
  0
LINE
  8
LAYER01
  6
CONTINUOUS
 62
     7
 10
1831.392692
 20
466.400468
 11
1839.879701
 21
474.887477
  0
LINE
  8
LAYER01
  6
CONTINUOUS
 62
     7
 10
1843.899498
 20
456.456633
 11
1852.627306
 21
465.184442
  0
LINE
  8
LAYER01
  6
CONTINUOUS
 62
     7
 10
1858.534298
 20
448.640793
 11
1867.893204
 21
457.999699
  0
LINE
  8
LAYER01
  6
CONTINUOUS
 62
     7
 10
1875.784056
 20
443.43991
 11
1886.449439
 21
454.105294
  0
LINE
  8
LAYER01
  6
CONTINUOUS
 62
     7
 10
1896.248976
 20
441.45419
 11
1907.667048
 21
452.872262
  0
LINE
  8
LAYER01
  6
CONTINUOUS
 62
     7
 10
1917.527397
 20
440.281971
 11
1928.604145
 21
451.358719
  0
LINE
  8
LAYER01
  6
CONTINUOUS
 62
     7
 10
1937.799242
 20
438.103176
 11
1948.222549
 21
448.526483
  0
LINE
  8
LAYER01
  6
CONTINUOUS
 62
     7
 10
1949.918924
 20
427.772217
 11
1959.637752
 21
437.491045
  0
ENDBLK
  8
0
  0
BLOCK
  8
0
  2
*D17
 70
    65
 10
0.0
 20
0.0
  0
LINE
  8
LAYER01
 62
     7
 10
1712.27903
 20
570.396877
 11
1712.27903
 21
450.396877
  0
LINE
  8
LAYER01
 62
     7
 10
1754.737938
 20
570.396877
 11
1677.27903
 21
570.396877
  0
LINE
  8
LAYER01
 62
     7
 10
1754.737938
 20
450.396877
 11
1677.27903
 21
450.396877
  0
SOLID
  8
LAYER01
 62
     7
 10
1702.94607
 20
514.396877
 11
1712.27903
 21
570.396877
 12
1721.61199
 22
514.396877
 13
1721.61199
 23
514.396877
  0
SOLID
  8
LAYER01
 62
     7
 10
1702.94607
 20
506.396877
 11
1712.27903
 21
450.396877
 12
1721.61199
 22
506.396877
 13
1721.61199
 23
506.396877
  0
TEXT
  8
LAYER01
  6
CONTINUOUS
 62
     7
 10
1677.27903
 20
457.569084
 40
70.0
  1
120
 50
90.0
  0
POINT
  8
LAYER01
 62
     7
 10
1782.737938
 20
570.396877
  0
POINT
  8
LAYER01
 62
     7
 10
1782.737938
 20
450.396877
  0
POINT
  8
LAYER01
 62
     7
 10
1712.27903
 20
450.396877
  0
ENDBLK
  8
0
  0
BLOCK
  8
0
  2
VS357012-G19
 70
     0
 10
0.0
 20
0.0
  0
LINE
  8
LAYER01
  6
CONTINUOUS
 62
     7
 10
2017.270845
 20
427.772217
 11
2023.419909
 21
433.921281
  0
LINE
  8
LAYER01
  6
CONTINUOUS
 62
     7
 10
2027.555425
 20
438.056798
 11
2041.239474
 21
451.740846
  0
LINE
  8
LAYER01
  6
CONTINUOUS
 62
     7
 10
2157.276063
 20
567.777435
 11
2159.895505
 21
570.396877
  0
LINE
  8
LAYER01
  6
CONTINUOUS
 62
     7
 10
2052.528322
 20
440.579054
 11
2065.209376
 21
453.260108
  0
LINE
  8
LAYER01
  6
CONTINUOUS
 62
     7
 10
2152.469964
 20
540.520696
 11
2182.346145
 21
570.396877
  0
LINE
  8
LAYER01
  6
CONTINUOUS
 62
     7
 10
2076.220624
 20
441.820715
 11
2090.287442
 21
455.887534
  0
LINE
  8
LAYER01
  6
CONTINUOUS
 62
     7
 10
2147.490703
 20
513.090794
 11
2162.357331
 21
527.957423
  0
LINE
  8
LAYER01
  6
CONTINUOUS
 62
     7
 10
2104.539507
 20
447.688959
 11
2155.52226
 21
498.671711
  0
ENDBLK
  8
0
  0
ENDSEC
  0
SECTION
  2
ENTITIES
  0
POLYLINE
  8
LAYER01
  6
CONTINUOUS
 62
     7
 66
     1
 70
     1
  0
VERTEX
  8
LAYER01
 10
-499.565388
 20
-1003.393577
  0
VERTEX
  8
LAYER01
 10
-499.565388
 20
1782.752127
  0
VERTEX
  8
LAYER01
 10
3492.609348
 20
1782.752127
  0
VERTEX
  8
LAYER01
 10
3492.609348
 20
-1003.393577
  0
SEQEND
  8
LAYER01
  0
LINE
  8
LAYER01
  6
CONTINUOUS
 62
     7
 10
1081.615395
 20
574.248087
 11
1081.615395
 21
1900.971716
  0
DIMENSION
  8
LAYER01
 62
     7
  2
*D0
 10
1577.736336
 20
427.772216
 11
1507.736336
 21
498.411833
 13
1782.737938
 23
570.396877
 14
1782.737938
 24
427.772216
 50
90.0
 53
90.0
  0
ARC
  8
LAYER01
  6
CONTINUOUS
 62
     7
 10
751.615395
 20
415.396877
 40
20.0
 50
180.0
 51
270.0
  0
ARC
  8
LAYER01
  6
CONTINUOUS
 62
     7
 10
751.615395
 20
415.396877
 40
45.0
 50
180.0
 51
270.0
  0
ARC
  8
LAYER01
  6
CONTINUOUS
 62
     7
 10
1411.615395
 20
415.396877
 40
20.0
 50
270.0
 51
0.0
  0
ARC
  8
LAYER01
  6
CONTINUOUS
 62
     7
 10
1411.615395
 20
415.396877
 40
45.0
 50
270.0
 51
0.0
  0
DIMENSION
  8
LAYER01
 62
     7
  2
*D1
 10
430.611822
 20
370.396874
 11
360.611822
 21
570.396877
 13
695.265768
 23
770.39688
 14
695.265768
 24
370.396874
 50
90.0
 53
90.0
  0
DIMENSION
  8
LAYER01
 62
     7
  2
*D2
 10
539.663352
 20
395.39688
 11
469.663352
 21
570.396877
 13
695.265768
 23
745.396874
 14
695.265768
 24
395.39688
 50
90.0
 53
90.0
  0
DIMENSION
  8
LAYER01
 62
     7
  2
*D3
 10
727.504833
 20
385.165941
 11
955.077177
 21
465.441097
 70
     4
 15
739.143529
 25
401.43065
 40
78.710842
  0
TEXT
  8
LAYER01
  6
CONTINUOUS
 62
     7
 10
185.681856
 20
-458.155456
 40
35.0
  1
Unterbauwaschtisch VS-35-70-12
  7
simplex
  0
LINE
  8
LAYER01
  6
CONTINUOUS
 62
     7
 10
1411.615408
 20
370.396874
 11
751.615382
 21
370.396874
  0
LINE
  8
LAYER01
  6
CONTINUOUS
 62
     7
 10
1014.778189
 20
-67.032556
 11
811.987258
 21
-56.404735
  0
LINE
  8
LAYER01
  6
CONTINUOUS
 62
     7
 10
1015.615396
 20
-55.059965
 11
812.614895
 21
-44.421162
  0
LINE
  8
LAYER01
  6
CONTINUOUS
 62
     7
 10
751.615382
 20
62.940036
 11
1081.615395
 21
62.940036
  0
INSERT
  8
LAYER01
  2
VS357012-G5
 10
0.0
 20
0.0
  0
LINE
  8
LAYER01
  6
CONTINUOUS
 62
     7
 10
751.615382
 20
395.39688
 11
1081.615395
 21
395.39688
  0
DIMENSION
  8
LAYER01
 62
     7
  2
*D5
 10
1431.615389
 20
146.391045
 11
1081.615395
 21
216.391045
 13
731.615401
 23
62.940036
 14
1431.615389
 24
62.940036
  0
POLYLINE
  8
LAYER01
  6
CONTINUOUS
 62
     7
 66
     1
  0
VERTEX
  8
LAYER01
 10
722.715951
 20
44.334021
  0
VERTEX
  8
LAYER01
 10
722.726904
 20
44.272607
  0
VERTEX
  8
LAYER01
 10
722.737887
 20
44.211035
  0
VERTEX
  8
LAYER01
 10
722.748929
 20
44.149148
  0
VERTEX
  8
LAYER01
 10
722.76006
 20
44.08679
  0
VERTEX
  8
LAYER01
 10
722.771295
 20
44.023876
  0
VERTEX
  8
LAYER01
 10
722.782634
 20
43.960407
  0
VERTEX
  8
LAYER01
 10
722.794075
 20
43.896387
  0
VERTEX
  8
LAYER01
 10
722.805619
 20
43.831822
  0
VERTEX
  8
LAYER01
 10
722.817263
 20
43.766717
  0
VERTEX
  8
LAYER01
 10
722.829006
 20
43.701076
  0
VERTEX
  8
LAYER01
 10
722.840847
 20
43.634905
  0
VERTEX
  8
LAYER01
 10
722.852785
 20
43.568208
  0
VERTEX
  8
LAYER01
 10
722.864818
 20
43.500991
  0
VERTEX
  8
LAYER01
 10
722.876946
 20
43.433259
  0
VERTEX
  8
LAYER01
 10
722.889167
 20
43.365016
  0
VERTEX
  8
LAYER01
 10
722.90148
 20
43.296267
  0
VERTEX
  8
LAYER01
 10
722.913884
 20
43.227017
  0
VERTEX
  8
LAYER01
 10
722.926383
 20
43.157241
  0
VERTEX
  8
LAYER01
 10
722.938986
 20
43.086889
  0
VERTEX
  8
LAYER01
 10
722.951703
 20
43.015906
  0
VERTEX
  8
LAYER01
 10
722.964544
 20
42.944243
  0
VERTEX
  8
LAYER01
 10
722.977517
 20
42.871845
  0
VERTEX
  8
LAYER01
 10
722.990632
 20
42.798662
  0
VERTEX
  8
LAYER01
 10
723.003899
 20
42.72464
  0
VERTEX
  8
LAYER01
 10
723.017326
 20
42.649728
  0
VERTEX
  8
LAYER01
 10
723.030924
 20
42.573873
  0
VERTEX
  8
LAYER01
 10
723.044702
 20
42.497022
  0
VERTEX
  8
LAYER01
 10
723.058668
 20
42.419124
  0
VERTEX
  8
LAYER01
 10
723.072835
 20
42.340117
  0
VERTEX
  8
LAYER01
 10
723.087219
 20
42.259909
  0
VERTEX
  8
LAYER01
 10
723.101836
 20
42.178398
  0
VERTEX
  8
LAYER01
 10
723.116706
 20
42.095487
  0
VERTEX
  8
LAYER01
 10
723.131845
 20
42.011076
  0
VERTEX
  8
LAYER01
 10
723.147271
 20
41.925065
  0
VERTEX
  8
LAYER01
 10
723.163002
 20
41.837354
  0
VERTEX
  8
LAYER01
 10
723.179055
 20
41.747844
  0
VERTEX
  8
LAYER01
 10
723.195448
 20
41.656435
  0
VERTEX
  8
LAYER01
 10
723.212199
 20
41.563028
  0
VERTEX
  8
LAYER01
 10
723.229332
 20
41.467481
  0
VERTEX
  8
LAYER01
 10
723.24689
 20
41.369559
  0
VERTEX
  8
LAYER01
 10
723.264917
 20
41.269013
  0
VERTEX
  8
LAYER01
 10
723.283457
 20
41.165595
  0
VERTEX
  8
LAYER01
 10
723.302554
 20
41.059057
  0
VERTEX
  8
LAYER01
 10
723.322252
 20
40.949149
  0
VERTEX
  8
LAYER01
 10
723.342602
 20
40.83559
  0
VERTEX
  8
LAYER01
 10
723.363685
 20
40.717919
  0
VERTEX
  8
LAYER01
 10
723.385594
 20
40.595619
  0
VERTEX
  8
LAYER01
 10
723.408419
 20
40.468171
  0
VERTEX
  8
LAYER01
 10
723.432253
 20
40.335057
  0
VERTEX
  8
LAYER01
 10
723.457193
 20
40.195728
  0
VERTEX
  8
LAYER01
 10
723.483417
 20
40.049168
  0
VERTEX
  8
LAYER01
 10
723.511168
 20
39.894003
  0
VERTEX
  8
LAYER01
 10
723.540686
 20
39.728849
  0
VERTEX
  8
LAYER01
 10
723.572216
 20
39.552322
  0
VERTEX
  8
LAYER01
 10
723.606022
 20
39.362911
  0
VERTEX
  8
LAYER01
 10
723.642417
 20
39.158858
  0
VERTEX
  8
LAYER01
 10
723.681717
 20
38.938377
  0
VERTEX
  8
LAYER01
 10
723.7242
 20
38.699889
  0
VERTEX
  8
LAYER01
 10
723.769833
 20
38.443464
  0
VERTEX
  8
LAYER01
 10
723.818088
 20
38.171948
  0
VERTEX
  8
LAYER01
 10
723.867763
 20
37.892063
  0
VERTEX
  8
LAYER01
 10
723.91731
 20
37.612596
  0
VERTEX
  8
LAYER01
 10
723.965396
 20
37.341098
  0
VERTEX
  8
LAYER01
 10
724.011204
 20
37.082163
  0
VERTEX
  8
LAYER01
 10
724.05463
 20
36.836418
  0
VERTEX
  8
LAYER01
 10
724.095736
 20
36.60357
  0
VERTEX
  8
LAYER01
 10
724.13459
 20
36.383297
  0
VERTEX
  8
LAYER01
 10
724.17135
 20
36.174736
  0
VERTEX
  8
LAYER01
 10
724.206255
 20
35.97655
  0
VERTEX
  8
LAYER01
 10
724.239546
 20
35.787384
  0
VERTEX
  8
LAYER01
 10
724.271464
 20
35.605883
  0
VERTEX
  8
LAYER01
 10
724.302228
 20
35.430821
  0
VERTEX
  8
LAYER01
 10
724.331957
 20
35.26154
  0
VERTEX
  8
LAYER01
 10
724.360742
 20
35.097536
  0
VERTEX
  8
LAYER01
 10
724.388673
 20
34.938306
  0
VERTEX
  8
LAYER01
 10
724.415842
 20
34.783347
  0
VERTEX
  8
LAYER01
 10
724.442324
 20
34.632238
  0
VERTEX
  8
LAYER01
 10
724.468171
 20
34.484692
  0
VERTEX
  8
LAYER01
 10
724.493432
 20
34.340433
  0
VERTEX
  8
LAYER01
 10
724.518156
 20
34.199185
  0
VERTEX
  8
LAYER01
 10
724.542392
 20
34.060673
  0
VERTEX
  8
LAYER01
 10
724.566189
 20
33.924628
  0
VERTEX
  8
LAYER01
 10
724.589579
 20
33.790869
  0
VERTEX
  8
LAYER01
 10
724.612585
 20
33.659267
  0
VERTEX
  8
LAYER01
 10
724.635229
 20
33.529698
  0
VERTEX
  8
LAYER01
 10
724.657534
 20
33.402036
  0
VERTEX
  8
LAYER01
 10
724.679523
 20
33.276155
  0
VERTEX
  8
LAYER01
 10
724.701217
 20
33.151931
  0
VERTEX
  8
LAYER01
 10
724.722639
 20
33.029246
  0
VERTEX
  8
LAYER01
 10
724.743801
 20
32.908022
  0
VERTEX
  8
LAYER01
 10
724.764716
 20
32.788193
  0
VERTEX
  8
LAYER01
 10
724.785394
 20
32.669693
  0
VERTEX
  8
LAYER01
 10
724.805848
 20
32.552459
  0
VERTEX
  8
LAYER01
 10
724.826089
 20
32.436423
  0
VERTEX
  8
LAYER01
 10
724.846129
 20
32.321522
  0
VERTEX
  8
LAYER01
 10
724.865979
 20
32.207689
  0
VERTEX
  8
LAYER01
 10
724.88565
 20
32.094864
  0
VERTEX
  8
LAYER01
 10
724.905148
 20
31.98301
  0
VERTEX
  8
LAYER01
 10
724.92448
 20
31.872091
  0
VERTEX
  8
LAYER01
 10
724.943653
 20
31.762073
  0
VERTEX
  8
LAYER01
 10
724.962672
 20
31.652924
  0
VERTEX
  8
LAYER01
 10
724.981545
 20
31.544607
  0
VERTEX
  8
LAYER01
 10
725.000276
 20
31.43709
  0
VERTEX
  8
LAYER01
 10
725.018873
 20
31.330338
  0
VERTEX
  8
LAYER01
 10
725.037342
 20
31.224317
  0
VERTEX
  8
LAYER01
 10
725.055689
 20
31.118995
  0
VERTEX
  8
LAYER01
 10
725.073917
 20
31.014349
  0
VERTEX
  8
LAYER01
 10
725.09203
 20
30.91036
  0
VERTEX
  8
LAYER01
 10
725.110032
 20
30.807009
  0
VERTEX
  8
LAYER01
 10
725.127925
 20
30.704277
  0
VERTEX
  8
LAYER01
 10
725.145712
 20
30.602143
  0
VERTEX
  8
LAYER01
 10
725.163398
 20
30.50059
  0
VERTEX
  8
LAYER01
 10
725.180986
 20
30.399598
  0
VERTEX
  8
LAYER01
 10
725.198478
 20
30.299148
  0
VERTEX
  8
LAYER01
 10
725.215878
 20
30.199219
  0
VERTEX
  8
LAYER01
 10
725.233189
 20
30.099797
  0
VERTEX
  8
LAYER01
 10
725.250414
 20
30.000868
  0
VERTEX
  8
LAYER01
 10
725.267553
 20
29.90242
  0
VERTEX
  8
LAYER01
 10
725.284611
 20
29.804444
  0
VERTEX
  8
LAYER01
 10
725.301587
 20
29.706927
  0
VERTEX
  8
LAYER01
 10
725.318486
 20
29.609857
  0
VERTEX
  8
LAYER01
 10
725.335309
 20
29.513224
  0
VERTEX
  8
LAYER01
 10
725.352057
 20
29.417016
  0
VERTEX
  8
LAYER01
 10
725.368734
 20
29.321221
  0
VERTEX
  8
LAYER01
 10
725.385342
 20
29.225829
  0
VERTEX
  8
LAYER01
 10
725.401881
 20
29.130827
  0
VERTEX
  8
LAYER01
 10
725.418356
 20
29.036206
  0
VERTEX
  8
LAYER01
 10
725.434765
 20
28.941959
  0
VERTEX
  8
LAYER01
 10
725.451111
 20
28.848079
  0
VERTEX
  8
LAYER01
 10
725.467396
 20
28.75456
  0
VERTEX
  8
LAYER01
 10
725.483619
 20
28.661394
  0
VERTEX
  8
LAYER01
 10
725.499782
 20
28.568574
  0
VERTEX
  8
LAYER01
 10
725.515887
 20
28.476095
  0
VERTEX
  8
LAYER01
 10
725.531934
 20
28.383947
  0
VERTEX
  8
LAYER01
 10
725.547926
 20
28.292126
  0
VERTEX
  8
LAYER01
 10
725.563862
 20
28.200623
  0
VERTEX
  8
LAYER01
 10
725.579744
 20
28.109433
  0
VERTEX
  8
LAYER01
 10
725.595573
 20
28.018547
  0
VERTEX
  8
LAYER01
 10
725.611351
 20
27.927961
  0
VERTEX
  8
LAYER01
 10
725.627078
 20
27.837669
  0
VERTEX
  8
LAYER01
 10
725.642755
 20
27.747668
  0
VERTEX
  8
LAYER01
 10
725.658383
 20
27.657953
  0
VERTEX
  8
LAYER01
 10
725.673962
 20
27.56852
  0
VERTEX
  8
LAYER01
 10
725.689494
 20
27.479365
  0
VERTEX
  8
LAYER01
 10
725.704979
 20
27.390483
  0
VERTEX
  8
LAYER01
 10
725.720418
 20
27.30187
  0
VERTEX
  8
LAYER01
 10
725.735812
 20
27.213523
  0
VERTEX
  8
LAYER01
 10
725.751162
 20
27.125435
  0
VERTEX
  8
LAYER01
 10
725.766468
 20
27.037604
  0
VERTEX
  8
LAYER01
 10
725.781731
 20
26.950025
  0
VERTEX
  8
LAYER01
 10
725.796953
 20
26.862694
  0
VERTEX
  8
LAYER01
 10
725.812134
 20
26.775606
  0
VERTEX
  8
LAYER01
 10
725.827274
 20
26.688759
  0
VERTEX
  8
LAYER01
 10
725.842374
 20
26.602151
  0
VERTEX
  8
LAYER01
 10
725.857434
 20
26.515778
  0
VERTEX
  8
LAYER01
 10
725.872455
 20
26.429638
  0
VERTEX
  8
LAYER01
 10
725.887438
 20
26.343728
  0
VERTEX
  8
LAYER01
 10
725.902382
 20
26.258045
  0
VERTEX
  8
LAYER01
 10
725.917289
 20
26.172588
  0
VERTEX
  8
LAYER01
 10
725.932158
 20
26.087353
  0
VERTEX
  8
LAYER01
 10
725.94699
 20
26.002338
  0
VERTEX
  8
LAYER01
 10
725.961786
 20
25.91754
  0
VERTEX
  8
LAYER01
 10
725.976546
 20
25.832957
  0
VERTEX
  8
LAYER01
 10
725.99127
 20
25.748585
  0
VERTEX
  8
LAYER01
 10
726.00596
 20
25.664423
  0
VERTEX
  8
LAYER01
 10
726.020615
 20
25.580467
  0
VERTEX
  8
LAYER01
 10
726.035235
 20
25.496715
  0
VERTEX
  8
LAYER01
 10
726.049823
 20
25.413166
  0
VERTEX
  8
LAYER01
 10
726.064376
 20
25.329818
  0
VERTEX
  8
LAYER01
 10
726.078897
 20
25.246668
  0
VERTEX
  8
LAYER01
 10
726.093384
 20
25.163715
  0
VERTEX
  8
LAYER01
 10
726.10784
 20
25.080958
  0
VERTEX
  8
LAYER01
 10
726.122263
 20
24.998394
  0
VERTEX
  8
LAYER01
 10
726.136655
 20
24.916021
  0
VERTEX
  8
LAYER01
 10
726.151015
 20
24.833839
  0
VERTEX
  8
LAYER01
 10
726.165344
 20
24.751844
  0
VERTEX
  8
LAYER01
 10
726.179642
 20
24.670036
  0
VERTEX
  8
LAYER01
 10
726.19391
 20
24.588412
  0
VERTEX
  8
LAYER01
 10
726.208148
 20
24.50697
  0
VERTEX
  8
LAYER01
 10
726.222357
 20
24.425709
  0
VERTEX
  8
LAYER01
 10
726.236536
 20
24.344628
  0
VERTEX
  8
LAYER01
 10
726.250686
 20
24.263723
  0
VERTEX
  8
LAYER01
 10
726.264807
 20
24.182995
  0
VERTEX
  8
LAYER01
 10
726.2789
 20
24.102441
  0
VERTEX
  8
LAYER01
 10
726.292964
 20
24.022062
  0
VERTEX
  8
LAYER01
 10
726.307
 20
23.941857
  0
VERTEX
  8
LAYER01
 10
726.321008
 20
23.861826
  0
VERTEX
  8
LAYER01
 10
726.334988
 20
23.781967
  0
VERTEX
  8
LAYER01
 10
726.348939
 20
23.70228
  0
VERTEX
  8
LAYER01
 10
726.362863
 20
23.622765
  0
VERTEX
  8
LAYER01
 10
726.376759
 20
23.54342
  0
VERTEX
  8
LAYER01
 10
726.390627
 20
23.464246
  0
VERTEX
  8
LAYER01
 10
726.404468
 20
23.385242
  0
VERTEX
  8
LAYER01
 10
726.418281
 20
23.306406
  0
VERTEX
  8
LAYER01
 10
726.432067
 20
23.227739
  0
VERTEX
  8
LAYER01
 10
726.445826
 20
23.149239
  0
VERTEX
  8
LAYER01
 10
726.459558
 20
23.070907
  0
VERTEX
  8
LAYER01
 10
726.473263
 20
22.992741
  0
VERTEX
  8
LAYER01
 10
726.486941
 20
22.914741
  0
VERTEX
  8
LAYER01
 10
726.500593
 20
22.836904
  0
VERTEX
  8
LAYER01
 10
726.514219
 20
22.759229
  0
VERTEX
  8
LAYER01
 10
726.527819
 20
22.681713
  0
VERTEX
  8
LAYER01
 10
726.541395
 20
22.604353
  0
VERTEX
  8
LAYER01
 10
726.554947
 20
22.527149
  0
VERTEX
  8
LAYER01
 10
726.568474
 20
22.450097
  0
VERTEX
  8
LAYER01
 10
726.581979
 20
22.373195
  0
VERTEX
  8
LAYER01
 10
726.59546
 20
22.296441
  0
VERTEX
  8
LAYER01
 10
726.608919
 20
22.219834
  0
VERTEX
  8
LAYER01
 10
726.622355
 20
22.14337
  0
VERTEX
  8
LAYER01
 10
726.635771
 20
22.067048
  0
VERTEX
  8
LAYER01
 10
726.649165
 20
21.990865
  0
VERTEX
  8
LAYER01
 10
726.662538
 20
21.914819
  0
VERTEX
  8
LAYER01
 10
726.675892
 20
21.838908
  0
VERTEX
  8
LAYER01
 10
726.689226
 20
21.76313
  0
VERTEX
  8
LAYER01
 10
726.702541
 20
21.687482
  0
VERTEX
  8
LAYER01
 10
726.715837
 20
21.611963
  0
VERTEX
  8
LAYER01
 10
726.729114
 20
21.536575
  0
VERTEX
  8
LAYER01
 10
726.742371
 20
21.461321
  0
VERTEX
  8
LAYER01
 10
726.755607
 20
21.386206
  0
VERTEX
  8
LAYER01
 10
726.768821
 20
21.311235
  0
VERTEX
  8
LAYER01
 10
726.782011
 20
21.236413
  0
VERTEX
  8
LAYER01
 10
726.795177
 20
21.161743
  0
VERTEX
  8
LAYER01
 10
726.808318
 20
21.087232
  0
VERTEX
  8
LAYER01
 10
726.821433
 20
21.012882
  0
VERTEX
  8
LAYER01
 10
726.83452
 20
20.9387
  0
VERTEX
  8
LAYER01
 10
726.847579
 20
20.864689
  0
VERTEX
  8
LAYER01
 10
726.860609
 20
20.790854
  0
VERTEX
  8
LAYER01
 10
726.873608
 20
20.7172
  0
VERTEX
  8
LAYER01
 10
726.886575
 20
20.643731
  0
VERTEX
  8
LAYER01
 10
726.89951
 20
20.570451
  0
VERTEX
  8
LAYER01
 10
726.912411
 20
20.497367
  0
VERTEX
  8
LAYER01
 10
726.925278
 20
20.424481
  0
VERTEX
  8
LAYER01
 10
726.938109
 20
20.351799
  0
VERTEX
  8
LAYER01
 10
726.950903
 20
20.279325
  0
VERTEX
  8
LAYER01
 10
726.96366
 20
20.207061
  0
VERTEX
  8
LAYER01
 10
726.976384
 20
20.134991
  0
VERTEX
  8
LAYER01
 10
726.989078
 20
20.063093
  0
VERTEX
  8
LAYER01
 10
727.001748
 20
19.991345
  0
VERTEX
  8
LAYER01
 10
727.014399
 20
19.919723
  0
VERTEX
  8
LAYER01
 10
727.027036
 20
19.848206
  0
VERTEX
  8
LAYER01
 10
727.039663
 20
19.776771
  0
VERTEX
  8
LAYER01
 10
727.052286
 20
19.705395
  0
VERTEX
  8
LAYER01
 10
727.064908
 20
19.634057
  0
VERTEX
  8
LAYER01
 10
727.077535
 20
19.562734
  0
VERTEX
  8
LAYER01
 10
727.090172
 20
19.491403
  0
VERTEX
  8
LAYER01
 10
727.102824
 20
19.420042
  0
VERTEX
  8
LAYER01
 10
727.115495
 20
19.348629
  0
VERTEX
  8
LAYER01
 10
727.12819
 20
19.277141
  0
VERTEX
  8
LAYER01
 10
727.140914
 20
19.205556
  0
VERTEX
  8
LAYER01
 10
727.153673
 20
19.133851
  0
VERTEX
  8
LAYER01
 10
727.166469
 20
19.062003
  0
VERTEX
  8
LAYER01
 10
727.17931
 20
18.989992
  0
VERTEX
  8
LAYER01
 10
727.192199
 20
18.917793
  0
VERTEX
  8
LAYER01
 10
727.205141
 20
18.845385
  0
VERTEX
  8
LAYER01
 10
727.218133
 20
18.772778
  0
VERTEX
  8
LAYER01
 10
727.231152
 20
18.700064
  0
SEQEND
  8
LAYER01
  0
POLYLINE
  8
LAYER01
  6
CONTINUOUS
 62
     7
 66
     1
  0
VERTEX
  8
LAYER01
 10
812.615395
 20
-44.411773
  0
VERTEX
  8
LAYER01
 10
811.473589
 20
-44.343613
  0
VERTEX
  8
LAYER01
 10
810.332873
 20
-44.258879
  0
VERTEX
  8
LAYER01
 10
809.193467
 20
-44.157598
  0
VERTEX
  8
LAYER01
 10
808.055587
 20
-44.039796
  0
VERTEX
  8
LAYER01
 10
806.919452
 20
-43.9055
  0
VERTEX
  8
LAYER01
 10
805.785279
 20
-43.754737
  0
VERTEX
  8
LAYER01
 10
804.653287
 20
-43.587532
  0
VERTEX
  8
LAYER01
 10
803.523693
 20
-43.403914
  0
VERTEX
  8
LAYER01
 10
802.396714
 20
-43.203908
  0
VERTEX
  8
LAYER01
 10
801.27257
 20
-42.987541
  0
VERTEX
  8
LAYER01
 10
800.151477
 20
-42.754839
  0
VERTEX
  8
LAYER01
 10
799.033653
 20
-42.50583
  0
VERTEX
  8
LAYER01
 10
797.919316
 20
-42.240555
  0
VERTEX
  8
LAYER01
 10
796.808684
 20
-41.959057
  0
VERTEX
  8
LAYER01
 10
795.701972
 20
-41.661385
  0
VERTEX
  8
LAYER01
 10
794.599399
 20
-41.347582
  0
VERTEX
  8
LAYER01
 10
793.501182
 20
-41.017696
  0
VERTEX
  8
LAYER01
 10
792.407538
 20
-40.671772
  0
VERTEX
  8
LAYER01
 10
791.318685
 20
-40.309856
  0
VERTEX
  8
LAYER01
 10
790.234839
 20
-39.931994
  0
VERTEX
  8
LAYER01
 10
789.156218
 20
-39.538232
  0
VERTEX
  8
LAYER01
 10
788.083039
 20
-39.128616
  0
VERTEX
  8
LAYER01
 10
787.015519
 20
-38.703193
  0
VERTEX
  8
LAYER01
 10
785.953873
 20
-38.262024
  0
VERTEX
  8
LAYER01
 10
784.898309
 20
-37.805193
  0
VERTEX
  8
LAYER01
 10
783.849038
 20
-37.332783
  0
VERTEX
  8
LAYER01
 10
782.806268
 20
-36.844877
  0
VERTEX
  8
LAYER01
 10
781.770211
 20
-36.341559
  0
VERTEX
  8
LAYER01
 10
780.741075
 20
-35.822913
  0
VERTEX
  8
LAYER01
 10
779.71907
 20
-35.28902
  0
VERTEX
  8
LAYER01
 10
778.704405
 20
-34.739966
  0
VERTEX
  8
LAYER01
 10
777.69729
 20
-34.175833
  0
VERTEX
  8
LAYER01
 10
776.697936
 20
-33.596705
  0
VERTEX
  8
LAYER01
 10
775.70655
 20
-33.002665
  0
VERTEX
  8
LAYER01
 10
774.723344
 20
-32.393798
  0
VERTEX
  8
LAYER01
 10
773.748526
 20
-31.770196
  0
VERTEX
  8
LAYER01
 10
772.782307
 20
-31.131948
  0
VERTEX
  8
LAYER01
 10
771.824897
 20
-30.479147
  0
VERTEX
  8
LAYER01
 10
770.876505
 20
-29.811882
  0
VERTEX
  8
LAYER01
 10
769.937342
 20
-29.130246
  0
VERTEX
  8
LAYER01
 10
769.007616
 20
-28.43433
  0
VERTEX
  8
LAYER01
 10
768.087539
 20
-27.724224
  0
VERTEX
  8
LAYER01
 10
767.177319
 20
-27.000019
  0
VERTEX
  8
LAYER01
 10
766.277167
 20
-26.261807
  0
VERTEX
  8
LAYER01
 10
765.387293
 20
-25.509679
  0
VERTEX
  8
LAYER01
 10
764.507904
 20
-24.743732
  0
VERTEX
  8
LAYER01
 10
763.639199
 20
-23.964098
  0
VERTEX
  8
LAYER01
 10
762.781374
 20
-23.17092
  0
VERTEX
  8
LAYER01
 10
761.934623
 20
-22.364344
  0
VERTEX
  8
LAYER01
 10
761.099141
 20
-21.544513
  0
VERTEX
  8
LAYER01
 10
760.275123
 20
-20.711571
  0
VERTEX
  8
LAYER01
 10
759.462765
 20
-19.865662
  0
VERTEX
  8
LAYER01
 10
758.662261
 20
-19.006932
  0
VERTEX
  8
LAYER01
 10
757.873807
 20
-18.135523
  0
VERTEX
  8
LAYER01
 10
757.097597
 20
-17.251581
  0
VERTEX
  8
LAYER01
 10
756.333826
 20
-16.355249
  0
VERTEX
  8
LAYER01
 10
755.58269
 20
-15.446671
  0
VERTEX
  8
LAYER01
 10
754.844383
 20
-14.525992
  0
VERTEX
  8
LAYER01
 10
754.119101
 20
-13.593356
  0
VERTEX
  8
LAYER01
 10
753.407038
 20
-12.648908
  0
VERTEX
  8
LAYER01
 10
752.70839
 20
-11.69279
  0
VERTEX
  8
LAYER01
 10
752.023352
 20
-10.725148
  0
VERTEX
  8
LAYER01
 10
751.352118
 20
-9.746126
  0
VERTEX
  8
LAYER01
 10
750.694884
 20
-8.755867
  0
VERTEX
  8
LAYER01
 10
750.051844
 20
-7.754517
  0
VERTEX
  8
LAYER01
 10
749.423195
 20
-6.742218
  0
VERTEX
  8
LAYER01
 10
748.809129
 20
-5.719117
  0
VERTEX
  8
LAYER01
 10
748.209844
 20
-4.685356
  0
VERTEX
  8
LAYER01
 10
747.625527
 20
-3.6411
  0
VERTEX
  8
LAYER01
 10
747.056356
 20
-2.586547
  0
VERTEX
  8
LAYER01
 10
746.502508
 20
-1.521895
  0
VERTEX
  8
LAYER01
 10
745.96416
 20
-0.447345
  0
VERTEX
  8
LAYER01
 10
745.441489
 20
0.636903
  0
VERTEX
  8
LAYER01
 10
744.934673
 20
1.73065
  0
VERTEX
  8
LAYER01
 10
744.443887
 20
2.833697
  0
VERTEX
  8
LAYER01
 10
743.96931
 20
3.945842
  0
VERTEX
  8
LAYER01
 10
743.511119
 20
5.066887
  0
VERTEX
  8
LAYER01
 10
743.069489
 20
6.196633
  0
VERTEX
  8
LAYER01
 10
742.644599
 20
7.334878
  0
VERTEX
  8
LAYER01
 10
742.236624
 20
8.481421
  0
VERTEX
  8
LAYER01
 10
741.845735
 20
9.63605
  0
VERTEX
  8
LAYER01
 10
741.472101
 20
10.798551
  0
VERTEX
  8
LAYER01
 10
741.115894
 20
11.968711
  0
VERTEX
  8
LAYER01
 10
740.777283
 20
13.146316
  0
VERTEX
  8
LAYER01
 10
740.456437
 20
14.331152
  0
VERTEX
  8
LAYER01
 10
740.153527
 20
15.523006
  0
VERTEX
  8
LAYER01
 10
739.868723
 20
16.721663
  0
VERTEX
  8
LAYER01
 10
739.602195
 20
17.92691
  0
VERTEX
  8
LAYER01
 10
739.354112
 20
19.138533
  0
VERTEX
  8
LAYER01
 10
739.124644
 20
20.356319
  0
VERTEX
  8
LAYER01
 10
738.907767
 20
21.58294
  0
VERTEX
  8
LAYER01
 10
738.688724
 20
22.825196
  0
VERTEX
  8
LAYER01
 10
738.466875
 20
24.083364
  0
VERTEX
  8
LAYER01
 10
738.242223
 20
25.357426
  0
VERTEX
  8
LAYER01
 10
738.014773
 20
26.647359
  0
VERTEX
  8
LAYER01
 10
737.784528
 20
27.953144
  0
VERTEX
  8
LAYER01
 10
737.551491
 20
29.274761
  0
VERTEX
  8
LAYER01
 10
737.315667
 20
30.612187
  0
VERTEX
  8
LAYER01
 10
737.077084
 20
31.965257
  0
VERTEX
  8
LAYER01
 10
736.835813
 20
33.333576
  0
VERTEX
  8
LAYER01
 10
736.591926
 20
34.716729
  0
VERTEX
  8
LAYER01
 10
736.345497
 20
36.114298
  0
VERTEX
  8
LAYER01
 10
736.096598
 20
37.525869
  0
VERTEX
  8
LAYER01
 10
735.845305
 20
38.951025
  0
VERTEX
  8
LAYER01
 10
735.59169
 20
40.38935
  0
VERTEX
  8
LAYER01
 10
735.335836
 20
41.840365
  0
VERTEX
  8
LAYER01
 10
735.077893
 20
43.303235
  0
VERTEX
  8
LAYER01
 10
734.81803
 20
44.776991
  0
VERTEX
  8
LAYER01
 10
734.556418
 20
46.260669
  0
VERTEX
  8
LAYER01
 10
734.293226
 20
47.753301
  0
VERTEX
  8
LAYER01
 10
734.028626
 20
49.253923
  0
VERTEX
  8
LAYER01
 10
733.762788
 20
50.761566
  0
VERTEX
  8
LAYER01
 10
733.495883
 20
52.275261
  0
VERTEX
  8
LAYER01
 10
733.228103
 20
53.793913
  0
VERTEX
  8
LAYER01
 10
732.959669
 20
55.316279
  0
VERTEX
  8
LAYER01
 10
732.690801
 20
56.841108
  0
VERTEX
  8
LAYER01
 10
732.421719
 20
58.367148
  0
VERTEX
  8
LAYER01
 10
732.152643
 20
59.893151
  0
VERTEX
  8
LAYER01
 10
731.883795
 20
61.417864
  0
VERTEX
  8
LAYER01
 10
731.615395
 20
62.940036
  0
SEQEND
  8
LAYER01
  0
POLYLINE
  8
LAYER01
  6
CONTINUOUS
 62
     7
 66
     1
  0
VERTEX
  8
LAYER01
 10
722.711865
 20
44.329221
  0
VERTEX
  8
LAYER01
 10
722.790969
 20
43.880595
  0
VERTEX
  8
LAYER01
 10
722.870074
 20
43.431969
  0
VERTEX
  8
LAYER01
 10
722.949179
 20
42.983342
  0
VERTEX
  8
LAYER01
 10
723.028284
 20
42.534716
  0
VERTEX
  8
LAYER01
 10
723.107389
 20
42.086089
  0
VERTEX
  8
LAYER01
 10
723.186494
 20
41.637463
  0
VERTEX
  8
LAYER01
 10
723.265599
 20
41.188837
  0
VERTEX
  8
LAYER01
 10
723.344704
 20
40.74021
  0
VERTEX
  8
LAYER01
 10
723.423809
 20
40.291584
  0
VERTEX
  8
LAYER01
 10
723.502914
 20
39.842958
  0
VERTEX
  8
LAYER01
 10
723.582019
 20
39.394331
  0
VERTEX
  8
LAYER01
 10
723.661124
 20
38.945705
  0
VERTEX
  8
LAYER01
 10
723.740229
 20
38.497079
  0
VERTEX
  8
LAYER01
 10
723.819333
 20
38.048452
  0
VERTEX
  8
LAYER01
 10
723.898438
 20
37.599826
  0
VERTEX
  8
LAYER01
 10
723.977543
 20
37.151199
  0
VERTEX
  8
LAYER01
 10
724.056648
 20
36.702573
  0
VERTEX
  8
LAYER01
 10
724.135753
 20
36.253947
  0
VERTEX
  8
LAYER01
 10
724.214858
 20
35.80532
  0
VERTEX
  8
LAYER01
 10
724.293963
 20
35.356694
  0
VERTEX
  8
LAYER01
 10
724.373068
 20
34.908068
  0
VERTEX
  8
LAYER01
 10
724.452173
 20
34.459441
  0
VERTEX
  8
LAYER01
 10
724.531278
 20
34.010815
  0
VERTEX
  8
LAYER01
 10
724.610383
 20
33.562189
  0
VERTEX
  8
LAYER01
 10
724.689488
 20
33.113562
  0
VERTEX
  8
LAYER01
 10
724.768592
 20
32.664936
  0
VERTEX
  8
LAYER01
 10
724.847697
 20
32.216309
  0
VERTEX
  8
LAYER01
 10
724.926802
 20
31.767683
  0
VERTEX
  8
LAYER01
 10
725.005907
 20
31.319057
  0
VERTEX
  8
LAYER01
 10
725.085012
 20
30.87043
  0
VERTEX
  8
LAYER01
 10
725.164117
 20
30.421804
  0
VERTEX
  8
LAYER01
 10
725.243222
 20
29.973178
  0
VERTEX
  8
LAYER01
 10
725.322327
 20
29.524551
  0
VERTEX
  8
LAYER01
 10
725.401432
 20
29.075925
  0
VERTEX
  8
LAYER01
 10
725.480537
 20
28.627299
  0
VERTEX
  8
LAYER01
 10
725.559642
 20
28.178672
  0
VERTEX
  8
LAYER01
 10
725.638746
 20
27.730046
  0
VERTEX
  8
LAYER01
 10
725.717851
 20
27.281419
  0
VERTEX
  8
LAYER01
 10
725.796956
 20
26.832793
  0
VERTEX
  8
LAYER01
 10
725.876061
 20
26.384167
  0
VERTEX
  8
LAYER01
 10
725.955166
 20
25.93554
  0
VERTEX
  8
LAYER01
 10
726.034271
 20
25.486914
  0
VERTEX
  8
LAYER01
 10
726.113376
 20
25.038288
  0
VERTEX
  8
LAYER01
 10
726.192481
 20
24.589661
  0
VERTEX
  8
LAYER01
 10
726.271586
 20
24.141035
  0
VERTEX
  8
LAYER01
 10
726.350691
 20
23.692409
  0
VERTEX
  8
LAYER01
 10
726.429795
 20
23.243782
  0
VERTEX
  8
LAYER01
 10
726.5089
 20
22.795156
  0
VERTEX
  8
LAYER01
 10
726.588005
 20
22.346529
  0
VERTEX
  8
LAYER01
 10
726.66711
 20
21.897903
  0
VERTEX
  8
LAYER01
 10
726.746215
 20
21.449277
  0
VERTEX
  8
LAYER01
 10
726.82532
 20
21.00065
  0
VERTEX
  8
LAYER01
 10
726.904425
 20
20.552024
  0
VERTEX
  8
LAYER01
 10
726.98353
 20
20.103398
  0
VERTEX
  8
LAYER01
 10
727.062635
 20
19.654771
  0
VERTEX
  8
LAYER01
 10
727.14174
 20
19.206145
  0
VERTEX
  8
LAYER01
 10
727.220999
 20
18.757545
  0
VERTEX
  8
LAYER01
 10
727.301179
 20
18.309105
  0
VERTEX
  8
LAYER01
 10
727.382749
 20
17.860911
  0
VERTEX
  8
LAYER01
 10
727.466134
 20
17.413041
  0
VERTEX
  8
LAYER01
 10
727.55176
 20
16.965573
  0
VERTEX
  8
LAYER01
 10
727.639949
 20
16.518625
  0
VERTEX
  8
LAYER01
 10
727.730365
 20
16.072498
  0
VERTEX
  8
LAYER01
 10
727.82292
 20
15.627233
  0
VERTEX
  8
LAYER01
 10
727.917609
 20
15.18283
  0
VERTEX
  8
LAYER01
 10
728.014429
 20
14.739287
  0
VERTEX
  8
LAYER01
 10
728.113374
 20
14.296601
  0
VERTEX
  8
LAYER01
 10
728.214441
 20
13.854771
  0
VERTEX
  8
LAYER01
 10
728.317626
 20
13.413795
  0
VERTEX
  8
LAYER01
 10
728.422923
 20
12.973672
  0
VERTEX
  8
LAYER01
 10
728.530329
 20
12.534399
  0
VERTEX
  8
LAYER01
 10
728.639839
 20
12.095975
  0
VERTEX
  8
LAYER01
 10
728.751449
 20
11.658399
  0
VERTEX
  8
LAYER01
 10
728.865154
 20
11.221667
  0
VERTEX
  8
LAYER01
 10
728.98095
 20
10.78578
  0
VERTEX
  8
LAYER01
 10
729.098832
 20
10.350734
  0
VERTEX
  8
LAYER01
 10
729.218797
 20
9.916528
  0
VERTEX
  8
LAYER01
 10
729.340839
 20
9.483161
  0
VERTEX
  8
LAYER01
 10
729.464955
 20
9.05063
  0
VERTEX
  8
LAYER01
 10
729.59114
 20
8.618934
  0
VERTEX
  8
LAYER01
 10
729.71939
 20
8.18807
  0
VERTEX
  8
LAYER01
 10
729.8497
 20
7.758039
  0
VERTEX
  8
LAYER01
 10
729.982068
 20
7.328837
  0
VERTEX
  8
LAYER01
 10
730.116491
 20
6.900464
  0
VERTEX
  8
LAYER01
 10
730.25297
 20
6.472921
  0
VERTEX
  8
LAYER01
 10
730.391503
 20
6.046207
  0
VERTEX
  8
LAYER01
 10
730.532089
 20
5.620321
  0
VERTEX
  8
LAYER01
 10
730.674727
 20
5.195263
  0
VERTEX
  8
LAYER01
 10
730.819417
 20
4.771032
  0
VERTEX
  8
LAYER01
 10
730.966157
 20
4.347629
  0
VERTEX
  8
LAYER01
 10
731.114947
 20
3.925053
  0
VERTEX
  8
LAYER01
 10
731.265785
 20
3.503303
  0
VERTEX
  8
LAYER01
 10
731.41867
 20
3.082379
  0
VERTEX
  8
LAYER01
 10
731.573603
 20
2.662281
  0
VERTEX
  8
LAYER01
 10
731.73058
 20
2.243008
  0
VERTEX
  8
LAYER01
 10
731.889603
 20
1.824561
  0
VERTEX
  8
LAYER01
 10
732.050669
 20
1.406937
  0
VERTEX
  8
LAYER01
 10
732.213778
 20
0.990138
  0
VERTEX
  8
LAYER01
 10
732.378929
 20
0.574163
  0
VERTEX
  8
LAYER01
 10
732.54612
 20
0.159011
  0
VERTEX
  8
LAYER01
 10
732.715352
 20
-0.255318
  0
VERTEX
  8
LAYER01
 10
732.886622
 20
-0.668824
  0
VERTEX
  8
LAYER01
 10
733.05993
 20
-1.081509
  0
VERTEX
  8
LAYER01
 10
733.235276
 20
-1.493371
  0
VERTEX
  8
LAYER01
 10
733.412662
 20
-1.90441
  0
VERTEX
  8
LAYER01
 10
733.592089
 20
-2.314625
  0
VERTEX
  8
LAYER01
 10
733.773561
 20
-2.724016
  0
VERTEX
  8
LAYER01
 10
733.95708
 20
-3.13258
  0
VERTEX
  8
LAYER01
 10
734.142649
 20
-3.540318
  0
VERTEX
  8
LAYER01
 10
734.330269
 20
-3.947228
  0
VERTEX
  8
LAYER01
 10
734.519943
 20
-4.35331
  0
VERTEX
  8
LAYER01
 10
734.711674
 20
-4.758561
  0
VERTEX
  8
LAYER01
 10
734.905463
 20
-5.162982
  0
VERTEX
  8
LAYER01
 10
735.101314
 20
-5.566572
  0
VERTEX
  8
LAYER01
 10
735.299228
 20
-5.969329
  0
VERTEX
  8
LAYER01
 10
735.499208
 20
-6.371252
  0
VERTEX
  8
LAYER01
 10
735.701257
 20
-6.772341
  0
VERTEX
  8
LAYER01
 10
735.905376
 20
-7.172594
  0
VERTEX
  8
LAYER01
 10
736.111569
 20
-7.572011
  0
VERTEX
  8
LAYER01
 10
736.319837
 20
-7.970591
  0
VERTEX
  8
LAYER01
 10
736.530183
 20
-8.368332
  0
VERTEX
  8
LAYER01
 10
736.742609
 20
-8.765234
  0
VERTEX
  8
LAYER01
 10
736.957118
 20
-9.161296
  0
VERTEX
  8
LAYER01
 10
737.173716
 20
-9.556514
  0
VERTEX
  8
LAYER01
 10
737.39241
 20
-9.950888
  0
VERTEX
  8
LAYER01
 10
737.613205
 20
-10.344413
  0
VERTEX
  8
LAYER01
 10
737.836106
 20
-10.737089
  0
VERTEX
  8
LAYER01
 10
738.061117
 20
-11.128914
  0
VERTEX
  8
LAYER01
 10
738.288242
 20
-11.519885
  0
VERTEX
  8
LAYER01
 10
738.517487
 20
-11.910002
  0
VERTEX
  8
LAYER01
 10
738.748856
 20
-12.299261
  0
VERTEX
  8
LAYER01
 10
738.982353
 20
-12.687662
  0
VERTEX
  8
LAYER01
 10
739.217983
 20
-13.075202
  0
VERTEX
  8
LAYER01
 10
739.455772
 20
-13.461906
  0
VERTEX
  8
LAYER01
 10
739.69574
 20
-13.847783
  0
VERTEX
  8
LAYER01
 10
739.937826
 20
-14.232738
  0
VERTEX
  8
LAYER01
 10
740.181964
 20
-14.616673
  0
VERTEX
  8
LAYER01
 10
740.428089
 20
-14.999489
  0
VERTEX
  8
LAYER01
 10
740.676137
 20
-15.381087
  0
VERTEX
  8
LAYER01
 10
740.926041
 20
-15.761368
  0
VERTEX
  8
LAYER01
 10
741.177737
 20
-16.140234
  0
VERTEX
  8
LAYER01
 10
741.431159
 20
-16.517584
  0
VERTEX
  8
LAYER01
 10
741.686243
 20
-16.893322
  0
VERTEX
  8
LAYER01
 10
741.94294
 20
-17.267377
  0
VERTEX
  8
LAYER01
 10
742.201305
 20
-17.639866
  0
VERTEX
  8
LAYER01
 10
742.46135
 20
-18.010816
  0
VERTEX
  8
LAYER01
 10
742.723073
 20
-18.380231
  0
VERTEX
  8
LAYER01
 10
742.986471
 20
-18.748111
  0
VERTEX
  8
LAYER01
 10
743.251541
 20
-19.11446
  0
VERTEX
  8
LAYER01
 10
743.518282
 20
-19.47928
  0
VERTEX
  8
LAYER01
 10
743.78669
 20
-19.842572
  0
VERTEX
  8
LAYER01
 10
744.056765
 20
-20.204339
  0
VERTEX
  8
LAYER01
 10
744.328502
 20
-20.564583
  0
VERTEX
  8
LAYER01
 10
744.6019
 20
-20.923306
  0
VERTEX
  8
LAYER01
 10
744.876957
 20
-21.28051
  0
VERTEX
  8
LAYER01
 10
745.15367
 20
-21.636198
  0
VERTEX
  8
LAYER01
 10
745.432036
 20
-21.990372
  0
VERTEX
  8
LAYER01
 10
745.712054
 20
-22.343034
  0
VERTEX
  8
LAYER01
 10
745.99372
 20
-22.694186
  0
VERTEX
  8
LAYER01
 10
746.277033
 20
-23.04383
  0
VERTEX
  8
LAYER01
 10
746.56199
 20
-23.391969
  0
VERTEX
  8
LAYER01
 10
746.848589
 20
-23.738604
  0
VERTEX
  8
LAYER01
 10
747.136827
 20
-24.083738
  0
VERTEX
  8
LAYER01
 10
747.426702
 20
-24.427373
  0
VERTEX
  8
LAYER01
 10
747.718213
 20
-24.769511
  0
VERTEX
  8
LAYER01
 10
748.011358
 20
-25.110151
  0
VERTEX
  8
LAYER01
 10
748.306139
 20
-25.449294
  0
VERTEX
  8
LAYER01
 10
748.602557
 20
-25.786938
  0
VERTEX
  8
LAYER01
 10
748.900611
 20
-26.123084
  0
VERTEX
  8
LAYER01
 10
749.200302
 20
-26.45773
  0
VERTEX
  8
LAYER01
 10
749.501632
 20
-26.790877
  0
VERTEX
  8
LAYER01
 10
749.804599
 20
-27.122523
  0
VERTEX
  8
LAYER01
 10
750.109205
 20
-27.452669
  0
VERTEX
  8
LAYER01
 10
750.415451
 20
-27.781313
  0
VERTEX
  8
LAYER01
 10
750.723337
 20
-28.108456
  0
VERTEX
  8
LAYER01
 10
751.032863
 20
-28.434097
  0
VERTEX
  8
LAYER01
 10
751.34403
 20
-28.758234
  0
VERTEX
  8
LAYER01
 10
751.656839
 20
-29.080869
  0
VERTEX
  8
LAYER01
 10
751.97129
 20
-29.402
  0
VERTEX
  8
LAYER01
 10
752.287383
 20
-29.721627
  0
VERTEX
  8
LAYER01
 10
752.605119
 20
-30.03975
  0
VERTEX
  8
LAYER01
 10
752.924499
 20
-30.356367
  0
VERTEX
  8
LAYER01
 10
753.245523
 20
-30.671479
  0
VERTEX
  8
LAYER01
 10
753.568192
 20
-30.985085
  0
VERTEX
  8
LAYER01
 10
753.892507
 20
-31.297184
  0
VERTEX
  8
LAYER01
 10
754.21847
 20
-31.607772
  0
VERTEX
  8
LAYER01
 10
754.546087
 20
-31.916847
  0
VERTEX
  8
LAYER01
 10
754.87536
 20
-32.224406
  0
VERTEX
  8
LAYER01
 10
755.206291
 20
-32.530446
  0
VERTEX
  8
LAYER01
 10
755.538884
 20
-32.834964
  0
VERTEX
  8
LAYER01
 10
755.873142
 20
-33.137957
  0
VERTEX
  8
LAYER01
 10
756.209068
 20
-33.439424
  0
VERTEX
  8
LAYER01
 10
756.546665
 20
-33.73936
  0
VERTEX
  8
LAYER01
 10
756.885936
 20
-34.037763
  0
VERTEX
  8
LAYER01
 10
757.226883
 20
-34.334631
  0
VERTEX
  8
LAYER01
 10
757.569511
 20
-34.62996
  0
VERTEX
  8
LAYER01
 10
757.913822
 20
-34.923748
  0
VERTEX
  8
LAYER01
 10
758.259818
 20
-35.215993
  0
VERTEX
  8
LAYER01
 10
758.607504
 20
-35.506691
  0
VERTEX
  8
LAYER01
 10
758.956881
 20
-35.795839
  0
VERTEX
  8
LAYER01
 10
759.307954
 20
-36.083435
  0
VERTEX
  8
LAYER01
 10
759.660725
 20
-36.369476
  0
VERTEX
  8
LAYER01
 10
760.015197
 20
-36.65396
  0
VERTEX
  8
LAYER01
 10
760.371373
 20
-36.936883
  0
VERTEX
  8
LAYER01
 10
760.729256
 20
-37.218243
  0
VERTEX
  8
LAYER01
 10
761.088618
 20
-37.497854
  0
VERTEX
  8
LAYER01
 10
761.449211
 20
-37.775526
  0
VERTEX
  8
LAYER01
 10
761.811009
 20
-38.051245
  0
VERTEX
  8
LAYER01
 10
762.173989
 20
-38.324998
  0
VERTEX
  8
LAYER01
 10
762.538123
 20
-38.596772
  0
VERTEX
  8
LAYER01
 10
762.903388
 20
-38.866556
  0
VERTEX
  8
LAYER01
 10
763.269757
 20
-39.134335
  0
VERTEX
  8
LAYER01
 10
763.637205
 20
-39.400098
  0
VERTEX
  8
LAYER01
 10
764.005707
 20
-39.663831
  0
VERTEX
  8
LAYER01
 10
764.375238
 20
-39.925521
  0
VERTEX
  8
LAYER01
 10
764.745794
 20
-40.185174
  0
VERTEX
  8
LAYER01
 10
765.117418
 20
-40.442827
  0
VERTEX
  8
LAYER01
 10
765.490111
 20
-40.698486
  0
VERTEX
  8
LAYER01
 10
765.863871
 20
-40.952154
  0
VERTEX
  8
LAYER01
 10
766.238696
 20
-41.203833
  0
VERTEX
  8
LAYER01
 10
766.614585
 20
-41.453527
  0
VERTEX
  8
LAYER01
 10
766.991536
 20
-41.701238
  0
VERTEX
  8
LAYER01
 10
767.369547
 20
-41.946971
  0
VERTEX
  8
LAYER01
 10
767.748617
 20
-42.190728
  0
VERTEX
  8
LAYER01
 10
768.128744
 20
-42.432511
  0
VERTEX
  8
LAYER01
 10
768.509926
 20
-42.672326
  0
VERTEX
  8
LAYER01
 10
768.892161
 20
-42.910175
  0
VERTEX
  8
LAYER01
 10
769.275448
 20
-43.146062
  0
VERTEX
  8
LAYER01
 10
769.659786
 20
-43.379985
  0
VERTEX
  8
LAYER01
 10
770.045176
 20
-43.611946
  0
VERTEX
  8
LAYER01
 10
770.431616
 20
-43.841946
  0
VERTEX
  8
LAYER01
 10
770.819107
 20
-44.069984
  0
VERTEX
  8
LAYER01
 10
771.207649
 20
-44.296062
  0
VERTEX
  8
LAYER01
 10
771.597241
 20
-44.52018
  0
VERTEX
  8
LAYER01
 10
771.987882
 20
-44.742339
  0
VERTEX
  8
LAYER01
 10
772.379573
 20
-44.96254
  0
VERTEX
  8
LAYER01
 10
772.772312
 20
-45.180782
  0
VERTEX
  8
LAYER01
 10
773.166101
 20
-45.397067
  0
VERTEX
  8
LAYER01
 10
773.560938
 20
-45.611396
  0
VERTEX
  8
LAYER01
 10
773.956822
 20
-45.823768
  0
VERTEX
  8
LAYER01
 10
774.353755
 20
-46.034184
  0
VERTEX
  8
LAYER01
 10
774.751735
 20
-46.242646
  0
VERTEX
  8
LAYER01
 10
775.150762
 20
-46.449153
  0
VERTEX
  8
LAYER01
 10
775.550836
 20
-46.653707
  0
VERTEX
  8
LAYER01
 10
775.951956
 20
-46.856307
  0
VERTEX
  8
LAYER01
 10
776.354122
 20
-47.056956
  0
VERTEX
  8
LAYER01
 10
776.757335
 20
-47.255651
  0
VERTEX
  8
LAYER01
 10
777.161595
 20
-47.452391
  0
VERTEX
  8
LAYER01
 10
777.566904
 20
-47.647174
  0
VERTEX
  8
LAYER01
 10
777.973263
 20
-47.839995
  0
VERTEX
  8
LAYER01
 10
778.380675
 20
-48.030853
  0
VERTEX
  8
LAYER01
 10
778.78914
 20
-48.219745
  0
VERTEX
  8
LAYER01
 10
779.19866
 20
-48.406668
  0
VERTEX
  8
LAYER01
 10
779.609237
 20
-48.591618
  0
VERTEX
  8
LAYER01
 10
780.020871
 20
-48.774594
  0
VERTEX
  8
LAYER01
 10
780.433565
 20
-48.955593
  0
VERTEX
  8
LAYER01
 10
780.84732
 20
-49.134611
  0
VERTEX
  8
LAYER01
 10
781.262138
 20
-49.311646
  0
VERTEX
  8
LAYER01
 10
781.678019
 20
-49.486695
  0
VERTEX
  8
LAYER01
 10
782.094966
 20
-49.659756
  0
VERTEX
  8
LAYER01
 10
782.51298
 20
-49.830824
  0
VERTEX
  8
LAYER01
 10
782.932063
 20
-49.999899
  0
VERTEX
  8
LAYER01
 10
783.352216
 20
-50.166976
  0
VERTEX
  8
LAYER01
 10
783.77344
 20
-50.332054
  0
VERTEX
  8
LAYER01
 10
784.195737
 20
-50.495128
  0
VERTEX
  8
LAYER01
 10
784.619108
 20
-50.656197
  0
VERTEX
  8
LAYER01
 10
785.043556
 20
-50.815258
  0
VERTEX
  8
LAYER01
 10
785.469083
 20
-50.972304
  0
VERTEX
  8
LAYER01
 10
785.895691
 20
-51.127333
  0
VERTEX
  8
LAYER01
 10
786.323383
 20
-51.280338
  0
VERTEX
  8
LAYER01
 10
786.752161
 20
-51.431318
  0
VERTEX
  8
LAYER01
 10
787.182028
 20
-51.580267
  0
VERTEX
  8
LAYER01
 10
787.612947
 20
-51.727166
  0
VERTEX
  8
LAYER01
 10
788.044752
 20
-51.871957
  0
VERTEX
  8
LAYER01
 10
788.477259
 20
-52.014582
  0
VERTEX
  8
LAYER01
 10
788.910285
 20
-52.154981
  0
VERTEX
  8
LAYER01
 10
789.343654
 20
-52.293096
  0
VERTEX
  8
LAYER01
 10
789.77739
 20
-52.428944
  0
VERTEX
  8
LAYER01
 10
790.211544
 20
-52.562546
  0
VERTEX
  8
LAYER01
 10
790.646113
 20
-52.693904
  0
VERTEX
  8
LAYER01
 10
791.081098
 20
-52.823024
  0
VERTEX
  8
LAYER01
 10
791.516497
 20
-52.949907
  0
VERTEX
  8
LAYER01
 10
791.952311
 20
-53.074558
  0
VERTEX
  8
LAYER01
 10
792.388538
 20
-53.196979
  0
VERTEX
  8
LAYER01
 10
792.825177
 20
-53.317174
  0
VERTEX
  8
LAYER01
 10
793.262229
 20
-53.435147
  0
VERTEX
  8
LAYER01
 10
793.699693
 20
-53.550901
  0
VERTEX
  8
LAYER01
 10
794.137567
 20
-53.66444
  0
VERTEX
  8
LAYER01
 10
794.575852
 20
-53.775767
  0
VERTEX
  8
LAYER01
 10
795.014547
 20
-53.884883
  0
VERTEX
  8
LAYER01
 10
795.453652
 20
-53.991788
  0
VERTEX
  8
LAYER01
 10
795.893166
 20
-54.096483
  0
VERTEX
  8
LAYER01
 10
796.333091
 20
-54.19897
  0
VERTEX
  8
LAYER01
 10
796.773424
 20
-54.299249
  0
VERTEX
  8
LAYER01
 10
797.214168
 20
-54.39732
  0
VERTEX
  8
LAYER01
 10
797.65532
 20
-54.493184
  0
VERTEX
  8
LAYER01
 10
798.096882
 20
-54.586843
  0
VERTEX
  8
LAYER01
 10
798.538853
 20
-54.678297
  0
VERTEX
  8
LAYER01
 10
798.981232
 20
-54.767546
  0
VERTEX
  8
LAYER01
 10
799.42402
 20
-54.854593
  0
VERTEX
  8
LAYER01
 10
799.867217
 20
-54.939436
  0
VERTEX
  8
LAYER01
 10
800.310822
 20
-55.022078
  0
VERTEX
  8
LAYER01
 10
800.754835
 20
-55.102518
  0
VERTEX
  8
LAYER01
 10
801.199256
 20
-55.180758
  0
VERTEX
  8
LAYER01
 10
801.644086
 20
-55.256799
  0
VERTEX
  8
LAYER01
 10
802.089323
 20
-55.330641
  0
VERTEX
  8
LAYER01
 10
802.534968
 20
-55.402285
  0
VERTEX
  8
LAYER01
 10
802.98102
 20
-55.471732
  0
VERTEX
  8
LAYER01
 10
803.42748
 20
-55.538982
  0
VERTEX
  8
LAYER01
 10
803.874348
 20
-55.604031
  0
VERTEX
  8
LAYER01
 10
804.321624
 20
-55.666878
  0
VERTEX
  8
LAYER01
 10
804.76931
 20
-55.727519
  0
VERTEX
  8
LAYER01
 10
805.217405
 20
-55.785951
  0
VERTEX
  8
LAYER01
 10
805.665911
 20
-55.842172
  0
VERTEX
  8
LAYER01
 10
806.114827
 20
-55.896177
  0
VERTEX
  8
LAYER01
 10
806.564154
 20
-55.947966
  0
VERTEX
  8
LAYER01
 10
807.013894
 20
-55.997533
  0
VERTEX
  8
LAYER01
 10
807.464045
 20
-56.044877
  0
VERTEX
  8
LAYER01
 10
807.91461
 20
-56.089995
  0
VERTEX
  8
LAYER01
 10
808.365588
 20
-56.132883
  0
VERTEX
  8
LAYER01
 10
808.816981
 20
-56.173539
  0
VERTEX
  8
LAYER01
 10
809.268788
 20
-56.21196
  0
VERTEX
  8
LAYER01
 10
809.721009
 20
-56.248143
  0
VERTEX
  8
LAYER01
 10
810.173647
 20
-56.282084
  0
VERTEX
  8
LAYER01
 10
810.626701
 20
-56.313782
  0
VERTEX
  8
LAYER01
 10
811.080172
 20
-56.343232
  0
VERTEX
  8
LAYER01
 10
811.534059
 20
-56.370432
  0
VERTEX
  8
LAYER01
 10
811.988365
 20
-56.39538
  0
SEQEND
  8
LAYER01
  0
POLYLINE
  8
LAYER01
  6
CONTINUOUS
 62
     7
 66
     1
  0
VERTEX
  8
LAYER01
 10
714.833415
 20
50.940036
  0
VERTEX
  8
LAYER01
 10
714.900473
 20
50.939757
  0
VERTEX
  8
LAYER01
 10
714.967437
 20
50.93892
  0
VERTEX
  8
LAYER01
 10
715.034305
 20
50.937527
  0
VERTEX
  8
LAYER01
 10
715.101079
 20
50.93558
  0
VERTEX
  8
LAYER01
 10
715.167758
 20
50.933078
  0
VERTEX
  8
LAYER01
 10
715.234344
 20
50.930023
  0
VERTEX
  8
LAYER01
 10
715.300835
 20
50.926416
  0
VERTEX
  8
LAYER01
 10
715.367233
 20
50.922259
  0
VERTEX
  8
LAYER01
 10
715.433537
 20
50.917552
  0
VERTEX
  8
LAYER01
 10
715.499747
 20
50.912297
  0
VERTEX
  8
LAYER01
 10
715.565865
 20
50.906494
  0
VERTEX
  8
LAYER01
 10
715.631889
 20
50.900145
  0
VERTEX
  8
LAYER01
 10
715.69782
 20
50.893251
  0
VERTEX
  8
LAYER01
 10
715.763659
 20
50.885813
  0
VERTEX
  8
LAYER01
 10
715.829406
 20
50.877832
  0
VERTEX
  8
LAYER01
 10
715.89506
 20
50.86931
  0
VERTEX
  8
LAYER01
 10
715.960622
 20
50.860247
  0
VERTEX
  8
LAYER01
 10
716.026092
 20
50.850644
  0
VERTEX
  8
LAYER01
 10
716.091471
 20
50.840503
  0
VERTEX
  8
LAYER01
 10
716.156758
 20
50.829824
  0
VERTEX
  8
LAYER01
 10
716.221953
 20
50.81861
  0
VERTEX
  8
LAYER01
 10
716.287068
 20
50.806856
  0
VERTEX
  8
LAYER01
 10
716.35211
 20
50.794559
  0
VERTEX
  8
LAYER01
 10
716.417075
 20
50.781719
  0
VERTEX
  8
LAYER01
 10
716.481961
 20
50.768336
  0
VERTEX
  8
LAYER01
 10
716.546763
 20
50.754409
  0
VERTEX
  8
LAYER01
 10
716.611479
 20
50.739938
  0
VERTEX
  8
LAYER01
 10
716.676104
 20
50.724925
  0
VERTEX
  8
LAYER01
 10
716.740636
 20
50.709367
  0
VERTEX
  8
LAYER01
 10
716.805072
 20
50.693266
  0
VERTEX
  8
LAYER01
 10
716.869407
 20
50.676621
  0
VERTEX
  8
LAYER01
 10
716.933638
 20
50.659431
  0
VERTEX
  8
LAYER01
 10
716.997763
 20
50.641698
  0
VERTEX
  8
LAYER01
 10
717.061777
 20
50.623421
  0
VERTEX
  8
LAYER01
 10
717.125677
 20
50.604599
  0
VERTEX
  8
LAYER01
 10
717.189459
 20
50.585233
  0
VERTEX
  8
LAYER01
 10
717.253122
 20
50.565322
  0
VERTEX
  8
LAYER01
 10
717.31666
 20
50.544867
  0
VERTEX
  8
LAYER01
 10
717.38007
 20
50.523867
  0
VERTEX
  8
LAYER01
 10
717.44335
 20
50.502323
  0
VERTEX
  8
LAYER01
 10
717.506496
 20
50.480233
  0
VERTEX
  8
LAYER01
 10
717.569503
 20
50.457599
  0
VERTEX
  8
LAYER01
 10
717.632305
 20
50.434446
  0
VERTEX
  8
LAYER01
 10
717.694834
 20
50.410801
  0
VERTEX
  8
LAYER01
 10
717.75709
 20
50.386665
  0
VERTEX
  8
LAYER01
 10
717.819075
 20
50.362038
  0
VERTEX
  8
LAYER01
 10
717.880789
 20
50.336923
  0
VERTEX
  8
LAYER01
 10
717.942232
 20
50.311319
  0
VERTEX
  8
LAYER01
 10
718.003405
 20
50.285227
  0
VERTEX
  8
LAYER01
 10
718.064308
 20
50.258649
  0
VERTEX
  8
LAYER01
 10
718.124942
 20
50.231584
  0
VERTEX
  8
LAYER01
 10
718.185307
 20
50.204035
  0
VERTEX
  8
LAYER01
 10
718.245403
 20
50.176001
  0
VERTEX
  8
LAYER01
 10
718.305232
 20
50.147484
  0
VERTEX
  8
LAYER01
 10
718.364793
 20
50.118484
  0
VERTEX
  8
LAYER01
 10
718.424088
 20
50.089003
  0
VERTEX
  8
LAYER01
 10
718.483115
 20
50.05904
  0
VERTEX
  8
LAYER01
 10
718.541877
 20
50.028598
  0
VERTEX
  8
LAYER01
 10
718.600373
 20
49.997676
  0
VERTEX
  8
LAYER01
 10
718.658604
 20
49.966276
  0
VERTEX
  8
LAYER01
 10
718.716571
 20
49.934399
  0
VERTEX
  8
LAYER01
 10
718.774273
 20
49.902045
  0
VERTEX
  8
LAYER01
 10
718.831712
 20
49.869215
  0
VERTEX
  8
LAYER01
 10
718.888886
 20
49.835908
  0
VERTEX
  8
LAYER01
 10
718.945796
 20
49.802123
  0
VERTEX
  8
LAYER01
 10
719.002439
 20
49.767859
  0
VERTEX
  8
LAYER01
 10
719.058817
 20
49.733115
  0
VERTEX
  8
LAYER01
 10
719.114928
 20
49.69789
  0
VERTEX
  8
LAYER01
 10
719.170773
 20
49.662184
  0
VERTEX
  8
LAYER01
 10
719.22635
 20
49.625995
  0
VERTEX
  8
LAYER01
 10
719.28166
 20
49.589324
  0
VERTEX
  8
LAYER01
 10
719.336702
 20
49.552169
  0
VERTEX
  8
LAYER01
 10
719.391475
 20
49.51453
  0
VERTEX
  8
LAYER01
 10
719.445985
 20
49.476401
  0
VERTEX
  8
LAYER01
 10
719.500258
 20
49.437758
  0
VERTEX
  8
LAYER01
 10
719.554282
 20
49.398607
  0
VERTEX
  8
LAYER01
 10
719.60804
 20
49.358961
  0
VERTEX
  8
LAYER01
 10
719.661515
 20
49.318832
  0
VERTEX
  8
LAYER01
 10
719.714691
 20
49.278232
  0
VERTEX
  8
LAYER01
 10
719.767549
 20
49.237173
  0
VERTEX
  8
LAYER01
 10
719.820072
 20
49.195668
  0
VERTEX
  8
LAYER01
 10
719.872244
 20
49.153728
  0
VERTEX
  8
LAYER01
 10
719.924046
 20
49.111366
  0
VERTEX
  8
LAYER01
 10
719.975463
 20
49.068593
  0
VERTEX
  8
LAYER01
 10
720.026472
 20
49.025434
  0
VERTEX
  8
LAYER01
 10
720.077062
 20
48.981902
  0
VERTEX
  8
LAYER01
 10
720.127236
 20
48.937999
  0
VERTEX
  8
LAYER01
 10
720.176992
 20
48.893724
  0
VERTEX
  8
LAYER01
 10
720.226333
 20
48.84908
  0
VERTEX
  8
LAYER01
 10
720.275258
 20
48.804065
  0
VERTEX
  8
LAYER01
 10
720.323768
 20
48.758681
  0
VERTEX
  8
LAYER01
 10
720.371863
 20
48.712928
  0
VERTEX
  8
LAYER01
 10
720.419545
 20
48.666807
  0
VERTEX
  8
LAYER01
 10
720.466814
 20
48.620318
  0
VERTEX
  8
LAYER01
 10
720.51367
 20
48.573462
  0
VERTEX
  8
LAYER01
 10
720.560114
 20
48.526239
  0
VERTEX
  8
LAYER01
 10
720.606147
 20
48.47865
  0
VERTEX
  8
LAYER01
 10
720.651769
 20
48.430696
  0
VERTEX
  8
LAYER01
 10
720.696981
 20
48.382376
  0
VERTEX
  8
LAYER01
 10
720.741784
 20
48.333691
  0
VERTEX
  8
LAYER01
 10
720.786177
 20
48.284643
  0
VERTEX
  8
LAYER01
 10
720.830163
 20
48.235231
  0
VERTEX
  8
LAYER01
 10
720.87374
 20
48.185456
  0
VERTEX
  8
LAYER01
 10
720.91691
 20
48.135319
  0
VERTEX
  8
LAYER01
 10
720.959674
 20
48.084819
  0
VERTEX
  8
LAYER01
 10
721.00203
 20
48.033958
  0
VERTEX
  8
LAYER01
 10
721.043978
 20
47.982732
  0
VERTEX
  8
LAYER01
 10
721.085515
 20
47.931141
  0
VERTEX
  8
LAYER01
 10
721.126642
 20
47.879184
  0
VERTEX
  8
LAYER01
 10
721.167358
 20
47.826862
  0
VERTEX
  8
LAYER01
 10
721.207661
 20
47.774173
  0
VERTEX
  8
LAYER01
 10
721.247552
 20
47.721116
  0
VERTEX
  8
LAYER01
 10
721.28703
 20
47.667691
  0
VERTEX
  8
LAYER01
 10
721.326093
 20
47.613898
  0
VERTEX
  8
LAYER01
 10
721.364741
 20
47.559735
  0
VERTEX
  8
LAYER01
 10
721.402977
 20
47.505195
  0
VERTEX
  8
LAYER01
 10
721.440814
 20
47.450249
  0
VERTEX
  8
LAYER01
 10
721.478242
 20
47.39491
  0
VERTEX
  8
LAYER01
 10
721.515248
 20
47.3392
  0
VERTEX
  8
LAYER01
 10
721.551816
 20
47.283141
  0
VERTEX
  8
LAYER01
 10
721.587932
 20
47.226754
  0
VERTEX
  8
LAYER01
 10
721.623583
 20
47.170061
  0
VERTEX
  8
LAYER01
 10
721.658754
 20
47.113084
  0
VERTEX
  8
LAYER01
 10
721.69343
 20
47.055843
  0
VERTEX
  8
LAYER01
 10
721.727599
 20
46.998362
  0
VERTEX
  8
LAYER01
 10
721.761244
 20
46.940662
  0
VERTEX
  8
LAYER01
 10
721.794366
 20
46.882753
  0
VERTEX
  8
LAYER01
 10
721.826973
 20
46.824632
  0
VERTEX
  8
LAYER01
 10
721.859065
 20
46.7663
  0
VERTEX
  8
LAYER01
 10
721.890643
 20
46.707756
  0
VERTEX
  8
LAYER01
 10
721.921707
 20
46.649002
  0
VERTEX
  8
LAYER01
 10
721.952259
 20
46.590036
  0
VERTEX
  8
LAYER01
 10
721.982299
 20
46.53086
  0
VERTEX
  8
LAYER01
 10
722.011827
 20
46.471474
  0
VERTEX
  8
LAYER01
 10
722.040844
 20
46.411878
  0
VERTEX
  8
LAYER01
 10
722.06935
 20
46.352071
  0
VERTEX
  8
LAYER01
 10
722.097347
 20
46.292056
  0
VERTEX
  8
LAYER01
 10
722.124834
 20
46.231831
  0
VERTEX
  8
LAYER01
 10
722.151813
 20
46.171396
  0
VERTEX
  8
LAYER01
 10
722.178284
 20
46.110753
  0
VERTEX
  8
LAYER01
 10
722.204247
 20
46.049902
  0
VERTEX
  8
LAYER01
 10
722.229704
 20
45.988842
  0
VERTEX
  8
LAYER01
 10
722.254654
 20
45.927574
  0
VERTEX
  8
LAYER01
 10
722.279098
 20
45.866098
  0
VERTEX
  8
LAYER01
 10
722.303037
 20
45.804414
  0
VERTEX
  8
LAYER01
 10
722.326472
 20
45.742523
  0
VERTEX
  8
LAYER01
 10
722.349403
 20
45.680425
  0
VERTEX
  8
LAYER01
 10
722.371833
 20
45.618104
  0
VERTEX
  8
LAYER01
 10
722.393762
 20
45.555546
  0
VERTEX
  8
LAYER01
 10
722.415187
 20
45.492757
  0
VERTEX
  8
LAYER01
 10
722.436107
 20
45.429742
  0
VERTEX
  8
LAYER01
 10
722.456518
 20
45.366507
  0
VERTEX
  8
LAYER01
 10
722.476419
 20
45.303057
  0
VERTEX
  8
LAYER01
 10
722.495805
 20
45.239398
  0
VERTEX
  8
LAYER01
 10
722.514676
 20
45.175535
  0
VERTEX
  8
LAYER01
 10
722.533028
 20
45.111473
  0
VERTEX
  8
LAYER01
 10
722.550859
 20
45.047218
  0
VERTEX
  8
LAYER01
 10
722.568166
 20
44.982776
  0
VERTEX
  8
LAYER01
 10
722.584947
 20
44.918151
  0
VERTEX
  8
LAYER01
 10
722.601198
 20
44.85335
  0
VERTEX
  8
LAYER01
 10
722.616919
 20
44.788377
  0
VERTEX
  8
LAYER01
 10
722.632105
 20
44.723238
  0
VERTEX
  8
LAYER01
 10
722.646755
 20
44.657938
  0
VERTEX
  8
LAYER01
 10
722.660865
 20
44.592483
  0
VERTEX
  8
LAYER01
 10
722.674434
 20
44.526879
  0
VERTEX
  8
LAYER01
 10
722.687459
 20
44.46113
  0
VERTEX
  8
LAYER01
 10
722.699936
 20
44.395242
  0
VERTEX
  8
LAYER01
 10
722.711865
 20
44.329221
  0
SEQEND
  8
LAYER01
  0
LINE
  8
LAYER01
  6
CONTINUOUS
 62
     7
 10
706.615395
 20
50.940036
 11
706.615395
 21
62.940036
  0
LINE
  8
LAYER01
  6
CONTINUOUS
 62
     7
 10
706.615395
 20
62.940036
 11
731.615401
 21
62.940036
  0
LINE
  8
LAYER01
  6
CONTINUOUS
 62
     7
 10
706.615395
 20
50.940036
 11
714.833415
 21
50.940036
  0
LINE
  8
LAYER01
  6
CONTINUOUS
 62
     7
 10
731.615401
 20
62.940036
 11
751.615382
 21
62.940036
  0
POLYLINE
  8
LAYER01
  6
CONTINUOUS
 62
     7
 66
     1
  0
VERTEX
  8
LAYER01
 10
1435.999221
 20
18.698175
  0
VERTEX
  8
LAYER01
 10
1436.012223
 20
18.770807
  0
VERTEX
  8
LAYER01
 10
1436.025211
 20
18.843387
  0
VERTEX
  8
LAYER01
 10
1436.038173
 20
18.915866
  0
VERTEX
  8
LAYER01
 10
1436.051094
 20
18.988196
  0
VERTEX
  8
LAYER01
 10
1436.063973
 20
19.060368
  0
VERTEX
  8
LAYER01
 10
1436.076813
 20
19.132399
  0
VERTEX
  8
LAYER01
 10
1436.089618
 20
19.204307
  0
VERTEX
  8
LAYER01
 10
1436.102392
 20
19.27611
  0
VERTEX
  8
LAYER01
 10
1436.115139
 20
19.347826
  0
VERTEX
  8
LAYER01
 10
1436.127862
 20
19.419473
  0
VERTEX
  8
LAYER01
 10
1436.140566
 20
19.49107
  0
VERTEX
  8
LAYER01
 10
1436.153254
 20
19.562633
  0
VERTEX
  8
LAYER01
 10
1436.165931
 20
19.634181
  0
VERTEX
  8
LAYER01
 10
1436.178599
 20
19.705731
  0
VERTEX
  8
LAYER01
 10
1436.191264
 20
19.777303
  0
VERTEX
  8
LAYER01
 10
1436.203929
 20
19.848913
  0
VERTEX
  8
LAYER01
 10
1436.216597
 20
19.92058
  0
VERTEX
  8
LAYER01
 10
1436.229274
 20
19.992322
  0
VERTEX
  8
LAYER01
 10
1436.241962
 20
20.064156
  0
VERTEX
  8
LAYER01
 10
1436.254665
 20
20.136101
  0
VERTEX
  8
LAYER01
 10
1436.267388
 20
20.208174
  0
VERTEX
  8
LAYER01
 10
1436.280134
 20
20.280393
  0
VERTEX
  8
LAYER01
 10
1436.292907
 20
20.352777
  0
VERTEX
  8
LAYER01
 10
1436.305712
 20
20.425344
  0
VERTEX
  8
LAYER01
 10
1436.31855
 20
20.498108
  0
VERTEX
  8
LAYER01
 10
1436.331424
 20
20.571074
  0
VERTEX
  8
LAYER01
 10
1436.344332
 20
20.644236
  0
VERTEX
  8
LAYER01
 10
1436.357274
 20
20.717592
  0
VERTEX
  8
LAYER01
 10
1436.370248
 20
20.791138
  0
VERTEX
  8
LAYER01
 10
1436.383253
 20
20.86487
  0
VERTEX
  8
LAYER01
 10
1436.39629
 20
20.938785
  0
VERTEX
  8
LAYER01
 10
1436.409357
 20
21.012878
  0
VERTEX
  8
LAYER01
 10
1436.422453
 20
21.087147
  0
VERTEX
  8
LAYER01
 10
1436.435577
 20
21.161588
  0
VERTEX
  8
LAYER01
 10
1436.448729
 20
21.236197
  0
VERTEX
  8
LAYER01
 10
1436.461908
 20
21.310971
  0
VERTEX
  8
LAYER01
 10
1436.475114
 20
21.385905
  0
VERTEX
  8
LAYER01
 10
1436.488344
 20
21.460997
  0
VERTEX
  8
LAYER01
 10
1436.501599
 20
21.536243
  0
VERTEX
  8
LAYER01
 10
1436.514877
 20
21.611638
  0
VERTEX
  8
LAYER01
 10
1436.528178
 20
21.68718
  0
VERTEX
  8
LAYER01
 10
1436.541501
 20
21.762865
  0
VERTEX
  8
LAYER01
 10
1436.554845
 20
21.838689
  0
VERTEX
  8
LAYER01
 10
1436.56821
 20
21.914648
  0
VERTEX
  8
LAYER01
 10
1436.581594
 20
21.990741
  0
VERTEX
  8
LAYER01
 10
1436.594999
 20
22.066969
  0
VERTEX
  8
LAYER01
 10
1436.608424
 20
22.143333
  0
VERTEX
  8
LAYER01
 10
1436.62187
 20
22.219837
  0
VERTEX
  8
LAYER01
 10
1436.635337
 20
22.29648
  0
VERTEX
  8
LAYER01
 10
1436.648826
 20
22.373267
  0
VERTEX
  8
LAYER01
 10
1436.662337
 20
22.450198
  0
VERTEX
  8
LAYER01
 10
1436.675871
 20
22.527276
  0
VERTEX
  8
LAYER01
 10
1436.689428
 20
22.604502
  0
VERTEX
  8
LAYER01
 10
1436.703008
 20
22.681879
  0
VERTEX
  8
LAYER01
 10
1436.716612
 20
22.759409
  0
VERTEX
  8
LAYER01
 10
1436.730241
 20
22.837092
  0
VERTEX
  8
LAYER01
 10
1436.743893
 20
22.914933
  0
VERTEX
  8
LAYER01
 10
1436.757572
 20
22.992932
  0
VERTEX
  8
LAYER01
 10
1436.771275
 20
23.071091
  0
VERTEX
  8
LAYER01
 10
1436.785005
 20
23.149413
  0
VERTEX
  8
LAYER01
 10
1436.79876
 20
23.227899
  0
VERTEX
  8
LAYER01
 10
1436.812543
 20
23.306552
  0
VERTEX
  8
LAYER01
 10
1436.826352
 20
23.385373
  0
VERTEX
  8
LAYER01
 10
1436.840189
 20
23.464363
  0
VERTEX
  8
LAYER01
 10
1436.854054
 20
23.543524
  0
VERTEX
  8
LAYER01
 10
1436.867946
 20
23.622855
  0
VERTEX
  8
LAYER01
 10
1436.881866
 20
23.702359
  0
VERTEX
  8
LAYER01
 10
1436.895815
 20
23.782035
  0
VERTEX
  8
LAYER01
 10
1436.909791
 20
23.861885
  0
VERTEX
  8
LAYER01
 10
1436.923796
 20
23.941909
  0
VERTEX
  8
LAYER01
 10
1436.93783
 20
24.022108
  0
VERTEX
  8
LAYER01
 10
1436.951892
 20
24.102483
  0
VERTEX
  8
LAYER01
 10
1436.965984
 20
24.183036
  0
VERTEX
  8
LAYER01
 10
1436.980105
 20
24.263766
  0
VERTEX
  8
LAYER01
 10
1436.994255
 20
24.344675
  0
VERTEX
  8
LAYER01
 10
1437.008435
 20
24.425763
  0
VERTEX
  8
LAYER01
 10
1437.022645
 20
24.507031
  0
VERTEX
  8
LAYER01
 10
1437.036884
 20
24.588481
  0
VERTEX
  8
LAYER01
 10
1437.051154
 20
24.670112
  0
VERTEX
  8
LAYER01
 10
1437.065454
 20
24.751927
  0
VERTEX
  8
LAYER01
 10
1437.079785
 20
24.833926
  0
VERTEX
  8
LAYER01
 10
1437.094147
 20
24.916112
  0
VERTEX
  8
LAYER01
 10
1437.108541
 20
24.998486
  0
VERTEX
  8
LAYER01
 10
1437.122966
 20
25.081052
  0
VERTEX
  8
LAYER01
 10
1437.137423
 20
25.16381
  0
VERTEX
  8
LAYER01
 10
1437.151912
 20
25.246764
  0
VERTEX
  8
LAYER01
 10
1437.166434
 20
25.329914
  0
VERTEX
  8
LAYER01
 10
1437.18099
 20
25.413263
  0
VERTEX
  8
LAYER01
 10
1437.195579
 20
25.496814
  0
VERTEX
  8
LAYER01
 10
1437.210201
 20
25.580567
  0
VERTEX
  8
LAYER01
 10
1437.224858
 20
25.664525
  0
VERTEX
  8
LAYER01
 10
1437.239549
 20
25.748691
  0
VERTEX
  8
LAYER01
 10
1437.254275
 20
25.833066
  0
VERTEX
  8
LAYER01
 10
1437.269036
 20
25.917652
  0
VERTEX
  8
LAYER01
 10
1437.283833
 20
26.002452
  0
VERTEX
  8
LAYER01
 10
1437.298666
 20
26.087467
  0
VERTEX
  8
LAYER01
 10
1437.313535
 20
26.1727
  0
VERTEX
  8
LAYER01
 10
1437.328441
 20
26.258156
  0
VERTEX
  8
LAYER01
 10
1437.343384
 20
26.343835
  0
VERTEX
  8
LAYER01
 10
1437.358366
 20
26.429743
  0
VERTEX
  8
LAYER01
 10
1437.373387
 20
26.515881
  0
VERTEX
  8
LAYER01
 10
1437.388446
 20
26.602252
  0
VERTEX
  8
LAYER01
 10
1437.403546
 20
26.68886
  0
VERTEX
  8
LAYER01
 10
1437.418686
 20
26.775707
  0
VERTEX
  8
LAYER01
 10
1437.433866
 20
26.862797
  0
VERTEX
  8
LAYER01
 10
1437.449088
 20
26.950132
  0
VERTEX
  8
LAYER01
 10
1437.464352
 20
27.037716
  0
VERTEX
  8
LAYER01
 10
1437.479659
 20
27.125551
  0
VERTEX
  8
LAYER01
 10
1437.495008
 20
27.21364
  0
VERTEX
  8
LAYER01
 10
1437.510402
 20
27.301989
  0
VERTEX
  8
LAYER01
 10
1437.52584
 20
27.3906
  0
VERTEX
  8
LAYER01
 10
1437.541324
 20
27.47948
  0
VERTEX
  8
LAYER01
 10
1437.556854
 20
27.568633
  0
VERTEX
  8
LAYER01
 10
1437.572432
 20
27.658064
  0
VERTEX
  8
LAYER01
 10
1437.588058
 20
27.747777
  0
VERTEX
  8
LAYER01
 10
1437.603734
 20
27.837777
  0
VERTEX
  8
LAYER01
 10
1437.619459
 20
27.928069
  0
VERTEX
  8
LAYER01
 10
1437.635236
 20
28.018657
  0
VERTEX
  8
LAYER01
 10
1437.651064
 20
28.109546
  0
VERTEX
  8
LAYER01
 10
1437.666945
 20
28.200742
  0
VERTEX
  8
LAYER01
 10
1437.68288
 20
28.292247
  0
VERTEX
  8
LAYER01
 10
1437.69887
 20
28.38407
  0
VERTEX
  8
LAYER01
 10
1437.714916
 20
28.476217
  0
VERTEX
  8
LAYER01
 10
1437.731019
 20
28.568695
  0
VERTEX
  8
LAYER01
 10
1437.747181
 20
28.661512
  0
VERTEX
  8
LAYER01
 10
1437.763402
 20
28.754675
  0
VERTEX
  8
LAYER01
 10
1437.779685
 20
28.848192
  0
VERTEX
  8
LAYER01
 10
1437.796031
 20
28.942071
  0
VERTEX
  8
LAYER01
 10
1437.81244
 20
29.036317
  0
VERTEX
  8
LAYER01
 10
1437.828915
 20
29.13094
  0
VERTEX
  8
LAYER01
 10
1437.845456
 20
29.225946
  0
VERTEX
  8
LAYER01
 10
1437.862065
 20
29.321342
  0
VERTEX
  8
LAYER01
 10
1437.878744
 20
29.417139
  0
VERTEX
  8
LAYER01
 10
1437.895494
 20
29.513347
  0
VERTEX
  8
LAYER01
 10
1437.912317
 20
29.609979
  0
VERTEX
  8
LAYER01
 10
1437.929217
 20
29.707046
  0
VERTEX
  8
LAYER01
 10
1437.946194
 20
29.80456
  0
VERTEX
  8
LAYER01
 10
1437.963252
 20
29.902534
  0
VERTEX
  8
LAYER01
 10
1437.980392
 20
30.00098
  0
VERTEX
  8
LAYER01
 10
1437.997617
 20
30.099909
  0
VERTEX
  8
LAYER01
 10
1438.014929
 20
30.199334
  0
VERTEX
  8
LAYER01
 10
1438.032329
 20
30.299265
  0
VERTEX
  8
LAYER01
 10
1438.049821
 20
30.399719
  0
VERTEX
  8
LAYER01
 10
1438.067408
 20
30.500713
  0
VERTEX
  8
LAYER01
 10
1438.085093
 20
30.602266
  0
VERTEX
  8
LAYER01
 10
1438.10288
 20
30.704398
  0
VERTEX
  8
LAYER01
 10
1438.120772
 20
30.80713
  0
VERTEX
  8
LAYER01
 10
1438.138772
 20
30.910479
  0
VERTEX
  8
LAYER01
 10
1438.156885
 20
31.014466
  0
VERTEX
  8
LAYER01
 10
1438.175114
 20
31.11911
  0
VERTEX
  8
LAYER01
 10
1438.193461
 20
31.22443
  0
VERTEX
  8
LAYER01
 10
1438.211932
 20
31.330449
  0
VERTEX
  8
LAYER01
 10
1438.230531
 20
31.4372
  0
VERTEX
  8
LAYER01
 10
1438.249266
 20
31.544716
  0
VERTEX
  8
LAYER01
 10
1438.268141
 20
31.653031
  0
VERTEX
  8
LAYER01
 10
1438.287164
 20
31.76218
  0
VERTEX
  8
LAYER01
 10
1438.30634
 20
31.872197
  0
VERTEX
  8
LAYER01
 10
1438.325675
 20
31.983115
  0
VERTEX
  8
LAYER01
 10
1438.345176
 20
32.094969
  0
VERTEX
  8
LAYER01
 10
1438.364848
 20
32.207792
  0
VERTEX
  8
LAYER01
 10
1438.384699
 20
32.321624
  0
VERTEX
  8
LAYER01
 10
1438.404739
 20
32.436524
  0
VERTEX
  8
LAYER01
 10
1438.42498
 20
32.552558
  0
VERTEX
  8
LAYER01
 10
1438.445433
 20
32.669791
  0
VERTEX
  8
LAYER01
 10
1438.46611
 20
32.788288
  0
VERTEX
  8
LAYER01
 10
1438.487024
 20
32.908115
  0
VERTEX
  8
LAYER01
 10
1438.508185
 20
33.029337
  0
VERTEX
  8
LAYER01
 10
1438.529605
 20
33.15202
  0
VERTEX
  8
LAYER01
 10
1438.551298
 20
33.276241
  0
VERTEX
  8
LAYER01
 10
1438.573286
 20
33.402119
  0
VERTEX
  8
LAYER01
 10
1438.59559
 20
33.529778
  0
VERTEX
  8
LAYER01
 10
1438.618233
 20
33.659343
  0
VERTEX
  8
LAYER01
 10
1438.641238
 20
33.790941
  0
VERTEX
  8
LAYER01
 10
1438.664627
 20
33.924697
  0
VERTEX
  8
LAYER01
 10
1438.688423
 20
34.060738
  0
VERTEX
  8
LAYER01
 10
1438.712658
 20
34.199245
  0
VERTEX
  8
LAYER01
 10
1438.737381
 20
34.340488
  0
VERTEX
  8
LAYER01
 10
1438.76264
 20
34.484742
  0
VERTEX
  8
LAYER01
 10
1438.788486
 20
34.632282
  0
VERTEX
  8
LAYER01
 10
1438.814967
 20
34.783385
  0
VERTEX
  8
LAYER01
 10
1438.842136
 20
34.938337
  0
VERTEX
  8
LAYER01
 10
1438.870067
 20
35.097559
  0
VERTEX
  8
LAYER01
 10
1438.898851
 20
35.261555
  0
VERTEX
  8
LAYER01
 10
1438.928578
 20
35.430828
  0
VERTEX
  8
LAYER01
 10
1438.959337
 20
35.60588
  0
VERTEX
  8
LAYER01
 10
1438.991247
 20
35.78737
  0
VERTEX
  8
LAYER01
 10
1439.024527
 20
35.976524
  0
VERTEX
  8
LAYER01
 10
1439.059422
 20
36.174695
  0
VERTEX
  8
LAYER01
 10
1439.096173
 20
36.38324
  0
VERTEX
  8
LAYER01
 10
1439.135022
 20
36.603496
  0
VERTEX
  8
LAYER01
 10
1439.176126
 20
36.836327
  0
VERTEX
  8
LAYER01
 10
1439.219551
 20
37.082056
  0
VERTEX
  8
LAYER01
 10
1439.265355
 20
37.340977
  0
VERTEX
  8
LAYER01
 10
1439.313436
 20
37.612469
  0
VERTEX
  8
LAYER01
 10
1439.362997
 20
37.891938
  0
VERTEX
  8
LAYER01
 10
1439.412697
 20
38.171836
  0
VERTEX
  8
LAYER01
 10
1439.460959
 20
38.443378
  0
VERTEX
  8
LAYER01
 10
1439.506581
 20
38.699837
  0
VERTEX
  8
LAYER01
 10
1439.549051
 20
38.938355
  0
VERTEX
  8
LAYER01
 10
1439.588349
 20
39.158861
  0
VERTEX
  8
LAYER01
 10
1439.624751
 20
39.362934
  0
VERTEX
  8
LAYER01
 10
1439.658567
 20
39.552361
  0
VERTEX
  8
LAYER01
 10
1439.690103
 20
39.7289
  0
VERTEX
  8
LAYER01
 10
1439.719625
 20
39.894064
  0
VERTEX
  8
LAYER01
 10
1439.747377
 20
40.049238
  0
VERTEX
  8
LAYER01
 10
1439.773601
 20
40.195804
  0
VERTEX
  8
LAYER01
 10
1439.798541
 20
40.335137
  0
VERTEX
  8
LAYER01
 10
1439.822376
 20
40.468254
  0
VERTEX
  8
LAYER01
 10
1439.845202
 20
40.595705
  0
VERTEX
  8
LAYER01
 10
1439.867111
 20
40.718008
  0
VERTEX
  8
LAYER01
 10
1439.888196
 20
40.83568
  0
VERTEX
  8
LAYER01
 10
1439.908547
 20
40.94924
  0
VERTEX
  8
LAYER01
 10
1439.928246
 20
41.059148
  0
VERTEX
  8
LAYER01
 10
1439.947344
 20
41.165687
  0
VERTEX
  8
LAYER01
 10
1439.965884
 20
41.269104
  0
VERTEX
  8
LAYER01
 10
1439.983911
 20
41.369649
  0
VERTEX
  8
LAYER01
 10
1440.00147
 20
41.46757
  0
VERTEX
  8
LAYER01
 10
1440.018603
 20
41.563115
  0
VERTEX
  8
LAYER01
 10
1440.035354
 20
41.656521
  0
VERTEX
  8
LAYER01
 10
1440.051747
 20
41.747928
  0
VERTEX
  8
LAYER01
 10
1440.0678
 20
41.837436
  0
VERTEX
  8
LAYER01
 10
1440.083531
 20
41.925145
  0
VERTEX
  8
LAYER01
 10
1440.098957
 20
42.011155
  0
VERTEX
  8
LAYER01
 10
1440.114096
 20
42.095565
  0
VERTEX
  8
LAYER01
 10
1440.128966
 20
42.178474
  0
VERTEX
  8
LAYER01
 10
1440.143584
 20
42.259982
  0
VERTEX
  8
LAYER01
 10
1440.157968
 20
42.340188
  0
VERTEX
  8
LAYER01
 10
1440.172135
 20
42.419193
  0
VERTEX
  8
LAYER01
 10
1440.186103
 20
42.497089
  0
VERTEX
  8
LAYER01
 10
1440.199881
 20
42.573937
  0
VERTEX
  8
LAYER01
 10
1440.21348
 20
42.64979
  0
VERTEX
  8
LAYER01
 10
1440.226909
 20
42.7247
  0
VERTEX
  8
LAYER01
 10
1440.240176
 20
42.79872
  0
VERTEX
  8
LAYER01
 10
1440.253292
 20
42.871901
  0
VERTEX
  8
LAYER01
 10
1440.266265
 20
42.944295
  0
VERTEX
  8
LAYER01
 10
1440.279105
 20
43.015957
  0
VERTEX
  8
LAYER01
 10
1440.291822
 20
43.086936
  0
VERTEX
  8
LAYER01
 10
1440.304424
 20
43.157287
  0
VERTEX
  8
LAYER01
 10
1440.316922
 20
43.22706
  0
VERTEX
  8
LAYER01
 10
1440.329323
 20
43.296307
  0
VERTEX
  8
LAYER01
 10
1440.341633
 20
43.365053
  0
VERTEX
  8
LAYER01
 10
1440.35385
 20
43.433294
  0
VERTEX
  8
LAYER01
 10
1440.365974
 20
43.501024
  0
VERTEX
  8
LAYER01
 10
1440.378003
 20
43.568239
  0
VERTEX
  8
LAYER01
 10
1440.389937
 20
43.634933
  0
VERTEX
  8
LAYER01
 10
1440.401774
 20
43.701102
  0
VERTEX
  8
LAYER01
 10
1440.413514
 20
43.76674
  0
VERTEX
  8
LAYER01
 10
1440.425155
 20
43.831843
  0
VERTEX
  8
LAYER01
 10
1440.436696
 20
43.896406
  0
VERTEX
  8
LAYER01
 10
1440.448137
 20
43.960423
  0
VERTEX
  8
LAYER01
 10
1440.459476
 20
44.023889
  0
VERTEX
  8
LAYER01
 10
1440.470713
 20
44.086801
  0
VERTEX
  8
LAYER01
 10
1440.481846
 20
44.149156
  0
VERTEX
  8
LAYER01
 10
1440.492893
 20
44.211041
  0
VERTEX
  8
LAYER01
 10
1440.503881
 20
44.27261
  0
VERTEX
  8
LAYER01
 10
1440.51484
 20
44.334021
  0
SEQEND
  8
LAYER01
  0
POLYLINE
  8
LAYER01
  6
CONTINUOUS
 62
     7
 66
     1
  0
VERTEX
  8
LAYER01
 10
1351.242198
 20
-56.395392
  0
VERTEX
  8
LAYER01
 10
1351.720264
 20
-56.369077
  0
VERTEX
  8
LAYER01
 10
1352.197746
 20
-56.340276
  0
VERTEX
  8
LAYER01
 10
1352.674645
 20
-56.308993
  0
VERTEX
  8
LAYER01
 10
1353.150962
 20
-56.275234
  0
VERTEX
  8
LAYER01
 10
1353.6267
 20
-56.239005
  0
VERTEX
  8
LAYER01
 10
1354.101858
 20
-56.200309
  0
VERTEX
  8
LAYER01
 10
1354.576439
 20
-56.159153
  0
VERTEX
  8
LAYER01
 10
1355.050443
 20
-56.115542
  0
VERTEX
  8
LAYER01
 10
1355.523871
 20
-56.06948
  0
VERTEX
  8
LAYER01
 10
1355.996725
 20
-56.020974
  0
VERTEX
  8
LAYER01
 10
1356.469007
 20
-55.970027
  0
VERTEX
  8
LAYER01
 10
1356.940716
 20
-55.916647
  0
VERTEX
  8
LAYER01
 10
1357.411855
 20
-55.860836
  0
VERTEX
  8
LAYER01
 10
1357.882425
 20
-55.802602
  0
VERTEX
  8
LAYER01
 10
1358.352427
 20
-55.741949
  0
VERTEX
  8
LAYER01
 10
1358.821862
 20
-55.678882
  0
VERTEX
  8
LAYER01
 10
1359.290731
 20
-55.613406
  0
VERTEX
  8
LAYER01
 10
1359.759036
 20
-55.545527
  0
VERTEX
  8
LAYER01
 10
1360.226778
 20
-55.475251
  0
VERTEX
  8
LAYER01
 10
1360.693957
 20
-55.40258
  0
VERTEX
  8
LAYER01
 10
1361.160575
 20
-55.327519
  0
VERTEX
  8
LAYER01
 10
1361.626632
 20
-55.250067
  0
VERTEX
  8
LAYER01
 10
1362.092128
 20
-55.170225
  0
VERTEX
  8
LAYER01
 10
1362.557062
 20
-55.087994
  0
VERTEX
  8
LAYER01
 10
1363.021436
 20
-55.003375
  0
VERTEX
  8
LAYER01
 10
1363.485249
 20
-54.91637
  0
VERTEX
  8
LAYER01
 10
1363.948502
 20
-54.826978
  0
VERTEX
  8
LAYER01
 10
1364.411194
 20
-54.7352
  0
VERTEX
  8
LAYER01
 10
1364.873327
 20
-54.641039
  0
VERTEX
  8
LAYER01
 10
1365.3349
 20
-54.544494
  0
VERTEX
  8
LAYER01
 10
1365.795913
 20
-54.445566
  0
VERTEX
  8
LAYER01
 10
1366.256367
 20
-54.344257
  0
VERTEX
  8
LAYER01
 10
1366.716262
 20
-54.240566
  0
VERTEX
  8
LAYER01
 10
1367.175598
 20
-54.134496
  0
VERTEX
  8
LAYER01
 10
1367.634375
 20
-54.026046
  0
VERTEX
  8
LAYER01
 10
1368.092594
 20
-53.915219
  0
VERTEX
  8
LAYER01
 10
1368.550254
 20
-53.802014
  0
VERTEX
  8
LAYER01
 10
1369.007357
 20
-53.686432
  0
VERTEX
  8
LAYER01
 10
1369.463901
 20
-53.568475
  0
VERTEX
  8
LAYER01
 10
1369.919888
 20
-53.448144
  0
VERTEX
  8
LAYER01
 10
1370.375317
 20
-53.325438
  0
VERTEX
  8
LAYER01
 10
1370.830188
 20
-53.200353
  0
VERTEX
  8
LAYER01
 10
1371.284499
 20
-53.072887
  0
VERTEX
  8
LAYER01
 10
1371.738251
 20
-52.943036
  0
VERTEX
  8
LAYER01
 10
1372.191441
 20
-52.810797
  0
VERTEX
  8
LAYER01
 10
1372.64407
 20
-52.676168
  0
VERTEX
  8
LAYER01
 10
1373.096137
 20
-52.539145
  0
VERTEX
  8
LAYER01
 10
1373.547641
 20
-52.399724
  0
VERTEX
  8
LAYER01
 10
1373.998582
 20
-52.257904
  0
VERTEX
  8
LAYER01
 10
1374.448958
 20
-52.11368
  0
VERTEX
  8
LAYER01
 10
1374.898768
 20
-51.967049
  0
VERTEX
  8
LAYER01
 10
1375.348013
 20
-51.818009
  0
VERTEX
  8
LAYER01
 10
1375.796692
 20
-51.666556
  0
VERTEX
  8
LAYER01
 10
1376.244803
 20
-51.512688
  0
VERTEX
  8
LAYER01
 10
1376.692346
 20
-51.3564
  0
VERTEX
  8
LAYER01
 10
1377.13932
 20
-51.197691
  0
VERTEX
  8
LAYER01
 10
1377.585724
 20
-51.036556
  0
VERTEX
  8
LAYER01
 10
1378.031559
 20
-50.872993
  0
VERTEX
  8
LAYER01
 10
1378.476822
 20
-50.706998
  0
VERTEX
  8
LAYER01
 10
1378.921511
 20
-50.538559
  0
VERTEX
  8
LAYER01
 10
1379.365626
 20
-50.367671
  0
VERTEX
  8
LAYER01
 10
1379.809163
 20
-50.194328
  0
VERTEX
  8
LAYER01
 10
1380.252123
 20
-50.018524
  0
VERTEX
  8
LAYER01
 10
1380.694503
 20
-49.840252
  0
VERTEX
  8
LAYER01
 10
1381.136303
 20
-49.659508
  0
VERTEX
  8
LAYER01
 10
1381.57752
 20
-49.476286
  0
VERTEX
  8
LAYER01
 10
1382.018154
 20
-49.290579
  0
VERTEX
  8
LAYER01
 10
1382.458203
 20
-49.102382
  0
VERTEX
  8
LAYER01
 10
1382.897674
 20
-48.911683
  0
VERTEX
  8
LAYER01
 10
1383.336459
 20
-48.718523
  0
VERTEX
  8
LAYER01
 10
1383.774315
 20
-48.523011
  0
VERTEX
  8
LAYER01
 10
1384.210997
 20
-48.325259
  0
VERTEX
  8
LAYER01
 10
1384.646259
 20
-48.12538
  0
VERTEX
  8
LAYER01
 10
1385.079987
 20
-47.923429
  0
VERTEX
  8
LAYER01
 10
1385.512295
 20
-47.719367
  0
VERTEX
  8
LAYER01
 10
1385.943187
 20
-47.513198
  0
VERTEX
  8
LAYER01
 10
1386.372668
 20
-47.304927
  0
VERTEX
  8
LAYER01
 10
1386.80074
 20
-47.09456
  0
VERTEX
  8
LAYER01
 10
1387.227409
 20
-46.882104
  0
VERTEX
  8
LAYER01
 10
1387.652679
 20
-46.667565
  0
VERTEX
  8
LAYER01
 10
1388.076551
 20
-46.450946
  0
VERTEX
  8
LAYER01
 10
1388.499027
 20
-46.232249
  0
VERTEX
  8
LAYER01
 10
1388.92011
 20
-46.011476
  0
VERTEX
  8
LAYER01
 10
1389.3398
 20
-45.788631
  0
VERTEX
  8
LAYER01
 10
1389.7581
 20
-45.563717
  0
VERTEX
  8
LAYER01
 10
1390.175011
 20
-45.336734
  0
VERTEX
  8
LAYER01
 10
1390.590535
 20
-45.107687
  0
VERTEX
  8
LAYER01
 10
1391.004673
 20
-44.876578
  0
VERTEX
  8
LAYER01
 10
1391.417428
 20
-44.643409
  0
VERTEX
  8
LAYER01
 10
1391.828801
 20
-44.408182
  0
VERTEX
  8
LAYER01
 10
1392.238794
 20
-44.170901
  0
VERTEX
  8
LAYER01
 10
1392.647408
 20
-43.931568
  0
VERTEX
  8
LAYER01
 10
1393.054646
 20
-43.690186
  0
VERTEX
  8
LAYER01
 10
1393.460508
 20
-43.446757
  0
VERTEX
  8
LAYER01
 10
1393.864997
 20
-43.201283
  0
VERTEX
  8
LAYER01
 10
1394.268115
 20
-42.953767
  0
VERTEX
  8
LAYER01
 10
1394.669863
 20
-42.704213
  0
VERTEX
  8
LAYER01
 10
1395.070243
 20
-42.452622
  0
VERTEX
  8
LAYER01
 10
1395.469255
 20
-42.198995
  0
VERTEX
  8
LAYER01
 10
1395.866899
 20
-41.943331
  0
VERTEX
  8
LAYER01
 10
1396.263174
 20
-41.68563
  0
VERTEX
  8
LAYER01
 10
1396.65808
 20
-41.425889
  0
VERTEX
  8
LAYER01
 10
1397.051615
 20
-41.164109
  0
VERTEX
  8
LAYER01
 10
1397.44378
 20
-40.900289
  0
VERTEX
  8
LAYER01
 10
1397.834572
 20
-40.634426
  0
VERTEX
  8
LAYER01
 10
1398.223993
 20
-40.36652
  0
VERTEX
  8
LAYER01
 10
1398.61204
 20
-40.09657
  0
VERTEX
  8
LAYER01
 10
1398.998713
 20
-39.824574
  0
VERTEX
  8
LAYER01
 10
1399.384012
 20
-39.550533
  0
VERTEX
  8
LAYER01
 10
1399.767935
 20
-39.274444
  0
VERTEX
  8
LAYER01
 10
1400.150483
 20
-38.996307
  0
VERTEX
  8
LAYER01
 10
1400.531654
 20
-38.716121
  0
VERTEX
  8
LAYER01
 10
1400.911447
 20
-38.433884
  0
VERTEX
  8
LAYER01
 10
1401.289862
 20
-38.149595
  0
VERTEX
  8
LAYER01
 10
1401.666898
 20
-37.863254
  0
VERTEX
  8
LAYER01
 10
1402.042555
 20
-37.574859
  0
VERTEX
  8
LAYER01
 10
1402.416832
 20
-37.28441
  0
VERTEX
  8
LAYER01
 10
1402.789726
 20
-36.991902
  0
VERTEX
  8
LAYER01
 10
1403.161233
 20
-36.69733
  0
VERTEX
  8
LAYER01
 10
1403.531351
 20
-36.40069
  0
VERTEX
  8
LAYER01
 10
1403.900078
 20
-36.101979
  0
VERTEX
  8
LAYER01
 10
1404.267409
 20
-35.801191
  0
VERTEX
  8
LAYER01
 10
1404.633344
 20
-35.498324
  0
VERTEX
  8
LAYER01
 10
1404.997879
 20
-35.193373
  0
VERTEX
  8
LAYER01
 10
1405.361012
 20
-34.886334
  0
VERTEX
  8
LAYER01
 10
1405.72274
 20
-34.577204
  0
VERTEX
  8
LAYER01
 10
1406.08306
 20
-34.265978
  0
VERTEX
  8
LAYER01
 10
1406.441969
 20
-33.952653
  0
VERTEX
  8
LAYER01
 10
1406.799466
 20
-33.637224
  0
VERTEX
  8
LAYER01
 10
1407.155547
 20
-33.319688
  0
VERTEX
  8
LAYER01
 10
1407.51021
 20
-33.000041
  0
VERTEX
  8
LAYER01
 10
1407.863452
 20
-32.678278
  0
VERTEX
  8
LAYER01
 10
1408.21527
 20
-32.354396
  0
VERTEX
  8
LAYER01
 10
1408.565662
 20
-32.028391
  0
VERTEX
  8
LAYER01
 10
1408.914625
 20
-31.700259
  0
VERTEX
  8
LAYER01
 10
1409.262157
 20
-31.369996
  0
VERTEX
  8
LAYER01
 10
1409.608176
 20
-31.037675
  0
VERTEX
  8
LAYER01
 10
1409.952213
 20
-30.703751
  0
VERTEX
  8
LAYER01
 10
1410.294194
 20
-30.368304
  0
VERTEX
  8
LAYER01
 10
1410.634121
 20
-30.031337
  0
VERTEX
  8
LAYER01
 10
1410.972001
 20
-29.692854
  0
VERTEX
  8
LAYER01
 10
1411.307835
 20
-29.352857
  0
VERTEX
  8
LAYER01
 10
1411.641629
 20
-29.011349
  0
VERTEX
  8
LAYER01
 10
1411.973385
 20
-28.668333
  0
VERTEX
  8
LAYER01
 10
1412.303109
 20
-28.323813
  0
VERTEX
  8
LAYER01
 10
1412.630805
 20
-27.977791
  0
VERTEX
  8
LAYER01
 10
1412.956475
 20
-27.630271
  0
VERTEX
  8
LAYER01
 10
1413.280125
 20
-27.281256
  0
VERTEX
  8
LAYER01
 10
1413.601758
 20
-26.930749
  0
VERTEX
  8
LAYER01
 10
1413.921378
 20
-26.578752
  0
VERTEX
  8
LAYER01
 10
1414.238989
 20
-26.225269
  0
VERTEX
  8
LAYER01
 10
1414.554595
 20
-25.870304
  0
VERTEX
  8
LAYER01
 10
1414.8682
 20
-25.513858
  0
VERTEX
  8
LAYER01
 10
1415.179809
 20
-25.155936
  0
VERTEX
  8
LAYER01
 10
1415.489424
 20
-24.79654
  0
VERTEX
  8
LAYER01
 10
1415.79705
 20
-24.435673
  0
VERTEX
  8
LAYER01
 10
1416.102691
 20
-24.073338
  0
VERTEX
  8
LAYER01
 10
1416.406347
 20
-23.709534
  0
VERTEX
  8
LAYER01
 10
1416.708018
 20
-23.344262
  0
VERTEX
  8
LAYER01
 10
1417.007704
 20
-22.977522
  0
VERTEX
  8
LAYER01
 10
1417.305407
 20
-22.609315
  0
VERTEX
  8
LAYER01
 10
1417.601125
 20
-22.239639
  0
VERTEX
  8
LAYER01
 10
1417.89486
 20
-21.868497
  0
VERTEX
  8
LAYER01
 10
1418.186612
 20
-21.495887
  0
VERTEX
  8
LAYER01
 10
1418.476381
 20
-21.12181
  0
VERTEX
  8
LAYER01
 10
1418.764167
 20
-20.746266
  0
VERTEX
  8
LAYER01
 10
1419.04997
 20
-20.369255
  0
VERTEX
  8
LAYER01
 10
1419.333791
 20
-19.990779
  0
VERTEX
  8
LAYER01
 10
1419.61563
 20
-19.610836
  0
VERTEX
  8
LAYER01
 10
1419.895487
 20
-19.229426
  0
VERTEX
  8
LAYER01
 10
1420.173363
 20
-18.846552
  0
VERTEX
  8
LAYER01
 10
1420.449258
 20
-18.462211
  0
VERTEX
  8
LAYER01
 10
1420.723171
 20
-18.076405
  0
VERTEX
  8
LAYER01
 10
1420.995105
 20
-17.689134
  0
VERTEX
  8
LAYER01
 10
1421.265057
 20
-17.300398
  0
VERTEX
  8
LAYER01
 10
1421.53303
 20
-16.910196
  0
VERTEX
  8
LAYER01
 10
1421.799019
 20
-16.518528
  0
VERTEX
  8
LAYER01
 10
1422.063024
 20
-16.125392
  0
VERTEX
  8
LAYER01
 10
1422.325039
 20
-15.730784
  0
VERTEX
  8
LAYER01
 10
1422.585063
 20
-15.334702
  0
VERTEX
  8
LAYER01
 10
1422.843092
 20
-14.937145
  0
VERTEX
  8
LAYER01
 10
1423.099123
 20
-14.53811
  0
VERTEX
  8
LAYER01
 10
1423.353153
 20
-14.137594
  0
VERTEX
  8
LAYER01
 10
1423.605178
 20
-13.735596
  0
VERTEX
  8
LAYER01
 10
1423.855197
 20
-13.332113
  0
VERTEX
  8
LAYER01
 10
1424.103206
 20
-12.927144
  0
VERTEX
  8
LAYER01
 10
1424.349202
 20
-12.520684
  0
VERTEX
  8
LAYER01
 10
1424.593181
 20
-12.112734
  0
VERTEX
  8
LAYER01
 10
1424.835141
 20
-11.703289
  0
VERTEX
  8
LAYER01
 10
1425.075078
 20
-11.292348
  0
VERTEX
  8
LAYER01
 10
1425.31299
 20
-10.879909
  0
VERTEX
  8
LAYER01
 10
1425.548874
 20
-10.46597
  0
VERTEX
  8
LAYER01
 10
1425.782726
 20
-10.050527
  0
VERTEX
  8
LAYER01
 10
1426.014543
 20
-9.633579
  0
VERTEX
  8
LAYER01
 10
1426.244322
 20
-9.215124
  0
VERTEX
  8
LAYER01
 10
1426.472109
 20
-8.795051
  0
VERTEX
  8
LAYER01
 10
1426.697912
 20
-8.373325
  0
VERTEX
  8
LAYER01
 10
1426.921673
 20
-7.950056
  0
VERTEX
  8
LAYER01
 10
1427.143336
 20
-7.525355
  0
VERTEX
  8
LAYER01
 10
1427.362843
 20
-7.099332
  0
VERTEX
  8
LAYER01
 10
1427.580137
 20
-6.672096
  0
VERTEX
  8
LAYER01
 10
1427.795161
 20
-6.243758
  0
VERTEX
  8
LAYER01
 10
1428.007857
 20
-5.814429
  0
VERTEX
  8
LAYER01
 10
1428.218169
 20
-5.384218
  0
VERTEX
  8
LAYER01
 10
1428.426041
 20
-4.953234
  0
VERTEX
  8
LAYER01
 10
1428.631475
 20
-4.521503
  0
VERTEX
  8
LAYER01
 10
1428.834487
 20
-4.089017
  0
VERTEX
  8
LAYER01
 10
1429.035081
 20
-3.655776
  0
VERTEX
  8
LAYER01
 10
1429.233263
 20
-3.221781
  0
VERTEX
  8
LAYER01
 10
1429.429038
 20
-2.787035
  0
VERTEX
  8
LAYER01
 10
1429.62241
 20
-2.351539
  0
VERTEX
  8
LAYER01
 10
1429.813385
 20
-1.915294
  0
VERTEX
  8
LAYER01
 10
1430.001967
 20
-1.478303
  0
VERTEX
  8
LAYER01
 10
1430.188161
 20
-1.040566
  0
VERTEX
  8
LAYER01
 10
1430.371972
 20
-0.602084
  0
VERTEX
  8
LAYER01
 10
1430.553407
 20
-0.162862
  0
VERTEX
  8
LAYER01
 10
1430.732469
 20
0.277103
  0
VERTEX
  8
LAYER01
 10
1430.909158
 20
0.717807
  0
VERTEX
  8
LAYER01
 10
1431.083477
 20
1.159252
  0
VERTEX
  8
LAYER01
 10
1431.255428
 20
1.601436
  0
VERTEX
  8
LAYER01
 10
1431.425012
 20
2.044359
  0
VERTEX
  8
LAYER01
 10
1431.592231
 20
2.488021
  0
VERTEX
  8
LAYER01
 10
1431.757087
 20
2.93242
  0
VERTEX
  8
LAYER01
 10
1431.919581
 20
3.377556
  0
VERTEX
  8
LAYER01
 10
1432.079716
 20
3.823429
  0
VERTEX
  8
LAYER01
 10
1432.237493
 20
4.270039
  0
VERTEX
  8
LAYER01
 10
1432.392914
 20
4.717384
  0
VERTEX
  8
LAYER01
 10
1432.54598
 20
5.165464
  0
VERTEX
  8
LAYER01
 10
1432.696694
 20
5.614278
  0
VERTEX
  8
LAYER01
 10
1432.845058
 20
6.063826
  0
VERTEX
  8
LAYER01
 10
1432.991073
 20
6.514108
  0
VERTEX
  8
LAYER01
 10
1433.13474
 20
6.965122
  0
VERTEX
  8
LAYER01
 10
1433.276062
 20
7.416869
  0
VERTEX
  8
LAYER01
 10
1433.415041
 20
7.869348
  0
VERTEX
  8
LAYER01
 10
1433.551677
 20
8.322557
  0
VERTEX
  8
LAYER01
 10
1433.68597
 20
8.776498
  0
VERTEX
  8
LAYER01
 10
1433.817918
 20
9.231172
  0
VERTEX
  8
LAYER01
 10
1433.947518
 20
9.686578
  0
VERTEX
  8
LAYER01
 10
1434.074768
 20
10.142719
  0
VERTEX
  8
LAYER01
 10
1434.199666
 20
10.599593
  0
VERTEX
  8
LAYER01
 10
1434.322209
 20
11.057203
  0
VERTEX
  8
LAYER01
 10
1434.442397
 20
11.515548
  0
VERTEX
  8
LAYER01
 10
1434.560225
 20
11.97463
  0
VERTEX
  8
LAYER01
 10
1434.675693
 20
12.434449
  0
VERTEX
  8
LAYER01
 10
1434.788797
 20
12.895005
  0
VERTEX
  8
LAYER01
 10
1434.899536
 20
13.3563
  0
VERTEX
  8
LAYER01
 10
1435.007908
 20
13.818334
  0
VERTEX
  8
LAYER01
 10
1435.11391
 20
14.281108
  0
VERTEX
  8
LAYER01
 10
1435.21754
 20
14.744623
  0
VERTEX
  8
LAYER01
 10
1435.318796
 20
15.208879
  0
VERTEX
  8
LAYER01
 10
1435.417676
 20
15.673876
  0
VERTEX
  8
LAYER01
 10
1435.514178
 20
16.139617
  0
VERTEX
  8
LAYER01
 10
1435.608298
 20
16.6061
  0
VERTEX
  8
LAYER01
 10
1435.699954
 20
17.073353
  0
VERTEX
  8
LAYER01
 10
1435.788851
 20
17.541468
  0
VERTEX
  8
LAYER01
 10
1435.875423
 20
18.010308
  0
VERTEX
  8
LAYER01
 10
1435.960211
 20
18.479705
  0
VERTEX
  8
LAYER01
 10
1436.043753
 20
18.949491
  0
VERTEX
  8
LAYER01
 10
1436.126666
 20
19.419474
  0
VERTEX
  8
LAYER01
 10
1436.209539
 20
19.889469
  0
VERTEX
  8
LAYER01
 10
1436.292412
 20
20.359465
  0
VERTEX
  8
LAYER01
 10
1436.375285
 20
20.82946
  0
VERTEX
  8
LAYER01
 10
1436.458158
 20
21.299455
  0
VERTEX
  8
LAYER01
 10
1436.541031
 20
21.76945
  0
VERTEX
  8
LAYER01
 10
1436.623903
 20
22.239445
  0
VERTEX
  8
LAYER01
 10
1436.706776
 20
22.709441
  0
VERTEX
  8
LAYER01
 10
1436.789649
 20
23.179436
  0
VERTEX
  8
LAYER01
 10
1436.872522
 20
23.649431
  0
VERTEX
  8
LAYER01
 10
1436.955395
 20
24.119426
  0
VERTEX
  8
LAYER01
 10
1437.038267
 20
24.589422
  0
VERTEX
  8
LAYER01
 10
1437.12114
 20
25.059417
  0
VERTEX
  8
LAYER01
 10
1437.204013
 20
25.529412
  0
VERTEX
  8
LAYER01
 10
1437.286886
 20
25.999407
  0
VERTEX
  8
LAYER01
 10
1437.369759
 20
26.469403
  0
VERTEX
  8
LAYER01
 10
1437.452631
 20
26.939398
  0
VERTEX
  8
LAYER01
 10
1437.535504
 20
27.409393
  0
VERTEX
  8
LAYER01
 10
1437.618377
 20
27.879388
  0
VERTEX
  8
LAYER01
 10
1437.70125
 20
28.349383
  0
VERTEX
  8
LAYER01
 10
1437.784123
 20
28.819379
  0
VERTEX
  8
LAYER01
 10
1437.866995
 20
29.289374
  0
VERTEX
  8
LAYER01
 10
1437.949868
 20
29.759369
  0
VERTEX
  8
LAYER01
 10
1438.032741
 20
30.229364
  0
VERTEX
  8
LAYER01
 10
1438.115614
 20
30.69936
  0
VERTEX
  8
LAYER01
 10
1438.198487
 20
31.169355
  0
VERTEX
  8
LAYER01
 10
1438.28136
 20
31.63935
  0
VERTEX
  8
LAYER01
 10
1438.364232
 20
32.109345
  0
VERTEX
  8
LAYER01
 10
1438.447105
 20
32.579341
  0
VERTEX
  8
LAYER01
 10
1438.529978
 20
33.049336
  0
VERTEX
  8
LAYER01
 10
1438.612851
 20
33.519331
  0
VERTEX
  8
LAYER01
 10
1438.695724
 20
33.989326
  0
VERTEX
  8
LAYER01
 10
1438.778596
 20
34.459321
  0
VERTEX
  8
LAYER01
 10
1438.861469
 20
34.929317
  0
VERTEX
  8
LAYER01
 10
1438.944342
 20
35.399312
  0
VERTEX
  8
LAYER01
 10
1439.027215
 20
35.869307
  0
VERTEX
  8
LAYER01
 10
1439.110088
 20
36.339302
  0
VERTEX
  8
LAYER01
 10
1439.192961
 20
36.809298
  0
VERTEX
  8
LAYER01
 10
1439.275833
 20
37.279293
  0
VERTEX
  8
LAYER01
 10
1439.358706
 20
37.749288
  0
VERTEX
  8
LAYER01
 10
1439.441579
 20
38.219283
  0
VERTEX
  8
LAYER01
 10
1439.524452
 20
38.689279
  0
VERTEX
  8
LAYER01
 10
1439.607325
 20
39.159274
  0
VERTEX
  8
LAYER01
 10
1439.690198
 20
39.629269
  0
VERTEX
  8
LAYER01
 10
1439.77307
 20
40.099264
  0
VERTEX
  8
LAYER01
 10
1439.855943
 20
40.569259
  0
VERTEX
  8
LAYER01
 10
1439.938816
 20
41.039255
  0
VERTEX
  8
LAYER01
 10
1440.021689
 20
41.50925
  0
VERTEX
  8
LAYER01
 10
1440.104562
 20
41.979245
  0
VERTEX
  8
LAYER01
 10
1440.187435
 20
42.44924
  0
VERTEX
  8
LAYER01
 10
1440.270307
 20
42.919236
  0
VERTEX
  8
LAYER01
 10
1440.35318
 20
43.389231
  0
VERTEX
  8
LAYER01
 10
1440.436053
 20
43.859226
  0
VERTEX
  8
LAYER01
 10
1440.518926
 20
44.329221
  0
SEQEND
  8
LAYER01
  0
POLYLINE
  8
LAYER01
  6
CONTINUOUS
 62
     7
 66
     1
  0
VERTEX
  8
LAYER01
 10
1350.615395
 20
-44.411773
  0
VERTEX
  8
LAYER01
 10
1351.757202
 20
-44.343613
  0
VERTEX
  8
LAYER01
 10
1352.897917
 20
-44.258879
  0
VERTEX
  8
LAYER01
 10
1354.037324
 20
-44.157598
  0
VERTEX
  8
LAYER01
 10
1355.175203
 20
-44.039796
  0
VERTEX
  8
LAYER01
 10
1356.311338
 20
-43.9055
  0
VERTEX
  8
LAYER01
 10
1357.445511
 20
-43.754737
  0
VERTEX
  8
LAYER01
 10
1358.577503
 20
-43.587532
  0
VERTEX
  8
LAYER01
 10
1359.707098
 20
-43.403914
  0
VERTEX
  8
LAYER01
 10
1360.834076
 20
-43.203908
  0
VERTEX
  8
LAYER01
 10
1361.958221
 20
-42.987541
  0
VERTEX
  8
LAYER01
 10
1363.079314
 20
-42.754839
  0
VERTEX
  8
LAYER01
 10
1364.197137
 20
-42.50583
  0
VERTEX
  8
LAYER01
 10
1365.311474
 20
-42.240555
  0
VERTEX
  8
LAYER01
 10
1366.422107
 20
-41.959057
  0
VERTEX
  8
LAYER01
 10
1367.528818
 20
-41.661385
  0
VERTEX
  8
LAYER01
 10
1368.631391
 20
-41.347582
  0
VERTEX
  8
LAYER01
 10
1369.729608
 20
-41.017696
  0
VERTEX
  8
LAYER01
 10
1370.823252
 20
-40.671772
  0
VERTEX
  8
LAYER01
 10
1371.912106
 20
-40.309856
  0
VERTEX
  8
LAYER01
 10
1372.995951
 20
-39.931994
  0
VERTEX
  8
LAYER01
 10
1374.074573
 20
-39.538232
  0
VERTEX
  8
LAYER01
 10
1375.147752
 20
-39.128616
  0
VERTEX
  8
LAYER01
 10
1376.215271
 20
-38.703193
  0
VERTEX
  8
LAYER01
 10
1377.276918
 20
-38.262024
  0
VERTEX
  8
LAYER01
 10
1378.332482
 20
-37.805193
  0
VERTEX
  8
LAYER01
 10
1379.381753
 20
-37.332783
  0
VERTEX
  8
LAYER01
 10
1380.424522
 20
-36.844877
  0
VERTEX
  8
LAYER01
 10
1381.46058
 20
-36.341559
  0
VERTEX
  8
LAYER01
 10
1382.489716
 20
-35.822913
  0
VERTEX
  8
LAYER01
 10
1383.511721
 20
-35.28902
  0
VERTEX
  8
LAYER01
 10
1384.526386
 20
-34.739966
  0
VERTEX
  8
LAYER01
 10
1385.5335
 20
-34.175833
  0
VERTEX
  8
LAYER01
 10
1386.532855
 20
-33.596705
  0
VERTEX
  8
LAYER01
 10
1387.52424
 20
-33.002665
  0
VERTEX
  8
LAYER01
 10
1388.507447
 20
-32.393798
  0
VERTEX
  8
LAYER01
 10
1389.482264
 20
-31.770196
  0
VERTEX
  8
LAYER01
 10
1390.448483
 20
-31.131948
  0
VERTEX
  8
LAYER01
 10
1391.405893
 20
-30.479147
  0
VERTEX
  8
LAYER01
 10
1392.354285
 20
-29.811882
  0
VERTEX
  8
LAYER01
 10
1393.293449
 20
-29.130246
  0
VERTEX
  8
LAYER01
 10
1394.223174
 20
-28.43433
  0
VERTEX
  8
LAYER01
 10
1395.143251
 20
-27.724224
  0
VERTEX
  8
LAYER01
 10
1396.053471
 20
-27.000019
  0
VERTEX
  8
LAYER01
 10
1396.953623
 20
-26.261807
  0
VERTEX
  8
LAYER01
 10
1397.843498
 20
-25.509679
  0
VERTEX
  8
LAYER01
 10
1398.722886
 20
-24.743732
  0
VERTEX
  8
LAYER01
 10
1399.591591
 20
-23.964098
  0
VERTEX
  8
LAYER01
 10
1400.449416
 20
-23.17092
  0
VERTEX
  8
LAYER01
 10
1401.296168
 20
-22.364344
  0
VERTEX
  8
LAYER01
 10
1402.131649
 20
-21.544513
  0
VERTEX
  8
LAYER01
 10
1402.955667
 20
-20.711571
  0
VERTEX
  8
LAYER01
 10
1403.768025
 20
-19.865662
  0
VERTEX
  8
LAYER01
 10
1404.568529
 20
-19.006932
  0
VERTEX
  8
LAYER01
 10
1405.356984
 20
-18.135523
  0
VERTEX
  8
LAYER01
 10
1406.133194
 20
-17.251581
  0
VERTEX
  8
LAYER01
 10
1406.896964
 20
-16.355249
  0
VERTEX
  8
LAYER01
 10
1407.648101
 20
-15.446671
  0
VERTEX
  8
LAYER01
 10
1408.386407
 20
-14.525992
  0
VERTEX
  8
LAYER01
 10
1409.11169
 20
-13.593356
  0
VERTEX
  8
LAYER01
 10
1409.823752
 20
-12.648908
  0
VERTEX
  8
LAYER01
 10
1410.5224
 20
-11.69279
  0
VERTEX
  8
LAYER01
 10
1411.207439
 20
-10.725148
  0
VERTEX
  8
LAYER01
 10
1411.878673
 20
-9.746126
  0
VERTEX
  8
LAYER01
 10
1412.535907
 20
-8.755867
  0
VERTEX
  8
LAYER01
 10
1413.178946
 20
-7.754517
  0
VERTEX
  8
LAYER01
 10
1413.807596
 20
-6.742218
  0
VERTEX
  8
LAYER01
 10
1414.421661
 20
-5.719117
  0
VERTEX
  8
LAYER01
 10
1415.020946
 20
-4.685356
  0
VERTEX
  8
LAYER01
 10
1415.605264
 20
-3.6411
  0
VERTEX
  8
LAYER01
 10
1416.174435
 20
-2.586547
  0
VERTEX
  8
LAYER01
 10
1416.728283
 20
-1.521895
  0
VERTEX
  8
LAYER01
 10
1417.266631
 20
-0.447345
  0
VERTEX
  8
LAYER01
 10
1417.789301
 20
0.636903
  0
VERTEX
  8
LAYER01
 10
1418.296118
 20
1.73065
  0
VERTEX
  8
LAYER01
 10
1418.786903
 20
2.833697
  0
VERTEX
  8
LAYER01
 10
1419.26148
 20
3.945842
  0
VERTEX
  8
LAYER01
 10
1419.719672
 20
5.066887
  0
VERTEX
  8
LAYER01
 10
1420.161301
 20
6.196633
  0
VERTEX
  8
LAYER01
 10
1420.586191
 20
7.334878
  0
VERTEX
  8
LAYER01
 10
1420.994167
 20
8.481421
  0
VERTEX
  8
LAYER01
 10
1421.385056
 20
9.63605
  0
VERTEX
  8
LAYER01
 10
1421.758689
 20
10.798551
  0
VERTEX
  8
LAYER01
 10
1422.114896
 20
11.968711
  0
VERTEX
  8
LAYER01
 10
1422.453508
 20
13.146316
  0
VERTEX
  8
LAYER01
 10
1422.774354
 20
14.331152
  0
VERTEX
  8
LAYER01
 10
1423.077263
 20
15.523006
  0
VERTEX
  8
LAYER01
 10
1423.362067
 20
16.721663
  0
VERTEX
  8
LAYER01
 10
1423.628596
 20
17.92691
  0
VERTEX
  8
LAYER01
 10
1423.876679
 20
19.138533
  0
VERTEX
  8
LAYER01
 10
1424.106146
 20
20.356319
  0
VERTEX
  8
LAYER01
 10
1424.323023
 20
21.58294
  0
VERTEX
  8
LAYER01
 10
1424.542067
 20
22.825196
  0
VERTEX
  8
LAYER01
 10
1424.763916
 20
24.083364
  0
VERTEX
  8
LAYER01
 10
1424.988567
 20
25.357426
  0
VERTEX
  8
LAYER01
 10
1425.216017
 20
26.647359
  0
VERTEX
  8
LAYER01
 10
1425.446262
 20
27.953144
  0
VERTEX
  8
LAYER01
 10
1425.679299
 20
29.274761
  0
VERTEX
  8
LAYER01
 10
1425.915123
 20
30.612187
  0
VERTEX
  8
LAYER01
 10
1426.153706
 20
31.965257
  0
VERTEX
  8
LAYER01
 10
1426.394978
 20
33.333576
  0
VERTEX
  8
LAYER01
 10
1426.638865
 20
34.716729
  0
VERTEX
  8
LAYER01
 10
1426.885294
 20
36.114298
  0
VERTEX
  8
LAYER01
 10
1427.134192
 20
37.525869
  0
VERTEX
  8
LAYER01
 10
1427.385485
 20
38.951025
  0
VERTEX
  8
LAYER01
 10
1427.639101
 20
40.38935
  0
VERTEX
  8
LAYER01
 10
1427.894954
 20
41.840365
  0
VERTEX
  8
LAYER01
 10
1428.152897
 20
43.303235
  0
VERTEX
  8
LAYER01
 10
1428.41276
 20
44.776991
  0
VERTEX
  8
LAYER01
 10
1428.674373
 20
46.260669
  0
VERTEX
  8
LAYER01
 10
1428.937564
 20
47.753301
  0
VERTEX
  8
LAYER01
 10
1429.202164
 20
49.253923
  0
VERTEX
  8
LAYER01
 10
1429.468002
 20
50.761566
  0
VERTEX
  8
LAYER01
 10
1429.734908
 20
52.275261
  0
VERTEX
  8
LAYER01
 10
1430.002687
 20
53.793913
  0
VERTEX
  8
LAYER01
 10
1430.271121
 20
55.316279
  0
VERTEX
  8
LAYER01
 10
1430.53999
 20
56.841108
  0
VERTEX
  8
LAYER01
 10
1430.809072
 20
58.367148
  0
VERTEX
  8
LAYER01
 10
1431.078147
 20
59.893151
  0
VERTEX
  8
LAYER01
 10
1431.346995
 20
61.417864
  0
VERTEX
  8
LAYER01
 10
1431.615395
 20
62.940036
  0
SEQEND
  8
LAYER01
  0
INSERT
  8
LAYER01
  2
VS357012-G7
 10
0.0
 20
0.0
  0
LINE
  8
LAYER01
  6
CONTINUOUS
 62
     7
 10
1351.24386
 20
-56.40472
 11
1148.452602
 21
-67.032556
  0
LINE
  8
LAYER01
  6
CONTINUOUS
 62
     7
 10
1128.918148
 20
-68.7416
 11
1148.452602
 21
-67.032556
  0
ARC
  8
LAYER01
  6
CONTINUOUS
 62
     7
 10
1129.615395
 20
-76.711157
 40
8.0
 50
95.0
 51
180.0
  0
LINE
  8
LAYER01
  6
CONTINUOUS
 62
     7
 10
1121.615394
 20
-76.711158
 11
1121.615394
 21
-79.684625
  0
LINE
  8
LAYER01
  6
CONTINUOUS
 62
     7
 10
1121.615394
 20
-79.684625
 11
1104.615395
 21
-79.684625
  0
LINE
  8
LAYER01
  6
CONTINUOUS
 62
     7
 10
1104.615395
 20
-79.684625
 11
1104.615395
 21
-70.924456
  0
ARC
  8
LAYER01
  6
CONTINUOUS
 62
     7
 10
1109.615395
 20
-70.924457
 40
5.0
 50
130.0
 51
180.0
  0
LINE
  8
LAYER01
  6
CONTINUOUS
 62
     7
 10
1106.401458
 20
-67.094232
 11
1116.407729
 21
-58.697972
  0
ARC
  8
LAYER01
  6
CONTINUOUS
 62
     7
 10
1119.621669
 20
-62.528197
 40
5.0
 50
95.0
 51
130.0
  0
LINE
  8
LAYER01
  6
CONTINUOUS
 62
     7
 10
1119.18589
 20
-57.547222
 11
1147.615395
 21
-55.059965
  0
LINE
  8
LAYER01
  6
CONTINUOUS
 62
     7
 10
1350.615896
 20
-44.421162
 11
1147.615395
 21
-55.059965
  0
LINE
  8
LAYER01
  6
CONTINUOUS
 62
     7
 10
1015.615396
 20
-55.059965
 11
1044.0449
 21
-57.547222
  0
ARC
  8
LAYER01
  6
CONTINUOUS
 62
     7
 10
1043.609122
 20
-62.528197
 40
5.0
 50
50.0
 51
85.0
  0
LINE
  8
LAYER01
  6
CONTINUOUS
 62
     7
 10
1046.823061
 20
-58.697972
 11
1056.829333
 21
-67.094232
  0
ARC
  8
LAYER01
  6
CONTINUOUS
 62
     7
 10
1053.615395
 20
-70.924457
 40
5.0
 50
0.0
 51
50.0
  0
LINE
  8
LAYER01
  6
CONTINUOUS
 62
     7
 10
1058.615395
 20
-70.924456
 11
1058.615395
 21
-79.684625
  0
LINE
  8
LAYER01
  6
CONTINUOUS
 62
     7
 10
1058.615395
 20
-79.684625
 11
1041.615396
 21
-79.684625
  0
LINE
  8
LAYER01
  6
CONTINUOUS
 62
     7
 10
1041.615396
 20
-79.684625
 11
1041.615396
 21
-76.711158
  0
ARC
  8
LAYER01
  6
CONTINUOUS
 62
     7
 10
1033.615395
 20
-76.711157
 40
8.0
 50
0.0
 51
85.0
  0
LINE
  8
LAYER01
  6
CONTINUOUS
 62
     7
 10
1014.778189
 20
-67.032556
 11
1034.312642
 21
-68.7416
  0
LINE
  8
LAYER01
  6
CONTINUOUS
 62
     7
 10
1058.615395
 20
-79.684625
 11
1104.615395
 21
-79.684625
  0
LINE
  8
LAYER01
  6
CONTINUOUS
 62
     7
 10
1116.407729
 20
-58.697972
 11
1046.823061
 21
-58.697972
  0
LINE
  8
LAYER01
  6
CONTINUOUS
 62
     7
 10
1056.829333
 20
-67.094232
 11
1106.401458
 21
-67.094232
  0
LINE
  8
LAYER01
  6
CONTINUOUS
 62
     7
 10
1411.615408
 20
395.39688
 11
1081.615395
 21
395.39688
  0
LINE
  8
LAYER01
  6
CONTINUOUS
 62
     7
 10
1456.615395
 20
62.940036
 11
1456.615395
 21
50.940036
  0
POLYLINE
  8
LAYER01
  6
CONTINUOUS
 62
     7
 66
     1
  0
VERTEX
  8
LAYER01
 10
1440.518926
 20
44.329221
  0
VERTEX
  8
LAYER01
 10
1440.530845
 20
44.395212
  0
VERTEX
  8
LAYER01
 10
1440.543297
 20
44.461013
  0
VERTEX
  8
LAYER01
 10
1440.55628
 20
44.526623
  0
VERTEX
  8
LAYER01
 10
1440.569793
 20
44.592045
  0
VERTEX
  8
LAYER01
 10
1440.583836
 20
44.657277
  0
VERTEX
  8
LAYER01
 10
1440.598407
 20
44.72232
  0
VERTEX
  8
LAYER01
 10
1440.613505
 20
44.787175
  0
VERTEX
  8
LAYER01
 10
1440.629129
 20
44.851842
  0
VERTEX
  8
LAYER01
 10
1440.645277
 20
44.916321
  0
VERTEX
  8
LAYER01
 10
1440.66195
 20
44.980613
  0
VERTEX
  8
LAYER01
 10
1440.679146
 20
45.044719
  0
VERTEX
  8
LAYER01
 10
1440.696863
 20
45.108638
  0
VERTEX
  8
LAYER01
 10
1440.715101
 20
45.17237
  0
VERTEX
  8
LAYER01
 10
1440.733859
 20
45.235917
  0
VERTEX
  8
LAYER01
 10
1440.753135
 20
45.299279
  0
VERTEX
  8
LAYER01
 10
1440.772928
 20
45.362456
  0
VERTEX
  8
LAYER01
 10
1440.793239
 20
45.425448
  0
VERTEX
  8
LAYER01
 10
1440.814064
 20
45.488256
  0
VERTEX
  8
LAYER01
 10
1440.835404
 20
45.550881
  0
VERTEX
  8
LAYER01
 10
1440.857257
 20
45.613322
  0
VERTEX
  8
LAYER01
 10
1440.879622
 20
45.67558
  0
VERTEX
  8
LAYER01
 10
1440.902504
 20
45.737664
  0
VERTEX
  8
LAYER01
 10
1440.925909
 20
45.799582
  0
VERTEX
  8
LAYER01
 10
1440.949835
 20
45.861331
  0
VERTEX
  8
LAYER01
 10
1440.974282
 20
45.922907
  0
VERTEX
  8
LAYER01
 10
1440.99925
 20
45.984306
  0
VERTEX
  8
LAYER01
 10
1441.024738
 20
46.045526
  0
VERTEX
  8
LAYER01
 10
1441.050746
 20
46.106563
  0
VERTEX
  8
LAYER01
 10
1441.077273
 20
46.167413
  0
VERTEX
  8
LAYER01
 10
1441.104319
 20
46.228073
  0
VERTEX
  8
LAYER01
 10
1441.131882
 20
46.288541
  0
VERTEX
  8
LAYER01
 10
1441.159964
 20
46.348812
  0
VERTEX
  8
LAYER01
 10
1441.188563
 20
46.408882
  0
VERTEX
  8
LAYER01
 10
1441.217679
 20
46.46875
  0
VERTEX
  8
LAYER01
 10
1441.24731
 20
46.528411
  0
VERTEX
  8
LAYER01
 10
1441.277458
 20
46.587862
  0
VERTEX
  8
LAYER01
 10
1441.308121
 20
46.6471
  0
VERTEX
  8
LAYER01
 10
1441.339298
 20
46.70612
  0
VERTEX
  8
LAYER01
 10
1441.37099
 20
46.764921
  0
VERTEX
  8
LAYER01
 10
1441.403196
 20
46.823498
  0
VERTEX
  8
LAYER01
 10
1441.435914
 20
46.881849
  0
VERTEX
  8
LAYER01
 10
1441.469146
 20
46.939969
  0
VERTEX
  8
LAYER01
 10
1441.502853
 20
46.997796
  0
VERTEX
  8
LAYER01
 10
1441.536996
 20
47.055269
  0
VERTEX
  8
LAYER01
 10
1441.571577
 20
47.112389
  0
VERTEX
  8
LAYER01
 10
1441.606592
 20
47.169156
  0
VERTEX
  8
LAYER01
 10
1441.642042
 20
47.225571
  0
VERTEX
  8
LAYER01
 10
1441.677927
 20
47.281634
  0
VERTEX
  8
LAYER01
 10
1441.714245
 20
47.337347
  0
VERTEX
  8
LAYER01
 10
1441.750995
 20
47.39271
  0
VERTEX
  8
LAYER01
 10
1441.788177
 20
47.447723
  0
VERTEX
  8
LAYER01
 10
1441.82579
 20
47.502387
  0
VERTEX
  8
LAYER01
 10
1441.863834
 20
47.556703
  0
VERTEX
  8
LAYER01
 10
1441.902307
 20
47.61067
  0
VERTEX
  8
LAYER01
 10
1441.941208
 20
47.664291
  0
VERTEX
  8
LAYER01
 10
1441.980538
 20
47.717565
  0
VERTEX
  8
LAYER01
 10
1442.020295
 20
47.770493
  0
VERTEX
  8
LAYER01
 10
1442.060479
 20
47.823076
  0
VERTEX
  8
LAYER01
 10
1442.101089
 20
47.875314
  0
VERTEX
  8
LAYER01
 10
1442.142123
 20
47.927208
  0
VERTEX
  8
LAYER01
 10
1442.183582
 20
47.978759
  0
VERTEX
  8
LAYER01
 10
1442.225464
 20
48.029966
  0
VERTEX
  8
LAYER01
 10
1442.26777
 20
48.080831
  0
VERTEX
  8
LAYER01
 10
1442.310498
 20
48.131354
  0
VERTEX
  8
LAYER01
 10
1442.353652
 20
48.181532
  0
VERTEX
  8
LAYER01
 10
1442.397232
 20
48.231365
  0
VERTEX
  8
LAYER01
 10
1442.441238
 20
48.280853
  0
VERTEX
  8
LAYER01
 10
1442.485671
 20
48.329995
  0
VERTEX
  8
LAYER01
 10
1442.530532
 20
48.378791
  0
VERTEX
  8
LAYER01
 10
1442.575822
 20
48.42724
  0
VERTEX
  8
LAYER01
 10
1442.62154
 20
48.475342
  0
VERTEX
  8
LAYER01
 10
1442.667688
 20
48.523096
  0
VERTEX
  8
LAYER01
 10
1442.714267
 20
48.570501
  0
VERTEX
  8
LAYER01
 10
1442.761282
 20
48.617562
  0
VERTEX
  8
LAYER01
 10
1442.808763
 20
48.6643
  0
VERTEX
  8
LAYER01
 10
1442.8567
 20
48.710705
  0
VERTEX
  8
LAYER01
 10
1442.905078
 20
48.756762
  0
VERTEX
  8
LAYER01
 10
1442.953884
 20
48.802456
  0
VERTEX
  8
LAYER01
 10
1443.0031
 20
48.847774
  0
VERTEX
  8
LAYER01
 10
1443.052714
 20
48.892699
  0
VERTEX
  8
LAYER01
 10
1443.102709
 20
48.937217
  0
VERTEX
  8
LAYER01
 10
1443.153072
 20
48.981313
  0
VERTEX
  8
LAYER01
 10
1443.203786
 20
49.024973
  0
VERTEX
  8
LAYER01
 10
1443.254837
 20
49.068181
  0
VERTEX
  8
LAYER01
 10
1443.306198
 20
49.110921
  0
VERTEX
  8
LAYER01
 10
1443.357853
 20
49.153184
  0
VERTEX
  8
LAYER01
 10
1443.409802
 20
49.194971
  0
VERTEX
  8
LAYER01
 10
1443.462044
 20
49.236284
  0
VERTEX
  8
LAYER01
 10
1443.514578
 20
49.277122
  0
VERTEX
  8
LAYER01
 10
1443.567404
 20
49.317487
  0
VERTEX
  8
LAYER01
 10
1443.620522
 20
49.35738
  0
VERTEX
  8
LAYER01
 10
1443.673932
 20
49.3968
  0
VERTEX
  8
LAYER01
 10
1443.727632
 20
49.435748
  0
VERTEX
  8
LAYER01
 10
1443.781623
 20
49.474226
  0
VERTEX
  8
LAYER01
 10
1443.835904
 20
49.512234
  0
VERTEX
  8
LAYER01
 10
1443.890474
 20
49.549773
  0
VERTEX
  8
LAYER01
 10
1443.945333
 20
49.586843
  0
VERTEX
  8
LAYER01
 10
1444.000482
 20
49.623445
  0
VERTEX
  8
LAYER01
 10
1444.055918
 20
49.659579
  0
VERTEX
  8
LAYER01
 10
1444.111643
 20
49.695247
  0
VERTEX
  8
LAYER01
 10
1444.167655
 20
49.730449
  0
VERTEX
  8
LAYER01
 10
1444.223954
 20
49.765186
  0
VERTEX
  8
LAYER01
 10
1444.28054
 20
49.799458
  0
VERTEX
  8
LAYER01
 10
1444.337412
 20
49.833266
  0
VERTEX
  8
LAYER01
 10
1444.39457
 20
49.866611
  0
VERTEX
  8
LAYER01
 10
1444.452014
 20
49.899492
  0
VERTEX
  8
LAYER01
 10
1444.509746
 20
49.931907
  0
VERTEX
  8
LAYER01
 10
1444.567766
 20
49.963855
  0
VERTEX
  8
LAYER01
 10
1444.626074
 20
49.995335
  0
VERTEX
  8
LAYER01
 10
1444.684672
 20
50.026347
  0
VERTEX
  8
LAYER01
 10
1444.743559
 20
50.056889
  0
VERTEX
  8
LAYER01
 10
1444.802737
 20
50.086961
  0
VERTEX
  8
LAYER01
 10
1444.862205
 20
50.116561
  0
VERTEX
  8
LAYER01
 10
1444.921965
 20
50.14569
  0
VERTEX
  8
LAYER01
 10
1444.982016
 20
50.174346
  0
VERTEX
  8
LAYER01
 10
1445.042366
 20
50.20253
  0
VERTEX
  8
LAYER01
 10
1445.103048
 20
50.230251
  0
VERTEX
  8
LAYER01
 10
1445.164046
 20
50.257501
  0
VERTEX
  8
LAYER01
 10
1445.225335
 20
50.284271
  0
VERTEX
  8
LAYER01
 10
1445.286893
 20
50.310549
  0
VERTEX
  8
LAYER01
 10
1445.348695
 20
50.336325
  0
VERTEX
  8
LAYER01
 10
1445.410717
 20
50.36159
  0
VERTEX
  8
LAYER01
 10
1445.472936
 20
50.386332
  0
VERTEX
  8
LAYER01
 10
1445.535328
 20
50.410543
  0
VERTEX
  8
LAYER01
 10
1445.597869
 20
50.43421
  0
VERTEX
  8
LAYER01
 10
1445.660536
 20
50.457325
  0
VERTEX
  8
LAYER01
 10
1445.723316
 20
50.479888
  0
VERTEX
  8
LAYER01
 10
1445.786216
 20
50.501907
  0
VERTEX
  8
LAYER01
 10
1445.849235
 20
50.523382
  0
VERTEX
  8
LAYER01
 10
1445.912373
 20
50.544315
  0
VERTEX
  8
LAYER01
 10
1445.975629
 20
50.564705
  0
VERTEX
  8
LAYER01
 10
1446.039004
 20
50.584553
  0
VERTEX
  8
LAYER01
 10
1446.102497
 20
50.603861
  0
VERTEX
  8
LAYER01
 10
1446.166108
 20
50.622628
  0
VERTEX
  8
LAYER01
 10
1446.229838
 20
50.640855
  0
VERTEX
  8
LAYER01
 10
1446.293686
 20
50.658544
  0
VERTEX
  8
LAYER01
 10
1446.357651
 20
50.675694
  0
VERTEX
  8
LAYER01
 10
1446.421734
 20
50.692306
  0
VERTEX
  8
LAYER01
 10
1446.485935
 20
50.70838
  0
VERTEX
  8
LAYER01
 10
1446.550253
 20
50.723918
  0
VERTEX
  8
LAYER01
 10
1446.614689
 20
50.738921
  0
VERTEX
  8
LAYER01
 10
1446.679242
 20
50.753387
  0
VERTEX
  8
LAYER01
 10
1446.743912
 20
50.767319
  0
VERTEX
  8
LAYER01
 10
1446.808698
 20
50.780717
  0
VERTEX
  8
LAYER01
 10
1446.873602
 20
50.793582
  0
VERTEX
  8
LAYER01
 10
1446.938622
 20
50.805914
  0
VERTEX
  8
LAYER01
 10
1447.003758
 20
50.817713
  0
VERTEX
  8
LAYER01
 10
1447.069028
 20
50.82898
  0
VERTEX
  8
LAYER01
 10
1447.134443
 20
50.839713
  0
VERTEX
  8
LAYER01
 10
1447.199999
 20
50.84991
  0
VERTEX
  8
LAYER01
 10
1447.265689
 20
50.859569
  0
VERTEX
  8
LAYER01
 10
1447.331508
 20
50.86869
  0
VERTEX
  8
LAYER01
 10
1447.397449
 20
50.87727
  0
VERTEX
  8
LAYER01
 10
1447.463508
 20
50.885308
  0
VERTEX
  8
LAYER01
 10
1447.529678
 20
50.892803
  0
VERTEX
  8
LAYER01
 10
1447.595953
 20
50.899752
  0
VERTEX
  8
LAYER01
 10
1447.662328
 20
50.906154
  0
VERTEX
  8
LAYER01
 10
1447.728796
 20
50.912008
  0
VERTEX
  8
LAYER01
 10
1447.795353
 20
50.917312
  0
VERTEX
  8
LAYER01
 10
1447.861992
 20
50.922064
  0
VERTEX
  8
LAYER01
 10
1447.928708
 20
50.926263
  0
VERTEX
  8
LAYER01
 10
1447.995495
 20
50.929908
  0
VERTEX
  8
LAYER01
 10
1448.062346
 20
50.932996
  0
VERTEX
  8
LAYER01
 10
1448.129257
 20
50.935526
  0
VERTEX
  8
LAYER01
 10
1448.19622
 20
50.937497
  0
VERTEX
  8
LAYER01
 10
1448.263232
 20
50.938906
  0
VERTEX
  8
LAYER01
 10
1448.330286
 20
50.939753
  0
VERTEX
  8
LAYER01
 10
1448.397375
 20
50.940036
  0
SEQEND
  8
LAYER01
  0
LINE
  8
LAYER01
  6
CONTINUOUS
 62
     7
 10
1431.615389
 20
62.940036
 11
1456.615395
 21
62.940036
  0
LINE
  8
LAYER01
  6
CONTINUOUS
 62
     7
 10
1448.397375
 20
50.940036
 11
1456.615395
 21
50.940036
  0
LINE
  8
LAYER01
  6
CONTINUOUS
 62
     7
 10
1411.615408
 20
62.940036
 11
1081.615395
 21
62.940036
  0
LINE
  8
LAYER01
  6
CONTINUOUS
 62
     7
 10
1431.615389
 20
62.940036
 11
1411.615408
 21
62.940036
  0
LINE
  8
LAYER01
  6
CONTINUOUS
 62
     7
 10
1411.615408
 20
770.39688
 11
751.615382
 21
770.39688
  0
LINE
  8
LAYER01
  6
CONTINUOUS
 62
     7
 10
751.615382
 20
745.396874
 11
1081.615395
 21
745.396874
  0
DIMENSION
  8
LAYER01
 62
     7
  2
*D7
 10
1431.615389
 20
887.625359
 11
1081.615395
 21
957.625359
 13
731.615401
 23
786.476114
 14
1431.615389
 24
786.476114
  0
DIMENSION
  8
LAYER01
 62
     7
  2
*D8
 10
706.615395
 20
1010.901002
 11
1081.615395
 21
1080.901002
 13
1456.615395
 23
786.476114
 14
706.615395
 24
786.476114
  0
ARC
  8
LAYER01
  6
CONTINUOUS
 62
     7
 10
751.615395
 20
725.396877
 40
20.0
 50
90.0
 51
180.0
  0
ARC
  8
LAYER01
  6
CONTINUOUS
 62
     7
 10
751.615395
 20
725.396877
 40
45.0
 50
90.0
 51
180.0
  0
LINE
  8
LAYER01
  6
CONTINUOUS
 62
     7
 10
731.615401
 20
570.396877
 11
731.615401
 21
415.396876
  0
LINE
  8
LAYER01
  6
CONTINUOUS
 62
     7
 10
706.615395
 20
725.396878
 11
706.615395
 21
415.396876
  0
LINE
  8
LAYER01
  6
CONTINUOUS
 62
     7
 10
731.615401
 20
570.396877
 11
731.615401
 21
725.396878
  0
LINE
  8
LAYER01
  6
CONTINUOUS
 62
     7
 10
1411.615408
 20
745.396874
 11
1081.615395
 21
745.396874
  0
CIRCLE
  8
LAYER01
  6
CONTINUOUS
 62
     7
 10
1081.615395
 20
570.396877
 40
23.0
  0
CIRCLE
  8
LAYER01
  6
CONTINUOUS
 62
     7
 10
1081.615395
 20
570.396877
 40
37.570495
  0
INSERT
  8
LAYER01
  2
VS357012-G10
 10
0.0
 20
0.0
  0
ARC
  8
LAYER01
  6
CONTINUOUS
 62
     7
 10
1411.615395
 20
725.396877
 40
20.0
 50
0.0
 51
90.0
  0
ARC
  8
LAYER01
  6
CONTINUOUS
 62
     7
 10
1411.615395
 20
725.396877
 40
45.0
 50
0.0
 51
90.0
  0
LINE
  8
LAYER01
  6
CONTINUOUS
 62
     7
 10
1431.615389
 20
570.396877
 11
1431.615389
 21
415.396876
  0
LINE
  8
LAYER01
  6
CONTINUOUS
 62
     7
 10
1456.615395
 20
725.396878
 11
1456.615395
 21
415.396876
  0
LINE
  8
LAYER01
  6
CONTINUOUS
 62
     7
 10
1431.615389
 20
570.396877
 11
1431.615389
 21
725.396878
  0
DIMENSION
  8
LAYER01
 62
     7
  2
*D10
 10
1959.737941
 20
314.552625
 11
2187.507994
 21
384.552625
 13
2005.737941
 23
427.772216
 14
1959.737941
 24
427.772216
  0
INSERT
  8
LAYER01
  2
VS357012-G12
 10
0.0
 20
0.0
  0
INSERT
  8
LAYER01
  2
VS357012-G13
 10
0.0
 20
0.0
  0
TEXT
  8
LAYER01
  6
STRICHPUNKTIERT
 62
     7
 10
2316.06075
 20
-523.138041
 40
87.302124
  1
http://www.mineralwerkstoff.de
  0
TEXT
  8
LAYER01
  6
VERDECKT
 62
     1
 10
2993.078281
 20
-758.874233
 40
25.0
  1
A. Sprenger GmbH
  7
simplex
  0
TEXT
  8
LAYER01
  6
CONTINUOUS
 62
     7
 10
2984.968125
 20
-604.052564
 40
7.5
  1
Diese Zeichnung ist geistiges Eigentum der A. Sprenger GmbH
  7
simplex
  0
TEXT
  8
LAYER01
  6
CONTINUOUS
 62
     7
 10
2984.968125
 20
-616.909707
 40
7.5
  1
und urheberrechtlich geschützt. Ohne unsere Zustimmung darf 
  7
simplex
  0
TEXT
  8
LAYER01
  6
CONTINUOUS
 62
     7
 10
2984.968125
 20
-629.76685
 40
7.5
  1
sie in keiner Form verwendet oder Dritten zugänglich gemacht
  7
simplex
  0
TEXT
  8
LAYER01
  6
CONTINUOUS
 62
     7
 10
2984.968125
 20
-642.623993
 40
7.5
  1
werden. (§106 Urheberrecht)
  7
simplex
  0
TEXT
  8
LAYER01
  6
VERDECKT
 62
     1
 10
2993.078281
 20
-857.057117
 40
35.0
  1
VS-35-70-12
  7
simplex
  0
TEXT
  8
LAYER01
  6
VERDECKT
 62
     1
 10
2857.569374
 20
-816.795568
 40
10.0
  1
b.s.
  7
simplex
  0
TEXT
  8
LAYER01
  6
VERDECKT
 62
     1
 10
2761.412218
 20
-816.759031
 40
10.0
  1
15.4.2021
  7
simplex
  0
TEXT
  8
LAYER01
  6
VERDECKT
 62
     1
 10
3316.750603
 20
-694.395921
 40
10.0
  1
xxx.skd
  7
simplex
  0
TEXT
  8
LAYER01
  6
VERDECKT
 62
     1
 10
3059.022009
 20
-694.395921
 40
10.0
  1
1 : 10 (DIN A3)
  7
simplex
  0
LINE
  8
LAYER01
  6
CONTINUOUS
 62
     7
 10
1982.737941
 20
570.396877
 11
2137.737942
 21
570.396877
  0
LINE
  8
LAYER01
  6
CONTINUOUS
 62
     7
 10
2022.73794
 20
427.772216
 11
2005.737941
 21
427.772216
  0
LINE
  8
LAYER01
  6
CONTINUOUS
 62
     7
 10
2007.524003
 20
440.362609
 11
2017.530275
 21
448.75887
  0
LINE
  8
LAYER01
  6
CONTINUOUS
 62
     7
 10
2017.530275
 20
448.75887
 11
1947.945607
 21
448.75887
  0
DIMENSION
  8
LAYER01
 62
     7
  2
*D14
 10
1782.737938
 20
781.494916
 11
1982.065227
 21
851.494916
 13
2182.737944
 23
575.620405
 14
1782.737938
 24
575.620405
  0
DIMENSION
  8
LAYER01
 62
     7
  2
*D15
 10
1807.737944
 20
661.197919
 11
1980.908693
 21
731.197919
 13
2158.585784
 23
575.620405
 14
1807.737944
 24
575.620405
  0
LINE
  8
LAYER01
  6
CONTINUOUS
 62
     7
 10
1959.737941
 20
436.532385
 11
1959.737941
 21
427.772216
  0
LINE
  8
LAYER01
  6
CONTINUOUS
 62
     7
 10
1959.737941
 20
427.772216
 11
1942.737942
 21
427.772216
  0
LINE
  8
LAYER01
  6
CONTINUOUS
 62
     7
 10
1942.737942
 20
427.772216
 11
1942.737942
 21
430.745683
  0
ARC
  8
LAYER01
  6
CONTINUOUS
 62
     7
 10
1934.737941
 20
430.745684
 40
8.0
 50
0.0
 51
85.0
  0
LINE
  8
LAYER01
  6
CONTINUOUS
 62
     7
 10
2005.737941
 20
427.772216
 11
2005.737941
 21
436.532385
  0
LINE
  8
LAYER01
  6
CONTINUOUS
 62
     7
 10
1959.737941
 20
427.772216
 11
2005.737941
 21
427.772216
  0
INSERT
  8
LAYER01
  2
VS357012-G17
 10
0.0
 20
0.0
  0
ARC
  8
LAYER01
  6
CONTINUOUS
 62
     7
 10
1790.955948
 20
550.396877
 40
8.0
 50
10.0
 51
90.0
  0
POLYLINE
  8
LAYER01
  6
CONTINUOUS
 62
     7
 66
     1
  0
VERTEX
  8
LAYER01
 10
1798.83441
 20
551.786063
  0
VERTEX
  8
LAYER01
 10
1798.910625
 20
551.353828
  0
VERTEX
  8
LAYER01
 10
1798.986839
 20
550.921593
  0
VERTEX
  8
LAYER01
 10
1799.063054
 20
550.489359
  0
VERTEX
  8
LAYER01
 10
1799.139269
 20
550.057124
  0
VERTEX
  8
LAYER01
 10
1799.215483
 20
549.62489
  0
VERTEX
  8
LAYER01
 10
1799.291698
 20
549.192655
  0
VERTEX
  8
LAYER01
 10
1799.367913
 20
548.76042
  0
VERTEX
  8
LAYER01
 10
1799.444127
 20
548.328186
  0
VERTEX
  8
LAYER01
 10
1799.520342
 20
547.895951
  0
VERTEX
  8
LAYER01
 10
1799.596556
 20
547.463717
  0
VERTEX
  8
LAYER01
 10
1799.672771
 20
547.031482
  0
VERTEX
  8
LAYER01
 10
1799.748986
 20
546.599248
  0
VERTEX
  8
LAYER01
 10
1799.8252
 20
546.167013
  0
VERTEX
  8
LAYER01
 10
1799.901415
 20
545.734778
  0
VERTEX
  8
LAYER01
 10
1799.97763
 20
545.302544
  0
VERTEX
  8
LAYER01
 10
1800.053844
 20
544.870309
  0
VERTEX
  8
LAYER01
 10
1800.130059
 20
544.438075
  0
VERTEX
  8
LAYER01
 10
1800.206273
 20
544.00584
  0
VERTEX
  8
LAYER01
 10
1800.282488
 20
543.573605
  0
VERTEX
  8
LAYER01
 10
1800.358703
 20
543.141371
  0
VERTEX
  8
LAYER01
 10
1800.434917
 20
542.709136
  0
VERTEX
  8
LAYER01
 10
1800.511132
 20
542.276902
  0
VERTEX
  8
LAYER01
 10
1800.587346
 20
541.844667
  0
VERTEX
  8
LAYER01
 10
1800.663561
 20
541.412432
  0
VERTEX
  8
LAYER01
 10
1800.739776
 20
540.980198
  0
VERTEX
  8
LAYER01
 10
1800.81599
 20
540.547963
  0
VERTEX
  8
LAYER01
 10
1800.892205
 20
540.115729
  0
VERTEX
  8
LAYER01
 10
1800.96842
 20
539.683494
  0
VERTEX
  8
LAYER01
 10
1801.044634
 20
539.25126
  0
VERTEX
  8
LAYER01
 10
1801.120849
 20
538.819025
  0
VERTEX
  8
LAYER01
 10
1801.197063
 20
538.38679
  0
VERTEX
  8
LAYER01
 10
1801.273278
 20
537.954556
  0
VERTEX
  8
LAYER01
 10
1801.349493
 20
537.522321
  0
VERTEX
  8
LAYER01
 10
1801.425707
 20
537.090087
  0
VERTEX
  8
LAYER01
 10
1801.501922
 20
536.657852
  0
VERTEX
  8
LAYER01
 10
1801.578137
 20
536.225617
  0
VERTEX
  8
LAYER01
 10
1801.654351
 20
535.793383
  0
VERTEX
  8
LAYER01
 10
1801.730566
 20
535.361148
  0
VERTEX
  8
LAYER01
 10
1801.80678
 20
534.928914
  0
VERTEX
  8
LAYER01
 10
1801.882995
 20
534.496679
  0
VERTEX
  8
LAYER01
 10
1801.95921
 20
534.064445
  0
VERTEX
  8
LAYER01
 10
1802.035424
 20
533.63221
  0
VERTEX
  8
LAYER01
 10
1802.111639
 20
533.199975
  0
VERTEX
  8
LAYER01
 10
1802.187853
 20
532.767741
  0
VERTEX
  8
LAYER01
 10
1802.264068
 20
532.335506
  0
VERTEX
  8
LAYER01
 10
1802.340283
 20
531.903272
  0
VERTEX
  8
LAYER01
 10
1802.416497
 20
531.471037
  0
VERTEX
  8
LAYER01
 10
1802.492712
 20
531.038802
  0
VERTEX
  8
LAYER01
 10
1802.568927
 20
530.606568
  0
VERTEX
  8
LAYER01
 10
1802.645141
 20
530.174333
  0
VERTEX
  8
LAYER01
 10
1802.721356
 20
529.742099
  0
VERTEX
  8
LAYER01
 10
1802.79757
 20
529.309864
  0
VERTEX
  8
LAYER01
 10
1802.873785
 20
528.87763
  0
VERTEX
  8
LAYER01
 10
1802.95
 20
528.445395
  0
VERTEX
  8
LAYER01
 10
1803.026214
 20
528.01316
  0
VERTEX
  8
LAYER01
 10
1803.102429
 20
527.580926
  0
VERTEX
  8
LAYER01
 10
1803.178644
 20
527.148691
  0
VERTEX
  8
LAYER01
 10
1803.254858
 20
526.716457
  0
VERTEX
  8
LAYER01
 10
1803.331073
 20
526.284222
  0
VERTEX
  8
LAYER01
 10
1803.407287
 20
525.851987
  0
VERTEX
  8
LAYER01
 10
1803.483502
 20
525.419753
  0
VERTEX
  8
LAYER01
 10
1803.559717
 20
524.987518
  0
VERTEX
  8
LAYER01
 10
1803.635931
 20
524.555284
  0
VERTEX
  8
LAYER01
 10
1803.712146
 20
524.123049
  0
VERTEX
  8
LAYER01
 10
1803.788361
 20
523.690814
  0
VERTEX
  8
LAYER01
 10
1803.864575
 20
523.25858
  0
VERTEX
  8
LAYER01
 10
1803.94079
 20
522.826345
  0
VERTEX
  8
LAYER01
 10
1804.017004
 20
522.394111
  0
VERTEX
  8
LAYER01
 10
1804.093219
 20
521.961876
  0
VERTEX
  8
LAYER01
 10
1804.169434
 20
521.529642
  0
VERTEX
  8
LAYER01
 10
1804.245648
 20
521.097407
  0
VERTEX
  8
LAYER01
 10
1804.321863
 20
520.665172
  0
VERTEX
  8
LAYER01
 10
1804.398077
 20
520.232938
  0
VERTEX
  8
LAYER01
 10
1804.474292
 20
519.800703
  0
VERTEX
  8
LAYER01
 10
1804.550507
 20
519.368469
  0
VERTEX
  8
LAYER01
 10
1804.626721
 20
518.936234
  0
VERTEX
  8
LAYER01
 10
1804.702936
 20
518.503999
  0
VERTEX
  8
LAYER01
 10
1804.779151
 20
518.071765
  0
VERTEX
  8
LAYER01
 10
1804.855365
 20
517.63953
  0
VERTEX
  8
LAYER01
 10
1804.93158
 20
517.207296
  0
VERTEX
  8
LAYER01
 10
1805.007794
 20
516.775061
  0
VERTEX
  8
LAYER01
 10
1805.084009
 20
516.342827
  0
VERTEX
  8
LAYER01
 10
1805.160199
 20
515.910586
  0
VERTEX
  8
LAYER01
 10
1805.236427
 20
515.478354
  0
VERTEX
  8
LAYER01
 10
1805.313198
 20
515.046259
  0
VERTEX
  8
LAYER01
 10
1805.391069
 20
514.614438
  0
VERTEX
  8
LAYER01
 10
1805.470593
 20
514.183029
  0
VERTEX
  8
LAYER01
 10
1805.552325
 20
513.752172
  0
VERTEX
  8
LAYER01
 10
1805.636394
 20
513.321899
  0
VERTEX
  8
LAYER01
 10
1805.722559
 20
512.892148
  0
VERTEX
  8
LAYER01
 10
1805.810821
 20
512.462922
  0
VERTEX
  8
LAYER01
 10
1805.901179
 20
512.034218
  0
VERTEX
  8
LAYER01
 10
1805.993634
 20
511.606038
  0
VERTEX
  8
LAYER01
 10
1806.088187
 20
511.178382
  0
VERTEX
  8
LAYER01
 10
1806.184837
 20
510.75125
  0
VERTEX
  8
LAYER01
 10
1806.283585
 20
510.324641
  0
VERTEX
  8
LAYER01
 10
1806.384431
 20
509.898556
  0
VERTEX
  8
LAYER01
 10
1806.487375
 20
509.472995
  0
VERTEX
  8
LAYER01
 10
1806.592418
 20
509.047958
  0
VERTEX
  8
LAYER01
 10
1806.69956
 20
508.623444
  0
VERTEX
  8
LAYER01
 10
1806.808801
 20
508.199455
  0
VERTEX
  8
LAYER01
 10
1806.920142
 20
507.775991
  0
VERTEX
  8
LAYER01
 10
1807.033583
 20
507.35305
  0
VERTEX
  8
LAYER01
 10
1807.149123
 20
506.930634
  0
VERTEX
  8
LAYER01
 10
1807.266764
 20
506.508742
  0
VERTEX
  8
LAYER01
 10
1807.386506
 20
506.087374
  0
VERTEX
  8
LAYER01
 10
1807.508348
 20
505.666532
  0
VERTEX
  8
LAYER01
 10
1807.632292
 20
505.246213
  0
VERTEX
  8
LAYER01
 10
1807.758337
 20
504.82642
  0
VERTEX
  8
LAYER01
 10
1807.886484
 20
504.407151
  0
VERTEX
  8
LAYER01
 10
1808.016732
 20
503.988406
  0
VERTEX
  8
LAYER01
 10
1808.14908
 20
503.570186
  0
VERTEX
  8
LAYER01
 10
1808.283532
 20
503.152492
  0
VERTEX
  8
LAYER01
 10
1808.420091
 20
502.735323
  0
VERTEX
  8
LAYER01
 10
1808.558761
 20
502.318681
  0
VERTEX
  8
LAYER01
 10
1808.699545
 20
501.902567
  0
VERTEX
  8
LAYER01
 10
1808.842446
 20
501.486982
  0
VERTEX
  8
LAYER01
 10
1808.987467
 20
501.071926
  0
VERTEX
  8
LAYER01
 10
1809.134612
 20
500.6574
  0
VERTEX
  8
LAYER01
 10
1809.283884
 20
500.243406
  0
VERTEX
  8
LAYER01
 10
1809.435287
 20
499.829943
  0
VERTEX
  8
LAYER01
 10
1809.588823
 20
499.417013
  0
VERTEX
  8
LAYER01
 10
1809.744496
 20
499.004616
  0
VERTEX
  8
LAYER01
 10
1809.90231
 20
498.592754
  0
VERTEX
  8
LAYER01
 10
1810.062267
 20
498.181427
  0
VERTEX
  8
LAYER01
 10
1810.22437
 20
497.770636
  0
VERTEX
  8
LAYER01
 10
1810.388624
 20
497.360382
  0
VERTEX
  8
LAYER01
 10
1810.555031
 20
496.950665
  0
VERTEX
  8
LAYER01
 10
1810.723595
 20
496.541487
  0
VERTEX
  8
LAYER01
 10
1810.894319
 20
496.132848
  0
VERTEX
  8
LAYER01
 10
1811.067206
 20
495.724749
  0
VERTEX
  8
LAYER01
 10
1811.24226
 20
495.317191
  0
VERTEX
  8
LAYER01
 10
1811.419488
 20
494.910176
  0
VERTEX
  8
LAYER01
 10
1811.598901
 20
494.503707
  0
VERTEX
  8
LAYER01
 10
1811.780506
 20
494.097784
  0
VERTEX
  8
LAYER01
 10
1811.964309
 20
493.692411
  0
VERTEX
  8
LAYER01
 10
1812.150317
 20
493.287588
  0
VERTEX
  8
LAYER01
 10
1812.338536
 20
492.883317
  0
VERTEX
  8
LAYER01
 10
1812.528974
 20
492.4796
  0
VERTEX
  8
LAYER01
 10
1812.721635
 20
492.076438
  0
VERTEX
  8
LAYER01
 10
1812.916528
 20
491.673833
  0
VERTEX
  8
LAYER01
 10
1813.113659
 20
491.271787
  0
VERTEX
  8
LAYER01
 10
1813.313034
 20
490.870301
  0
VERTEX
  8
LAYER01
 10
1813.51466
 20
490.469378
  0
VERTEX
  8
LAYER01
 10
1813.718547
 20
490.069018
  0
VERTEX
  8
LAYER01
 10
1813.924702
 20
489.669225
  0
VERTEX
  8
LAYER01
 10
1814.133133
 20
489.270001
  0
VERTEX
  8
LAYER01
 10
1814.343848
 20
488.871346
  0
VERTEX
  8
LAYER01
 10
1814.556859
 20
488.473259
  0
VERTEX
  8
LAYER01
 10
1814.772149
 20
488.075799
  0
VERTEX
  8
LAYER01
 10
1814.989603
 20
487.679174
  0
VERTEX
  8
LAYER01
 10
1815.209096
 20
487.283609
  0
VERTEX
  8
LAYER01
 10
1815.430504
 20
486.889328
  0
VERTEX
  8
LAYER01
 10
1815.653704
 20
486.496553
  0
VERTEX
  8
LAYER01
 10
1815.878663
 20
486.105325
  0
VERTEX
  8
LAYER01
 10
1816.10543
 20
485.715531
  0
VERTEX
  8
LAYER01
 10
1816.334002
 20
485.32717
  0
VERTEX
  8
LAYER01
 10
1816.564378
 20
484.940239
  0
VERTEX
  8
LAYER01
 10
1816.796554
 20
484.554737
  0
VERTEX
  8
LAYER01
 10
1817.030528
 20
484.170662
  0
VERTEX
  8
LAYER01
 10
1817.266299
 20
483.788011
  0
VERTEX
  8
LAYER01
 10
1817.503863
 20
483.406783
  0
VERTEX
  8
LAYER01
 10
1817.743218
 20
483.026976
  0
VERTEX
  8
LAYER01
 10
1817.984362
 20
482.648588
  0
VERTEX
  8
LAYER01
 10
1818.227292
 20
482.271618
  0
VERTEX
  8
LAYER01
 10
1818.472006
 20
481.896062
  0
VERTEX
  8
LAYER01
 10
1818.718501
 20
481.52192
  0
VERTEX
  8
LAYER01
 10
1818.966775
 20
481.149189
  0
VERTEX
  8
LAYER01
 10
1819.216826
 20
480.777867
  0
VERTEX
  8
LAYER01
 10
1819.468651
 20
480.407953
  0
VERTEX
  8
LAYER01
 10
1819.722248
 20
480.039445
  0
VERTEX
  8
LAYER01
 10
1819.977614
 20
479.67234
  0
VERTEX
  8
LAYER01
 10
1820.234747
 20
479.306638
  0
VERTEX
  8
LAYER01
 10
1820.493645
 20
478.942335
  0
VERTEX
  8
LAYER01
 10
1820.754305
 20
478.57943
  0
VERTEX
  8
LAYER01
 10
1821.016724
 20
478.217921
  0
VERTEX
  8
LAYER01
 10
1821.280901
 20
477.857806
  0
VERTEX
  8
LAYER01
 10
1821.546836
 20
477.499086
  0
VERTEX
  8
LAYER01
 10
1821.814528
 20
477.14176
  0
VERTEX
  8
LAYER01
 10
1822.083979
 20
476.78583
  0
VERTEX
  8
LAYER01
 10
1822.355188
 20
476.431294
  0
VERTEX
  8
LAYER01
 10
1822.628156
 20
476.078154
  0
VERTEX
  8
LAYER01
 10
1822.902883
 20
475.726409
  0
VERTEX
  8
LAYER01
 10
1823.17937
 20
475.37606
  0
VERTEX
  8
LAYER01
 10
1823.457617
 20
475.027108
  0
VERTEX
  8
LAYER01
 10
1823.737623
 20
474.679551
  0
VERTEX
  8
LAYER01
 10
1824.01939
 20
474.333392
  0
VERTEX
  8
LAYER01
 10
1824.302918
 20
473.988629
  0
VERTEX
  8
LAYER01
 10
1824.588207
 20
473.645264
  0
VERTEX
  8
LAYER01
 10
1824.875258
 20
473.303295
  0
VERTEX
  8
LAYER01
 10
1825.16407
 20
472.962725
  0
VERTEX
  8
LAYER01
 10
1825.454644
 20
472.623552
  0
VERTEX
  8
LAYER01
 10
1825.746981
 20
472.285778
  0
VERTEX
  8
LAYER01
 10
1826.04108
 20
471.949402
  0
VERTEX
  8
LAYER01
 10
1826.336943
 20
471.614425
  0
VERTEX
  8
LAYER01
 10
1826.634568
 20
471.280847
  0
VERTEX
  8
LAYER01
 10
1826.933958
 20
470.948668
  0
VERTEX
  8
LAYER01
 10
1827.235111
 20
470.617888
  0
VERTEX
  8
LAYER01
 10
1827.538032
 20
470.28851
  0
VERTEX
  8
LAYER01
 10
1827.842724
 20
469.960538
  0
VERTEX
  8
LAYER01
 10
1828.14919
 20
469.633973
  0
VERTEX
  8
LAYER01
 10
1828.457433
 20
469.308818
  0
VERTEX
  8
LAYER01
 10
1828.767455
 20
468.985074
  0
VERTEX
  8
LAYER01
 10
1829.079259
 20
468.662745
  0
VERTEX
  8
LAYER01
 10
1829.392848
 20
468.341831
  0
VERTEX
  8
LAYER01
 10
1829.708225
 20
468.022335
  0
VERTEX
  8
LAYER01
 10
1830.025392
 20
467.70426
  0
VERTEX
  8
LAYER01
 10
1830.344351
 20
467.387606
  0
VERTEX
  8
LAYER01
 10
1830.665105
 20
467.072377
  0
VERTEX
  8
LAYER01
 10
1830.987659
 20
466.758575
  0
VERTEX
  8
LAYER01
 10
1831.312015
 20
466.446203
  0
VERTEX
  8
LAYER01
 10
1831.638178
 20
466.135264
  0
VERTEX
  8
LAYER01
 10
1831.966151
 20
465.825762
  0
VERTEX
  8
LAYER01
 10
1832.295938
 20
465.517699
  0
VERTEX
  8
LAYER01
 10
1832.627561
 20
465.211064
  0
VERTEX
  8
LAYER01
 10
1832.961069
 20
464.905824
  0
VERTEX
  8
LAYER01
 10
1833.296327
 20
464.602102
  0
VERTEX
  8
LAYER01
 10
1833.633178
 20
464.300039
  0
VERTEX
  8
LAYER01
 10
1833.971464
 20
463.999778
  0
VERTEX
  8
LAYER01
 10
1834.311027
 20
463.701461
  0
VERTEX
  8
LAYER01
 10
1834.651794
 20
463.405144
  0
VERTEX
  8
LAYER01
 10
1834.993795
 20
463.110783
  0
VERTEX
  8
LAYER01
 10
1835.337029
 20
462.818377
  0
VERTEX
  8
LAYER01
 10
1835.681494
 20
462.527922
  0
VERTEX
  8
LAYER01
 10
1836.027188
 20
462.239416
  0
VERTEX
  8
LAYER01
 10
1836.374109
 20
461.952855
  0
VERTEX
  8
LAYER01
 10
1836.722256
 20
461.668237
  0
VERTEX
  8
LAYER01
 10
1837.071626
 20
461.385559
  0
VERTEX
  8
LAYER01
 10
1837.422218
 20
461.104818
  0
VERTEX
  8
LAYER01
 10
1837.774031
 20
460.826011
  0
VERTEX
  8
LAYER01
 10
1838.127061
 20
460.549135
  0
VERTEX
  8
LAYER01
 10
1838.481308
 20
460.274188
  0
VERTEX
  8
LAYER01
 10
1838.836769
 20
460.001166
  0
VERTEX
  8
LAYER01
 10
1839.193444
 20
459.730067
  0
VERTEX
  8
LAYER01
 10
1839.551329
 20
459.460887
  0
VERTEX
  8
LAYER01
 10
1839.910423
 20
459.193625
  0
VERTEX
  8
LAYER01
 10
1840.270725
 20
458.928277
  0
VERTEX
  8
LAYER01
 10
1840.632232
 20
458.664839
  0
VERTEX
  8
LAYER01
 10
1840.994943
 20
458.403311
  0
VERTEX
  8
LAYER01
 10
1841.358856
 20
458.143687
  0
VERTEX
  8
LAYER01
 10
1841.72397
 20
457.885966
  0
VERTEX
  8
LAYER01
 10
1842.090281
 20
457.630145
  0
VERTEX
  8
LAYER01
 10
1842.457789
 20
457.376221
  0
VERTEX
  8
LAYER01
 10
1842.826494
 20
457.124195
  0
VERTEX
  8
LAYER01
 10
1843.196396
 20
456.874066
  0
VERTEX
  8
LAYER01
 10
1843.567495
 20
456.625835
  0
VERTEX
  8
LAYER01
 10
1843.939792
 20
456.379502
  0
VERTEX
  8
LAYER01
 10
1844.313286
 20
456.135068
  0
VERTEX
  8
LAYER01
 10
1844.687978
 20
455.892532
  0
VERTEX
  8
LAYER01
 10
1845.063867
 20
455.651895
  0
VERTEX
  8
LAYER01
 10
1845.440955
 20
455.413157
  0
VERTEX
  8
LAYER01
 10
1845.81924
 20
455.176319
  0
VERTEX
  8
LAYER01
 10
1846.198724
 20
454.941381
  0
VERTEX
  8
LAYER01
 10
1846.579407
 20
454.708343
  0
VERTEX
  8
LAYER01
 10
1846.961289
 20
454.477206
  0
VERTEX
  8
LAYER01
 10
1847.344369
 20
454.247969
  0
VERTEX
  8
LAYER01
 10
1847.728648
 20
454.020632
  0
VERTEX
  8
LAYER01
 10
1848.114127
 20
453.795198
  0
VERTEX
  8
LAYER01
 10
1848.500805
 20
453.571664
  0
VERTEX
  8
LAYER01
 10
1848.888683
 20
453.350033
  0
VERTEX
  8
LAYER01
 10
1849.277761
 20
453.130304
  0
VERTEX
  8
LAYER01
 10
1849.668038
 20
452.912477
  0
VERTEX
  8
LAYER01
 10
1850.059516
 20
452.696552
  0
VERTEX
  8
LAYER01
 10
1850.452194
 20
452.482531
  0
VERTEX
  8
LAYER01
 10
1850.846075
 20
452.270415
  0
VERTEX
  8
LAYER01
 10
1851.24116
 20
452.06021
  0
VERTEX
  8
LAYER01
 10
1851.637452
 20
451.851917
  0
VERTEX
  8
LAYER01
 10
1852.034952
 20
451.645541
  0
VERTEX
  8
LAYER01
 10
1852.433663
 20
451.441083
  0
VERTEX
  8
LAYER01
 10
1852.833586
 20
451.238546
  0
VERTEX
  8
LAYER01
 10
1853.234722
 20
451.037934
  0
VERTEX
  8
LAYER01
 10
1853.637074
 20
450.839248
  0
VERTEX
  8
LAYER01
 10
1854.040643
 20
450.642492
  0
VERTEX
  8
LAYER01
 10
1854.445431
 20
450.447669
  0
VERTEX
  8
LAYER01
 10
1854.85144
 20
450.254781
  0
VERTEX
  8
LAYER01
 10
1855.258671
 20
450.063831
  0
VERTEX
  8
LAYER01
 10
1855.667129
 20
449.874825
  0
VERTEX
  8
LAYER01
 10
1856.076815
 20
449.687766
  0
VERTEX
  8
LAYER01
 10
1856.487732
 20
449.502659
  0
VERTEX
  8
LAYER01
 10
1856.899882
 20
449.319508
  0
VERTEX
  8
LAYER01
 10
1857.313297
 20
449.138306
  0
VERTEX
  8
LAYER01
 10
1857.728075
 20
448.959019
  0
VERTEX
  8
LAYER01
 10
1858.144079
 20
448.78171
  0
VERTEX
  8
LAYER01
 10
1858.561134
 20
448.606453
  0
VERTEX
  8
LAYER01
 10
1858.979067
 20
448.433325
  0
VERTEX
  8
LAYER01
 10
1859.397704
 20
448.262401
  0
VERTEX
  8
LAYER01
 10
1859.816887
 20
448.093739
  0
VERTEX
  8
LAYER01
 10
1860.236574
 20
447.927346
  0
VERTEX
  8
LAYER01
 10
1860.656765
 20
447.763217
  0
VERTEX
  8
LAYER01
 10
1861.077458
 20
447.601349
  0
VERTEX
  8
LAYER01
 10
1861.498653
 20
447.441738
  0
VERTEX
  8
LAYER01
 10
1861.920349
 20
447.284379
  0
VERTEX
  8
LAYER01
 10
1862.342546
 20
447.12927
  0
VERTEX
  8
LAYER01
 10
1862.765241
 20
446.976405
  0
VERTEX
  8
LAYER01
 10
1863.188435
 20
446.825782
  0
VERTEX
  8
LAYER01
 10
1863.612126
 20
446.677396
  0
VERTEX
  8
LAYER01
 10
1864.036314
 20
446.531244
  0
VERTEX
  8
LAYER01
 10
1864.460997
 20
446.38732
  0
VERTEX
  8
LAYER01
 10
1864.886176
 20
446.245623
  0
VERTEX
  8
LAYER01
 10
1865.311848
 20
446.106147
  0
VERTEX
  8
LAYER01
 10
1865.738013
 20
445.968889
  0
VERTEX
  8
LAYER01
 10
1866.164671
 20
445.833845
  0
VERTEX
  8
LAYER01
 10
1866.59182
 20
445.70101
  0
VERTEX
  8
LAYER01
 10
1867.01946
 20
445.570382
  0
VERTEX
  8
LAYER01
 10
1867.447589
 20
445.441956
  0
VERTEX
  8
LAYER01
 10
1867.876208
 20
445.315729
  0
VERTEX
  8
LAYER01
 10
1868.305314
 20
445.191695
  0
VERTEX
  8
LAYER01
 10
1868.734907
 20
445.069853
  0
VERTEX
  8
LAYER01
 10
1869.164986
 20
444.950197
  0
VERTEX
  8
LAYER01
 10
1869.595552
 20
444.832729
  0
VERTEX
  8
LAYER01
 10
1870.026604
 20
444.717447
  0
VERTEX
  8
LAYER01
 10
1870.458142
 20
444.604351
  0
VERTEX
  8
LAYER01
 10
1870.890167
 20
444.493443
  0
VERTEX
  8
LAYER01
 10
1871.322677
 20
444.384721
  0
VERTEX
  8
LAYER01
 10
1871.755674
 20
444.278186
  0
VERTEX
  8
LAYER01
 10
1872.189157
 20
444.173837
  0
VERTEX
  8
LAYER01
 10
1872.623127
 20
444.071675
  0
VERTEX
  8
LAYER01
 10
1873.057582
 20
443.971699
  0
VERTEX
  8
LAYER01
 10
1873.492523
 20
443.87391
  0
VERTEX
  8
LAYER01
 10
1873.927951
 20
443.778307
  0
VERTEX
  8
LAYER01
 10
1874.363865
 20
443.684891
  0
VERTEX
  8
LAYER01
 10
1874.800265
 20
443.593661
  0
VERTEX
  8
LAYER01
 10
1875.237151
 20
443.504618
  0
VERTEX
  8
LAYER01
 10
1875.674524
 20
443.417761
  0
VERTEX
  8
LAYER01
 10
1876.112382
 20
443.33309
  0
VERTEX
  8
LAYER01
 10
1876.550727
 20
443.250606
  0
VERTEX
  8
LAYER01
 10
1876.989558
 20
443.170308
  0
VERTEX
  8
LAYER01
 10
1877.428874
 20
443.092196
  0
VERTEX
  8
LAYER01
 10
1877.868677
 20
443.01627
  0
VERTEX
  8
LAYER01
 10
1878.308966
 20
442.94253
  0
VERTEX
  8
LAYER01
 10
1878.749742
 20
442.870979
  0
VERTEX
  8
LAYER01
 10
1879.191006
 20
442.801622
  0
VERTEX
  8
LAYER01
 10
1879.632758
 20
442.734461
  0
VERTEX
  8
LAYER01
 10
1880.074999
 20
442.6695
  0
VERTEX
  8
LAYER01
 10
1880.51773
 20
442.606743
  0
VERTEX
  8
LAYER01
 10
1880.960951
 20
442.546193
  0
VERTEX
  8
LAYER01
 10
1881.404664
 20
442.487852
  0
VERTEX
  8
LAYER01
 10
1881.84887
 20
442.431725
  0
VERTEX
  8
LAYER01
 10
1882.293568
 20
442.377815
  0
VERTEX
  8
LAYER01
 10
1882.73876
 20
442.326124
  0
VERTEX
  8
LAYER01
 10
1883.184446
 20
442.276657
  0
VERTEX
  8
LAYER01
 10
1883.630627
 20
442.229417
  0
VERTEX
  8
LAYER01
 10
1884.077304
 20
442.184407
  0
VERTEX
  8
LAYER01
 10
1884.524478
 20
442.141631
  0
VERTEX
  8
LAYER01
 10
1884.972149
 20
442.101091
  0
VERTEX
  8
LAYER01
 10
1885.420318
 20
442.062791
  0
VERTEX
  8
LAYER01
 10
1885.868986
 20
442.026735
  0
VERTEX
  8
LAYER01
 10
1886.318154
 20
441.992925
  0
VERTEX
  8
LAYER01
 10
1886.767822
 20
441.961365
  0
VERTEX
  8
LAYER01
 10
1887.217991
 20
441.932059
  0
VERTEX
  8
LAYER01
 10
1887.668662
 20
441.90501
  0
VERTEX
  8
LAYER01
 10
1888.119835
 20
441.88022
  0
SEQEND
  8
LAYER01
  0
LINE
  8
LAYER01
  6
CONTINUOUS
 62
     7
 10
1916.737941
 20
452.396876
 11
1888.737944
 21
453.864298
  0
LINE
  8
LAYER01
  6
CONTINUOUS
 62
     7
 10
1916.737941
 20
452.396876
 11
1945.167446
 21
449.909619
  0
ARC
  8
LAYER01
  6
CONTINUOUS
 62
     7
 10
1944.731667
 20
444.928644
 40
5.0
 50
50.0
 51
85.0
  0
LINE
  8
LAYER01
  6
CONTINUOUS
 62
     7
 10
1947.945607
 20
448.75887
 11
1957.951878
 21
440.362609
  0
ARC
  8
LAYER01
  6
CONTINUOUS
 62
     7
 10
1954.737941
 20
436.532384
 40
5.0
 50
0.0
 51
50.0
  0
LINE
  8
LAYER01
  6
CONTINUOUS
 62
     7
 10
1915.900734
 20
440.424285
 11
1935.435188
 21
438.715241
  0
LINE
  8
LAYER01
  6
CONTINUOUS
 62
     7
 10
1915.900734
 20
440.424285
 11
1888.130215
 21
441.879682
  0
LINE
  8
LAYER01
  6
CONTINUOUS
 62
     7
 10
1782.737938
 20
558.396877
 11
1782.737938
 21
570.396877
  0
LINE
  8
LAYER01
  6
CONTINUOUS
 62
     7
 10
1782.737938
 20
570.396877
 11
1807.737944
 21
570.396877
  0
LINE
  8
LAYER01
  6
CONTINUOUS
 62
     7
 10
1782.737938
 20
558.396877
 11
1790.955943
 21
558.396877
  0
ARC
  8
LAYER01
  6
CONTINUOUS
 62
     7
 10
2010.737941
 20
436.532384
 40
5.0
 50
130.0
 51
180.0
  0
LINE
  8
LAYER01
  6
CONTINUOUS
 62
     7
 10
1827.73794
 20
570.396877
 11
1807.737944
 21
570.396877
  0
LINE
  8
LAYER01
  6
CONTINUOUS
 62
     7
 10
1982.737941
 20
570.396877
 11
1827.73794
 21
570.396877
  0
LINE
  8
LAYER01
  6
CONTINUOUS
 62
     7
 10
1957.951878
 20
440.362609
 11
2007.524003
 21
440.362609
  0
POLYLINE
  8
LAYER01
  6
CONTINUOUS
 62
     7
 66
     1
  0
VERTEX
  8
LAYER01
 10
1888.737941
 20
453.864295
  0
VERTEX
  8
LAYER01
 10
1887.664198
 20
453.928119
  0
VERTEX
  8
LAYER01
 10
1886.591412
 20
454.006992
  0
VERTEX
  8
LAYER01
 10
1885.519754
 20
454.100898
  0
VERTEX
  8
LAYER01
 10
1884.449392
 20
454.209822
  0
VERTEX
  8
LAYER01
 10
1883.380496
 20
454.333748
  0
VERTEX
  8
LAYER01
 10
1882.313236
 20
454.472661
  0
VERTEX
  8
LAYER01
 10
1881.247781
 20
454.626546
  0
VERTEX
  8
LAYER01
 10
1880.1843
 20
454.795386
  0
VERTEX
  8
LAYER01
 10
1879.122964
 20
454.979167
  0
VERTEX
  8
LAYER01
 10
1878.063941
 20
455.177873
  0
VERTEX
  8
LAYER01
 10
1877.007401
 20
455.391488
  0
VERTEX
  8
LAYER01
 10
1875.953513
 20
455.619997
  0
VERTEX
  8
LAYER01
 10
1874.902448
 20
455.863385
  0
VERTEX
  8
LAYER01
 10
1873.854374
 20
456.121636
  0
VERTEX
  8
LAYER01
 10
1872.809461
 20
456.394735
  0
VERTEX
  8
LAYER01
 10
1871.767878
 20
456.682665
  0
VERTEX
  8
LAYER01
 10
1870.729796
 20
456.985413
  0
VERTEX
  8
LAYER01
 10
1869.695382
 20
457.302961
  0
VERTEX
  8
LAYER01
 10
1868.664808
 20
457.635295
  0
VERTEX
  8
LAYER01
 10
1867.638242
 20
457.9824
  0
VERTEX
  8
LAYER01
 10
1866.615854
 20
458.344259
  0
VERTEX
  8
LAYER01
 10
1865.597814
 20
458.720857
  0
VERTEX
  8
LAYER01
 10
1864.584291
 20
459.112179
  0
VERTEX
  8
LAYER01
 10
1863.57546
 20
459.518202
  0
VERTEX
  8
LAYER01
 10
1862.571504
 20
459.938895
  0
VERTEX
  8
LAYER01
 10
1861.572607
 20
460.374226
  0
VERTEX
  8
LAYER01
 10
1860.57895
 20
460.824164
  0
VERTEX
  8
LAYER01
 10
1859.590717
 20
461.288677
  0
VERTEX
  8
LAYER01
 10
1858.608091
 20
461.767734
  0
VERTEX
  8
LAYER01
 10
1857.631255
 20
462.261304
  0
VERTEX
  8
LAYER01
 10
1856.660391
 20
462.769354
  0
VERTEX
  8
LAYER01
 10
1855.695683
 20
463.291853
  0
VERTEX
  8
LAYER01
 10
1854.737313
 20
463.828771
  0
VERTEX
  8
LAYER01
 10
1853.785464
 20
464.380075
  0
VERTEX
  8
LAYER01
 10
1852.840319
 20
464.945733
  0
VERTEX
  8
LAYER01
 10
1851.902061
 20
465.525715
  0
VERTEX
  8
LAYER01
 10
1850.970874
 20
466.119989
  0
VERTEX
  8
LAYER01
 10
1850.046938
 20
466.728524
  0
VERTEX
  8
LAYER01
 10
1849.130439
 20
467.351287
  0
VERTEX
  8
LAYER01
 10
1848.221558
 20
467.988248
  0
VERTEX
  8
LAYER01
 10
1847.320479
 20
468.639374
  0
VERTEX
  8
LAYER01
 10
1846.427384
 20
469.304635
  0
VERTEX
  8
LAYER01
 10
1845.542456
 20
469.983999
  0
VERTEX
  8
LAYER01
 10
1844.665878
 20
470.677434
  0
VERTEX
  8
LAYER01
 10
1843.797834
 20
471.384909
  0
VERTEX
  8
LAYER01
 10
1842.938508
 20
472.106391
  0
VERTEX
  8
LAYER01
 10
1842.088106
 20
472.841835
  0
VERTEX
  8
LAYER01
 10
1841.246839
 20
473.591194
  0
VERTEX
  8
LAYER01
 10
1840.414916
 20
474.35442
  0
VERTEX
  8
LAYER01
 10
1839.59255
 20
475.131466
  0
VERTEX
  8
LAYER01
 10
1838.779951
 20
475.922282
  0
VERTEX
  8
LAYER01
 10
1837.977329
 20
476.726822
  0
VERTEX
  8
LAYER01
 10
1837.184897
 20
477.545038
  0
VERTEX
  8
LAYER01
 10
1836.402864
 20
478.376881
  0
VERTEX
  8
LAYER01
 10
1835.631441
 20
479.222305
  0
VERTEX
  8
LAYER01
 10
1834.870841
 20
480.08126
  0
VERTEX
  8
LAYER01
 10
1834.121273
 20
480.9537
  0
VERTEX
  8
LAYER01
 10
1833.38296
 20
481.839573
  0
VERTEX
  8
LAYER01
 10
1832.65613
 20
482.738823
  0
VERTEX
  8
LAYER01
 10
1831.941012
 20
483.651397
  0
VERTEX
  8
LAYER01
 10
1831.237836
 20
484.57724
  0
VERTEX
  8
LAYER01
 10
1830.54683
 20
485.516297
  0
VERTEX
  8
LAYER01
 10
1829.868224
 20
486.468515
  0
VERTEX
  8
LAYER01
 10
1829.202246
 20
487.433838
  0
VERTEX
  8
LAYER01
 10
1828.549126
 20
488.412212
  0
VERTEX
  8
LAYER01
 10
1827.909093
 20
489.403582
  0
VERTEX
  8
LAYER01
 10
1827.282376
 20
490.407894
  0
VERTEX
  8
LAYER01
 10
1826.669203
 20
491.425094
  0
VERTEX
  8
LAYER01
 10
1826.069822
 20
492.45512
  0
VERTEX
  8
LAYER01
 10
1825.484502
 20
493.497903
  0
VERTEX
  8
LAYER01
 10
1824.913518
 20
494.553372
  0
VERTEX
  8
LAYER01
 10
1824.357143
 20
495.621456
  0
VERTEX
  8
LAYER01
 10
1823.815652
 20
496.702084
  0
VERTEX
  8
LAYER01
 10
1823.289318
 20
497.795186
  0
VERTEX
  8
LAYER01
 10
1822.778415
 20
498.900689
  0
VERTEX
  8
LAYER01
 10
1822.283216
 20
500.018524
  0
VERTEX
  8
LAYER01
 10
1821.803997
 20
501.14862
  0
VERTEX
  8
LAYER01
 10
1821.34103
 20
502.290905
  0
VERTEX
  8
LAYER01
 10
1820.894588
 20
503.445309
  0
VERTEX
  8
LAYER01
 10
1820.46496
 20
504.611757
  0
VERTEX
  8
LAYER01
 10
1820.052477
 20
505.790162
  0
VERTEX
  8
LAYER01
 10
1819.657482
 20
506.980434
  0
VERTEX
  8
LAYER01
 10
1819.280317
 20
508.182483
  0
VERTEX
  8
LAYER01
 10
1818.921325
 20
509.39622
  0
VERTEX
  8
LAYER01
 10
1818.58085
 20
510.621553
  0
VERTEX
  8
LAYER01
 10
1818.259232
 20
511.858393
  0
VERTEX
  8
LAYER01
 10
1817.956816
 20
513.106651
  0
VERTEX
  8
LAYER01
 10
1817.673944
 20
514.366235
  0
VERTEX
  8
LAYER01
 10
1817.410958
 20
515.637056
  0
VERTEX
  8
LAYER01
 10
1817.168201
 20
516.919024
  0
VERTEX
  8
LAYER01
 10
1816.938595
 20
518.217376
  0
VERTEX
  8
LAYER01
 10
1816.704426
 20
519.545412
  0
VERTEX
  8
LAYER01
 10
1816.464727
 20
520.904815
  0
VERTEX
  8
LAYER01
 10
1816.219295
 20
522.296727
  0
VERTEX
  8
LAYER01
 10
1815.96793
 20
523.722287
  0
VERTEX
  8
LAYER01
 10
1815.710431
 20
525.182636
  0
VERTEX
  8
LAYER01
 10
1815.446597
 20
526.678915
  0
VERTEX
  8
LAYER01
 10
1815.176227
 20
528.212262
  0
VERTEX
  8
LAYER01
 10
1814.899148
 20
529.783653
  0
VERTEX
  8
LAYER01
 10
1814.615236
 20
531.3938
  0
VERTEX
  8
LAYER01
 10
1814.324368
 20
533.043392
  0
VERTEX
  8
LAYER01
 10
1814.026424
 20
534.73312
  0
VERTEX
  8
LAYER01
 10
1813.721281
 20
536.46367
  0
VERTEX
  8
LAYER01
 10
1813.408818
 20
538.235734
  0
VERTEX
  8
LAYER01
 10
1813.088914
 20
540.049999
  0
VERTEX
  8
LAYER01
 10
1812.761528
 20
541.9067
  0
VERTEX
  8
LAYER01
 10
1812.427081
 20
543.803439
  0
VERTEX
  8
LAYER01
 10
1812.086164
 20
545.736876
  0
VERTEX
  8
LAYER01
 10
1811.739366
 20
547.703666
  0
VERTEX
  8
LAYER01
 10
1811.387276
 20
549.700467
  0
VERTEX
  8
LAYER01
 10
1811.030484
 20
551.723937
  0
VERTEX
  8
LAYER01
 10
1810.669579
 20
553.770732
  0
VERTEX
  8
LAYER01
 10
1810.305157
 20
555.837471
  0
VERTEX
  8
LAYER01
 10
1809.938026
 20
557.919575
  0
VERTEX
  8
LAYER01
 10
1809.569241
 20
560.011058
  0
VERTEX
  8
LAYER01
 10
1809.199872
 20
562.105855
  0
VERTEX
  8
LAYER01
 10
1808.830988
 20
564.197901
  0
VERTEX
  8
LAYER01
 10
1808.463658
 20
566.28113
  0
VERTEX
  8
LAYER01
 10
1808.098953
 20
568.349477
  0
VERTEX
  8
LAYER01
 10
1807.737941
 20
570.396877
  0
SEQEND
  8
LAYER01
  0
DIMENSION
  8
LAYER01
 62
     7
  2
*D17
 10
1712.27903
 20
450.396877
 11
1642.27903
 21
509.724164
 13
1782.737938
 23
570.396877
 14
1782.737938
 24
450.396877
 50
90.0
 53
90.0
  0
INSERT
  8
LAYER01
  2
VS357012-G19
 10
0.0
 20
0.0
  0
LINE
  8
LAYER01
  6
CONTINUOUS
 62
     7
 10
2077.356045
 20
441.880218
 11
2049.575147
 21
440.424285
  0
LINE
  8
LAYER01
  6
CONTINUOUS
 62
     7
 10
2076.737938
 20
453.864298
 11
2048.73794
 21
452.396876
  0
ARC
  8
LAYER01
  6
CONTINUOUS
 62
     7
 10
2030.737941
 20
430.745684
 40
8.0
 50
95.0
 51
180.0
  0
LINE
  8
LAYER01
  6
CONTINUOUS
 62
     7
 10
2022.73794
 20
430.745683
 11
2022.73794
 21
427.772216
  0
LINE
  8
LAYER01
  6
CONTINUOUS
 62
     7
 10
2030.040694
 20
438.715241
 11
2049.575147
 21
440.424285
  0
LINE
  8
LAYER01
  6
CONTINUOUS
 62
     7
 10
2020.308436
 20
449.909619
 11
2048.73794
 21
452.396876
  0
ARC
  8
LAYER01
  6
CONTINUOUS
 62
     7
 10
2020.744214
 20
444.928644
 40
5.0
 50
95.0
 51
130.0
  0
ARC
  8
LAYER01
  6
CONTINUOUS
 62
     7
 10
2174.519933
 20
550.396877
 40
8.0
 50
90.0
 51
170.0
  0
LINE
  8
LAYER01
  6
CONTINUOUS
 62
     7
 10
2182.737944
 20
570.396877
 11
2182.737944
 21
558.396877
  0
POLYLINE
  8
LAYER01
  6
CONTINUOUS
 62
     7
 66
     1
  0
VERTEX
  8
LAYER01
 10
2076.737941
 20
453.864295
  0
VERTEX
  8
LAYER01
 10
2077.811684
 20
453.928119
  0
VERTEX
  8
LAYER01
 10
2078.884469
 20
454.006992
  0
VERTEX
  8
LAYER01
 10
2079.956128
 20
454.100898
  0
VERTEX
  8
LAYER01
 10
2081.02649
 20
454.209822
  0
VERTEX
  8
LAYER01
 10
2082.095385
 20
454.333748
  0
VERTEX
  8
LAYER01
 10
2083.162646
 20
454.472661
  0
VERTEX
  8
LAYER01
 10
2084.228101
 20
454.626546
  0
VERTEX
  8
LAYER01
 10
2085.291581
 20
454.795386
  0
VERTEX
  8
LAYER01
 10
2086.352918
 20
454.979167
  0
VERTEX
  8
LAYER01
 10
2087.411941
 20
455.177873
  0
VERTEX
  8
LAYER01
 10
2088.468481
 20
455.391488
  0
VERTEX
  8
LAYER01
 10
2089.522368
 20
455.619997
  0
VERTEX
  8
LAYER01
 10
2090.573434
 20
455.863385
  0
VERTEX
  8
LAYER01
 10
2091.621508
 20
456.121636
  0
VERTEX
  8
LAYER01
 10
2092.666421
 20
456.394735
  0
VERTEX
  8
LAYER01
 10
2093.708004
 20
456.682665
  0
VERTEX
  8
LAYER01
 10
2094.746086
 20
456.985413
  0
VERTEX
  8
LAYER01
 10
2095.780499
 20
457.302961
  0
VERTEX
  8
LAYER01
 10
2096.811074
 20
457.635295
  0
VERTEX
  8
LAYER01
 10
2097.837639
 20
457.9824
  0
VERTEX
  8
LAYER01
 10
2098.860027
 20
458.344259
  0
VERTEX
  8
LAYER01
 10
2099.878068
 20
458.720857
  0
VERTEX
  8
LAYER01
 10
2100.891591
 20
459.112179
  0
VERTEX
  8
LAYER01
 10
2101.900422
 20
459.518202
  0
VERTEX
  8
LAYER01
 10
2102.904377
 20
459.938895
  0
VERTEX
  8
LAYER01
 10
2103.903275
 20
460.374226
  0
VERTEX
  8
LAYER01
 10
2104.896931
 20
460.824164
  0
VERTEX
  8
LAYER01
 10
2105.885164
 20
461.288677
  0
VERTEX
  8
LAYER01
 10
2106.86779
 20
461.767734
  0
VERTEX
  8
LAYER01
 10
2107.844627
 20
462.261304
  0
VERTEX
  8
LAYER01
 10
2108.81549
 20
462.769354
  0
VERTEX
  8
LAYER01
 10
2109.780199
 20
463.291853
  0
VERTEX
  8
LAYER01
 10
2110.738569
 20
463.828771
  0
VERTEX
  8
LAYER01
 10
2111.690418
 20
464.380075
  0
VERTEX
  8
LAYER01
 10
2112.635562
 20
464.945733
  0
VERTEX
  8
LAYER01
 10
2113.57382
 20
465.525715
  0
VERTEX
  8
LAYER01
 10
2114.505008
 20
466.119989
  0
VERTEX
  8
LAYER01
 10
2115.428943
 20
466.728524
  0
VERTEX
  8
LAYER01
 10
2116.345443
 20
467.351287
  0
VERTEX
  8
LAYER01
 10
2117.254323
 20
467.988248
  0
VERTEX
  8
LAYER01
 10
2118.155403
 20
468.639374
  0
VERTEX
  8
LAYER01
 10
2119.048498
 20
469.304635
  0
VERTEX
  8
LAYER01
 10
2119.933426
 20
469.983999
  0
VERTEX
  8
LAYER01
 10
2120.810003
 20
470.677434
  0
VERTEX
  8
LAYER01
 10
2121.678048
 20
471.384909
  0
VERTEX
  8
LAYER01
 10
2122.537373
 20
472.106391
  0
VERTEX
  8
LAYER01
 10
2123.387775
 20
472.841835
  0
VERTEX
  8
LAYER01
 10
2124.229043
 20
473.591194
  0
VERTEX
  8
LAYER01
 10
2125.060965
 20
474.35442
  0
VERTEX
  8
LAYER01
 10
2125.883332
 20
475.131466
  0
VERTEX
  8
LAYER01
 10
2126.695931
 20
475.922282
  0
VERTEX
  8
LAYER01
 10
2127.498553
 20
476.726822
  0
VERTEX
  8
LAYER01
 10
2128.290985
 20
477.545038
  0
VERTEX
  8
LAYER01
 10
2129.073018
 20
478.376881
  0
VERTEX
  8
LAYER01
 10
2129.84444
 20
479.222305
  0
VERTEX
  8
LAYER01
 10
2130.605041
 20
480.08126
  0
VERTEX
  8
LAYER01
 10
2131.354609
 20
480.9537
  0
VERTEX
  8
LAYER01
 10
2132.092922
 20
481.839573
  0
VERTEX
  8
LAYER01
 10
2132.819752
 20
482.738823
  0
VERTEX
  8
LAYER01
 10
2133.534869
 20
483.651397
  0
VERTEX
  8
LAYER01
 10
2134.238046
 20
484.57724
  0
VERTEX
  8
LAYER01
 10
2134.929052
 20
485.516297
  0
VERTEX
  8
LAYER01
 10
2135.607658
 20
486.468515
  0
VERTEX
  8
LAYER01
 10
2136.273635
 20
487.433838
  0
VERTEX
  8
LAYER01
 10
2136.926755
 20
488.412212
  0
VERTEX
  8
LAYER01
 10
2137.566789
 20
489.403582
  0
VERTEX
  8
LAYER01
 10
2138.193506
 20
490.407894
  0
VERTEX
  8
LAYER01
 10
2138.806678
 20
491.425094
  0
VERTEX
  8
LAYER01
 10
2139.40606
 20
492.45512
  0
VERTEX
  8
LAYER01
 10
2139.99138
 20
493.497903
  0
VERTEX
  8
LAYER01
 10
2140.562364
 20
494.553372
  0
VERTEX
  8
LAYER01
 10
2141.118739
 20
495.621456
  0
VERTEX
  8
LAYER01
 10
2141.66023
 20
496.702084
  0
VERTEX
  8
LAYER01
 10
2142.186564
 20
497.795186
  0
VERTEX
  8
LAYER01
 10
2142.697467
 20
498.900689
  0
VERTEX
  8
LAYER01
 10
2143.192665
 20
500.018524
  0
VERTEX
  8
LAYER01
 10
2143.671885
 20
501.14862
  0
VERTEX
  8
LAYER01
 10
2144.134852
 20
502.290905
  0
VERTEX
  8
LAYER01
 10
2144.581293
 20
503.445309
  0
VERTEX
  8
LAYER01
 10
2145.010922
 20
504.611757
  0
VERTEX
  8
LAYER01
 10
2145.423405
 20
505.790162
  0
VERTEX
  8
LAYER01
 10
2145.8184
 20
506.980434
  0
VERTEX
  8
LAYER01
 10
2146.195565
 20
508.182483
  0
VERTEX
  8
LAYER01
 10
2146.554556
 20
509.39622
  0
VERTEX
  8
LAYER01
 10
2146.895032
 20
510.621553
  0
VERTEX
  8
LAYER01
 10
2147.216649
 20
511.858393
  0
VERTEX
  8
LAYER01
 10
2147.519066
 20
513.106651
  0
VERTEX
  8
LAYER01
 10
2147.801938
 20
514.366235
  0
VERTEX
  8
LAYER01
 10
2148.064924
 20
515.637056
  0
VERTEX
  8
LAYER01
 10
2148.30768
 20
516.919024
  0
VERTEX
  8
LAYER01
 10
2148.537287
 20
518.217376
  0
VERTEX
  8
LAYER01
 10
2148.771455
 20
519.545412
  0
VERTEX
  8
LAYER01
 10
2149.011155
 20
520.904815
  0
VERTEX
  8
LAYER01
 10
2149.256587
 20
522.296727
  0
VERTEX
  8
LAYER01
 10
2149.507951
 20
523.722287
  0
VERTEX
  8
LAYER01
 10
2149.76545
 20
525.182636
  0
VERTEX
  8
LAYER01
 10
2150.029285
 20
526.678915
  0
VERTEX
  8
LAYER01
 10
2150.299655
 20
528.212262
  0
VERTEX
  8
LAYER01
 10
2150.576734
 20
529.783653
  0
VERTEX
  8
LAYER01
 10
2150.860646
 20
531.3938
  0
VERTEX
  8
LAYER01
 10
2151.151514
 20
533.043392
  0
VERTEX
  8
LAYER01
 10
2151.449458
 20
534.73312
  0
VERTEX
  8
LAYER01
 10
2151.754601
 20
536.46367
  0
VERTEX
  8
LAYER01
 10
2152.067064
 20
538.235734
  0
VERTEX
  8
LAYER01
 10
2152.386967
 20
540.049999
  0
VERTEX
  8
LAYER01
 10
2152.714354
 20
541.9067
  0
VERTEX
  8
LAYER01
 10
2153.0488
 20
543.803439
  0
VERTEX
  8
LAYER01
 10
2153.389717
 20
545.736876
  0
VERTEX
  8
LAYER01
 10
2153.736515
 20
547.703666
  0
VERTEX
  8
LAYER01
 10
2154.088605
 20
549.700467
  0
VERTEX
  8
LAYER01
 10
2154.445398
 20
551.723937
  0
VERTEX
  8
LAYER01
 10
2154.806303
 20
553.770732
  0
VERTEX
  8
LAYER01
 10
2155.170725
 20
555.837471
  0
VERTEX
  8
LAYER01
 10
2155.537856
 20
557.919575
  0
VERTEX
  8
LAYER01
 10
2155.906641
 20
560.011058
  0
VERTEX
  8
LAYER01
 10
2156.27601
 20
562.105855
  0
VERTEX
  8
LAYER01
 10
2156.644894
 20
564.197901
  0
VERTEX
  8
LAYER01
 10
2157.012224
 20
566.28113
  0
VERTEX
  8
LAYER01
 10
2157.376929
 20
568.349477
  0
VERTEX
  8
LAYER01
 10
2157.737941
 20
570.396877
  0
SEQEND
  8
LAYER01
  0
LINE
  8
LAYER01
  6
CONTINUOUS
 62
     7
 10
2157.737938
 20
570.396877
 11
2182.737944
 21
570.396877
  0
LINE
  8
LAYER01
  6
CONTINUOUS
 62
     7
 10
2174.519939
 20
558.396877
 11
2182.737944
 21
558.396877
  0
LINE
  8
LAYER01
  6
CONTINUOUS
 62
     7
 10
2137.737942
 20
570.396877
 11
2157.737938
 21
570.396877
  0
POLYLINE
  8
LAYER01
  6
CONTINUOUS
 62
     7
 66
     1
  0
VERTEX
  8
LAYER01
 10
2077.356047
 20
441.88022
  0
VERTEX
  8
LAYER01
 10
2077.803509
 20
441.904796
  0
VERTEX
  8
LAYER01
 10
2078.250438
 20
441.931593
  0
VERTEX
  8
LAYER01
 10
2078.696833
 20
441.960606
  0
VERTEX
  8
LAYER01
 10
2079.142696
 20
441.991833
  0
VERTEX
  8
LAYER01
 10
2079.588028
 20
442.025268
  0
VERTEX
  8
LAYER01
 10
2080.03283
 20
442.060909
  0
VERTEX
  8
LAYER01
 10
2080.477102
 20
442.098751
  0
VERTEX
  8
LAYER01
 10
2080.920846
 20
442.13879
  0
VERTEX
  8
LAYER01
 10
2081.364063
 20
442.181024
  0
VERTEX
  8
LAYER01
 10
2081.806752
 20
442.225447
  0
VERTEX
  8
LAYER01
 10
2082.248916
 20
442.272057
  0
VERTEX
  8
LAYER01
 10
2082.690555
 20
442.320849
  0
VERTEX
  8
LAYER01
 10
2083.131671
 20
442.37182
  0
VERTEX
  8
LAYER01
 10
2083.572263
 20
442.424965
  0
VERTEX
  8
LAYER01
 10
2084.012333
 20
442.480281
  0
VERTEX
  8
LAYER01
 10
2084.451882
 20
442.537765
  0
VERTEX
  8
LAYER01
 10
2084.890911
 20
442.597412
  0
VERTEX
  8
LAYER01
 10
2085.329421
 20
442.659218
  0
VERTEX
  8
LAYER01
 10
2085.767412
 20
442.723179
  0
VERTEX
  8
LAYER01
 10
2086.204886
 20
442.789293
  0
VERTEX
  8
LAYER01
 10
2086.641843
 20
442.857555
  0
VERTEX
  8
LAYER01
 10
2087.078285
 20
442.927961
  0
VERTEX
  8
LAYER01
 10
2087.514212
 20
443.000505
  0
VERTEX
  8
LAYER01
 10
2087.949625
 20
443.075186
  0
VERTEX
  8
LAYER01
 10
2088.384525
 20
443.152003
  0
VERTEX
  8
LAYER01
 10
2088.818912
 20
443.230954
  0
VERTEX
  8
LAYER01
 10
2089.252785
 20
443.31204
  0
VERTEX
  8
LAYER01
 10
2089.686146
 20
443.39526
  0
VERTEX
  8
LAYER01
 10
2090.118993
 20
443.480612
  0
VERTEX
  8
LAYER01
 10
2090.551327
 20
443.568098
  0
VERTEX
  8
LAYER01
 10
2090.983149
 20
443.657715
  0
VERTEX
  8
LAYER01
 10
2091.414458
 20
443.749464
  0
VERTEX
  8
LAYER01
 10
2091.845255
 20
443.843344
  0
VERTEX
  8
LAYER01
 10
2092.27554
 20
443.939354
  0
VERTEX
  8
LAYER01
 10
2092.705312
 20
444.037494
  0
VERTEX
  8
LAYER01
 10
2093.134572
 20
444.137764
  0
VERTEX
  8
LAYER01
 10
2093.56332
 20
444.240162
  0
VERTEX
  8
LAYER01
 10
2093.991557
 20
444.344688
  0
VERTEX
  8
LAYER01
 10
2094.419282
 20
444.451341
  0
VERTEX
  8
LAYER01
 10
2094.846496
 20
444.560121
  0
VERTEX
  8
LAYER01
 10
2095.273198
 20
444.671028
  0
VERTEX
  8
LAYER01
 10
2095.699389
 20
444.784061
  0
VERTEX
  8
LAYER01
 10
2096.125069
 20
444.899218
  0
VERTEX
  8
LAYER01
 10
2096.550238
 20
445.016501
  0
VERTEX
  8
LAYER01
 10
2096.974896
 20
445.135908
  0
VERTEX
  8
LAYER01
 10
2097.399043
 20
445.257442
  0
VERTEX
  8
LAYER01
 10
2097.822677
 20
445.381106
  0
VERTEX
  8
LAYER01
 10
2098.245799
 20
445.506903
  0
VERTEX
  8
LAYER01
 10
2098.668407
 20
445.634837
  0
VERTEX
  8
LAYER01
 10
2099.0905
 20
445.76491
  0
VERTEX
  8
LAYER01
 10
2099.512078
 20
445.897125
  0
VERTEX
  8
LAYER01
 10
2099.93314
 20
446.031486
  0
VERTEX
  8
LAYER01
 10
2100.353686
 20
446.167996
  0
VERTEX
  8
LAYER01
 10
2100.773714
 20
446.306657
  0
VERTEX
  8
LAYER01
 10
2101.193224
 20
446.447473
  0
VERTEX
  8
LAYER01
 10
2101.612215
 20
446.590447
  0
VERTEX
  8
LAYER01
 10
2102.030686
 20
446.735581
  0
VERTEX
  8
LAYER01
 10
2102.448637
 20
446.88288
  0
VERTEX
  8
LAYER01
 10
2102.866067
 20
447.032345
  0
VERTEX
  8
LAYER01
 10
2103.282975
 20
447.18398
  0
VERTEX
  8
LAYER01
 10
2103.69936
 20
447.337789
  0
VERTEX
  8
LAYER01
 10
2104.115223
 20
447.493774
  0
VERTEX
  8
LAYER01
 10
2104.530561
 20
447.651938
  0
VERTEX
  8
LAYER01
 10
2104.945374
 20
447.812284
  0
VERTEX
  8
LAYER01
 10
2105.359662
 20
447.974816
  0
VERTEX
  8
LAYER01
 10
2105.773424
 20
448.139537
  0
VERTEX
  8
LAYER01
 10
2106.186657
 20
448.306452
  0
VERTEX
  8
LAYER01
 10
2106.599361
 20
448.475569
  0
VERTEX
  8
LAYER01
 10
2107.011535
 20
448.646894
  0
VERTEX
  8
LAYER01
 10
2107.423176
 20
448.820432
  0
VERTEX
  8
LAYER01
 10
2107.834284
 20
448.996187
  0
VERTEX
  8
LAYER01
 10
2108.244885
 20
449.174179
  0
VERTEX
  8
LAYER01
 10
2108.655078
 20
449.354461
  0
VERTEX
  8
LAYER01
 10
2109.064724
 20
449.536973
  0
VERTEX
  8
LAYER01
 10
2109.473646
 20
449.72164
  0
VERTEX
  8
LAYER01
 10
2109.88167
 20
449.908386
  0
VERTEX
  8
LAYER01
 10
2110.28862
 20
450.097133
  0
VERTEX
  8
LAYER01
 10
2110.694327
 20
450.287802
  0
VERTEX
  8
LAYER01
 10
2111.098738
 20
450.480357
  0
VERTEX
  8
LAYER01
 10
2111.501857
 20
450.674796
  0
VERTEX
  8
LAYER01
 10
2111.903687
 20
450.871114
  0
VERTEX
  8
LAYER01
 10
2112.304229
 20
451.069307
  0
VERTEX
  8
LAYER01
 10
2112.703487
 20
451.269372
  0
VERTEX
  8
LAYER01
 10
2113.101463
 20
451.471304
  0
VERTEX
  8
LAYER01
 10
2113.498161
 20
451.6751
  0
VERTEX
  8
LAYER01
 10
2113.893582
 20
451.880755
  0
VERTEX
  8
LAYER01
 10
2114.28773
 20
452.088266
  0
VERTEX
  8
LAYER01
 10
2114.680606
 20
452.297629
  0
VERTEX
  8
LAYER01
 10
2115.072216
 20
452.508839
  0
VERTEX
  8
LAYER01
 10
2115.462561
 20
452.72189
  0
VERTEX
  8
LAYER01
 10
2115.851643
 20
452.936783
  0
VERTEX
  8
LAYER01
 10
2116.239463
 20
453.153515
  0
VERTEX
  8
LAYER01
 10
2116.626021
 20
453.372085
  0
VERTEX
  8
LAYER01
 10
2117.011318
 20
453.592491
  0
VERTEX
  8
LAYER01
 10
2117.395357
 20
453.814733
  0
VERTEX
  8
LAYER01
 10
2117.778137
 20
454.038808
  0
VERTEX
  8
LAYER01
 10
2118.15966
 20
454.264715
  0
VERTEX
  8
LAYER01
 10
2118.539926
 20
454.492453
  0
VERTEX
  8
LAYER01
 10
2118.918937
 20
454.722021
  0
VERTEX
  8
LAYER01
 10
2119.296694
 20
454.953415
  0
VERTEX
  8
LAYER01
 10
2119.673197
 20
455.186637
  0
VERTEX
  8
LAYER01
 10
2120.048448
 20
455.421682
  0
VERTEX
  8
LAYER01
 10
2120.422447
 20
455.658552
  0
VERTEX
  8
LAYER01
 10
2120.795197
 20
455.897243
  0
VERTEX
  8
LAYER01
 10
2121.166697
 20
456.137755
  0
VERTEX
  8
LAYER01
 10
2121.536948
 20
456.380085
  0
VERTEX
  8
LAYER01
 10
2121.905953
 20
456.624233
  0
VERTEX
  8
LAYER01
 10
2122.273711
 20
456.870197
  0
VERTEX
  8
LAYER01
 10
2122.640223
 20
457.117976
  0
VERTEX
  8
LAYER01
 10
2123.005492
 20
457.367567
  0
VERTEX
  8
LAYER01
 10
2123.369517
 20
457.618971
  0
VERTEX
  8
LAYER01
 10
2123.732297
 20
457.872189
  0
VERTEX
  8
LAYER01
 10
2124.093832
 20
458.127221
  0
VERTEX
  8
LAYER01
 10
2124.45412
 20
458.384069
  0
VERTEX
  8
LAYER01
 10
2124.813161
 20
458.642735
  0
VERTEX
  8
LAYER01
 10
2125.170953
 20
458.90322
  0
VERTEX
  8
LAYER01
 10
2125.527496
 20
459.165526
  0
VERTEX
  8
LAYER01
 10
2125.882789
 20
459.429654
  0
VERTEX
  8
LAYER01
 10
2126.23683
 20
459.695605
  0
VERTEX
  8
LAYER01
 10
2126.589619
 20
459.963381
  0
VERTEX
  8
LAYER01
 10
2126.941154
 20
460.232984
  0
VERTEX
  8
LAYER01
 10
2127.291434
 20
460.504415
  0
VERTEX
  8
LAYER01
 10
2127.64046
 20
460.777675
  0
VERTEX
  8
LAYER01
 10
2127.988228
 20
461.052766
  0
VERTEX
  8
LAYER01
 10
2128.33474
 20
461.329689
  0
VERTEX
  8
LAYER01
 10
2128.679993
 20
461.608446
  0
VERTEX
  8
LAYER01
 10
2129.023986
 20
461.889038
  0
VERTEX
  8
LAYER01
 10
2129.366719
 20
462.171467
  0
VERTEX
  8
LAYER01
 10
2129.70819
 20
462.455734
  0
VERTEX
  8
LAYER01
 10
2130.048399
 20
462.74184
  0
VERTEX
  8
LAYER01
 10
2130.387345
 20
463.029788
  0
VERTEX
  8
LAYER01
 10
2130.725026
 20
463.319578
  0
VERTEX
  8
LAYER01
 10
2131.06144
 20
463.611214
  0
VERTEX
  8
LAYER01
 10
2131.396582
 20
463.904703
  0
VERTEX
  8
LAYER01
 10
2131.730451
 20
464.200047
  0
VERTEX
  8
LAYER01
 10
2132.063044
 20
464.497252
  0
VERTEX
  8
LAYER01
 10
2132.394357
 20
464.796321
  0
VERTEX
  8
LAYER01
 10
2132.724388
 20
465.097258
  0
VERTEX
  8
LAYER01
 10
2133.053134
 20
465.400066
  0
VERTEX
  8
LAYER01
 10
2133.380593
 20
465.704751
  0
VERTEX
  8
LAYER01
 10
2133.706762
 20
466.011316
  0
VERTEX
  8
LAYER01
 10
2134.031638
 20
466.319765
  0
VERTEX
  8
LAYER01
 10
2134.355218
 20
466.630101
  0
VERTEX
  8
LAYER01
 10
2134.677436
 20
466.942273
  0
VERTEX
  8
LAYER01
 10
2134.99815
 20
467.256144
  0
VERTEX
  8
LAYER01
 10
2135.317242
 20
467.571598
  0
VERTEX
  8
LAYER01
 10
2135.634598
 20
467.888515
  0
VERTEX
  8
LAYER01
 10
2135.9501
 20
468.206776
  0
VERTEX
  8
LAYER01
 10
2136.263658
 20
468.526287
  0
VERTEX
  8
LAYER01
 10
2136.575352
 20
468.847117
  0
VERTEX
  8
LAYER01
 10
2136.885204
 20
469.169283
  0
VERTEX
  8
LAYER01
 10
2137.19322
 20
469.492781
  0
VERTEX
  8
LAYER01
 10
2137.499403
 20
469.817609
  0
VERTEX
  8
LAYER01
 10
2137.803756
 20
470.143764
  0
VERTEX
  8
LAYER01
 10
2138.106287
 20
470.471242
  0
VERTEX
  8
LAYER01
 10
2138.406999
 20
470.80004
  0
VERTEX
  8
LAYER01
 10
2138.705894
 20
471.130154
  0
VERTEX
  8
LAYER01
 10
2139.002975
 20
471.461586
  0
VERTEX
  8
LAYER01
 10
2139.298243
 20
471.794333
  0
VERTEX
  8
LAYER01
 10
2139.5917
 20
472.128394
  0
VERTEX
  8
LAYER01
 10
2139.883347
 20
472.463768
  0
VERTEX
  8
LAYER01
 10
2140.173186
 20
472.800453
  0
VERTEX
  8
LAYER01
 10
2140.461219
 20
473.138449
  0
VERTEX
  8
LAYER01
 10
2140.747447
 20
473.477754
  0
VERTEX
  8
LAYER01
 10
2141.031873
 20
473.818368
  0
VERTEX
  8
LAYER01
 10
2141.314497
 20
474.160287
  0
VERTEX
  8
LAYER01
 10
2141.595323
 20
474.503513
  0
VERTEX
  8
LAYER01
 10
2141.87435
 20
474.848042
  0
VERTEX
  8
LAYER01
 10
2142.151581
 20
475.193874
  0
VERTEX
  8
LAYER01
 10
2142.427019
 20
475.541009
  0
VERTEX
  8
LAYER01
 10
2142.700663
 20
475.889443
  0
VERTEX
  8
LAYER01
 10
2142.972517
 20
476.239177
  0
VERTEX
  8
LAYER01
 10
2143.242582
 20
476.590209
  0
VERTEX
  8
LAYER01
 10
2143.510859
 20
476.942538
  0
VERTEX
  8
LAYER01
 10
2143.777351
 20
477.296162
  0
VERTEX
  8
LAYER01
 10
2144.042059
 20
477.651081
  0
VERTEX
  8
LAYER01
 10
2144.304983
 20
478.007293
  0
VERTEX
  8
LAYER01
 10
2144.566123
 20
478.3648
  0
VERTEX
  8
LAYER01
 10
2144.825478
 20
478.723602
  0
VERTEX
  8
LAYER01
 10
2145.083047
 20
479.0837
  0
VERTEX
  8
LAYER01
 10
2145.338829
 20
479.445094
  0
VERTEX
  8
LAYER01
 10
2145.592823
 20
479.807786
  0
VERTEX
  8
LAYER01
 10
2145.845028
 20
480.171775
  0
VERTEX
  8
LAYER01
 10
2146.095442
 20
480.537064
  0
VERTEX
  8
LAYER01
 10
2146.344066
 20
480.903652
  0
VERTEX
  8
LAYER01
 10
2146.590897
 20
481.27154
  0
VERTEX
  8
LAYER01
 10
2146.835935
 20
481.640729
  0
VERTEX
  8
LAYER01
 10
2147.079179
 20
482.011219
  0
VERTEX
  8
LAYER01
 10
2147.320628
 20
482.383012
  0
VERTEX
  8
LAYER01
 10
2147.560281
 20
482.756108
  0
VERTEX
  8
LAYER01
 10
2147.798137
 20
483.130508
  0
VERTEX
  8
LAYER01
 10
2148.034194
 20
483.506212
  0
VERTEX
  8
LAYER01
 10
2148.268453
 20
483.883222
  0
VERTEX
  8
LAYER01
 10
2148.500911
 20
484.261538
  0
VERTEX
  8
LAYER01
 10
2148.731569
 20
484.64116
  0
VERTEX
  8
LAYER01
 10
2148.960424
 20
485.02209
  0
VERTEX
  8
LAYER01
 10
2149.187476
 20
485.404328
  0
VERTEX
  8
LAYER01
 10
2149.412724
 20
485.787875
  0
VERTEX
  8
LAYER01
 10
2149.636164
 20
486.172733
  0
VERTEX
  8
LAYER01
 10
2149.857791
 20
486.558908
  0
VERTEX
  8
LAYER01
 10
2150.0776
 20
486.9464
  0
VERTEX
  8
LAYER01
 10
2150.295588
 20
487.335214
  0
VERTEX
  8
LAYER01
 10
2150.511752
 20
487.725352
  0
VERTEX
  8
LAYER01
 10
2150.726087
 20
488.116816
  0
VERTEX
  8
LAYER01
 10
2150.938589
 20
488.50961
  0
VERTEX
  8
LAYER01
 10
2151.149255
 20
488.903736
  0
VERTEX
  8
LAYER01
 10
2151.358082
 20
489.299197
  0
VERTEX
  8
LAYER01
 10
2151.565065
 20
489.695996
  0
VERTEX
  8
LAYER01
 10
2151.7702
 20
490.094134
  0
VERTEX
  8
LAYER01
 10
2151.97351
 20
490.493677
  0
VERTEX
  8
LAYER01
 10
2152.174959
 20
490.894563
  0
VERTEX
  8
LAYER01
 10
2152.374453
 20
491.296605
  0
VERTEX
  8
LAYER01
 10
2152.571901
 20
491.699618
  0
VERTEX
  8
LAYER01
 10
2152.767211
 20
492.103417
  0
VERTEX
  8
LAYER01
 10
2152.960304
 20
492.50784
  0
VERTEX
  8
LAYER01
 10
2153.151201
 20
492.91291
  0
VERTEX
  8
LAYER01
 10
2153.339914
 20
493.318643
  0
VERTEX
  8
LAYER01
 10
2153.52645
 20
493.725036
  0
VERTEX
  8
LAYER01
 10
2153.710813
 20
494.132088
  0
VERTEX
  8
LAYER01
 10
2153.893007
 20
494.539798
  0
VERTEX
  8
LAYER01
 10
2154.073042
 20
494.948164
  0
VERTEX
  8
LAYER01
 10
2154.250924
 20
495.357183
  0
VERTEX
  8
LAYER01
 10
2154.426655
 20
495.766854
  0
VERTEX
  8
LAYER01
 10
2154.600237
 20
496.177177
  0
VERTEX
  8
LAYER01
 10
2154.771674
 20
496.588151
  0
VERTEX
  8
LAYER01
 10
2154.940966
 20
496.999775
  0
VERTEX
  8
LAYER01
 10
2155.108116
 20
497.412049
  0
VERTEX
  8
LAYER01
 10
2155.273126
 20
497.824973
  0
VERTEX
  8
LAYER01
 10
2155.435998
 20
498.238545
  0
VERTEX
  8
LAYER01
 10
2155.596735
 20
498.652765
  0
VERTEX
  8
LAYER01
 10
2155.755338
 20
499.067632
  0
VERTEX
  8
LAYER01
 10
2155.911809
 20
499.483146
  0
VERTEX
  8
LAYER01
 10
2156.066151
 20
499.899306
  0
VERTEX
  8
LAYER01
 10
2156.218366
 20
500.316112
  0
VERTEX
  8
LAYER01
 10
2156.368456
 20
500.733562
  0
VERTEX
  8
LAYER01
 10
2156.516423
 20
501.151656
  0
VERTEX
  8
LAYER01
 10
2156.662269
 20
501.570393
  0
VERTEX
  8
LAYER01
 10
2156.805997
 20
501.989773
  0
VERTEX
  8
LAYER01
 10
2156.947607
 20
502.409796
  0
VERTEX
  8
LAYER01
 10
2157.087104
 20
502.83046
  0
VERTEX
  8
LAYER01
 10
2157.224488
 20
503.251764
  0
VERTEX
  8
LAYER01
 10
2157.359761
 20
503.673709
  0
VERTEX
  8
LAYER01
 10
2157.492924
 20
504.096294
  0
VERTEX
  8
LAYER01
 10
2157.623972
 20
504.519521
  0
VERTEX
  8
LAYER01
 10
2157.752904
 20
504.94339
  0
VERTEX
  8
LAYER01
 10
2157.87972
 20
505.367901
  0
VERTEX
  8
LAYER01
 10
2158.004418
 20
505.793054
  0
VERTEX
  8
LAYER01
 10
2158.126997
 20
506.21885
  0
VERTEX
  8
LAYER01
 10
2158.247455
 20
506.64529
  0
VERTEX
  8
LAYER01
 10
2158.365793
 20
507.072373
  0
VERTEX
  8
LAYER01
 10
2158.482008
 20
507.500099
  0
VERTEX
  8
LAYER01
 10
2158.596099
 20
507.928471
  0
VERTEX
  8
LAYER01
 10
2158.708066
 20
508.357486
  0
VERTEX
  8
LAYER01
 10
2158.817906
 20
508.787147
  0
VERTEX
  8
LAYER01
 10
2158.92562
 20
509.217453
  0
VERTEX
  8
LAYER01
 10
2159.031205
 20
509.648404
  0
VERTEX
  8
LAYER01
 10
2159.134662
 20
510.080002
  0
VERTEX
  8
LAYER01
 10
2159.235987
 20
510.512246
  0
VERTEX
  8
LAYER01
 10
2159.335181
 20
510.945136
  0
VERTEX
  8
LAYER01
 10
2159.432243
 20
511.378674
  0
VERTEX
  8
LAYER01
 10
2159.52717
 20
511.812859
  0
VERTEX
  8
LAYER01
 10
2159.619962
 20
512.247692
  0
VERTEX
  8
LAYER01
 10
2159.710619
 20
512.683172
  0
VERTEX
  8
LAYER01
 10
2159.799137
 20
513.119301
  0
VERTEX
  8
LAYER01
 10
2159.885309
 20
513.556143
  0
VERTEX
  8
LAYER01
 10
2159.969129
 20
513.993697
  0
VERTEX
  8
LAYER01
 10
2160.050907
 20
514.431871
  0
VERTEX
  8
LAYER01
 10
2160.130952
 20
514.870571
  0
VERTEX
  8
LAYER01
 10
2160.209572
 20
515.309704
  0
VERTEX
  8
LAYER01
 10
2160.28719
 20
515.74914
  0
VERTEX
  8
LAYER01
 10
2160.364681
 20
516.188615
  0
VERTEX
  8
LAYER01
 10
2160.442172
 20
516.628089
  0
VERTEX
  8
LAYER01
 10
2160.519663
 20
517.067564
  0
VERTEX
  8
LAYER01
 10
2160.597155
 20
517.507039
  0
VERTEX
  8
LAYER01
 10
2160.674646
 20
517.946513
  0
VERTEX
  8
LAYER01
 10
2160.752137
 20
518.385988
  0
VERTEX
  8
LAYER01
 10
2160.829628
 20
518.825463
  0
VERTEX
  8
LAYER01
 10
2160.90712
 20
519.264937
  0
VERTEX
  8
LAYER01
 10
2160.984611
 20
519.704412
  0
VERTEX
  8
LAYER01
 10
2161.062102
 20
520.143887
  0
VERTEX
  8
LAYER01
 10
2161.139593
 20
520.583361
  0
VERTEX
  8
LAYER01
 10
2161.217085
 20
521.022836
  0
VERTEX
  8
LAYER01
 10
2161.294576
 20
521.462311
  0
VERTEX
  8
LAYER01
 10
2161.372067
 20
521.901785
  0
VERTEX
  8
LAYER01
 10
2161.449558
 20
522.34126
  0
VERTEX
  8
LAYER01
 10
2161.52705
 20
522.780735
  0
VERTEX
  8
LAYER01
 10
2161.604541
 20
523.220209
  0
VERTEX
  8
LAYER01
 10
2161.682032
 20
523.659684
  0
VERTEX
  8
LAYER01
 10
2161.759523
 20
524.099159
  0
VERTEX
  8
LAYER01
 10
2161.837015
 20
524.538633
  0
VERTEX
  8
LAYER01
 10
2161.914506
 20
524.978108
  0
VERTEX
  8
LAYER01
 10
2161.991997
 20
525.417583
  0
VERTEX
  8
LAYER01
 10
2162.069488
 20
525.857057
  0
VERTEX
  8
LAYER01
 10
2162.146979
 20
526.296532
  0
VERTEX
  8
LAYER01
 10
2162.224471
 20
526.736007
  0
VERTEX
  8
LAYER01
 10
2162.301962
 20
527.175481
  0
VERTEX
  8
LAYER01
 10
2162.379453
 20
527.614956
  0
VERTEX
  8
LAYER01
 10
2162.456944
 20
528.054431
  0
VERTEX
  8
LAYER01
 10
2162.534436
 20
528.493905
  0
VERTEX
  8
LAYER01
 10
2162.611927
 20
528.93338
  0
VERTEX
  8
LAYER01
 10
2162.689418
 20
529.372855
  0
VERTEX
  8
LAYER01
 10
2162.766909
 20
529.812329
  0
VERTEX
  8
LAYER01
 10
2162.844401
 20
530.251804
  0
VERTEX
  8
LAYER01
 10
2162.921892
 20
530.691279
  0
VERTEX
  8
LAYER01
 10
2162.999383
 20
531.130753
  0
VERTEX
  8
LAYER01
 10
2163.076874
 20
531.570228
  0
VERTEX
  8
LAYER01
 10
2163.154366
 20
532.009703
  0
VERTEX
  8
LAYER01
 10
2163.231857
 20
532.449177
  0
VERTEX
  8
LAYER01
 10
2163.309348
 20
532.888652
  0
VERTEX
  8
LAYER01
 10
2163.386839
 20
533.328127
  0
VERTEX
  8
LAYER01
 10
2163.464331
 20
533.767601
  0
VERTEX
  8
LAYER01
 10
2163.541822
 20
534.207076
  0
VERTEX
  8
LAYER01
 10
2163.619313
 20
534.646551
  0
VERTEX
  8
LAYER01
 10
2163.696804
 20
535.086025
  0
VERTEX
  8
LAYER01
 10
2163.774296
 20
535.5255
  0
VERTEX
  8
LAYER01
 10
2163.851787
 20
535.964975
  0
VERTEX
  8
LAYER01
 10
2163.929278
 20
536.404449
  0
VERTEX
  8
LAYER01
 10
2164.006769
 20
536.843924
  0
VERTEX
  8
LAYER01
 10
2164.08426
 20
537.283399
  0
VERTEX
  8
LAYER01
 10
2164.161752
 20
537.722873
  0
VERTEX
  8
LAYER01
 10
2164.239243
 20
538.162348
  0
VERTEX
  8
LAYER01
 10
2164.316734
 20
538.601823
  0
VERTEX
  8
LAYER01
 10
2164.394225
 20
539.041297
  0
VERTEX
  8
LAYER01
 10
2164.471717
 20
539.480772
  0
VERTEX
  8
LAYER01
 10
2164.549208
 20
539.920247
  0
VERTEX
  8
LAYER01
 10
2164.626699
 20
540.359721
  0
VERTEX
  8
LAYER01
 10
2164.70419
 20
540.799196
  0
VERTEX
  8
LAYER01
 10
2164.781682
 20
541.238671
  0
VERTEX
  8
LAYER01
 10
2164.859173
 20
541.678145
  0
VERTEX
  8
LAYER01
 10
2164.936664
 20
542.11762
  0
VERTEX
  8
LAYER01
 10
2165.014155
 20
542.557095
  0
VERTEX
  8
LAYER01
 10
2165.091647
 20
542.996569
  0
VERTEX
  8
LAYER01
 10
2165.169138
 20
543.436044
  0
VERTEX
  8
LAYER01
 10
2165.246629
 20
543.875519
  0
VERTEX
  8
LAYER01
 10
2165.32412
 20
544.314993
  0
VERTEX
  8
LAYER01
 10
2165.401612
 20
544.754468
  0
VERTEX
  8
LAYER01
 10
2165.479103
 20
545.193943
  0
VERTEX
  8
LAYER01
 10
2165.556594
 20
545.633417
  0
VERTEX
  8
LAYER01
 10
2165.634085
 20
546.072892
  0
VERTEX
  8
LAYER01
 10
2165.711577
 20
546.512367
  0
VERTEX
  8
LAYER01
 10
2165.789068
 20
546.951841
  0
VERTEX
  8
LAYER01
 10
2165.866559
 20
547.391316
  0
VERTEX
  8
LAYER01
 10
2165.94405
 20
547.830791
  0
VERTEX
  8
LAYER01
 10
2166.021542
 20
548.270265
  0
VERTEX
  8
LAYER01
 10
2166.099033
 20
548.70974
  0
VERTEX
  8
LAYER01
 10
2166.176524
 20
549.149215
  0
VERTEX
  8
LAYER01
 10
2166.254015
 20
549.588689
  0
VERTEX
  8
LAYER01
 10
2166.331506
 20
550.028164
  0
VERTEX
  8
LAYER01
 10
2166.408998
 20
550.467639
  0
VERTEX
  8
LAYER01
 10
2166.486489
 20
550.907113
  0
VERTEX
  8
LAYER01
 10
2166.56398
 20
551.346588
  0
VERTEX
  8
LAYER01
 10
2166.641471
 20
551.786063
  0
SEQEND
  8
LAYER01
  0
ENDSEC
  0
EOF