  0
SECTION
  2
HEADER
  9
$ACADVER
  1
AC1009
  9
$INSBASE
 10
0.0
 20
0.0
 30
0.0
  9
$EXTMIN
 10
-499.68994167222991
 20
-1003.502877091325
 30
-0.0015258207003583
  9
$EXTMAX
 10
4629.9058332756867
 20
1782.957250178255
 30
0.0000000349246037
  9
$LIMMIN
 10
-574.42559500000004
 20
-1053.01331
  9
$LIMMAX
 10
3561.0064390000011
 20
1871.327914
  9
$ORTHOMODE
 70
     1
  9
$REGENMODE
 70
     1
  9
$FILLMODE
 70
     1
  9
$QTEXTMODE
 70
     0
  9
$MIRRTEXT
 70
     0
  9
$DRAGMODE
 70
     2
  9
$LTSCALE
 40
1.0
  9
$OSMODE
 70
    37
  9
$ATTMODE
 70
     1
  9
$TEXTSIZE
 40
0.0
  9
$TRACEWID
 40
0.05
  9
$TEXTSTYLE
  7
STANDARD
  9
$CLAYER
  8
LAYER01
  9
$CELTYPE
  6
CONTINUOUS
  9
$CECOLOR
 62
     7
  9
$DIMSCALE
 40
1.0
  9
$DIMASZ
 40
0.18
  9
$DIMEXO
 40
0.0625
  9
$DIMDLI
 40
0.38
  9
$DIMRND
 40
0.0
  9
$DIMDLE
 40
0.0
  9
$DIMEXE
 40
0.18
  9
$DIMTP
 40
0.0
  9
$DIMTM
 40
0.0
  9
$DIMTXT
 40
0.18
  9
$DIMCEN
 40
0.09
  9
$DIMTSZ
 40
0.0
  9
$DIMTOL
 70
     0
  9
$DIMLIM
 70
     0
  9
$DIMTIH
 70
     1
  9
$DIMTOH
 70
     1
  9
$DIMSE1
 70
     0
  9
$DIMSE2
 70
     0
  9
$DIMTAD
 70
     0
  9
$DIMZIN
 70
     0
  9
$DIMBLK
  1

  9
$DIMASO
 70
     1
  9
$DIMSHO
 70
     1
  9
$DIMPOST
  1

  9
$DIMAPOST
  1

  9
$DIMALT
 70
     0
  9
$DIMALTD
 70
     2
  9
$DIMALTF
 40
25.399999999999999
  9
$DIMLFAC
 40
1.0
  9
$DIMTOFL
 70
     0
  9
$DIMTVP
 40
0.0
  9
$DIMTIX
 70
     0
  9
$DIMSOXD
 70
     0
  9
$DIMSAH
 70
     0
  9
$DIMBLK1
  1

  9
$DIMBLK2
  1

  9
$DIMSTYLE
  2
STANDARD
  9
$DIMCLRD
 70
     0
  9
$DIMCLRE
 70
     0
  9
$DIMCLRT
 70
     0
  9
$DIMTFAC
 40
1.0
  9
$DIMGAP
 40
0.09
  9
$LUNITS
 70
     2
  9
$LUPREC
 70
     4
  9
$SKETCHINC
 40
0.1
  9
$FILLETRAD
 40
5.0
  9
$AUNITS
 70
     0
  9
$AUPREC
 70
     0
  9
$MENU
  1
acad
  9
$ELEVATION
 40
0.0
  9
$PELEVATION
 40
0.0
  9
$THICKNESS
 40
0.0
  9
$LIMCHECK
 70
     0
  9
$BLIPMODE
 70
     0
  9
$CHAMFERA
 40
10.0
  9
$CHAMFERB
 40
10.0
  9
$SKPOLY
 70
     0
  9
$TDCREATE
 40
2305814.0418901742
  9
$TDUPDATE
 40
2459961.3895078478
  9
$TDINDWG
 40
0.0005903588
  9
$TDUSRTIMER
 40
0.0005902315
  9
$USRTIMER
 70
     1
  9
$ANGBASE
 50
0.0
  9
$ANGDIR
 70
     0
  9
$PDMODE
 70
     0
  9
$PDSIZE
 40
0.0
  9
$PLINEWID
 40
0.0
  9
$COORDS
 70
     0
  9
$SPLFRAME
 70
     0
  9
$SPLINETYPE
 70
     6
  9
$SPLINESEGS
 70
    10
  9
$ATTDIA
 70
     0
  9
$ATTREQ
 70
     1
  9
$HANDLING
 70
     1
  9
$HANDSEED
  5
1697
  9
$SURFTAB1
 70
     6
  9
$SURFTAB2
 70
     6
  9
$SURFTYPE
 70
     6
  9
$SURFU
 70
     6
  9
$SURFV
 70
     6
  9
$UCSNAME
  2

  9
$UCSORG
 10
0.0
 20
0.0
 30
0.0
  9
$UCSXDIR
 10
1.0
 20
0.0
 30
0.0
  9
$UCSYDIR
 10
0.0
 20
1.0
 30
0.0
  9
$PUCSNAME
  2

  9
$PUCSORG
 10
0.0
 20
0.0
 30
0.0
  9
$PUCSXDIR
 10
1.0
 20
0.0
 30
0.0
  9
$PUCSYDIR
 10
0.0
 20
1.0
 30
0.0
  9
$USERI1
 70
     0
  9
$USERI2
 70
     0
  9
$USERI3
 70
     0
  9
$USERI4
 70
     0
  9
$USERI5
 70
     0
  9
$USERR1
 40
0.0
  9
$USERR2
 40
0.0
  9
$USERR3
 40
0.0
  9
$USERR4
 40
0.0
  9
$USERR5
 40
0.0
  9
$WORLDVIEW
 70
     1
  9
$SHADEDGE
 70
     3
  9
$SHADEDIF
 70
    70
  9
$TILEMODE
 70
     1
  9
$MAXACTVP
 70
    64
  9
$PLIMCHECK
 70
     0
  9
$PEXTMIN
 10
1.0000000000000000E+020
 20
1.0000000000000000E+020
 30
1.0000000000000000E+020
  9
$PEXTMAX
 10
-1.0000000000000000E+020
 20
-1.0000000000000000E+020
 30
-1.0000000000000000E+020
  9
$PLIMMIN
 10
0.0
 20
0.0
  9
$PLIMMAX
 10
12.0
 20
9.0
  9
$UNITMODE
 70
     0
  9
$VISRETAIN
 70
     1
  9
$PLINEGEN
 70
     0
  9
$PSLTSCALE
 70
     1
  0
ENDSEC
  0
SECTION
  2
TABLES
  0
TABLE
  2
VPORT
 70
     1
  0
VPORT
  2
*ACTIVE
 70
     0
 10
0.0
 20
0.0
 11
1.0
 21
1.0
 12
2027.740119137844
 22
409.15730200000007
 13
0.0
 23
0.0
 14
1.0
 24
1.0
 15
0.0
 25
0.0
 16
0.0
 26
0.0
 36
1.0
 17
0.0
 27
0.0
 37
0.0
 40
2951.7141527737908
 41
1.9312499999999999
 42
50.0
 43
0.0
 44
0.0
 50
0.0
 51
0.0
 71
     0
 72
   100
 73
     1
 74
     1
 75
     0
 76
     0
 77
     0
 78
     0
  0
ENDTAB
  0
TABLE
  2
LTYPE
 70
    11
  0
LTYPE
  2
CONTINUOUS
 70
     0
  3
Solid line
 72
    65
 73
     0
 40
0.0
  0
LTYPE
  2
GESTRICHELT
 70
     0
  3
__ __ __ __ __ __ __ __ __ __ __ __ __ __ __
 72
    65
 73
     2
 40
0.75
 49
0.5
 49
-0.25
  0
LTYPE
  2
VERDECKT
 70
     0
  3
_ _ _ _ _ _ _ _ _ _ _ _ _ _ _ _ _ _ _ _ _ _ 
 72
    65
 73
     2
 40
0.25
 49
0.125
 49
-0.125
  0
LTYPE
  2
MITTELLINIE
 70
     0
  3
____ _ ____ _ ____ _ ____ _ ____ _ ____ _ __
 72
    65
 73
     4
 40
2.0
 49
1.25
 49
-0.25
 49
0.25
 49
-0.25
  0
LTYPE
  2
PHANTOM
 70
     0
  3
_____ _ _ _____ _ _ _____ _ _ _____ _ _ ____
 72
    65
 73
     6
 40
2.5
 49
1.25
 49
-0.25
 49
0.25
 49
-0.25
 49
0.25
 49
-0.25
  0
LTYPE
  2
PUNKTIERT
 70
     0
  3
............................................
 72
    65
 73
     2
 40
0.25
 49
0.0
 49
-0.25
  0
LTYPE
  2
STRICHPUNKTIERT
 70
     0
  3
__ . __ . __ . __ . __ . __ . __ . __ . __ .
 72
    65
 73
     4
 40
1.0
 49
0.5
 49
-0.25
 49
0.0
 49
-0.25
  0
LTYPE
  2
RAND
 70
     0
  3
__ __ . __ __ . __ __ . __ __ . __ __ . __ _
 72
    65
 73
     6
 40
1.75
 49
0.5
 49
-0.25
 49
0.5
 49
-0.25
 49
0.0
 49
-0.25
  0
LTYPE
  2
TRENNLINIE
 70
     0
  3
__ . . __ . . __ . . __ . . __ . . __ . . __
 72
    65
 73
     6
 40
1.25
 49
0.5
 49
-0.25
 49
0.0
 49
-0.25
 49
0.0
 49
-0.25
  0
LTYPE
  2
ENG_PUNKTIERT
 70
     0
  3
Schließen                                   
 72
    65
 73
     2
 40
0.1
 49
0.05
 49
-0.05
  0
LTYPE
  2
CLOSE
 70
     0
  3
                                            
 72
    65
 73
     0
 40
0.0
  0
ENDTAB
  0
TABLE
  2
LAYER
 70
   256
  0
LAYER
  2
0
 70
     0
 62
     7
  6
CONTINUOUS
  0
LAYER
  2
LAYER01
 70
     0
 62
     7
  6
CONTINUOUS
  0
LAYER
  2
LAYER02
 70
     0
 62
     7
  6
CONTINUOUS
  0
LAYER
  2
LAYER03
 70
     0
 62
     7
  6
CONTINUOUS
  0
LAYER
  2
LAYER04
 70
     0
 62
     7
  6
CONTINUOUS
  0
LAYER
  2
LAYER05
 70
     0
 62
     7
  6
CONTINUOUS
  0
LAYER
  2
LAYER06
 70
     0
 62
     7
  6
CONTINUOUS
  0
LAYER
  2
LAYER07
 70
     0
 62
     7
  6
CONTINUOUS
  0
LAYER
  2
LAYER08
 70
     0
 62
     7
  6
CONTINUOUS
  0
LAYER
  2
LAYER09
 70
     0
 62
     7
  6
CONTINUOUS
  0
LAYER
  2
LAYER10
 70
     0
 62
     7
  6
CONTINUOUS
  0
LAYER
  2
FORMAT
 70
     0
 62
     7
  6
CONTINUOUS
  0
LAYER
  2
2
 70
     0
 62
     7
  6
CONTINUOUS
  0
LAYER
  2
5
 70
     0
 62
     7
  6
CONTINUOUS
  0
LAYER
  2
RAUMAUFM
 70
     0
 62
     7
  6
CONTINUOUS
  0
LAYER
  2
EINRICHT
 70
     0
 62
     7
  6
CONTINUOUS
  0
LAYER
  2
HILFE
 70
     0
 62
     7
  6
CONTINUOUS
  0
LAYER
  2
SCHNITTE
 70
     0
 62
     7
  6
CONTINUOUS
  0
LAYER
  2
SCHRAFF1
 70
     0
 62
     7
  6
CONTINUOUS
  0
LAYER
  2
SCHRAFF2
 70
     0
 62
     7
  6
CONTINUOUS
  0
LAYER
  2
BEMASS-1
 70
     0
 62
     7
  6
CONTINUOUS
  0
LAYER
  2
BEMASS-2
 70
     0
 62
     7
  6
CONTINUOUS
  0
LAYER
  2
TEXT
 70
     0
 62
     7
  6
CONTINUOUS
  0
LAYER
  2
SYMBOLE
 70
     0
 62
     7
  6
CONTINUOUS
  0
LAYER
  2
RAHMEN
 70
     0
 62
     7
  6
CONTINUOUS
  0
LAYER
  2
SCHRIFTF
 70
     0
 62
     7
  6
CONTINUOUS
  0
LAYER
  2
ACHSEN
 70
     0
 62
     7
  6
CONTINUOUS
  0
LAYER
  2
ZEICHN
 70
     0
 62
     7
  6
CONTINUOUS
  0
LAYER
  2
7
 70
     0
 62
     7
  6
CONTINUOUS
  0
LAYER
  2
1
 70
     0
 62
     7
  6
CONTINUOUS
  0
LAYER
  2
6
 70
     0
 62
     7
  6
CONTINUOUS
  0
LAYER
  2
4
 70
     0
 62
     7
  6
CONTINUOUS
  0
LAYER
  2
GRUNDEBENE
 70
     0
 62
     7
  6
CONTINUOUS
  0
LAYER
  2
GRUNDRISS
 70
     0
 62
     7
  6
CONTINUOUS
  0
LAYER
  2
BEMASSUNGGRUNDRISS
 70
     0
 62
     7
  6
CONTINUOUS
  0
LAYER
  2
WANDELEMENTE
 70
     0
 62
     7
  6
CONTINUOUS
  0
LAYER
  2
KUECHE
 70
     0
 62
     7
  6
CONTINUOUS
  0
LAYER
  2
THEKEBROETCHEN
 70
     0
 62
     7
  6
CONTINUOUS
  0
LAYER
  2
CENTERLINIE
 70
     0
 62
     7
  6
CONTINUOUS
  0
LAYER
  2
UMRISSE
 70
     0
 62
     7
  6
CONTINUOUS
  0
LAYER
  2
MAUER
 70
     0
 62
     7
  6
CONTINUOUS
  0
LAYER
  2
SCHRAFFUR
 70
     0
 62
     7
  6
CONTINUOUS
  0
LAYER
  2
MASSLINIE
 70
     0
 62
     7
  6
CONTINUOUS
  0
LAYER
  2
PV
 70
     0
 62
     7
  6
CONTINUOUS
  0
LAYER
  2
BESCHRIFTUNG
 70
     0
 62
     7
  6
CONTINUOUS
  0
LAYER
  2
AS
 70
     0
 62
     7
  6
CONTINUOUS
  0
LAYER
  2
PL
 70
     0
 62
     7
  6
CONTINUOUS
  0
LAYER
  2
UK
 70
     0
 62
     7
  6
CONTINUOUS
  0
LAYER
  2
TEXT3
 70
     0
 62
     7
  6
CONTINUOUS
  0
LAYER
  2
TEXT7
 70
     0
 62
     7
  6
CONTINUOUS
  0
LAYER
  2
BEPL1
 70
     0
 62
     7
  6
CONTINUOUS
  0
LAYER
  2
BEPL2
 70
     0
 62
     7
  6
CONTINUOUS
  0
LAYER
  2
BEPL2V
 70
     0
 62
     7
  6
CONTINUOUS
  0
LAYER
  2
BEPL4
 70
     0
 62
     7
  6
CONTINUOUS
  0
LAYER
  2
BEPL
 70
     0
 62
     7
  6
CONTINUOUS
  0
LAYER
  2
UK1
 70
     0
 62
     7
  6
CONTINUOUS
  0
LAYER
  2
UK2
 70
     0
 62
     7
  6
CONTINUOUS
  0
LAYER
  2
UK2V
 70
     0
 62
     7
  6
CONTINUOUS
  0
LAYER
  2
UK3
 70
     0
 62
     7
  6
CONTINUOUS
  0
LAYER
  2
TEXT2
 70
     0
 62
     7
  6
CONTINUOUS
  0
LAYER
  2
HILF2S
 70
     0
 62
     7
  6
CONTINUOUS
  0
LAYER
  2
UK1V
 70
     0
 62
     7
  6
CONTINUOUS
  0
LAYER
  2
GAIN_ZRA
 70
     0
 62
     7
  6
CONTINUOUS
  0
LAYER
  2
GAIN_ZSF
 70
     0
 62
     7
  6
CONTINUOUS
  0
LAYER
  2
RAHM4
 70
     0
 62
     7
  6
CONTINUOUS
  0
LAYER
  2
KORPUSBAND
 70
     0
 62
     7
  6
CONTINUOUS
  0
LAYER
  2
E---LGPL--------
 70
     0
 62
     7
  6
CONTINUOUS
  0
LAYER
  2
E---NPFL--------
 70
     0
 62
     7
  6
CONTINUOUS
  0
LAYER
  2
E---PLNKTXT-----
 70
     0
 62
     7
  6
CONTINUOUS
  0
LAYER
  2
E---PLNK--------
 70
     0
 62
     7
  6
CONTINUOUS
  0
LAYER
  2
E---PLNR--------
 70
     0
 62
     7
  6
CONTINUOUS
  0
LAYER
  2
D547_ARCHICAD
 70
     0
 62
     7
  6
CONTINUOUS
  0
LAYER
  2
D547_E---TEXT--------
 70
     0
 62
     7
  6
CONTINUOUS
  0
LAYER
  2
E---LEGD--------
 70
     0
 62
     7
  6
CONTINUOUS
  0
LAYER
  2
D43_ARCHICAD
 70
     0
 62
     7
  6
CONTINUOUS
  0
LAYER
  2
D43_FENSTER_VON_B---FASS--
 70
     0
 62
     7
  6
CONTINUOUS
  0
LAYER
  2
D43_E---SCHN--------
 70
     0
 62
     7
  6
CONTINUOUS
  0
LAYER
  2
D43_B---MW-N--------
 70
     0
 62
     7
  6
CONTINUOUS
  0
LAYER
  2
D43_B---DECK--------
 70
     0
 62
     7
  6
CONTINUOUS
  0
LAYER
  2
D43_B---MW-S--------
 70
     0
 62
     7
  6
CONTINUOUS
  0
LAYER
  2
D43_B---MW----------
 70
     0
 62
     7
  6
CONTINUOUS
  0
LAYER
  2
D43_B---FASS--------
 70
     0
 62
     7
  6
CONTINUOUS
  0
LAYER
  2
D43_E---RASG--------
 70
     0
 62
     7
  6
CONTINUOUS
  0
LAYER
  2
D40_ARCHICAD
 70
     0
 62
     7
  6
CONTINUOUS
  0
LAYER
  2
D40_E---MW--------
 70
     0
 62
     7
  6
CONTINUOUS
  0
LAYER
  2
D40_E---FASSKON-----
 70
     0
 62
     7
  6
CONTINUOUS
  0
LAYER
  2
D40_TÜREN_VON_B---MW-N----
 70
     0
 62
     7
  6
CONTINUOUS
  0
LAYER
  2
D40_E---MW-L------
 70
     0
 62
     7
  6
CONTINUOUS
  0
LAYER
  2
D40_TÜREN_VON_B---MW------
 70
     0
 62
     7
  6
CONTINUOUS
  0
LAYER
  2
D40_E---VERM--------
 70
     0
 62
     7
  6
CONTINUOUS
  0
LAYER
  2
D40_FENSTER_VON_E---MW-L--
 70
     0
 62
     7
  6
CONTINUOUS
  0
LAYER
  2
D40_FENSTER_VON_B---MW-N--
 70
     0
 62
     7
  6
CONTINUOUS
  0
LAYER
  2
D40_E---SCHN--------
 70
     0
 62
     7
  6
CONTINUOUS
  0
LAYER
  2
D40_E---AUFZ--------
 70
     0
 62
     7
  6
CONTINUOUS
  0
LAYER
  2
D40_E---DECK--------
 70
     0
 62
     7
  6
CONTINUOUS
  0
LAYER
  2
D40_E---RAUMINF-----
 70
     0
 62
     7
  6
CONTINUOUS
  0
LAYER
  2
D40_E---TEXT--------
 70
     0
 62
     7
  6
CONTINUOUS
  0
LAYER
  2
D40_B---TEXT--------
 70
     0
 62
     7
  6
CONTINUOUS
  0
LAYER
  2
D40_B---MW-N--------
 70
     0
 62
     7
  6
CONTINUOUS
  0
LAYER
  2
D40_B---DECK--------
 70
     0
 62
     7
  6
CONTINUOUS
  0
LAYER
  2
D40_B---AUFZ--------
 70
     0
 62
     7
  6
CONTINUOUS
  0
LAYER
  2
D40_B---MW-S--------
 70
     0
 62
     7
  6
CONTINUOUS
  0
LAYER
  2
D40_B---MW----------
 70
     0
 62
     7
  6
CONTINUOUS
  0
LAYER
  2
D40_E---MOEB--------
 70
     0
 62
     7
  6
CONTINUOUS
  0
LAYER
  2
D40_B---UMGB--------
 70
     0
 62
     7
  6
CONTINUOUS
  0
LAYER
  2
D40_B---FASS--------
 70
     0
 62
     7
  6
CONTINUOUS
  0
LAYER
  2
D40_E---DACH--------
 70
     0
 62
     7
  6
CONTINUOUS
  0
LAYER
  2
D40_E---BODE--------
 70
     0
 62
     7
  6
CONTINUOUS
  0
LAYER
  2
D40_E---TREP--------
 70
     0
 62
     7
  6
CONTINUOUS
  0
LAYER
  2
D40_E---RASG--------
 70
     0
 62
     7
  6
CONTINUOUS
  0
LAYER
  2
D40_B---MW-K--------
 70
     0
 62
     7
  6
CONTINUOUS
  0
LAYER
  2
D40_E---FASSGLA-----
 70
     0
 62
     7
  6
CONTINUOUS
  0
LAYER
  2
D40_B---VERM--------
 70
     0
 62
     7
  6
CONTINUOUS
  0
LAYER
  2
D40_E---UMGBGSG-----
 70
     0
 62
     7
  6
CONTINUOUS
  0
LAYER
  2
D40_E---RASF--------
 70
     0
 62
     7
  6
CONTINUOUS
  0
LAYER
  2
D40_E---PFLA--------
 70
     0
 62
     7
  6
CONTINUOUS
  0
LAYER
  2
D40_E---KONS-ST-----
 70
     0
 62
     7
  6
CONTINUOUS
  0
LAYER
  2
D40_E---WERB--------
 70
     0
 62
     7
  6
CONTINUOUS
  0
LAYER
  2
D40_E---TUERINF-----
 70
     0
 62
     7
  6
CONTINUOUS
  0
LAYER
  2
D40_E---WOLK--------
 70
     0
 62
     7
  6
CONTINUOUS
  0
LAYER
  2
D40_B---MW-L--------
 70
     0
 62
     7
  6
CONTINUOUS
  0
LAYER
  2
D40_B---SANI--------
 70
     0
 62
     7
  6
CONTINUOUS
  0
LAYER
  2
D40_E---SANI--------
 70
     0
 62
     7
  6
CONTINUOUS
  0
LAYER
  2
D40_E---MW-K------
 70
     0
 62
     7
  6
CONTINUOUS
  0
LAYER
  2
D40_E---OBJE--------
 70
     0
 62
     7
  6
CONTINUOUS
  0
LAYER
  2
D40_E---ASPR--------
 70
     0
 62
     7
  6
CONTINUOUS
  0
LAYER
  2
D40_E---VERMTGA-----
 70
     0
 62
     7
  6
CONTINUOUS
  0
LAYER
  2
D40_E---PARK--------
 70
     0
 62
     7
  6
CONTINUOUS
  0
LAYER
  2
D40_E---ISOL--------
 70
     0
 62
     7
  6
CONTINUOUS
  0
LAYER
  2
D40_E---TUER--------
 70
     0
 62
     7
  6
CONTINUOUS
  0
LAYER
  2
D40_E---MW--BRA---
 70
     0
 62
     7
  6
CONTINUOUS
  0
LAYER
  2
D41_ARCHICAD
 70
     0
 62
     7
  6
CONTINUOUS
  0
LAYER
  2
D41_E---MW--------
 70
     0
 62
     7
  6
CONTINUOUS
  0
LAYER
  2
D41_E---FASSKON-----
 70
     0
 62
     7
  6
CONTINUOUS
  0
LAYER
  2
D41_TÜREN_VON_B---MW-N----
 70
     0
 62
     7
  6
CONTINUOUS
  0
LAYER
  2
D41_E---MW-L------
 70
     0
 62
     7
  6
CONTINUOUS
  0
LAYER
  2
D41_TÜREN_VON_B---MW------
 70
     0
 62
     7
  6
CONTINUOUS
  0
LAYER
  2
D41_E---VERM--------
 70
     0
 62
     7
  6
CONTINUOUS
  0
LAYER
  2
D41_FENSTER_VON_E---MW-L--
 70
     0
 62
     7
  6
CONTINUOUS
  0
LAYER
  2
D41_FENSTER_VON_B---MW-N--
 70
     0
 62
     7
  6
CONTINUOUS
  0
LAYER
  2
D41_E---SCHN--------
 70
     0
 62
     7
  6
CONTINUOUS
  0
LAYER
  2
D41_E---AUFZ--------
 70
     0
 62
     7
  6
CONTINUOUS
  0
LAYER
  2
D41_E---DECK--------
 70
     0
 62
     7
  6
CONTINUOUS
  0
LAYER
  2
D41_E---RAUMINF-----
 70
     0
 62
     7
  6
CONTINUOUS
  0
LAYER
  2
D41_E---TEXT--------
 70
     0
 62
     7
  6
CONTINUOUS
  0
LAYER
  2
D41_B---TEXT--------
 70
     0
 62
     7
  6
CONTINUOUS
  0
LAYER
  2
D41_B---MW-N--------
 70
     0
 62
     7
  6
CONTINUOUS
  0
LAYER
  2
D41_B---DECK--------
 70
     0
 62
     7
  6
CONTINUOUS
  0
LAYER
  2
D41_B---AUFZ--------
 70
     0
 62
     7
  6
CONTINUOUS
  0
LAYER
  2
D41_B---MW-S--------
 70
     0
 62
     7
  6
CONTINUOUS
  0
LAYER
  2
D41_B---MW----------
 70
     0
 62
     7
  6
CONTINUOUS
  0
LAYER
  2
D41_E---MOEB--------
 70
     0
 62
     7
  6
CONTINUOUS
  0
LAYER
  2
D41_B---UMGB--------
 70
     0
 62
     7
  6
CONTINUOUS
  0
LAYER
  2
D41_B---FASS--------
 70
     0
 62
     7
  6
CONTINUOUS
  0
LAYER
  2
D41_E---DACH--------
 70
     0
 62
     7
  6
CONTINUOUS
  0
LAYER
  2
D41_E---BODE--------
 70
     0
 62
     7
  6
CONTINUOUS
  0
LAYER
  2
D41_E---TREP--------
 70
     0
 62
     7
  6
CONTINUOUS
  0
LAYER
  2
D41_E---RASG--------
 70
     0
 62
     7
  6
CONTINUOUS
  0
LAYER
  2
D41_B---MW-K--------
 70
     0
 62
     7
  6
CONTINUOUS
  0
LAYER
  2
D41_E---FASSGLA-----
 70
     0
 62
     7
  6
CONTINUOUS
  0
LAYER
  2
D41_B---VERM--------
 70
     0
 62
     7
  6
CONTINUOUS
  0
LAYER
  2
D41_E---UMGBGSG-----
 70
     0
 62
     7
  6
CONTINUOUS
  0
LAYER
  2
D41_E---RASF--------
 70
     0
 62
     7
  6
CONTINUOUS
  0
LAYER
  2
D41_E---PFLA--------
 70
     0
 62
     7
  6
CONTINUOUS
  0
LAYER
  2
D41_E---KONS-ST-----
 70
     0
 62
     7
  6
CONTINUOUS
  0
LAYER
  2
D41_E---WERB--------
 70
     0
 62
     7
  6
CONTINUOUS
  0
LAYER
  2
D41_E---TUERINF-----
 70
     0
 62
     7
  6
CONTINUOUS
  0
LAYER
  2
D41_E---WOLK--------
 70
     0
 62
     7
  6
CONTINUOUS
  0
LAYER
  2
D41_B---MW-L--------
 70
     0
 62
     7
  6
CONTINUOUS
  0
LAYER
  2
D41_B---SANI--------
 70
     0
 62
     7
  6
CONTINUOUS
  0
LAYER
  2
D41_E---SANI--------
 70
     0
 62
     7
  6
CONTINUOUS
  0
LAYER
  2
D41_E---MW-K------
 70
     0
 62
     7
  6
CONTINUOUS
  0
LAYER
  2
D41_E---OBJE--------
 70
     0
 62
     7
  6
CONTINUOUS
  0
LAYER
  2
D41_E---ASPR--------
 70
     0
 62
     7
  6
CONTINUOUS
  0
LAYER
  2
D41_E---VERMTGA-----
 70
     0
 62
     7
  6
CONTINUOUS
  0
LAYER
  2
D41_E---PARK--------
 70
     0
 62
     7
  6
CONTINUOUS
  0
LAYER
  2
D41_E---ISOL--------
 70
     0
 62
     7
  6
CONTINUOUS
  0
LAYER
  2
D41_E---TUER--------
 70
     0
 62
     7
  6
CONTINUOUS
  0
LAYER
  2
D41_E---MW--BRA---
 70
     0
 62
     7
  6
CONTINUOUS
  0
LAYER
  2
D42_ARCHICAD
 70
     0
 62
     7
  6
CONTINUOUS
  0
LAYER
  2
D42_FENSTER_VON_B---FASS--
 70
     0
 62
     7
  6
CONTINUOUS
  0
LAYER
  2
D42_E---SCHN--------
 70
     0
 62
     7
  6
CONTINUOUS
  0
LAYER
  2
D42_B---MW-N--------
 70
     0
 62
     7
  6
CONTINUOUS
  0
LAYER
  2
D42_B---DECK--------
 70
     0
 62
     7
  6
CONTINUOUS
  0
LAYER
  2
D42_B---MW-S--------
 70
     0
 62
     7
  6
CONTINUOUS
  0
LAYER
  2
D42_B---MW----------
 70
     0
 62
     7
  6
CONTINUOUS
  0
LAYER
  2
D42_B---FASS--------
 70
     0
 62
     7
  6
CONTINUOUS
  0
LAYER
  2
D42_E---RASG--------
 70
     0
 62
     7
  6
CONTINUOUS
  0
LAYER
  2
CONSTRUCTION_CLASS
 70
     0
 62
     7
  6
CONTINUOUS
  0
LAYER
  2
PATTERN_CLASS
 70
     0
 62
     7
  6
CONTINUOUS
  0
LAYER
  2
KONSTRUKTION
 70
     0
 62
     7
  6
CONTINUOUS
  0
LAYER
  2
BEMAßUNG
 70
     0
 62
     7
  6
CONTINUOUS
  0
LAYER
  2
HILFSGEOMETRIE
 70
     0
 62
     7
  6
CONTINUOUS
  0
LAYER
  2
UNSICHTBAR
 70
     0
 62
     7
  6
CONTINUOUS
  0
LAYER
  2
LOGO
 70
     0
 62
     7
  6
CONTINUOUS
  0
LAYER
  2
VERWALTUNG
 70
     0
 62
     7
  6
CONTINUOUS
  0
LAYER
  2
UNSICHTBARE_GEWINDE
 70
     0
 62
     7
  6
CONTINUOUS
  0
LAYER
  2
SICHTBARE_GEWINDE
 70
     0
 62
     7
  6
CONTINUOUS
  0
LAYER
  2
DEFPOINTS
 70
     0
 62
     7
  6
CONTINUOUS
  0
LAYER
  2
THICK
 70
     0
 62
     7
  6
CONTINUOUS
  0
LAYER
  2
HIDDEN
 70
     0
 62
     7
  6
CONTINUOUS
  0
LAYER
  2
SCHRAFFURGRUNDRISS
 70
     0
 62
     7
  6
CONTINUOUS
  0
LAYER
  2
BEMASSUNG_GRUNDRISS
 70
     0
 62
     7
  6
CONTINUOUS
  0
LAYER
  2
STATIK
 70
     0
 62
     7
  6
CONTINUOUS
  0
LAYER
  2
TÜREN
 70
     0
 62
     7
  6
CONTINUOUS
  0
LAYER
  2
SANITÄR
 70
     0
 62
     7
  6
CONTINUOUS
  0
LAYER
  2
BEMASSUNG_GIPSKARTON
 70
     0
 62
     7
  6
CONTINUOUS
  0
LAYER
  2
EINRICHTUNGEN
 70
     0
 62
     7
  6
CONTINUOUS
  0
LAYER
  2
BECKEN
 70
     0
 62
     7
  6
CONTINUOUS
  0
LAYER
  2
BELEUCHTUNG
 70
     0
 62
     7
  6
CONTINUOUS
  0
LAYER
  2
BESCHRIFTUNGEN
 70
     0
 62
     7
  6
CONTINUOUS
  0
LAYER
  2
ELEKTRO_1__DOSEN_SCHALTER
 70
     0
 62
     7
  6
CONTINUOUS
  0
LAYER
  2
DEFAULT_1
 70
     0
 62
     7
  6
CONTINUOUS
  0
LAYER
  2
AM_0
 70
     0
 62
     7
  6
CONTINUOUS
  0
LAYER
  2
FRAME0_7
 70
     0
 62
     7
  6
CONTINUOUS
  0
LAYER
  2
AM_BOR
 70
     0
 62
     7
  6
CONTINUOUS
  0
LAYER
  2
RAHM2
 70
     0
 62
     7
  6
CONTINUOUS
  0
LAYER
  2
RAHM3
 70
     0
 62
     7
  6
CONTINUOUS
  0
LAYER
  2
FRAME0_5
 70
     0
 62
     7
  6
CONTINUOUS
  0
LAYER
  2
8
 70
     0
 62
     7
  6
CONTINUOUS
  0
LAYER
  2
AM_5
 70
     0
 62
     7
  6
CONTINUOUS
  0
LAYER
  2
AM_7
 70
     0
 62
     7
  6
CONTINUOUS
  0
LAYER
  2
HILFSLINIEN
 70
     0
 62
     7
  6
CONTINUOUS
  0
LAYER
  2
DRAWING_TEMPLATE
 70
     0
 62
     7
  6
CONTINUOUS
  0
LAYER
  2
TECHNOBOX_EXTERNALREFSYMBO
 70
     0
 62
     7
  6
CONTINUOUS
  0
LAYER
  2
TECHNOBOX_POLYCLIPSYMBOL_L
 70
     0
 62
     7
  6
CONTINUOUS
  0
LAYER
  2
100
 70
     0
 62
     7
  6
CONTINUOUS
  0
LAYER
  2
101
 70
     0
 62
     7
  6
CONTINUOUS
  0
LAYER
  2
KONTUR
 70
     0
 62
     7
  6
CONTINUOUS
  0
LAYER
  2
MITTELLINIE
 70
     0
 62
     7
  6
CONTINUOUS
  0
LAYER
  2
GESTRICHELT
 70
     0
 62
     7
  6
CONTINUOUS
  0
LAYER
  2
HILFSLINIE
 70
     0
 62
     7
  6
CONTINUOUS
  0
LAYER
  2
TEXT-25
 70
     0
 62
     7
  6
CONTINUOUS
  0
LAYER
  2
TEXT35
 70
     0
 62
     7
  6
CONTINUOUS
  0
LAYER
  2
TEXT-50
 70
     0
 62
     7
  6
CONTINUOUS
  0
LAYER
  2
TEXT-70
 70
     0
 62
     7
  6
CONTINUOUS
  0
LAYER
  2
ANSICHTSFENSTER
 70
     0
 62
     7
  6
CONTINUOUS
  0
LAYER
  2
KERA0
 70
     0
 62
     7
  6
CONTINUOUS
  0
LAYER
  2
KERA1
 70
     0
 62
     7
  6
CONTINUOUS
  0
LAYER
  2
KERA2
 70
     0
 62
     7
  6
CONTINUOUS
  0
LAYER
  2
KERA3
 70
     0
 62
     7
  6
CONTINUOUS
  0
LAYER
  2
KERA4
 70
     0
 62
     7
  6
CONTINUOUS
  0
LAYER
  2
KERA5
 70
     0
 62
     7
  6
CONTINUOUS
  0
LAYER
  2
KERA6
 70
     0
 62
     7
  6
CONTINUOUS
  0
LAYER
  2
KERA7
 70
     0
 62
     7
  6
CONTINUOUS
  0
LAYER
  2
20
 70
     0
 62
     7
  6
CONTINUOUS
  0
LAYER
  2
50
 70
     0
 62
     7
  6
CONTINUOUS
  0
LAYER
  2
BECKEN_FUTURA_EBENE_1
 70
     0
 62
     7
  6
CONTINUOUS
  0
LAYER
  2
EBENE_1
 70
     0
 62
     7
  6
CONTINUOUS
  0
LAYER
  2
EBENE_2
 70
     0
 62
     7
  6
CONTINUOUS
  0
LAYER
  2
EBENE_5
 70
     0
 62
     7
  6
CONTINUOUS
  0
LAYER
  2
3
 70
     0
 62
     7
  6
CONTINUOUS
  0
LAYER
  2
GEB-KONTUR-A
 70
     0
 62
     7
  6
CONTINUOUS
  0
LAYER
  2
GEB-SYMETRIE
 70
     0
 62
     7
  6
CONTINUOUS
  0
LAYER
  2
GEB-ART-NR
 70
     0
 62
     7
  6
CONTINUOUS
  0
LAYER
  2
PROJECTION
 70
     0
 62
     7
  6
CONTINUOUS
  0
ENDTAB
  0
TABLE
  2
STYLE
 70
     3
  0
STYLE
  2
STANDARD
 70
     0
 40
0.0
 41
1.0
 50
0.0
 71
     0
 42
0.0
  3
txt
  4

  0
STYLE
  2
ANNOTATIVE
 70
     0
 40
0.0
 41
1.0
 50
0.0
 71
     0
 42
0.2
  3
txt
  4

  0
STYLE
  2
SIMPLEX
 70
     0
 40
0.0
 41
1.0
 50
0.0
 71
     0
 42
0.0
  3
SIMPLEX
  4

  0
ENDTAB
  0
TABLE
  2
VIEW
 70
     0
  0
ENDTAB
  0
TABLE
  2
UCS
 70
     0
  0
ENDTAB
  0
TABLE
  2
APPID
 70
     3
  0
APPID
  2
ACAD
 70
     0
  0
APPID
  2
ACADANNOTATIVE
 70
     0
  0
APPID
  2
ACAD_MLEADERVER
 70
     0
  0
ENDTAB
  0
TABLE
  2
DIMSTYLE
 70
     2
  0
DIMSTYLE
  2
STANDARD
 70
     0
  3

  4

  5

  6

  7

 40
1.0
 41
0.18
 42
0.0625
 43
0.38
 44
0.18
 45
0.0
 46
0.0
 47
0.0
 48
0.0
140
0.18
141
0.09
142
0.0
143
25.399999999999999
144
1.0
145
0.0
146
1.0
147
0.09
 71
     0
 72
     0
 73
     1
 74
     1
 75
     0
 76
     0
 77
     0
 78
     0
170
     0
171
     2
172
     0
173
     0
174
     0
175
     0
176
     0
177
     0
178
     0
  0
DIMSTYLE
  2
ANNOTATIVE
 70
     0
  3

  4

  5

  6

  7

 40
1.0
 41
0.18
 42
0.0625
 43
0.38
 44
0.18
 45
0.0
 46
0.0
 47
0.0
 48
0.0
140
0.18
141
0.09
142
0.0
143
25.399999999999999
144
1.0
145
0.0
146
1.0
147
0.09
 71
     0
 72
     0
 73
     1
 74
     1
 75
     0
 76
     0
 77
     0
 78
     0
170
     0
171
     2
172
     0
173
     0
174
     0
175
     0
176
     0
177
     0
178
     0
  0
ENDTAB
  0
ENDSEC
  0
SECTION
  2
BLOCKS
  0
BLOCK
  8
0
  2
$MODEL_SPACE
 70
     0
 10
0.0
 20
0.0
 30
0.0
  3
$MODEL_SPACE
  1

  0
ENDBLK
  5
76
  8
0
  0
BLOCK
 67
     1
  8
0
  2
$PAPER_SPACE
 70
     0
 10
0.0
 20
0.0
 30
0.0
  3
$PAPER_SPACE
  1

  0
ENDBLK
  5
72
 67
     1
  8
0
  0
BLOCK
  8
0
  2
VT35808-G1
 70
     0
 10
0.0
 20
0.0
 30
0.0
  3
VT35808-G1
  1

  0
LINE
  5
187
  8
LAYER01
  6
CONTINUOUS
 62
     7
 10
1107.7833390000001
 20
-64.743504999999985
 30
0.0
 11
1120.441417
 21
-52.085427000000003
 31
0.0
  0
LINE
  5
188
  8
LAYER01
  6
CONTINUOUS
 62
     7
 10
1130.23398
 20
-64.743504999999985
 30
0.0
 11
1143.2483520000001
 21
-51.729133000000012
 31
0.0
  0
LINE
  5
189
  8
LAYER01
  6
CONTINUOUS
 62
     7
 10
1152.796292
 20
-64.631833
 30
0.0
 11
1166.0553440000001
 21
-51.372780999999989
 31
0.0
  0
LINE
  5
18A
  8
LAYER01
  6
CONTINUOUS
 62
     7
 10
1175.6600169999999
 20
-64.218748000000005
 30
0.0
 11
1188.862392
 21
-51.016373000000002
 31
0.0
  0
LINE
  5
18B
  8
LAYER01
  6
CONTINUOUS
 62
     7
 10
1198.5237420000001
 20
-63.805664
 30
0.0
 11
1211.6694970000001
 21
-50.659908999999999
 31
0.0
  0
LINE
  5
18C
  8
LAYER01
  6
CONTINUOUS
 62
     7
 10
1221.387467
 20
-63.392578999999998
 30
0.0
 11
1234.4766589999999
 21
-50.303387000000001
 31
0.0
  0
LINE
  5
18D
  8
LAYER01
  6
CONTINUOUS
 62
     7
 10
1244.2511919999999
 20
-62.979494000000003
 30
0.0
 11
1257.283876
 21
-49.946809999999992
 31
0.0
  0
LINE
  5
18E
  8
LAYER01
  6
CONTINUOUS
 62
     7
 10
1267.1149170000001
 20
-62.566409999999998
 30
0.0
 11
1280.09115
 21
-49.590176999999997
 31
0.0
  0
LINE
  5
18F
  8
LAYER01
  6
CONTINUOUS
 62
     7
 10
1289.978642
 20
-62.153325000000002
 30
0.0
 11
1302.8984800000001
 21
-49.233485999999999
 31
0.0
  0
LINE
  5
190
  8
LAYER01
  6
CONTINUOUS
 62
     7
 10
1312.842367
 20
-61.74024
 30
0.0
 11
1325.7058669999999
 21
-48.876739999999998
 31
0.0
  0
LINE
  5
191
  8
LAYER01
  6
CONTINUOUS
 62
     7
 10
1335.7060919999999
 20
-61.327154999999998
 30
0.0
 11
1348.5133089999999
 21
-48.519938000000003
 31
0.0
  0
LINE
  5
192
  8
LAYER01
  6
CONTINUOUS
 62
     7
 10
1358.5698170000001
 20
-60.914070999999993
 30
0.0
 11
1371.3208079999999
 21
-48.163080000000001
 31
0.0
  0
LINE
  5
193
  8
LAYER01
  6
CONTINUOUS
 62
     7
 10
1381.433542
 20
-60.500985999999997
 30
0.0
 11
1394.128363
 21
-47.806164999999993
 31
0.0
  0
LINE
  5
194
  8
LAYER01
  6
CONTINUOUS
 62
     7
 10
1404.2972669999999
 20
-60.087901000000002
 30
0.0
 11
1416.935974
 21
-47.449195000000003
 31
0.0
  0
LINE
  5
195
  8
LAYER01
  6
CONTINUOUS
 62
     7
 10
1427.1609920000001
 20
-59.674816
 30
0.0
 11
1439.7436399999999
 21
-47.092168000000001
 31
0.0
  0
LINE
  5
196
  8
LAYER01
  6
CONTINUOUS
 62
     7
 10
1450.024717
 20
-59.261732000000002
 30
0.0
 11
1462.5513639999999
 21
-46.735084999999991
 31
0.0
  0
LINE
  5
197
  8
LAYER01
  6
CONTINUOUS
 62
     7
 10
1472.8884419999999
 20
-58.848647
 30
0.0
 11
1485.359142
 21
-46.377946999999992
 31
0.0
  0
LINE
  5
198
  8
LAYER01
  6
CONTINUOUS
 62
     7
 10
1581.1257700000001
 20
49.388680000000001
 30
0.0
 11
1586.7222159999999
 21
54.985126999999999
 31
0.0
  0
LINE
  5
199
  8
LAYER01
  6
CONTINUOUS
 62
     7
 10
1495.7521670000001
 20
-58.435561999999997
 30
0.0
 11
1508.166976
 21
-46.02075399999999
 31
0.0
  0
LINE
  5
19A
  8
LAYER01
  6
CONTINUOUS
 62
     7
 10
1578.9732739999999
 20
24.785544000000002
 30
0.0
 11
1592.174029
 21
37.986299000000002
 31
0.0
  0
LINE
  5
19B
  8
LAYER01
  6
CONTINUOUS
 62
     7
 10
1597.170789
 20
42.983058999999997
 30
0.0
 11
1606.615395
 21
52.427665999999988
 31
0.0
  0
LINE
  5
19C
  8
LAYER01
  6
CONTINUOUS
 62
     7
 10
1518.615892
 20
-58.022477000000002
 30
0.0
 11
1530.9748669999999
 21
-45.663502999999999
 31
0.0
  0
LINE
  5
19D
  8
LAYER01
  6
CONTINUOUS
 62
     7
 10
1576.8207789999999
 20
0.182409
 30
0.0
 11
1590.0215330000001
 21
13.383163
 31
0.0
  0
LINE
  5
19E
  8
LAYER01
  6
CONTINUOUS
 62
     7
 10
1541.479617
 20
-57.609392999999997
 30
0.0
 11
1553.782813
 21
-45.30619699999999
 31
0.0
  0
LINE
  5
19F
  8
LAYER01
  6
CONTINUOUS
 62
     7
 10
1574.668283
 20
-24.420726999999999
 30
0.0
 11
1587.869038
 21
-11.219973
 31
0.0
  0
LINE
  5
1A0
  8
LAYER01
  6
CONTINUOUS
 62
     7
 10
1564.343343
 20
-57.196308000000002
 30
0.0
 11
1585.7165419999999
 21
-35.823108000000012
 31
0.0
  0
ENDBLK
  5
1A1
  8
0
  0
BLOCK
  8
0
  2
*D1
 70
     1
 10
0.0
 20
0.0
 30
0.0
  3
*D1
  1

  0
LINE
  5
1A4
  8
LAYER01
 62
     7
 10
1581.615395
 20
156.17030399999999
 30
0.0
 11
581.61539500000003
 21
156.17030399999999
 31
0.0
  0
LINE
  5
1A5
  8
LAYER01
 62
     7
 10
1581.615395
 20
94.851590999999999
 30
0.0
 11
1581.615395
 21
186.17030399999999
 31
0.0
  0
LINE
  5
1A6
  8
LAYER01
 62
     7
 10
581.61539500000003
 20
94.851590999999999
 30
0.0
 11
581.61539500000003
 21
186.17030399999999
 31
0.0
  0
SOLID
  5
1A7
  8
LAYER01
 62
     7
 10
1533.615395
 20
164.169984
 30
0.0
 11
1581.615395
 21
156.17030399999999
 31
0.0
 12
1533.615395
 22
148.170624
 32
0.0
 13
1533.615395
 23
148.170624
 33
0.0
  0
SOLID
  5
1A8
  8
LAYER01
 62
     7
 10
629.61539500000003
 20
164.169984
 30
0.0
 11
581.61539500000003
 21
156.17030399999999
 31
0.0
 12
629.61539500000003
 22
148.170624
 32
0.0
 13
629.61539500000003
 23
148.170624
 33
0.0
  0
TEXT
  5
1A9
  8
LAYER01
  6
CONTINUOUS
 62
     7
 10
1020.070015
 20
186.17030399999999
 30
0.0
 40
60.0
  1
1000
  0
POINT
  5
1AA
  8
LAYER01
 62
     7
 10
1581.615395
 20
70.851590999999999
 30
0.0
  0
POINT
  5
1AB
  8
LAYER01
 62
     7
 10
581.61539500000003
 20
70.851590999999999
 30
0.0
  0
POINT
  5
1AC
  8
LAYER01
 62
     7
 10
581.61539500000003
 20
156.17030399999999
 30
0.0
  0
ENDBLK
  5
1AD
  8
0
  0
BLOCK
  8
0
  2
*D2
 70
     1
 10
0.0
 20
0.0
 30
0.0
  3
*D2
  1

  0
LINE
  5
1B0
  8
LAYER01
 62
     7
 10
1581.615395
 20
885.41149399999995
 30
0.0
 11
581.61539500000003
 21
885.41149399999995
 31
0.0
  0
LINE
  5
1B1
  8
LAYER01
 62
     7
 10
1581.615395
 20
787.04210499999999
 30
0.0
 11
1581.615395
 21
915.41149399999995
 31
0.0
  0
LINE
  5
1B2
  8
LAYER01
 62
     7
 10
581.61539500000003
 20
787.04210499999999
 30
0.0
 11
581.61539500000003
 21
915.41149399999995
 31
0.0
  0
SOLID
  5
1B3
  8
LAYER01
 62
     7
 10
1533.615395
 20
893.41117399999996
 30
0.0
 11
1581.615395
 21
885.41149399999995
 31
0.0
 12
1533.615395
 22
877.41181400000005
 32
0.0
 13
1533.615395
 23
877.41181400000005
 33
0.0
  0
SOLID
  5
1B4
  8
LAYER01
 62
     7
 10
629.61539500000003
 20
893.41117399999996
 30
0.0
 11
581.61539500000003
 21
885.41149399999995
 31
0.0
 12
629.61539500000003
 22
877.41181400000005
 32
0.0
 13
629.61539500000003
 23
877.41181400000005
 33
0.0
  0
TEXT
  5
1B5
  8
LAYER01
  6
CONTINUOUS
 62
     7
 10
1020.070015
 20
915.41149399999995
 30
0.0
 40
60.0
  1
1000
  0
POINT
  5
1B6
  8
LAYER01
 62
     7
 10
1581.615395
 20
763.04210499999988
 30
0.0
  0
POINT
  5
1B7
  8
LAYER01
 62
     7
 10
581.61539500000003
 20
763.04210499999988
 30
0.0
  0
POINT
  5
1B8
  8
LAYER01
 62
     7
 10
581.61539500000003
 20
885.41149399999995
 30
0.0
  0
ENDBLK
  5
1B9
  8
0
  0
BLOCK
  8
0
  2
*D3
 70
     1
 10
0.0
 20
0.0
 30
0.0
  3
*D3
  1

  0
LINE
  5
1BC
  8
LAYER01
 62
     7
 10
556.61541899999997
 20
1009.217898
 30
0.0
 11
1606.6153710000001
 21
1009.217898
 31
0.0
  0
LINE
  5
1BD
  8
LAYER01
 62
     7
 10
556.61541899999997
 20
787.04210499999999
 30
0.0
 11
556.61541899999997
 21
1039.2178980000001
 31
0.0
  0
LINE
  5
1BE
  8
LAYER01
 62
     7
 10
1606.6153710000001
 20
787.04210499999999
 30
0.0
 11
1606.6153710000001
 21
1039.2178980000001
 31
0.0
  0
SOLID
  5
1BF
  8
LAYER01
 62
     7
 10
604.61541900000009
 20
1001.218218
 30
0.0
 11
556.61541899999997
 21
1009.217898
 31
0.0
 12
604.61541900000009
 22
1017.217578
 32
0.0
 13
604.61541900000009
 23
1017.217578
 33
0.0
  0
SOLID
  5
1C0
  8
LAYER01
 62
     7
 10
1558.6153710000001
 20
1001.218218
 30
0.0
 11
1606.6153710000001
 21
1009.217898
 31
0.0
 12
1558.6153710000001
 22
1017.217578
 32
0.0
 13
1558.6153710000001
 23
1017.217578
 33
0.0
  0
TEXT
  5
1C1
  8
LAYER01
  6
CONTINUOUS
 62
     7
 10
1020.070015
 20
1039.2178980000001
 30
0.0
 40
60.0
  1
1050
  0
POINT
  5
1C2
  8
LAYER01
 62
     7
 10
556.61541899999997
 20
763.04210499999988
 30
0.0
  0
POINT
  5
1C3
  8
LAYER01
 62
     7
 10
1606.6153710000001
 20
763.04210499999988
 30
0.0
  0
POINT
  5
1C4
  8
LAYER01
 62
     7
 10
1606.6153710000001
 20
1009.217898
 30
0.0
  0
ENDBLK
  5
1C5
  8
0
  0
BLOCK
  8
0
  2
*D4
 70
     1
 10
0.0
 20
0.0
 30
0.0
  3
*D4
  1

  0
LINE
  5
1C8
  8
LAYER01
 62
     7
 10
417.46542599999992
 20
376.39686899999998
 30
0.0
 11
417.46542599999992
 21
721.39686799999993
 31
0.0
  0
LINE
  5
1C9
  8
LAYER01
 62
     7
 10
521.631213
 20
376.39686899999998
 30
0.0
 11
387.46542599999998
 21
376.39686899999998
 31
0.0
  0
LINE
  5
1CA
  8
LAYER01
 62
     7
 10
521.631213
 20
721.39686799999993
 30
0.0
 11
387.46542599999998
 21
721.39686799999993
 31
0.0
  0
SOLID
  5
1CB
  8
LAYER01
 62
     7
 10
425.46510599999988
 20
424.39686899999998
 30
0.0
 11
417.46542599999992
 21
376.39686899999998
 31
0.0
 12
409.46574600000002
 22
424.39686899999998
 32
0.0
 13
409.46574600000002
 23
424.39686899999998
 33
0.0
  0
SOLID
  5
1CC
  8
LAYER01
 62
     7
 10
425.46510599999988
 20
673.39686799999993
 30
0.0
 11
417.46542599999992
 21
721.39686799999993
 31
0.0
 12
409.46574600000002
 22
673.39686799999993
 32
0.0
 13
409.46574600000002
 23
673.39686799999993
 33
0.0
  0
TEXT
  5
1CD
  8
LAYER01
  6
CONTINUOUS
 62
     7
 10
387.46542599999998
 20
501.17019599999992
 30
0.0
 40
60.0
  1
345
 50
90.0
  0
POINT
  5
1CE
  8
LAYER01
 62
     7
 10
545.63121299999989
 20
376.39686899999998
 30
0.0
  0
POINT
  5
1CF
  8
LAYER01
 62
     7
 10
545.63121299999989
 20
721.39686799999993
 30
0.0
  0
POINT
  5
1D0
  8
LAYER01
 62
     7
 10
417.46542599999992
 20
721.39686799999993
 30
0.0
  0
ENDBLK
  5
1D1
  8
0
  0
BLOCK
  8
0
  2
*D5
 70
     1
 10
0.0
 20
0.0
 30
0.0
  3
*D5
  1

  0
LINE
  5
1D4
  8
LAYER01
 62
     7
 10
283.98706800000002
 20
746.39687400000003
 30
0.0
 11
283.98706800000002
 21
351.396863
 31
0.0
  0
LINE
  5
1D5
  8
LAYER01
 62
     7
 10
521.631213
 20
746.39687400000003
 30
0.0
 11
253.98706799999999
 21
746.39687400000003
 31
0.0
  0
LINE
  5
1D6
  8
LAYER01
 62
     7
 10
521.631213
 20
351.396863
 30
0.0
 11
253.98706799999999
 21
351.396863
 31
0.0
  0
SOLID
  5
1D7
  8
LAYER01
 62
     7
 10
275.98738800000001
 20
698.39687400000003
 30
0.0
 11
283.98706800000002
 21
746.39687400000003
 31
0.0
 12
291.98674799999998
 22
698.39687400000003
 32
0.0
 13
291.98674799999998
 23
698.39687400000003
 33
0.0
  0
SOLID
  5
1D8
  8
LAYER01
 62
     7
 10
275.98738800000001
 20
399.396863
 30
0.0
 11
283.98706800000002
 21
351.396863
 31
0.0
 12
291.98674799999998
 22
399.396863
 32
0.0
 13
291.98674799999998
 23
399.396863
 33
0.0
  0
TEXT
  5
1D9
  8
LAYER01
  6
CONTINUOUS
 62
     7
 10
253.98706799999999
 20
501.17019599999992
 30
0.0
 40
60.0
  1
395
 50
90.0
  0
POINT
  5
1DA
  8
LAYER01
 62
     7
 10
545.63121299999989
 20
746.39687400000003
 30
0.0
  0
POINT
  5
1DB
  8
LAYER01
 62
     7
 10
545.63121299999989
 20
351.396863
 30
0.0
  0
POINT
  5
1DC
  8
LAYER01
 62
     7
 10
283.98706800000002
 20
351.396863
 30
0.0
  0
ENDBLK
  5
1DD
  8
0
  0
BLOCK
  8
0
  2
VT35808-G7
 70
     0
 10
0.0
 20
0.0
 30
0.0
  3
VT35808-G7
  1

  0
LINE
  5
1E0
  8
LAYER01
  6
CONTINUOUS
 62
     7
 10
564.44340299999999
 20
42.985126999999991
 30
0.0
 11
576.44340299999999
 21
54.985126999999999
 31
0.0
  0
LINE
  5
1E1
  8
LAYER01
  6
CONTINUOUS
 62
     7
 10
571.92871700000001
 20
28.019801000000001
 30
0.0
 11
583.00546599999996
 21
39.096550000000001
 31
0.0
  0
LINE
  5
1E2
  8
LAYER01
  6
CONTINUOUS
 62
     7
 10
573.73487599999987
 20
7.3753190000000002
 30
0.0
 11
584.81162400000005
 21
18.452067
 31
0.0
  0
LINE
  5
1E3
  8
LAYER01
  6
CONTINUOUS
 62
     7
 10
575.54103399999997
 20
-13.269163000000001
 30
0.0
 11
586.61778200000003
 21
-2.192415
 31
0.0
  0
LINE
  5
1E4
  8
LAYER01
  6
CONTINUOUS
 62
     7
 10
577.34719199999995
 20
-33.913645000000002
 30
0.0
 11
588.42394000000002
 21
-22.836897
 31
0.0
  0
LINE
  5
1E5
  8
LAYER01
  6
CONTINUOUS
 62
     7
 10
579.50332400000002
 20
-54.20815300000001
 30
0.0
 11
590.83254099999988
 21
-42.878937000000001
 31
0.0
  0
LINE
  5
1E6
  8
LAYER01
  6
CONTINUOUS
 62
     7
 10
598.96441899999991
 20
-57.197699
 30
0.0
 11
610.834202
 21
-45.327915999999988
 31
0.0
  0
LINE
  5
1E7
  8
LAYER01
  6
CONTINUOUS
 62
     7
 10
621.01663599999995
 20
-57.596121999999987
 30
0.0
 11
632.93856200000005
 21
-45.674196000000002
 31
0.0
  0
LINE
  5
1E8
  8
LAYER01
  6
CONTINUOUS
 62
     7
 10
643.06885299999999
 20
-57.994544999999988
 30
0.0
 11
655.04297099999985
 21
-46.020427000000012
 31
0.0
  0
LINE
  5
1E9
  8
LAYER01
  6
CONTINUOUS
 62
     7
 10
665.12107100000003
 20
-58.392968000000003
 30
0.0
 11
677.14743199999998
 21
-46.36660599999999
 31
0.0
  0
LINE
  5
1EA
  8
LAYER01
  6
CONTINUOUS
 62
     7
 10
687.17328799999996
 20
-58.791390999999997
 30
0.0
 11
699.25194400000009
 21
-46.712734999999988
 31
0.0
  0
LINE
  5
1EB
  8
LAYER01
  6
CONTINUOUS
 62
     7
 10
709.225505
 20
-59.189813999999991
 30
0.0
 11
721.35650599999985
 21
-47.058813000000001
 31
0.0
  0
LINE
  5
1EC
  8
LAYER01
  6
CONTINUOUS
 62
     7
 10
731.27772300000004
 20
-59.588236999999992
 30
0.0
 11
743.46112000000005
 21
-47.404839000000003
 31
0.0
  0
LINE
  5
1ED
  8
LAYER01
  6
CONTINUOUS
 62
     7
 10
753.32993999999997
 20
-59.986660000000001
 30
0.0
 11
765.56578399999989
 21
-47.750816
 31
0.0
  0
LINE
  5
1EE
  8
LAYER01
  6
CONTINUOUS
 62
     7
 10
775.38215700000001
 20
-60.385083000000002
 30
0.0
 11
787.67049999999995
 21
-48.096740000000011
 31
0.0
  0
LINE
  5
1EF
  8
LAYER01
  6
CONTINUOUS
 62
     7
 10
797.43437400000005
 20
-60.783506000000003
 30
0.0
 11
809.77526599999987
 21
-48.442613999999999
 31
0.0
  0
LINE
  5
1F0
  8
LAYER01
  6
CONTINUOUS
 62
     7
 10
819.48659199999986
 20
-61.181928999999997
 30
0.0
 11
831.88008300000001
 21
-48.788437000000002
 31
0.0
  0
LINE
  5
1F1
  8
LAYER01
  6
CONTINUOUS
 62
     7
 10
841.53880900000001
 20
-61.580351999999998
 30
0.0
 11
853.9849529999999
 21
-49.134208000000001
 31
0.0
  0
LINE
  5
1F2
  8
LAYER01
  6
CONTINUOUS
 62
     7
 10
863.59102599999994
 20
-61.978774999999999
 30
0.0
 11
876.08987200000001
 21
-49.479928999999998
 31
0.0
  0
LINE
  5
1F3
  8
LAYER01
  6
CONTINUOUS
 62
     7
 10
885.64324399999998
 20
-62.377198
 30
0.0
 11
898.19484299999999
 21
-49.825597999999999
 31
0.0
  0
LINE
  5
1F4
  8
LAYER01
  6
CONTINUOUS
 62
     7
 10
907.69546099999991
 20
-62.775620999999987
 30
0.0
 11
920.29986500000007
 21
-50.171215999999987
 31
0.0
  0
LINE
  5
1F5
  8
LAYER01
  6
CONTINUOUS
 62
     7
 10
929.74767799999995
 20
-63.174044000000002
 30
0.0
 11
942.40493800000013
 21
-50.516784000000001
 31
0.0
  0
LINE
  5
1F6
  8
LAYER01
  6
CONTINUOUS
 62
     7
 10
951.79989499999988
 20
-63.57246700000001
 30
0.0
 11
964.51006400000006
 21
-50.862297999999988
 31
0.0
  0
LINE
  5
1F7
  8
LAYER01
  6
CONTINUOUS
 62
     7
 10
973.85211300000003
 20
-63.970890000000011
 30
0.0
 11
986.61523999999997
 21
-51.207763
 31
0.0
  0
LINE
  5
1F8
  8
LAYER01
  6
CONTINUOUS
 62
     7
 10
995.90433000000007
 20
-64.369313000000005
 30
0.0
 11
1008.720468
 21
-51.553175000000003
 31
0.0
  0
LINE
  5
1F9
  8
LAYER01
  6
CONTINUOUS
 62
     7
 10
1017.980778
 20
-64.743504999999985
 30
0.0
 11
1030.8257470000001
 21
-51.898536
 31
0.0
  0
LINE
  5
1FA
  8
LAYER01
  6
CONTINUOUS
 62
     7
 10
1040.431419
 20
-64.743504999999985
 30
0.0
 11
1052.9310780000001
 21
-52.243845999999998
 31
0.0
  0
ENDBLK
  5
1FB
  8
0
  0
BLOCK
  8
0
  2
*D7
 70
     1
 10
0.0
 20
0.0
 30
0.0
  3
*D7
  1

  0
LINE
  5
1FE
  8
LAYER01
 62
     7
 10
2164.7342279999998
 20
347.41529500000001
 30
0.0
 11
2068.7342279999998
 21
347.41529500000001
 31
0.0
  0
LINE
  5
1FF
  8
LAYER01
 62
     7
 10
2210.7342319999998
 20
347.41529500000001
 30
0.0
 11
2306.7342319999998
 21
347.41529500000001
 31
0.0
  0
LINE
  5
200
  8
LAYER01
 62
     7
 10
2164.7342279999998
 20
427.75612399999989
 30
0.0
 11
2164.7342279999998
 21
317.41529500000001
 31
0.0
  0
LINE
  5
201
  8
LAYER01
 62
     7
 10
2210.7342319999998
 20
427.75612399999989
 30
0.0
 11
2210.7342319999998
 21
317.41529500000001
 31
0.0
  0
SOLID
  5
202
  8
LAYER01
 62
     7
 10
2116.7342279999998
 20
339.415615
 30
0.0
 11
2164.7342279999998
 21
347.41529500000001
 31
0.0
 12
2116.7342279999998
 22
355.41497500000003
 32
0.0
 13
2116.7342279999998
 23
355.41497500000003
 33
0.0
  0
SOLID
  5
203
  8
LAYER01
 62
     7
 10
2258.7342319999998
 20
339.415615
 30
0.0
 11
2210.7342319999998
 21
347.41529500000001
 31
0.0
 12
2258.7342319999998
 22
355.41497500000003
 32
0.0
 13
2258.7342319999998
 23
355.41497500000003
 33
0.0
  0
TEXT
  5
204
  8
LAYER01
  6
CONTINUOUS
 62
     7
 10
2336.7342319999998
 20
377.41529500000001
 30
0.0
 40
60.0
  1
46
  0
POINT
  5
205
  8
LAYER01
 62
     7
 10
2164.7342279999998
 20
451.756124
 30
0.0
  0
POINT
  5
206
  8
LAYER01
 62
     7
 10
2210.7342319999998
 20
451.756124
 30
0.0
  0
POINT
  5
207
  8
LAYER01
 62
     7
 10
2210.7342319999998
 20
347.41529500000001
 30
0.0
  0
ENDBLK
  5
208
  8
0
  0
BLOCK
  8
0
  2
*D8
 70
     1
 10
0.0
 20
0.0
 30
0.0
  3
*D8
  1

  0
LINE
  5
20B
  8
LAYER01
 62
     7
 10
2031.4237740000001
 20
571.3968769999999
 30
0.0
 11
2031.4237740000001
 21
667.3968769999999
 31
0.0
  0
LINE
  5
20C
  8
LAYER01
 62
     7
 10
2031.4237740000001
 20
491.3968769999999
 30
0.0
 11
2031.4237740000001
 21
395.39687700000002
 31
0.0
  0
LINE
  5
20D
  8
LAYER01
 62
     7
 10
2105.3128569999999
 20
571.3968769999999
 30
0.0
 11
2001.4237740000001
 21
571.3968769999999
 31
0.0
  0
LINE
  5
20E
  8
LAYER01
 62
     7
 10
2105.3128569999999
 20
491.3968769999999
 30
0.0
 11
2001.4237740000001
 21
491.3968769999999
 31
0.0
  0
SOLID
  5
20F
  8
LAYER01
 62
     7
 10
2023.4240940000011
 20
619.39687699999979
 30
0.0
 11
2031.4237740000001
 21
571.3968769999999
 31
0.0
 12
2039.423454
 22
619.39687699999979
 32
0.0
 13
2039.423454
 23
619.39687699999979
 33
0.0
  0
SOLID
  5
210
  8
LAYER01
 62
     7
 10
2023.4240940000011
 20
443.3968769999999
 30
0.0
 11
2031.4237740000001
 21
491.3968769999999
 31
0.0
 12
2039.423454
 22
443.3968769999999
 32
0.0
 13
2039.423454
 23
443.3968769999999
 33
0.0
  0
TEXT
  5
211
  8
LAYER01
  6
CONTINUOUS
 62
     7
 10
2001.4237740000001
 20
697.3968769999999
 30
0.0
 40
60.0
  1
80
 50
90.0
  0
POINT
  5
212
  8
LAYER01
 62
     7
 10
2129.3128569999999
 20
571.3968769999999
 30
0.0
  0
POINT
  5
213
  8
LAYER01
 62
     7
 10
2129.3128569999999
 20
491.3968769999999
 30
0.0
  0
POINT
  5
214
  8
LAYER01
 62
     7
 10
2031.4237740000001
 20
491.3968769999999
 30
0.0
  0
ENDBLK
  5
215
  8
0
  0
BLOCK
  8
0
  2
VT35808-G10
 70
     0
 10
0.0
 20
0.0
 30
0.0
  3
VT35808-G10
  1

  0
POLYLINE
  5
218
  8
LAYER01
  6
CONTINUOUS
 62
     7
 66
     1
 10
0.0
 20
0.0
 30
0.0
 70
     1
  0
VERTEX
  5
10D5
  8
LAYER01
  6
CONTINUOUS
 62
     7
 10
2295.8037859999999
 20
-177.11403799999999
 30
0.0
  0
VERTEX
  5
10D6
  8
LAYER01
  6
CONTINUOUS
 62
     7
 10
2337.2334729999998
 20
-177.11403799999999
 30
0.0
  0
VERTEX
  5
10D7
  8
LAYER01
  6
CONTINUOUS
 62
     7
 10
2389.2614520000002
 20
-295.62221099999999
 30
0.0
  0
VERTEX
  5
10D8
  8
LAYER01
  6
CONTINUOUS
 62
     7
 10
2441.2894300000012
 20
-177.11403799999999
 30
0.0
  0
VERTEX
  5
10D9
  8
LAYER01
  6
CONTINUOUS
 62
     7
 10
2484.6460790000001
 20
-177.11403799999999
 30
0.0
  0
VERTEX
  5
10DA
  8
LAYER01
  6
CONTINUOUS
 62
     7
 10
2389.2614520000002
 20
-389.07987700000001
 30
0.0
  0
VERTEX
  5
10DB
  8
LAYER01
  6
CONTINUOUS
 62
     7
 10
2295.8037859999999
 20
-177.11403799999999
 30
0.0
  0
VERTEX
  5
10DC
  8
LAYER01
  6
CONTINUOUS
 62
     7
 10
2295.8037859999999
 20
-177.11403799999999
 30
0.0
  0
SEQEND
  5
10DD
  8
LAYER01
  6
CONTINUOUS
 62
     7
  0
POLYLINE
  5
222
  8
LAYER01
  6
CONTINUOUS
 62
     7
 66
     1
 10
0.0
 20
0.0
 30
0.0
 70
     1
  0
VERTEX
  5
10DE
  8
LAYER01
  6
CONTINUOUS
 62
     7
 10
2437.4355059999998
 20
-321.63620100000003
 30
0.0
  0
VERTEX
  5
10DF
  8
LAYER01
  6
CONTINUOUS
 62
     7
 10
2451.8877219999999
 20
-287.91436299999998
 30
0.0
  0
VERTEX
  5
10E0
  8
LAYER01
  6
CONTINUOUS
 62
     7
 10
2514.513993
 20
-287.91436299999998
 30
0.0
  0
VERTEX
  5
10E1
  8
LAYER01
  6
CONTINUOUS
 62
     7
 10
2482.7191170000001
 20
-218.543724
 30
0.0
  0
VERTEX
  5
10E2
  8
LAYER01
  6
CONTINUOUS
 62
     7
 10
2501.0252580000001
 20
-174.22359399999999
 30
0.0
  0
VERTEX
  5
10E3
  8
LAYER01
  6
CONTINUOUS
 62
     7
 10
2586.775075
 20
-355.35803900000002
 30
0.0
  0
VERTEX
  5
10E4
  8
LAYER01
  6
CONTINUOUS
 62
     7
 10
2586.775075
 20
-177.11403799999999
 30
0.0
  0
VERTEX
  5
10E5
  8
LAYER01
  6
CONTINUOUS
 62
     7
 10
2701.4293240000002
 20
-177.11403799999999
 30
0.0
  0
VERTEX
  5
10E6
  8
LAYER01
  6
CONTINUOUS
 62
     7
 10
2701.4293240000002
 20
-177.11403799999999
 30
0.0
  0
VERTEX
  5
10E7
  8
LAYER01
  6
CONTINUOUS
 62
     7
 10
2712.0276159999999
 20
-179.041
 30
0.0
  0
VERTEX
  5
10E8
  8
LAYER01
  6
CONTINUOUS
 62
     7
 10
2721.6624270000002
 20
-182.894924
 30
0.0
  0
VERTEX
  5
10E9
  8
LAYER01
  6
CONTINUOUS
 62
     7
 10
2730.3337569999999
 20
-189.63929200000001
 30
0.0
  0
VERTEX
  5
10EA
  8
LAYER01
  6
CONTINUOUS
 62
     7
 10
2738.0416059999998
 20
-196.38365899999999
 30
0.0
  0
VERTEX
  5
10EB
  8
LAYER01
  6
CONTINUOUS
 62
     7
 10
2744.785973
 20
-205.05498900000001
 30
0.0
  0
VERTEX
  5
10EC
  8
LAYER01
  6
CONTINUOUS
 62
     7
 10
2749.6033790000001
 20
-214.68979999999999
 30
0.0
  0
VERTEX
  5
10ED
  8
LAYER01
  6
CONTINUOUS
 62
     7
 10
2753.4573030000001
 20
-226.25157300000001
 30
0.0
  0
VERTEX
  5
10EE
  8
LAYER01
  6
CONTINUOUS
 62
     7
 10
2754.4207839999999
 20
-236.84986499999999
 30
0.0
  0
VERTEX
  5
10EF
  8
LAYER01
  6
CONTINUOUS
 62
     7
 10
2754.4207839999999
 20
-236.84986499999999
 30
0.0
  0
VERTEX
  5
10F0
  8
LAYER01
  6
CONTINUOUS
 62
     7
 10
2754.4207839999999
 20
-248.41163800000001
 30
0.0
  0
VERTEX
  5
10F1
  8
LAYER01
  6
CONTINUOUS
 62
     7
 10
2752.4938219999999
 20
-258.046449
 30
0.0
  0
VERTEX
  5
10F2
  8
LAYER01
  6
CONTINUOUS
 62
     7
 10
2748.639897
 20
-267.68126000000001
 30
0.0
  0
VERTEX
  5
10F3
  8
LAYER01
  6
CONTINUOUS
 62
     7
 10
2743.8224919999998
 20
-276.35259000000002
 30
0.0
  0
VERTEX
  5
10F4
  8
LAYER01
  6
CONTINUOUS
 62
     7
 10
2737.0781240000001
 20
-284.06043799999998
 30
0.0
  0
VERTEX
  5
10F5
  8
LAYER01
  6
CONTINUOUS
 62
     7
 10
2729.3702760000001
 20
-290.80480599999999
 30
0.0
  0
VERTEX
  5
10F6
  8
LAYER01
  6
CONTINUOUS
 62
     7
 10
2720.698946
 20
-295.62221099999999
 30
0.0
  0
VERTEX
  5
10F7
  8
LAYER01
  6
CONTINUOUS
 62
     7
 10
2710.1006539999998
 20
-299.476136
 30
0.0
  0
VERTEX
  5
10F8
  8
LAYER01
  6
CONTINUOUS
 62
     7
 10
2771.7634440000002
 20
-381.372028
 30
0.0
  0
VERTEX
  5
10F9
  8
LAYER01
  6
CONTINUOUS
 62
     7
 10
2771.7634440000002
 20
-177.11403799999999
 30
0.0
  0
VERTEX
  5
10FA
  8
LAYER01
  6
CONTINUOUS
 62
     7
 10
2812.2296489999999
 20
-177.11403799999999
 30
0.0
  0
VERTEX
  5
10FB
  8
LAYER01
  6
CONTINUOUS
 62
     7
 10
2812.2296489999999
 20
-383.29899
 30
0.0
  0
VERTEX
  5
10FC
  8
LAYER01
  6
CONTINUOUS
 62
     7
 10
2725.5163510000002
 20
-383.29899
 30
0.0
  0
VERTEX
  5
10FD
  8
LAYER01
  6
CONTINUOUS
 62
     7
 10
2641.6934970000002
 20
-276.35259000000002
 30
0.0
  0
VERTEX
  5
10FE
  8
LAYER01
  6
CONTINUOUS
 62
     7
 10
2684.0866649999998
 20
-276.35259000000002
 30
0.0
  0
VERTEX
  5
10FF
  8
LAYER01
  6
CONTINUOUS
 62
     7
 10
2684.0866649999998
 20
-276.35259000000002
 30
0.0
  0
VERTEX
  5
1100
  8
LAYER01
  6
CONTINUOUS
 62
     7
 10
2689.8675510000012
 20
-275.38910900000002
 30
0.0
  0
VERTEX
  5
1101
  8
LAYER01
  6
CONTINUOUS
 62
     7
 10
2695.6484380000002
 20
-273.46214600000002
 30
0.0
  0
VERTEX
  5
1102
  8
LAYER01
  6
CONTINUOUS
 62
     7
 10
2700.4658429999999
 20
-270.57170300000001
 30
0.0
  0
VERTEX
  5
1103
  8
LAYER01
  6
CONTINUOUS
 62
     7
 10
2705.2832490000001
 20
-266.71777900000001
 30
0.0
  0
VERTEX
  5
1104
  8
LAYER01
  6
CONTINUOUS
 62
     7
 10
2708.1736920000012
 20
-261.900373
 30
0.0
  0
VERTEX
  5
1105
  8
LAYER01
  6
CONTINUOUS
 62
     7
 10
2711.0641350000001
 20
-256.11948699999999
 30
0.0
  0
VERTEX
  5
1106
  8
LAYER01
  6
CONTINUOUS
 62
     7
 10
2712.9910970000001
 20
-250.33860000000001
 30
0.0
  0
VERTEX
  5
1107
  8
LAYER01
  6
CONTINUOUS
 62
     7
 10
2712.9910970000001
 20
-243.594233
 30
0.0
  0
VERTEX
  5
1108
  8
LAYER01
  6
CONTINUOUS
 62
     7
 10
2712.9910970000001
 20
-243.594233
 30
0.0
  0
VERTEX
  5
1109
  8
LAYER01
  6
CONTINUOUS
 62
     7
 10
2712.9910970000001
 20
-237.813346
 30
0.0
  0
VERTEX
  5
110A
  8
LAYER01
  6
CONTINUOUS
 62
     7
 10
2711.0641350000001
 20
-232.03245999999999
 30
0.0
  0
VERTEX
  5
110B
  8
LAYER01
  6
CONTINUOUS
 62
     7
 10
2709.1371730000001
 20
-226.25157300000001
 30
0.0
  0
VERTEX
  5
110C
  8
LAYER01
  6
CONTINUOUS
 62
     7
 10
2705.2832490000001
 20
-221.434168
 30
0.0
  0
VERTEX
  5
110D
  8
LAYER01
  6
CONTINUOUS
 62
     7
 10
2701.4293240000002
 20
-217.580243
 30
0.0
  0
VERTEX
  5
110E
  8
LAYER01
  6
CONTINUOUS
 62
     7
 10
2695.6484380000002
 20
-214.68979999999999
 30
0.0
  0
VERTEX
  5
110F
  8
LAYER01
  6
CONTINUOUS
 62
     7
 10
2689.8675510000012
 20
-212.76283799999999
 30
0.0
  0
VERTEX
  5
1110
  8
LAYER01
  6
CONTINUOUS
 62
     7
 10
2684.0866649999998
 20
-211.79935699999999
 30
0.0
  0
VERTEX
  5
1111
  8
LAYER01
  6
CONTINUOUS
 62
     7
 10
2630.1317239999998
 20
-211.79935699999999
 30
0.0
  0
VERTEX
  5
1112
  8
LAYER01
  6
CONTINUOUS
 62
     7
 10
2630.1317239999998
 20
-383.29899
 30
0.0
  0
VERTEX
  5
1113
  8
LAYER01
  6
CONTINUOUS
 62
     7
 10
2560.7610850000001
 20
-383.29899
 30
0.0
  0
VERTEX
  5
1114
  8
LAYER01
  6
CONTINUOUS
 62
     7
 10
2531.8566529999998
 20
-321.63620100000003
 30
0.0
  0
VERTEX
  5
1115
  8
LAYER01
  6
CONTINUOUS
 62
     7
 10
2437.4355059999998
 20
-321.63620100000003
 30
0.0
  0
VERTEX
  5
1116
  8
LAYER01
  6
CONTINUOUS
 62
     7
 10
2437.4355059999998
 20
-321.63620100000003
 30
0.0
  0
SEQEND
  5
1117
  8
LAYER01
  6
CONTINUOUS
 62
     7
  0
POLYLINE
  5
25D
  8
LAYER01
  6
CONTINUOUS
 62
     7
 66
     1
 10
0.0
 20
0.0
 30
0.0
 70
     1
  0
VERTEX
  5
1118
  8
LAYER01
  6
CONTINUOUS
 62
     7
 10
2999.14498
 20
-190.60277300000001
 30
0.0
  0
VERTEX
  5
1119
  8
LAYER01
  6
CONTINUOUS
 62
     7
 10
2973.130991
 20
-223.36113
 30
0.0
  0
VERTEX
  5
111A
  8
LAYER01
  6
CONTINUOUS
 62
     7
 10
2973.130991
 20
-223.36113
 30
0.0
  0
VERTEX
  5
111B
  8
LAYER01
  6
CONTINUOUS
 62
     7
 10
2964.4596609999999
 20
-217.580243
 30
0.0
  0
VERTEX
  5
111C
  8
LAYER01
  6
CONTINUOUS
 62
     7
 10
2955.7883310000002
 20
-212.76283799999999
 30
0.0
  0
VERTEX
  5
111D
  8
LAYER01
  6
CONTINUOUS
 62
     7
 10
2946.1535210000002
 20
-209.87239500000001
 30
0.0
  0
VERTEX
  5
111E
  8
LAYER01
  6
CONTINUOUS
 62
     7
 10
2935.5552290000001
 20
-209.87239500000001
 30
0.0
  0
VERTEX
  5
111F
  8
LAYER01
  6
CONTINUOUS
 62
     7
 10
2935.5552290000001
 20
-209.87239500000001
 30
0.0
  0
VERTEX
  5
1120
  8
LAYER01
  6
CONTINUOUS
 62
     7
 10
2928.8108609999999
 20
-209.87239500000001
 30
0.0
  0
VERTEX
  5
1121
  8
LAYER01
  6
CONTINUOUS
 62
     7
 10
2922.0664929999998
 20
-210.83587600000001
 30
0.0
  0
VERTEX
  5
1122
  8
LAYER01
  6
CONTINUOUS
 62
     7
 10
2915.322126
 20
-212.76283799999999
 30
0.0
  0
VERTEX
  5
1123
  8
LAYER01
  6
CONTINUOUS
 62
     7
 10
2908.5777579999999
 20
-215.65328099999999
 30
0.0
  0
VERTEX
  5
1124
  8
LAYER01
  6
CONTINUOUS
 62
     7
 10
2902.7968719999999
 20
-218.543724
 30
0.0
  0
VERTEX
  5
1125
  8
LAYER01
  6
CONTINUOUS
 62
     7
 10
2897.9794660000011
 20
-222.397649
 30
0.0
  0
VERTEX
  5
1126
  8
LAYER01
  6
CONTINUOUS
 62
     7
 10
2892.1985800000002
 20
-226.25157300000001
 30
0.0
  0
VERTEX
  5
1127
  8
LAYER01
  6
CONTINUOUS
 62
     7
 10
2888.3446549999999
 20
-231.06897900000001
 30
0.0
  0
VERTEX
  5
1128
  8
LAYER01
  6
CONTINUOUS
 62
     7
 10
2883.5272500000001
 20
-236.84986499999999
 30
0.0
  0
VERTEX
  5
1129
  8
LAYER01
  6
CONTINUOUS
 62
     7
 10
2880.6368069999999
 20
-242.630752
 30
0.0
  0
VERTEX
  5
112A
  8
LAYER01
  6
CONTINUOUS
 62
     7
 10
2876.782882
 20
-248.41163800000001
 30
0.0
  0
VERTEX
  5
112B
  8
LAYER01
  6
CONTINUOUS
 62
     7
 10
2873.8924390000002
 20
-254.19252499999999
 30
0.0
  0
VERTEX
  5
112C
  8
LAYER01
  6
CONTINUOUS
 62
     7
 10
2871.9654770000002
 20
-260.936892
 30
0.0
  0
VERTEX
  5
112D
  8
LAYER01
  6
CONTINUOUS
 62
     7
 10
2871.001996
 20
-267.68126000000001
 30
0.0
  0
VERTEX
  5
112E
  8
LAYER01
  6
CONTINUOUS
 62
     7
 10
2870.0385150000002
 20
-274.42562700000002
 30
0.0
  0
VERTEX
  5
112F
  8
LAYER01
  6
CONTINUOUS
 62
     7
 10
2869.0750330000001
 20
-282.13347599999997
 30
0.0
  0
VERTEX
  5
1130
  8
LAYER01
  6
CONTINUOUS
 62
     7
 10
2869.0750330000001
 20
-282.13347599999997
 30
0.0
  0
VERTEX
  5
1131
  8
LAYER01
  6
CONTINUOUS
 62
     7
 10
2870.0385150000002
 20
-288.87784399999998
 30
0.0
  0
VERTEX
  5
1132
  8
LAYER01
  6
CONTINUOUS
 62
     7
 10
2871.001996
 20
-295.62221099999999
 30
0.0
  0
VERTEX
  5
1133
  8
LAYER01
  6
CONTINUOUS
 62
     7
 10
2871.9654770000002
 20
-302.366579
 30
0.0
  0
VERTEX
  5
1134
  8
LAYER01
  6
CONTINUOUS
 62
     7
 10
2874.85592
 20
-308.14746600000001
 30
0.0
  0
VERTEX
  5
1135
  8
LAYER01
  6
CONTINUOUS
 62
     7
 10
2876.782882
 20
-313.92835200000002
 30
0.0
  0
VERTEX
  5
1136
  8
LAYER01
  6
CONTINUOUS
 62
     7
 10
2880.6368069999999
 20
-319.70923900000003
 30
0.0
  0
VERTEX
  5
1137
  8
LAYER01
  6
CONTINUOUS
 62
     7
 10
2884.4907309999999
 20
-325.49012499999998
 30
0.0
  0
VERTEX
  5
1138
  8
LAYER01
  6
CONTINUOUS
 62
     7
 10
2888.3446549999999
 20
-330.30753099999998
 30
0.0
  0
VERTEX
  5
1139
  8
LAYER01
  6
CONTINUOUS
 62
     7
 10
2893.162061
 20
-335.12493599999999
 30
0.0
  0
VERTEX
  5
113A
  8
LAYER01
  6
CONTINUOUS
 62
     7
 10
2897.9794660000011
 20
-338.97886
 30
0.0
  0
VERTEX
  5
113B
  8
LAYER01
  6
CONTINUOUS
 62
     7
 10
2903.7603530000001
 20
-341.869304
 30
0.0
  0
VERTEX
  5
113C
  8
LAYER01
  6
CONTINUOUS
 62
     7
 10
2909.541239000001
 20
-344.759747
 30
0.0
  0
VERTEX
  5
113D
  8
LAYER01
  6
CONTINUOUS
 62
     7
 10
2916.2856070000012
 20
-347.65019000000001
 30
0.0
  0
VERTEX
  5
113E
  8
LAYER01
  6
CONTINUOUS
 62
     7
 10
2922.0664929999998
 20
-349.57715200000001
 30
0.0
  0
VERTEX
  5
113F
  8
LAYER01
  6
CONTINUOUS
 62
     7
 10
2928.8108609999999
 20
-350.54063300000001
 30
0.0
  0
VERTEX
  5
1140
  8
LAYER01
  6
CONTINUOUS
 62
     7
 10
2936.5187100000012
 20
-350.54063300000001
 30
0.0
  0
VERTEX
  5
1141
  8
LAYER01
  6
CONTINUOUS
 62
     7
 10
2936.5187100000012
 20
-350.54063300000001
 30
0.0
  0
VERTEX
  5
1142
  8
LAYER01
  6
CONTINUOUS
 62
     7
 10
2947.117002
 20
-349.57715200000001
 30
0.0
  0
VERTEX
  5
1143
  8
LAYER01
  6
CONTINUOUS
 62
     7
 10
2955.7883310000002
 20
-347.65019000000001
 30
0.0
  0
VERTEX
  5
1144
  8
LAYER01
  6
CONTINUOUS
 62
     7
 10
2964.4596609999999
 20
-342.832785
 30
0.0
  0
VERTEX
  5
1145
  8
LAYER01
  6
CONTINUOUS
 62
     7
 10
2973.130991
 20
-337.05189799999999
 30
0.0
  0
VERTEX
  5
1146
  8
LAYER01
  6
CONTINUOUS
 62
     7
 10
2998.1814989999998
 20
-370.77373599999999
 30
0.0
  0
VERTEX
  5
1147
  8
LAYER01
  6
CONTINUOUS
 62
     7
 10
2998.1814989999998
 20
-370.77373599999999
 30
0.0
  0
VERTEX
  5
1148
  8
LAYER01
  6
CONTINUOUS
 62
     7
 10
2983.7292830000001
 20
-379.445066
 30
0.0
  0
VERTEX
  5
1149
  8
LAYER01
  6
CONTINUOUS
 62
     7
 10
2976.0214340000002
 20
-382.335509
 30
0.0
  0
VERTEX
  5
114A
  8
LAYER01
  6
CONTINUOUS
 62
     7
 10
2969.277067
 20
-385.225953
 30
0.0
  0
VERTEX
  5
114B
  8
LAYER01
  6
CONTINUOUS
 62
     7
 10
2961.5692180000001
 20
-387.15291500000001
 30
0.0
  0
VERTEX
  5
114C
  8
LAYER01
  6
CONTINUOUS
 62
     7
 10
2953.8613690000002
 20
-388.11639600000001
 30
0.0
  0
VERTEX
  5
114D
  8
LAYER01
  6
CONTINUOUS
 62
     7
 10
2936.5187100000012
 20
-389.07987700000001
 30
0.0
  0
VERTEX
  5
114E
  8
LAYER01
  6
CONTINUOUS
 62
     7
 10
2936.5187100000012
 20
-389.07987700000001
 30
0.0
  0
VERTEX
  5
114F
  8
LAYER01
  6
CONTINUOUS
 62
     7
 10
2924.9569369999999
 20
-388.11639600000001
 30
0.0
  0
VERTEX
  5
1150
  8
LAYER01
  6
CONTINUOUS
 62
     7
 10
2914.3586449999998
 20
-386.18943400000001
 30
0.0
  0
VERTEX
  5
1151
  8
LAYER01
  6
CONTINUOUS
 62
     7
 10
2903.7603530000001
 20
-384.262472
 30
0.0
  0
VERTEX
  5
1152
  8
LAYER01
  6
CONTINUOUS
 62
     7
 10
2894.1255420000011
 20
-380.408547
 30
0.0
  0
VERTEX
  5
1153
  8
LAYER01
  6
CONTINUOUS
 62
     7
 10
2884.4907309999999
 20
-375.59114199999999
 30
0.0
  0
VERTEX
  5
1154
  8
LAYER01
  6
CONTINUOUS
 62
     7
 10
2875.8194010000011
 20
-370.77373599999999
 30
0.0
  0
VERTEX
  5
1155
  8
LAYER01
  6
CONTINUOUS
 62
     7
 10
2867.1480710000001
 20
-364.02936899999997
 30
0.0
  0
VERTEX
  5
1156
  8
LAYER01
  6
CONTINUOUS
 62
     7
 10
2859.4402230000001
 20
-357.28500100000002
 30
0.0
  0
VERTEX
  5
1157
  8
LAYER01
  6
CONTINUOUS
 62
     7
 10
2851.7323740000002
 20
-349.57715200000001
 30
0.0
  0
VERTEX
  5
1158
  8
LAYER01
  6
CONTINUOUS
 62
     7
 10
2845.9514870000012
 20
-340.905823
 30
0.0
  0
VERTEX
  5
1159
  8
LAYER01
  6
CONTINUOUS
 62
     7
 10
2840.1706009999998
 20
-332.23449299999999
 30
0.0
  0
VERTEX
  5
115A
  8
LAYER01
  6
CONTINUOUS
 62
     7
 10
2835.3531950000001
 20
-322.59968199999997
 30
0.0
  0
VERTEX
  5
115B
  8
LAYER01
  6
CONTINUOUS
 62
     7
 10
2832.4627519999999
 20
-312.96487100000002
 30
0.0
  0
VERTEX
  5
115C
  8
LAYER01
  6
CONTINUOUS
 62
     7
 10
2829.5723090000001
 20
-302.366579
 30
0.0
  0
VERTEX
  5
115D
  8
LAYER01
  6
CONTINUOUS
 62
     7
 10
2827.6453470000001
 20
-291.76828699999999
 30
0.0
  0
VERTEX
  5
115E
  8
LAYER01
  6
CONTINUOUS
 62
     7
 10
2826.6818659999999
 20
-280.20651400000003
 30
0.0
  0
VERTEX
  5
115F
  8
LAYER01
  6
CONTINUOUS
 62
     7
 10
2826.6818659999999
 20
-280.20651400000003
 30
0.0
  0
VERTEX
  5
1160
  8
LAYER01
  6
CONTINUOUS
 62
     7
 10
2827.6453470000001
 20
-269.60822200000001
 30
0.0
  0
VERTEX
  5
1161
  8
LAYER01
  6
CONTINUOUS
 62
     7
 10
2829.5723090000001
 20
-258.046449
 30
0.0
  0
VERTEX
  5
1162
  8
LAYER01
  6
CONTINUOUS
 62
     7
 10
2831.4992710000001
 20
-248.41163800000001
 30
0.0
  0
VERTEX
  5
1163
  8
LAYER01
  6
CONTINUOUS
 62
     7
 10
2835.3531950000001
 20
-237.813346
 30
0.0
  0
VERTEX
  5
1164
  8
LAYER01
  6
CONTINUOUS
 62
     7
 10
2840.1706009999998
 20
-228.17853500000001
 30
0.0
  0
VERTEX
  5
1165
  8
LAYER01
  6
CONTINUOUS
 62
     7
 10
2844.988006
 20
-219.507205
 30
0.0
  0
VERTEX
  5
1166
  8
LAYER01
  6
CONTINUOUS
 62
     7
 10
2851.7323740000002
 20
-210.83587600000001
 30
0.0
  0
VERTEX
  5
1167
  8
LAYER01
  6
CONTINUOUS
 62
     7
 10
2858.4767419999998
 20
-203.128027
 30
0.0
  0
VERTEX
  5
1168
  8
LAYER01
  6
CONTINUOUS
 62
     7
 10
2866.1845899999998
 20
-196.38365899999999
 30
0.0
  0
VERTEX
  5
1169
  8
LAYER01
  6
CONTINUOUS
 62
     7
 10
2874.85592
 20
-189.63929200000001
 30
0.0
  0
VERTEX
  5
116A
  8
LAYER01
  6
CONTINUOUS
 62
     7
 10
2883.5272500000001
 20
-184.82188600000001
 30
0.0
  0
VERTEX
  5
116B
  8
LAYER01
  6
CONTINUOUS
 62
     7
 10
2893.162061
 20
-180.004481
 30
0.0
  0
VERTEX
  5
116C
  8
LAYER01
  6
CONTINUOUS
 62
     7
 10
2902.7968719999999
 20
-176.15055699999999
 30
0.0
  0
VERTEX
  5
116D
  8
LAYER01
  6
CONTINUOUS
 62
     7
 10
2913.395164
 20
-173.26011299999999
 30
0.0
  0
VERTEX
  5
116E
  8
LAYER01
  6
CONTINUOUS
 62
     7
 10
2924.9569369999999
 20
-172.29663199999999
 30
0.0
  0
VERTEX
  5
116F
  8
LAYER01
  6
CONTINUOUS
 62
     7
 10
2935.5552290000001
 20
-171.33315099999999
 30
0.0
  0
VERTEX
  5
1170
  8
LAYER01
  6
CONTINUOUS
 62
     7
 10
2935.5552290000001
 20
-171.33315099999999
 30
0.0
  0
VERTEX
  5
1171
  8
LAYER01
  6
CONTINUOUS
 62
     7
 10
2952.897888
 20
-172.29663199999999
 30
0.0
  0
VERTEX
  5
1172
  8
LAYER01
  6
CONTINUOUS
 62
     7
 10
2961.5692180000001
 20
-173.26011299999999
 30
0.0
  0
VERTEX
  5
1173
  8
LAYER01
  6
CONTINUOUS
 62
     7
 10
2969.277067
 20
-175.18707499999999
 30
0.0
  0
VERTEX
  5
1174
  8
LAYER01
  6
CONTINUOUS
 62
     7
 10
2976.0214340000002
 20
-178.077519
 30
0.0
  0
VERTEX
  5
1175
  8
LAYER01
  6
CONTINUOUS
 62
     7
 10
2983.7292830000001
 20
-180.967962
 30
0.0
  0
VERTEX
  5
1176
  8
LAYER01
  6
CONTINUOUS
 62
     7
 10
2991.437132
 20
-185.78536700000001
 30
0.0
  0
VERTEX
  5
1177
  8
LAYER01
  6
CONTINUOUS
 62
     7
 10
2999.14498
 20
-190.60277300000001
 30
0.0
  0
VERTEX
  5
1178
  8
LAYER01
  6
CONTINUOUS
 62
     7
 10
2999.14498
 20
-190.60277300000001
 30
0.0
  0
SEQEND
  5
1179
  8
LAYER01
  6
CONTINUOUS
 62
     7
  0
POLYLINE
  5
2C0
  8
LAYER01
  6
CONTINUOUS
 62
     7
 66
     1
 10
0.0
 20
0.0
 30
0.0
 70
     1
  0
VERTEX
  5
117A
  8
LAYER01
  6
CONTINUOUS
 62
     7
 10
3092.6026459999998
 20
-172.29663199999999
 30
0.0
  0
VERTEX
  5
117B
  8
LAYER01
  6
CONTINUOUS
 62
     7
 10
3092.6026459999998
 20
-172.29663199999999
 30
0.0
  0
VERTEX
  5
117C
  8
LAYER01
  6
CONTINUOUS
 62
     7
 10
3082.0043540000001
 20
-173.26011299999999
 30
0.0
  0
VERTEX
  5
117D
  8
LAYER01
  6
CONTINUOUS
 62
     7
 10
3070.4425809999998
 20
-174.22359399999999
 30
0.0
  0
VERTEX
  5
117E
  8
LAYER01
  6
CONTINUOUS
 62
     7
 10
3060.8077699999999
 20
-177.11403799999999
 30
0.0
  0
VERTEX
  5
117F
  8
LAYER01
  6
CONTINUOUS
 62
     7
 10
3050.2094780000011
 20
-180.967962
 30
0.0
  0
VERTEX
  5
1180
  8
LAYER01
  6
CONTINUOUS
 62
     7
 10
3040.5746669999999
 20
-184.82188600000001
 30
0.0
  0
VERTEX
  5
1181
  8
LAYER01
  6
CONTINUOUS
 62
     7
 10
3031.9033370000011
 20
-190.60277300000001
 30
0.0
  0
VERTEX
  5
1182
  8
LAYER01
  6
CONTINUOUS
 62
     7
 10
3023.232008
 20
-196.38365899999999
 30
0.0
  0
VERTEX
  5
1183
  8
LAYER01
  6
CONTINUOUS
 62
     7
 10
3015.5241590000001
 20
-204.091508
 30
0.0
  0
VERTEX
  5
1184
  8
LAYER01
  6
CONTINUOUS
 62
     7
 10
3008.7797909999999
 20
-211.79935699999999
 30
0.0
  0
VERTEX
  5
1185
  8
LAYER01
  6
CONTINUOUS
 62
     7
 10
3002.0354240000001
 20
-219.507205
 30
0.0
  0
VERTEX
  5
1186
  8
LAYER01
  6
CONTINUOUS
 62
     7
 10
2996.2545369999998
 20
-228.17853500000001
 30
0.0
  0
VERTEX
  5
1187
  8
LAYER01
  6
CONTINUOUS
 62
     7
 10
2991.437132
 20
-237.813346
 30
0.0
  0
VERTEX
  5
1188
  8
LAYER01
  6
CONTINUOUS
 62
     7
 10
2988.5466879999999
 20
-248.41163800000001
 30
0.0
  0
VERTEX
  5
1189
  8
LAYER01
  6
CONTINUOUS
 62
     7
 10
2985.6562450000001
 20
-258.046449
 30
0.0
  0
VERTEX
  5
118A
  8
LAYER01
  6
CONTINUOUS
 62
     7
 10
2983.7292830000001
 20
-269.60822200000001
 30
0.0
  0
VERTEX
  5
118B
  8
LAYER01
  6
CONTINUOUS
 62
     7
 10
2982.7658019999999
 20
-280.20651400000003
 30
0.0
  0
VERTEX
  5
118C
  8
LAYER01
  6
CONTINUOUS
 62
     7
 10
2982.7658019999999
 20
-280.20651400000003
 30
0.0
  0
VERTEX
  5
118D
  8
LAYER01
  6
CONTINUOUS
 62
     7
 10
2983.7292830000001
 20
-291.76828699999999
 30
0.0
  0
VERTEX
  5
118E
  8
LAYER01
  6
CONTINUOUS
 62
     7
 10
2984.6927639999999
 20
-302.366579
 30
0.0
  0
VERTEX
  5
118F
  8
LAYER01
  6
CONTINUOUS
 62
     7
 10
2987.5832070000001
 20
-312.96487100000002
 30
0.0
  0
VERTEX
  5
1190
  8
LAYER01
  6
CONTINUOUS
 62
     7
 10
2991.437132
 20
-322.59968199999997
 30
0.0
  0
VERTEX
  5
1191
  8
LAYER01
  6
CONTINUOUS
 62
     7
 10
2995.291056
 20
-332.23449299999999
 30
0.0
  0
VERTEX
  5
1192
  8
LAYER01
  6
CONTINUOUS
 62
     7
 10
3001.0719429999999
 20
-340.905823
 30
0.0
  0
VERTEX
  5
1193
  8
LAYER01
  6
CONTINUOUS
 62
     7
 10
3006.8528289999999
 20
-349.57715200000001
 30
0.0
  0
VERTEX
  5
1194
  8
LAYER01
  6
CONTINUOUS
 62
     7
 10
3013.5971970000001
 20
-357.28500100000002
 30
0.0
  0
VERTEX
  5
1195
  8
LAYER01
  6
CONTINUOUS
 62
     7
 10
3021.3050450000001
 20
-364.99284999999998
 30
0.0
  0
VERTEX
  5
1196
  8
LAYER01
  6
CONTINUOUS
 62
     7
 10
3029.9763750000002
 20
-370.77373599999999
 30
0.0
  0
VERTEX
  5
1197
  8
LAYER01
  6
CONTINUOUS
 62
     7
 10
3038.6477049999999
 20
-376.55462299999999
 30
0.0
  0
VERTEX
  5
1198
  8
LAYER01
  6
CONTINUOUS
 62
     7
 10
3048.2825160000002
 20
-381.372028
 30
0.0
  0
VERTEX
  5
1199
  8
LAYER01
  6
CONTINUOUS
 62
     7
 10
3057.9173270000001
 20
-385.225953
 30
0.0
  0
VERTEX
  5
119A
  8
LAYER01
  6
CONTINUOUS
 62
     7
 10
3068.5156190000012
 20
-387.15291500000001
 30
0.0
  0
VERTEX
  5
119B
  8
LAYER01
  6
CONTINUOUS
 62
     7
 10
3079.1139109999999
 20
-389.07987700000001
 30
0.0
  0
VERTEX
  5
119C
  8
LAYER01
  6
CONTINUOUS
 62
     7
 10
3089.712203
 20
-390.04335800000001
 30
0.0
  0
VERTEX
  5
119D
  8
LAYER01
  6
CONTINUOUS
 62
     7
 10
3089.712203
 20
-390.04335800000001
 30
0.0
  0
VERTEX
  5
119E
  8
LAYER01
  6
CONTINUOUS
 62
     7
 10
3101.2739759999999
 20
-389.07987700000001
 30
0.0
  0
VERTEX
  5
119F
  8
LAYER01
  6
CONTINUOUS
 62
     7
 10
3111.8722680000001
 20
-387.15291500000001
 30
0.0
  0
VERTEX
  5
11A0
  8
LAYER01
  6
CONTINUOUS
 62
     7
 10
3122.4705600000002
 20
-384.262472
 30
0.0
  0
VERTEX
  5
11A1
  8
LAYER01
  6
CONTINUOUS
 62
     7
 10
3132.1053710000001
 20
-380.408547
 30
0.0
  0
VERTEX
  5
11A2
  8
LAYER01
  6
CONTINUOUS
 62
     7
 10
3141.7401810000001
 20
-375.59114199999999
 30
0.0
  0
VERTEX
  5
11A3
  8
LAYER01
  6
CONTINUOUS
 62
     7
 10
3150.4115109999998
 20
-369.81025499999998
 30
0.0
  0
VERTEX
  5
11A4
  8
LAYER01
  6
CONTINUOUS
 62
     7
 10
3159.0828409999999
 20
-364.02936899999997
 30
0.0
  0
VERTEX
  5
11A5
  8
LAYER01
  6
CONTINUOUS
 62
     7
 10
3166.7906899999998
 20
-356.32152000000002
 30
0.0
  0
VERTEX
  5
11A6
  8
LAYER01
  6
CONTINUOUS
 62
     7
 10
3173.5350570000001
 20
-348.61367100000001
 30
0.0
  0
VERTEX
  5
11A7
  8
LAYER01
  6
CONTINUOUS
 62
     7
 10
3179.3159439999999
 20
-339.942341
 30
0.0
  0
VERTEX
  5
11A8
  8
LAYER01
  6
CONTINUOUS
 62
     7
 10
3184.1333490000002
 20
-331.27101199999998
 30
0.0
  0
VERTEX
  5
11A9
  8
LAYER01
  6
CONTINUOUS
 62
     7
 10
3188.9507549999998
 20
-321.63620100000003
 30
0.0
  0
VERTEX
  5
11AA
  8
LAYER01
  6
CONTINUOUS
 62
     7
 10
3192.8046789999999
 20
-311.03790900000001
 30
0.0
  0
VERTEX
  5
11AB
  8
LAYER01
  6
CONTINUOUS
 62
     7
 10
3194.7316409999999
 20
-300.439617
 30
0.0
  0
VERTEX
  5
11AC
  8
LAYER01
  6
CONTINUOUS
 62
     7
 10
3195.6951220000001
 20
-289.84132499999998
 30
0.0
  0
VERTEX
  5
11AD
  8
LAYER01
  6
CONTINUOUS
 62
     7
 10
3196.6586030000012
 20
-278.27955200000002
 30
0.0
  0
VERTEX
  5
11AE
  8
LAYER01
  6
CONTINUOUS
 62
     7
 10
3196.6586030000012
 20
-278.27955200000002
 30
0.0
  0
VERTEX
  5
11AF
  8
LAYER01
  6
CONTINUOUS
 62
     7
 10
3195.6951220000001
 20
-267.68126000000001
 30
0.0
  0
VERTEX
  5
11B0
  8
LAYER01
  6
CONTINUOUS
 62
     7
 10
3193.7681600000001
 20
-257.08296799999999
 30
0.0
  0
VERTEX
  5
11B1
  8
LAYER01
  6
CONTINUOUS
 62
     7
 10
3190.8777170000012
 20
-247.44815700000001
 30
0.0
  0
VERTEX
  5
11B2
  8
LAYER01
  6
CONTINUOUS
 62
     7
 10
3187.9872740000001
 20
-237.813346
 30
0.0
  0
VERTEX
  5
11B3
  8
LAYER01
  6
CONTINUOUS
 62
     7
 10
3183.169868
 20
-229.14201600000001
 30
0.0
  0
VERTEX
  5
11B4
  8
LAYER01
  6
CONTINUOUS
 62
     7
 10
3178.3524630000002
 20
-220.470687
 30
0.0
  0
VERTEX
  5
11B5
  8
LAYER01
  6
CONTINUOUS
 62
     7
 10
3172.5715760000012
 20
-211.79935699999999
 30
0.0
  0
VERTEX
  5
11B6
  8
LAYER01
  6
CONTINUOUS
 62
     7
 10
3165.827209
 20
-205.05498900000001
 30
0.0
  0
VERTEX
  5
11B7
  8
LAYER01
  6
CONTINUOUS
 62
     7
 10
3158.1193600000011
 20
-198.310622
 30
0.0
  0
VERTEX
  5
11B8
  8
LAYER01
  6
CONTINUOUS
 62
     7
 10
3150.4115109999998
 20
-191.56625399999999
 30
0.0
  0
VERTEX
  5
11B9
  8
LAYER01
  6
CONTINUOUS
 62
     7
 10
3141.7401810000001
 20
-186.74884800000001
 30
0.0
  0
VERTEX
  5
11BA
  8
LAYER01
  6
CONTINUOUS
 62
     7
 10
3133.0688519999999
 20
-181.931443
 30
0.0
  0
VERTEX
  5
11BB
  8
LAYER01
  6
CONTINUOUS
 62
     7
 10
3123.434041
 20
-178.077519
 30
0.0
  0
VERTEX
  5
11BC
  8
LAYER01
  6
CONTINUOUS
 62
     7
 10
3113.7992300000001
 20
-175.18707499999999
 30
0.0
  0
VERTEX
  5
11BD
  8
LAYER01
  6
CONTINUOUS
 62
     7
 10
3103.200938
 20
-173.26011299999999
 30
0.0
  0
VERTEX
  5
11BE
  8
LAYER01
  6
CONTINUOUS
 62
     7
 10
3092.6026459999998
 20
-172.29663199999999
 30
0.0
  0
VERTEX
  5
11BF
  8
LAYER01
  6
CONTINUOUS
 62
     7
 10
3092.6026459999998
 20
-172.29663199999999
 30
0.0
  0
SEQEND
  5
11C0
  8
LAYER01
  6
CONTINUOUS
 62
     7
  0
POLYLINE
  5
308
  8
LAYER01
  6
CONTINUOUS
 62
     7
 66
     1
 10
0.0
 20
0.0
 30
0.0
 70
     1
  0
VERTEX
  5
11C1
  8
LAYER01
  6
CONTINUOUS
 62
     7
 10
3089.712203
 20
-350.54063300000001
 30
0.0
  0
VERTEX
  5
11C2
  8
LAYER01
  6
CONTINUOUS
 62
     7
 10
3089.712203
 20
-350.54063300000001
 30
0.0
  0
VERTEX
  5
11C3
  8
LAYER01
  6
CONTINUOUS
 62
     7
 10
3082.9678349999999
 20
-349.57715200000001
 30
0.0
  0
VERTEX
  5
11C4
  8
LAYER01
  6
CONTINUOUS
 62
     7
 10
3076.2234669999998
 20
-348.61367100000001
 30
0.0
  0
VERTEX
  5
11C5
  8
LAYER01
  6
CONTINUOUS
 62
     7
 10
3069.4791000000009
 20
-347.65019000000001
 30
0.0
  0
VERTEX
  5
11C6
  8
LAYER01
  6
CONTINUOUS
 62
     7
 10
3062.7347319999999
 20
-344.759747
 30
0.0
  0
VERTEX
  5
11C7
  8
LAYER01
  6
CONTINUOUS
 62
     7
 10
3056.9538459999999
 20
-341.869304
 30
0.0
  0
VERTEX
  5
11C8
  8
LAYER01
  6
CONTINUOUS
 62
     7
 10
3051.172959
 20
-338.015379
 30
0.0
  0
VERTEX
  5
11C9
  8
LAYER01
  6
CONTINUOUS
 62
     7
 10
3046.3555540000002
 20
-334.16145499999999
 30
0.0
  0
VERTEX
  5
11CA
  8
LAYER01
  6
CONTINUOUS
 62
     7
 10
3041.5381480000001
 20
-329.34404999999998
 30
0.0
  0
VERTEX
  5
11CB
  8
LAYER01
  6
CONTINUOUS
 62
     7
 10
3036.7207429999999
 20
-324.52664399999998
 30
0.0
  0
VERTEX
  5
11CC
  8
LAYER01
  6
CONTINUOUS
 62
     7
 10
3032.866818
 20
-319.70923900000003
 30
0.0
  0
VERTEX
  5
11CD
  8
LAYER01
  6
CONTINUOUS
 62
     7
 10
3029.9763750000002
 20
-313.92835200000002
 30
0.0
  0
VERTEX
  5
11CE
  8
LAYER01
  6
CONTINUOUS
 62
     7
 10
3027.085932
 20
-307.18398400000001
 30
0.0
  0
VERTEX
  5
11CF
  8
LAYER01
  6
CONTINUOUS
 62
     7
 10
3024.1954890000002
 20
-301.403098
 30
0.0
  0
VERTEX
  5
11D0
  8
LAYER01
  6
CONTINUOUS
 62
     7
 10
3023.232008
 20
-294.65872999999999
 30
0.0
  0
VERTEX
  5
11D1
  8
LAYER01
  6
CONTINUOUS
 62
     7
 10
3021.3050450000001
 20
-287.91436299999998
 30
0.0
  0
VERTEX
  5
11D2
  8
LAYER01
  6
CONTINUOUS
 62
     7
 10
3021.3050450000001
 20
-280.20651400000003
 30
0.0
  0
VERTEX
  5
11D3
  8
LAYER01
  6
CONTINUOUS
 62
     7
 10
3021.3050450000001
 20
-280.20651400000003
 30
0.0
  0
VERTEX
  5
11D4
  8
LAYER01
  6
CONTINUOUS
 62
     7
 10
3022.2685270000002
 20
-273.46214600000002
 30
0.0
  0
VERTEX
  5
11D5
  8
LAYER01
  6
CONTINUOUS
 62
     7
 10
3023.232008
 20
-266.71777900000001
 30
0.0
  0
VERTEX
  5
11D6
  8
LAYER01
  6
CONTINUOUS
 62
     7
 10
3025.15897
 20
-259.973411
 30
0.0
  0
VERTEX
  5
11D7
  8
LAYER01
  6
CONTINUOUS
 62
     7
 10
3027.085932
 20
-253.22904399999999
 30
0.0
  0
VERTEX
  5
11D8
  8
LAYER01
  6
CONTINUOUS
 62
     7
 10
3029.9763750000002
 20
-247.44815700000001
 30
0.0
  0
VERTEX
  5
11D9
  8
LAYER01
  6
CONTINUOUS
 62
     7
 10
3033.8303000000001
 20
-241.66727
 30
0.0
  0
VERTEX
  5
11DA
  8
LAYER01
  6
CONTINUOUS
 62
     7
 10
3037.6842240000001
 20
-236.84986499999999
 30
0.0
  0
VERTEX
  5
11DB
  8
LAYER01
  6
CONTINUOUS
 62
     7
 10
3042.5016289999999
 20
-232.03245999999999
 30
0.0
  0
VERTEX
  5
11DC
  8
LAYER01
  6
CONTINUOUS
 62
     7
 10
3047.319035
 20
-227.21505400000001
 30
0.0
  0
VERTEX
  5
11DD
  8
LAYER01
  6
CONTINUOUS
 62
     7
 10
3052.1364400000002
 20
-223.36113
 30
0.0
  0
VERTEX
  5
11DE
  8
LAYER01
  6
CONTINUOUS
 62
     7
 10
3057.9173270000001
 20
-219.507205
 30
0.0
  0
VERTEX
  5
11DF
  8
LAYER01
  6
CONTINUOUS
 62
     7
 10
3064.6616940000008
 20
-216.61676199999999
 30
0.0
  0
VERTEX
  5
11E0
  8
LAYER01
  6
CONTINUOUS
 62
     7
 10
3070.4425809999998
 20
-214.68979999999999
 30
0.0
  0
VERTEX
  5
11E1
  8
LAYER01
  6
CONTINUOUS
 62
     7
 10
3077.1869489999999
 20
-212.76283799999999
 30
0.0
  0
VERTEX
  5
11E2
  8
LAYER01
  6
CONTINUOUS
 62
     7
 10
3083.9313160000011
 20
-211.79935699999999
 30
0.0
  0
VERTEX
  5
11E3
  8
LAYER01
  6
CONTINUOUS
 62
     7
 10
3091.639165
 20
-211.79935699999999
 30
0.0
  0
VERTEX
  5
11E4
  8
LAYER01
  6
CONTINUOUS
 62
     7
 10
3091.639165
 20
-211.79935699999999
 30
0.0
  0
VERTEX
  5
11E5
  8
LAYER01
  6
CONTINUOUS
 62
     7
 10
3098.3835319999998
 20
-212.76283799999999
 30
0.0
  0
VERTEX
  5
11E6
  8
LAYER01
  6
CONTINUOUS
 62
     7
 10
3105.1279
 20
-213.72631899999999
 30
0.0
  0
VERTEX
  5
11E7
  8
LAYER01
  6
CONTINUOUS
 62
     7
 10
3110.9087869999998
 20
-215.65328099999999
 30
0.0
  0
VERTEX
  5
11E8
  8
LAYER01
  6
CONTINUOUS
 62
     7
 10
3117.6531540000001
 20
-217.580243
 30
0.0
  0
VERTEX
  5
11E9
  8
LAYER01
  6
CONTINUOUS
 62
     7
 10
3122.4705600000002
 20
-220.470687
 30
0.0
  0
VERTEX
  5
11EA
  8
LAYER01
  6
CONTINUOUS
 62
     7
 10
3128.2514460000002
 20
-224.324611
 30
0.0
  0
VERTEX
  5
11EB
  8
LAYER01
  6
CONTINUOUS
 62
     7
 10
3133.0688519999999
 20
-228.17853500000001
 30
0.0
  0
VERTEX
  5
11EC
  8
LAYER01
  6
CONTINUOUS
 62
     7
 10
3137.8862570000001
 20
-232.03245999999999
 30
0.0
  0
VERTEX
  5
11ED
  8
LAYER01
  6
CONTINUOUS
 62
     7
 10
3141.7401810000001
 20
-236.84986499999999
 30
0.0
  0
VERTEX
  5
11EE
  8
LAYER01
  6
CONTINUOUS
 62
     7
 10
3145.594106
 20
-242.630752
 30
0.0
  0
VERTEX
  5
11EF
  8
LAYER01
  6
CONTINUOUS
 62
     7
 10
3149.44803
 20
-247.44815700000001
 30
0.0
  0
VERTEX
  5
11F0
  8
LAYER01
  6
CONTINUOUS
 62
     7
 10
3152.3384729999998
 20
-253.22904399999999
 30
0.0
  0
VERTEX
  5
11F1
  8
LAYER01
  6
CONTINUOUS
 62
     7
 10
3154.265436000001
 20
-259.973411
 30
0.0
  0
VERTEX
  5
11F2
  8
LAYER01
  6
CONTINUOUS
 62
     7
 10
3156.1923980000001
 20
-265.75429800000001
 30
0.0
  0
VERTEX
  5
11F3
  8
LAYER01
  6
CONTINUOUS
 62
     7
 10
3157.1558789999999
 20
-272.49866500000002
 30
0.0
  0
VERTEX
  5
11F4
  8
LAYER01
  6
CONTINUOUS
 62
     7
 10
3157.1558789999999
 20
-279.24303300000003
 30
0.0
  0
VERTEX
  5
11F5
  8
LAYER01
  6
CONTINUOUS
 62
     7
 10
3157.1558789999999
 20
-279.24303300000003
 30
0.0
  0
VERTEX
  5
11F6
  8
LAYER01
  6
CONTINUOUS
 62
     7
 10
3157.1558789999999
 20
-286.95088199999998
 30
0.0
  0
VERTEX
  5
11F7
  8
LAYER01
  6
CONTINUOUS
 62
     7
 10
3156.1923980000001
 20
-293.69524899999999
 30
0.0
  0
VERTEX
  5
11F8
  8
LAYER01
  6
CONTINUOUS
 62
     7
 10
3155.2289169999999
 20
-300.439617
 30
0.0
  0
VERTEX
  5
11F9
  8
LAYER01
  6
CONTINUOUS
 62
     7
 10
3152.3384729999998
 20
-306.22050300000001
 30
0.0
  0
VERTEX
  5
11FA
  8
LAYER01
  6
CONTINUOUS
 62
     7
 10
3150.4115109999998
 20
-312.96487100000002
 30
0.0
  0
VERTEX
  5
11FB
  8
LAYER01
  6
CONTINUOUS
 62
     7
 10
3146.5575869999998
 20
-318.74575800000002
 30
0.0
  0
VERTEX
  5
11FC
  8
LAYER01
  6
CONTINUOUS
 62
     7
 10
3142.7036629999998
 20
-324.52664399999998
 30
0.0
  0
VERTEX
  5
11FD
  8
LAYER01
  6
CONTINUOUS
 62
     7
 10
3137.8862570000001
 20
-329.34404999999998
 30
0.0
  0
VERTEX
  5
11FE
  8
LAYER01
  6
CONTINUOUS
 62
     7
 10
3133.0688519999999
 20
-334.16145499999999
 30
0.0
  0
VERTEX
  5
11FF
  8
LAYER01
  6
CONTINUOUS
 62
     7
 10
3128.2514460000002
 20
-338.015379
 30
0.0
  0
VERTEX
  5
1200
  8
LAYER01
  6
CONTINUOUS
 62
     7
 10
3122.4705600000002
 20
-341.869304
 30
0.0
  0
VERTEX
  5
1201
  8
LAYER01
  6
CONTINUOUS
 62
     7
 10
3116.6896729999999
 20
-344.759747
 30
0.0
  0
VERTEX
  5
1202
  8
LAYER01
  6
CONTINUOUS
 62
     7
 10
3109.9453060000001
 20
-346.68670900000001
 30
0.0
  0
VERTEX
  5
1203
  8
LAYER01
  6
CONTINUOUS
 62
     7
 10
3103.200938
 20
-348.61367100000001
 30
0.0
  0
VERTEX
  5
1204
  8
LAYER01
  6
CONTINUOUS
 62
     7
 10
3096.4565699999998
 20
-349.57715200000001
 30
0.0
  0
VERTEX
  5
1205
  8
LAYER01
  6
CONTINUOUS
 62
     7
 10
3089.712203
 20
-350.54063300000001
 30
0.0
  0
VERTEX
  5
1206
  8
LAYER01
  6
CONTINUOUS
 62
     7
 10
3089.712203
 20
-350.54063300000001
 30
0.0
  0
SEQEND
  5
1207
  8
LAYER01
  6
CONTINUOUS
 62
     7
  0
POLYLINE
  5
350
  8
LAYER01
  6
CONTINUOUS
 62
     7
 66
     1
 10
0.0
 20
0.0
 30
0.0
 70
     1
  0
VERTEX
  5
1208
  8
LAYER01
  6
CONTINUOUS
 62
     7
 10
3166.7906899999998
 20
-177.11403799999999
 30
0.0
  0
VERTEX
  5
1209
  8
LAYER01
  6
CONTINUOUS
 62
     7
 10
3268.9196849999998
 20
-177.11403799999999
 30
0.0
  0
VERTEX
  5
120A
  8
LAYER01
  6
CONTINUOUS
 62
     7
 10
3268.9196849999998
 20
-177.11403799999999
 30
0.0
  0
VERTEX
  5
120B
  8
LAYER01
  6
CONTINUOUS
 62
     7
 10
3280.4814580000002
 20
-179.041
 30
0.0
  0
VERTEX
  5
120C
  8
LAYER01
  6
CONTINUOUS
 62
     7
 10
3291.0797499999999
 20
-183.858405
 30
0.0
  0
VERTEX
  5
120D
  8
LAYER01
  6
CONTINUOUS
 62
     7
 10
3299.75108
 20
-189.63929200000001
 30
0.0
  0
VERTEX
  5
120E
  8
LAYER01
  6
CONTINUOUS
 62
     7
 10
3307.4589289999999
 20
-197.34714
 30
0.0
  0
VERTEX
  5
120F
  8
LAYER01
  6
CONTINUOUS
 62
     7
 10
3314.2032960000001
 20
-205.05498900000001
 30
0.0
  0
VERTEX
  5
1210
  8
LAYER01
  6
CONTINUOUS
 62
     7
 10
3319.0207019999989
 20
-214.68979999999999
 30
0.0
  0
VERTEX
  5
1211
  8
LAYER01
  6
CONTINUOUS
 62
     7
 10
3321.911145
 20
-226.25157300000001
 30
0.0
  0
VERTEX
  5
1212
  8
LAYER01
  6
CONTINUOUS
 62
     7
 10
3322.8746259999998
 20
-236.84986499999999
 30
0.0
  0
VERTEX
  5
1213
  8
LAYER01
  6
CONTINUOUS
 62
     7
 10
3322.8746259999998
 20
-236.84986499999999
 30
0.0
  0
VERTEX
  5
1214
  8
LAYER01
  6
CONTINUOUS
 62
     7
 10
3321.911145
 20
-248.41163800000001
 30
0.0
  0
VERTEX
  5
1215
  8
LAYER01
  6
CONTINUOUS
 62
     7
 10
3319.9841830000009
 20
-258.046449
 30
0.0
  0
VERTEX
  5
1216
  8
LAYER01
  6
CONTINUOUS
 62
     7
 10
3316.1302580000001
 20
-267.68126000000001
 30
0.0
  0
VERTEX
  5
1217
  8
LAYER01
  6
CONTINUOUS
 62
     7
 10
3311.3128529999999
 20
-276.35259000000002
 30
0.0
  0
VERTEX
  5
1218
  8
LAYER01
  6
CONTINUOUS
 62
     7
 10
3304.5684849999998
 20
-284.06043799999998
 30
0.0
  0
VERTEX
  5
1219
  8
LAYER01
  6
CONTINUOUS
 62
     7
 10
3297.824118
 20
-289.84132499999998
 30
0.0
  0
VERTEX
  5
121A
  8
LAYER01
  6
CONTINUOUS
 62
     7
 10
3288.189307000001
 20
-295.62221099999999
 30
0.0
  0
VERTEX
  5
121B
  8
LAYER01
  6
CONTINUOUS
 62
     7
 10
3278.5544960000002
 20
-299.476136
 30
0.0
  0
VERTEX
  5
121C
  8
LAYER01
  6
CONTINUOUS
 62
     7
 10
3341.1807669999998
 20
-383.29899
 30
0.0
  0
VERTEX
  5
121D
  8
LAYER01
  6
CONTINUOUS
 62
     7
 10
3293.0067119999999
 20
-383.29899
 30
0.0
  0
VERTEX
  5
121E
  8
LAYER01
  6
CONTINUOUS
 62
     7
 10
3209.1838579999999
 20
-276.35259000000002
 30
0.0
  0
VERTEX
  5
121F
  8
LAYER01
  6
CONTINUOUS
 62
     7
 10
3256.3944310000002
 20
-276.35259000000002
 30
0.0
  0
VERTEX
  5
1220
  8
LAYER01
  6
CONTINUOUS
 62
     7
 10
3256.3944310000002
 20
-276.35259000000002
 30
0.0
  0
VERTEX
  5
1221
  8
LAYER01
  6
CONTINUOUS
 62
     7
 10
3262.1753170000002
 20
-274.42562700000002
 30
0.0
  0
VERTEX
  5
1222
  8
LAYER01
  6
CONTINUOUS
 62
     7
 10
3266.9927229999998
 20
-272.49866500000002
 30
0.0
  0
VERTEX
  5
1223
  8
LAYER01
  6
CONTINUOUS
 62
     7
 10
3270.8466469999998
 20
-268.64474100000001
 30
0.0
  0
VERTEX
  5
1224
  8
LAYER01
  6
CONTINUOUS
 62
     7
 10
3274.7005720000002
 20
-264.790817
 30
0.0
  0
VERTEX
  5
1225
  8
LAYER01
  6
CONTINUOUS
 62
     7
 10
3277.591015
 20
-259.973411
 30
0.0
  0
VERTEX
  5
1226
  8
LAYER01
  6
CONTINUOUS
 62
     7
 10
3280.4814580000002
 20
-255.15600599999999
 30
0.0
  0
VERTEX
  5
1227
  8
LAYER01
  6
CONTINUOUS
 62
     7
 10
3281.444939
 20
-249.37511900000001
 30
0.0
  0
VERTEX
  5
1228
  8
LAYER01
  6
CONTINUOUS
 62
     7
 10
3281.444939
 20
-243.594233
 30
0.0
  0
VERTEX
  5
1229
  8
LAYER01
  6
CONTINUOUS
 62
     7
 10
3281.444939
 20
-243.594233
 30
0.0
  0
VERTEX
  5
122A
  8
LAYER01
  6
CONTINUOUS
 62
     7
 10
3281.444939
 20
-237.813346
 30
0.0
  0
VERTEX
  5
122B
  8
LAYER01
  6
CONTINUOUS
 62
     7
 10
3279.517977
 20
-232.99594099999999
 30
0.0
  0
VERTEX
  5
122C
  8
LAYER01
  6
CONTINUOUS
 62
     7
 10
3277.591015
 20
-228.17853500000001
 30
0.0
  0
VERTEX
  5
122D
  8
LAYER01
  6
CONTINUOUS
 62
     7
 10
3274.7005720000002
 20
-223.36113
 30
0.0
  0
VERTEX
  5
122E
  8
LAYER01
  6
CONTINUOUS
 62
     7
 10
3270.8466469999998
 20
-219.507205
 30
0.0
  0
VERTEX
  5
122F
  8
LAYER01
  6
CONTINUOUS
 62
     7
 10
3266.9927229999998
 20
-216.61676199999999
 30
0.0
  0
VERTEX
  5
1230
  8
LAYER01
  6
CONTINUOUS
 62
     7
 10
3261.2118359999999
 20
-213.72631899999999
 30
0.0
  0
VERTEX
  5
1231
  8
LAYER01
  6
CONTINUOUS
 62
     7
 10
3256.3944310000002
 20
-211.79935699999999
 30
0.0
  0
VERTEX
  5
1232
  8
LAYER01
  6
CONTINUOUS
 62
     7
 10
3201.476009
 20
-211.79935699999999
 30
0.0
  0
VERTEX
  5
1233
  8
LAYER01
  6
CONTINUOUS
 62
     7
 10
3166.7906899999998
 20
-177.11403799999999
 30
0.0
  0
VERTEX
  5
1234
  8
LAYER01
  6
CONTINUOUS
 62
     7
 10
3166.7906899999998
 20
-177.11403799999999
 30
0.0
  0
SEQEND
  5
1235
  8
LAYER01
  6
CONTINUOUS
 62
     7
  0
POLYLINE
  5
37F
  8
LAYER01
  6
CONTINUOUS
 62
     7
 66
     1
 10
0.0
 20
0.0
 30
0.0
 70
     1
  0
VERTEX
  5
1236
  8
LAYER01
  6
CONTINUOUS
 62
     7
 10
3367.1947560000008
 20
-228.17853500000001
 30
0.0
  0
VERTEX
  5
1237
  8
LAYER01
  6
CONTINUOUS
 62
     7
 10
3367.1947560000008
 20
-228.17853500000001
 30
0.0
  0
VERTEX
  5
1238
  8
LAYER01
  6
CONTINUOUS
 62
     7
 10
3372.0121610000001
 20
-227.21505400000001
 30
0.0
  0
VERTEX
  5
1239
  8
LAYER01
  6
CONTINUOUS
 62
     7
 10
3376.8295670000002
 20
-226.25157300000001
 30
0.0
  0
VERTEX
  5
123A
  8
LAYER01
  6
CONTINUOUS
 62
     7
 10
3381.646972
 20
-223.36113
 30
0.0
  0
VERTEX
  5
123B
  8
LAYER01
  6
CONTINUOUS
 62
     7
 10
3385.5008969999999
 20
-220.470687
 30
0.0
  0
VERTEX
  5
123C
  8
LAYER01
  6
CONTINUOUS
 62
     7
 10
3388.3913400000001
 20
-216.61676199999999
 30
0.0
  0
VERTEX
  5
123D
  8
LAYER01
  6
CONTINUOUS
 62
     7
 10
3390.3183020000001
 20
-212.76283799999999
 30
0.0
  0
VERTEX
  5
123E
  8
LAYER01
  6
CONTINUOUS
 62
     7
 10
3392.2452640000001
 20
-207.94543200000001
 30
0.0
  0
VERTEX
  5
123F
  8
LAYER01
  6
CONTINUOUS
 62
     7
 10
3392.2452640000001
 20
-202.164546
 30
0.0
  0
VERTEX
  5
1240
  8
LAYER01
  6
CONTINUOUS
 62
     7
 10
3392.2452640000001
 20
-202.164546
 30
0.0
  0
VERTEX
  5
1241
  8
LAYER01
  6
CONTINUOUS
 62
     7
 10
3392.2452640000001
 20
-197.34714
 30
0.0
  0
VERTEX
  5
1242
  8
LAYER01
  6
CONTINUOUS
 62
     7
 10
3390.3183020000001
 20
-192.52973499999999
 30
0.0
  0
VERTEX
  5
1243
  8
LAYER01
  6
CONTINUOUS
 62
     7
 10
3388.3913400000001
 20
-188.67581100000001
 30
0.0
  0
VERTEX
  5
1244
  8
LAYER01
  6
CONTINUOUS
 62
     7
 10
3385.5008969999999
 20
-184.82188600000001
 30
0.0
  0
VERTEX
  5
1245
  8
LAYER01
  6
CONTINUOUS
 62
     7
 10
3381.646972
 20
-181.931443
 30
0.0
  0
VERTEX
  5
1246
  8
LAYER01
  6
CONTINUOUS
 62
     7
 10
3376.8295670000002
 20
-179.041
 30
0.0
  0
VERTEX
  5
1247
  8
LAYER01
  6
CONTINUOUS
 62
     7
 10
3372.0121610000001
 20
-178.077519
 30
0.0
  0
VERTEX
  5
1248
  8
LAYER01
  6
CONTINUOUS
 62
     7
 10
3367.1947560000008
 20
-177.11403799999999
 30
0.0
  0
VERTEX
  5
1249
  8
LAYER01
  6
CONTINUOUS
 62
     7
 10
3367.1947560000008
 20
-177.11403799999999
 30
0.0
  0
VERTEX
  5
124A
  8
LAYER01
  6
CONTINUOUS
 62
     7
 10
3362.3773510000001
 20
-178.077519
 30
0.0
  0
VERTEX
  5
124B
  8
LAYER01
  6
CONTINUOUS
 62
     7
 10
3357.5599450000009
 20
-179.041
 30
0.0
  0
VERTEX
  5
124C
  8
LAYER01
  6
CONTINUOUS
 62
     7
 10
3352.7425400000002
 20
-181.931443
 30
0.0
  0
VERTEX
  5
124D
  8
LAYER01
  6
CONTINUOUS
 62
     7
 10
3348.8886149999998
 20
-184.82188600000001
 30
0.0
  0
VERTEX
  5
124E
  8
LAYER01
  6
CONTINUOUS
 62
     7
 10
3345.9981720000001
 20
-188.67581100000001
 30
0.0
  0
VERTEX
  5
124F
  8
LAYER01
  6
CONTINUOUS
 62
     7
 10
3344.0712100000001
 20
-192.52973499999999
 30
0.0
  0
VERTEX
  5
1250
  8
LAYER01
  6
CONTINUOUS
 62
     7
 10
3342.1442480000001
 20
-197.34714
 30
0.0
  0
VERTEX
  5
1251
  8
LAYER01
  6
CONTINUOUS
 62
     7
 10
3342.1442480000001
 20
-202.164546
 30
0.0
  0
VERTEX
  5
1252
  8
LAYER01
  6
CONTINUOUS
 62
     7
 10
3342.1442480000001
 20
-202.164546
 30
0.0
  0
VERTEX
  5
1253
  8
LAYER01
  6
CONTINUOUS
 62
     7
 10
3342.1442480000001
 20
-207.94543200000001
 30
0.0
  0
VERTEX
  5
1254
  8
LAYER01
  6
CONTINUOUS
 62
     7
 10
3344.0712100000001
 20
-212.76283799999999
 30
0.0
  0
VERTEX
  5
1255
  8
LAYER01
  6
CONTINUOUS
 62
     7
 10
3345.9981720000001
 20
-216.61676199999999
 30
0.0
  0
VERTEX
  5
1256
  8
LAYER01
  6
CONTINUOUS
 62
     7
 10
3348.8886149999998
 20
-220.470687
 30
0.0
  0
VERTEX
  5
1257
  8
LAYER01
  6
CONTINUOUS
 62
     7
 10
3352.7425400000002
 20
-223.36113
 30
0.0
  0
VERTEX
  5
1258
  8
LAYER01
  6
CONTINUOUS
 62
     7
 10
3357.5599450000009
 20
-226.25157300000001
 30
0.0
  0
VERTEX
  5
1259
  8
LAYER01
  6
CONTINUOUS
 62
     7
 10
3362.3773510000001
 20
-227.21505400000001
 30
0.0
  0
VERTEX
  5
125A
  8
LAYER01
  6
CONTINUOUS
 62
     7
 10
3367.1947560000008
 20
-228.17853500000001
 30
0.0
  0
VERTEX
  5
125B
  8
LAYER01
  6
CONTINUOUS
 62
     7
 10
3367.1947560000008
 20
-228.17853500000001
 30
0.0
  0
SEQEND
  5
125C
  8
LAYER01
  6
CONTINUOUS
 62
     7
  0
POLYLINE
  5
3A7
  8
LAYER01
  6
CONTINUOUS
 62
     7
 66
     1
 10
0.0
 20
0.0
 30
0.0
 70
     1
  0
VERTEX
  5
125D
  8
LAYER01
  6
CONTINUOUS
 62
     7
 10
3367.1947560000008
 20
-180.967962
 30
0.0
  0
VERTEX
  5
125E
  8
LAYER01
  6
CONTINUOUS
 62
     7
 10
3367.1947560000008
 20
-180.967962
 30
0.0
  0
VERTEX
  5
125F
  8
LAYER01
  6
CONTINUOUS
 62
     7
 10
3371.0486799999999
 20
-181.931443
 30
0.0
  0
VERTEX
  5
1260
  8
LAYER01
  6
CONTINUOUS
 62
     7
 10
3374.9026050000002
 20
-182.894924
 30
0.0
  0
VERTEX
  5
1261
  8
LAYER01
  6
CONTINUOUS
 62
     7
 10
3378.7565289999998
 20
-184.82188600000001
 30
0.0
  0
VERTEX
  5
1262
  8
LAYER01
  6
CONTINUOUS
 62
     7
 10
3381.646972
 20
-187.71233000000001
 30
0.0
  0
VERTEX
  5
1263
  8
LAYER01
  6
CONTINUOUS
 62
     7
 10
3384.5374160000001
 20
-190.60277300000001
 30
0.0
  0
VERTEX
  5
1264
  8
LAYER01
  6
CONTINUOUS
 62
     7
 10
3386.4643780000001
 20
-194.45669699999999
 30
0.0
  0
VERTEX
  5
1265
  8
LAYER01
  6
CONTINUOUS
 62
     7
 10
3388.3913400000001
 20
-198.310622
 30
0.0
  0
VERTEX
  5
1266
  8
LAYER01
  6
CONTINUOUS
 62
     7
 10
3388.3913400000001
 20
-202.164546
 30
0.0
  0
VERTEX
  5
1267
  8
LAYER01
  6
CONTINUOUS
 62
     7
 10
3388.3913400000001
 20
-202.164546
 30
0.0
  0
VERTEX
  5
1268
  8
LAYER01
  6
CONTINUOUS
 62
     7
 10
3388.3913400000001
 20
-206.98195100000001
 30
0.0
  0
VERTEX
  5
1269
  8
LAYER01
  6
CONTINUOUS
 62
     7
 10
3386.4643780000001
 20
-210.83587600000001
 30
0.0
  0
VERTEX
  5
126A
  8
LAYER01
  6
CONTINUOUS
 62
     7
 10
3384.5374160000001
 20
-214.68979999999999
 30
0.0
  0
VERTEX
  5
126B
  8
LAYER01
  6
CONTINUOUS
 62
     7
 10
3381.646972
 20
-217.580243
 30
0.0
  0
VERTEX
  5
126C
  8
LAYER01
  6
CONTINUOUS
 62
     7
 10
3378.7565289999998
 20
-220.470687
 30
0.0
  0
VERTEX
  5
126D
  8
LAYER01
  6
CONTINUOUS
 62
     7
 10
3374.9026050000002
 20
-222.397649
 30
0.0
  0
VERTEX
  5
126E
  8
LAYER01
  6
CONTINUOUS
 62
     7
 10
3371.0486799999999
 20
-223.36113
 30
0.0
  0
VERTEX
  5
126F
  8
LAYER01
  6
CONTINUOUS
 62
     7
 10
3367.1947560000008
 20
-223.36113
 30
0.0
  0
VERTEX
  5
1270
  8
LAYER01
  6
CONTINUOUS
 62
     7
 10
3367.1947560000008
 20
-223.36113
 30
0.0
  0
VERTEX
  5
1271
  8
LAYER01
  6
CONTINUOUS
 62
     7
 10
3363.3408319999999
 20
-223.36113
 30
0.0
  0
VERTEX
  5
1272
  8
LAYER01
  6
CONTINUOUS
 62
     7
 10
3358.5234260000002
 20
-222.397649
 30
0.0
  0
VERTEX
  5
1273
  8
LAYER01
  6
CONTINUOUS
 62
     7
 10
3355.632983
 20
-220.470687
 30
0.0
  0
VERTEX
  5
1274
  8
LAYER01
  6
CONTINUOUS
 62
     7
 10
3351.779059
 20
-217.580243
 30
0.0
  0
VERTEX
  5
1275
  8
LAYER01
  6
CONTINUOUS
 62
     7
 10
3349.8520960000001
 20
-214.68979999999999
 30
0.0
  0
VERTEX
  5
1276
  8
LAYER01
  6
CONTINUOUS
 62
     7
 10
3347.9251340000001
 20
-210.83587600000001
 30
0.0
  0
VERTEX
  5
1277
  8
LAYER01
  6
CONTINUOUS
 62
     7
 10
3345.9981720000001
 20
-206.98195100000001
 30
0.0
  0
VERTEX
  5
1278
  8
LAYER01
  6
CONTINUOUS
 62
     7
 10
3345.9981720000001
 20
-202.164546
 30
0.0
  0
VERTEX
  5
1279
  8
LAYER01
  6
CONTINUOUS
 62
     7
 10
3345.9981720000001
 20
-202.164546
 30
0.0
  0
VERTEX
  5
127A
  8
LAYER01
  6
CONTINUOUS
 62
     7
 10
3345.9981720000001
 20
-198.310622
 30
0.0
  0
VERTEX
  5
127B
  8
LAYER01
  6
CONTINUOUS
 62
     7
 10
3347.9251340000001
 20
-194.45669699999999
 30
0.0
  0
VERTEX
  5
127C
  8
LAYER01
  6
CONTINUOUS
 62
     7
 10
3349.8520960000001
 20
-190.60277300000001
 30
0.0
  0
VERTEX
  5
127D
  8
LAYER01
  6
CONTINUOUS
 62
     7
 10
3351.779059
 20
-187.71233000000001
 30
0.0
  0
VERTEX
  5
127E
  8
LAYER01
  6
CONTINUOUS
 62
     7
 10
3355.632983
 20
-184.82188600000001
 30
0.0
  0
VERTEX
  5
127F
  8
LAYER01
  6
CONTINUOUS
 62
     7
 10
3358.5234260000002
 20
-182.894924
 30
0.0
  0
VERTEX
  5
1280
  8
LAYER01
  6
CONTINUOUS
 62
     7
 10
3363.3408319999999
 20
-181.931443
 30
0.0
  0
VERTEX
  5
1281
  8
LAYER01
  6
CONTINUOUS
 62
     7
 10
3367.1947560000008
 20
-180.967962
 30
0.0
  0
VERTEX
  5
1282
  8
LAYER01
  6
CONTINUOUS
 62
     7
 10
3367.1947560000008
 20
-180.967962
 30
0.0
  0
SEQEND
  5
1283
  8
LAYER01
  6
CONTINUOUS
 62
     7
  0
POLYLINE
  5
3CF
  8
LAYER01
  6
CONTINUOUS
 62
     7
 66
     1
 10
0.0
 20
0.0
 30
0.0
 70
     1
  0
VERTEX
  5
1284
  8
LAYER01
  6
CONTINUOUS
 62
     7
 10
3371.0486799999999
 20
-204.091508
 30
0.0
  0
VERTEX
  5
1285
  8
LAYER01
  6
CONTINUOUS
 62
     7
 10
3371.0486799999999
 20
-204.091508
 30
0.0
  0
VERTEX
  5
1286
  8
LAYER01
  6
CONTINUOUS
 62
     7
 10
3373.939124
 20
-203.128027
 30
0.0
  0
VERTEX
  5
1287
  8
LAYER01
  6
CONTINUOUS
 62
     7
 10
3376.8295670000002
 20
-202.164546
 30
0.0
  0
VERTEX
  5
1288
  8
LAYER01
  6
CONTINUOUS
 62
     7
 10
3378.7565289999998
 20
-199.274103
 30
0.0
  0
VERTEX
  5
1289
  8
LAYER01
  6
CONTINUOUS
 62
     7
 10
3378.7565289999998
 20
-196.38365899999999
 30
0.0
  0
VERTEX
  5
128A
  8
LAYER01
  6
CONTINUOUS
 62
     7
 10
3378.7565289999998
 20
-196.38365899999999
 30
0.0
  0
VERTEX
  5
128B
  8
LAYER01
  6
CONTINUOUS
 62
     7
 10
3378.7565289999998
 20
-192.52973499999999
 30
0.0
  0
VERTEX
  5
128C
  8
LAYER01
  6
CONTINUOUS
 62
     7
 10
3375.866086
 20
-189.63929200000001
 30
0.0
  0
VERTEX
  5
128D
  8
LAYER01
  6
CONTINUOUS
 62
     7
 10
3372.9756430000002
 20
-188.67581100000001
 30
0.0
  0
VERTEX
  5
128E
  8
LAYER01
  6
CONTINUOUS
 62
     7
 10
3369.1217180000008
 20
-188.67581100000001
 30
0.0
  0
VERTEX
  5
128F
  8
LAYER01
  6
CONTINUOUS
 62
     7
 10
3357.5599450000009
 20
-188.67581100000001
 30
0.0
  0
VERTEX
  5
1290
  8
LAYER01
  6
CONTINUOUS
 62
     7
 10
3357.5599450000009
 20
-216.61676199999999
 30
0.0
  0
VERTEX
  5
1291
  8
LAYER01
  6
CONTINUOUS
 62
     7
 10
3361.4138700000012
 20
-216.61676199999999
 30
0.0
  0
VERTEX
  5
1292
  8
LAYER01
  6
CONTINUOUS
 62
     7
 10
3361.4138700000012
 20
-204.091508
 30
0.0
  0
VERTEX
  5
1293
  8
LAYER01
  6
CONTINUOUS
 62
     7
 10
3367.1947560000008
 20
-204.091508
 30
0.0
  0
VERTEX
  5
1294
  8
LAYER01
  6
CONTINUOUS
 62
     7
 10
3373.939124
 20
-216.61676199999999
 30
0.0
  0
VERTEX
  5
1295
  8
LAYER01
  6
CONTINUOUS
 62
     7
 10
3378.7565289999998
 20
-216.61676199999999
 30
0.0
  0
VERTEX
  5
1296
  8
LAYER01
  6
CONTINUOUS
 62
     7
 10
3371.0486799999999
 20
-204.091508
 30
0.0
  0
VERTEX
  5
1297
  8
LAYER01
  6
CONTINUOUS
 62
     7
 10
3371.0486799999999
 20
-204.091508
 30
0.0
  0
SEQEND
  5
1298
  8
LAYER01
  6
CONTINUOUS
 62
     7
  0
POLYLINE
  5
3E5
  8
LAYER01
  6
CONTINUOUS
 62
     7
 66
     1
 10
0.0
 20
0.0
 30
0.0
 70
     1
  0
VERTEX
  5
1299
  8
LAYER01
  6
CONTINUOUS
 62
     7
 10
3368.1582369999992
 20
-192.52973499999999
 30
0.0
  0
VERTEX
  5
129A
  8
LAYER01
  6
CONTINUOUS
 62
     7
 10
3368.1582369999992
 20
-192.52973499999999
 30
0.0
  0
VERTEX
  5
129B
  8
LAYER01
  6
CONTINUOUS
 62
     7
 10
3372.9756430000002
 20
-193.49321599999999
 30
0.0
  0
VERTEX
  5
129C
  8
LAYER01
  6
CONTINUOUS
 62
     7
 10
3374.9026050000002
 20
-194.45669699999999
 30
0.0
  0
VERTEX
  5
129D
  8
LAYER01
  6
CONTINUOUS
 62
     7
 10
3374.9026050000002
 20
-196.38365899999999
 30
0.0
  0
VERTEX
  5
129E
  8
LAYER01
  6
CONTINUOUS
 62
     7
 10
3374.9026050000002
 20
-196.38365899999999
 30
0.0
  0
VERTEX
  5
129F
  8
LAYER01
  6
CONTINUOUS
 62
     7
 10
3373.939124
 20
-198.310622
 30
0.0
  0
VERTEX
  5
12A0
  8
LAYER01
  6
CONTINUOUS
 62
     7
 10
3372.0121610000001
 20
-199.274103
 30
0.0
  0
VERTEX
  5
12A1
  8
LAYER01
  6
CONTINUOUS
 62
     7
 10
3366.2312750000001
 20
-200.237584
 30
0.0
  0
VERTEX
  5
12A2
  8
LAYER01
  6
CONTINUOUS
 62
     7
 10
3361.4138700000012
 20
-200.237584
 30
0.0
  0
VERTEX
  5
12A3
  8
LAYER01
  6
CONTINUOUS
 62
     7
 10
3361.4138700000012
 20
-192.52973499999999
 30
0.0
  0
VERTEX
  5
12A4
  8
LAYER01
  6
CONTINUOUS
 62
     7
 10
3368.1582369999992
 20
-192.52973499999999
 30
0.0
  0
VERTEX
  5
12A5
  8
LAYER01
  6
CONTINUOUS
 62
     7
 10
3368.1582369999992
 20
-192.52973499999999
 30
0.0
  0
SEQEND
  5
12A6
  8
LAYER01
  6
CONTINUOUS
 62
     7
  0
ENDBLK
  5
3F4
  8
0
  0
BLOCK
  8
0
  2
VT35808-G12
 70
     0
 10
0.0
 20
0.0
 30
0.0
  3
VT35808-G12
  1

  0
TEXT
  5
3F7
  8
LAYER01
  6
VERDECKT
 62
     1
 10
2376.7908929999999
 20
-683.31338899999992
 30
0.0
 40
10.0
  1
A. Sprenger GmbH
  7
SIMPLEX
  0
TEXT
  5
3F8
  8
LAYER01
  6
VERDECKT
 62
     1
 10
2376.7908929999999
 20
-700.45624699999985
 30
0.0
 40
10.0
  1
Berner Str. 10
  7
SIMPLEX
  0
TEXT
  5
3F9
  8
LAYER01
  6
VERDECKT
 62
     1
 10
2376.7908929999999
 20
-717.59910400000001
 30
0.0
 40
10.0
  1
60437 Frankfurt
  7
SIMPLEX
  0
TEXT
  5
3FA
  8
LAYER01
  6
VERDECKT
 62
     1
 10
2376.7908929999999
 20
-734.74196100000006
 30
0.0
 40
10.0
  1
Tel.: 069 - 507 27 41
  7
SIMPLEX
  0
TEXT
  5
3FB
  8
LAYER01
  6
VERDECKT
 62
     1
 10
2376.7908929999999
 20
-751.88481799999988
 30
0.0
 40
10.0
  1
Fax: 069 - 507 72 91
  7
SIMPLEX
  0
TEXT
  5
3FC
  8
LAYER01
  6
VERDECKT
 62
     1
 10
2376.7908929999999
 20
-769.02767500000004
 30
0.0
 40
10.0
  1
info@varicor.org
  7
SIMPLEX
  0
ENDBLK
  5
3FD
  8
0
  0
BLOCK
  8
0
  2
VT35808-G11
 70
     0
 10
0.0
 20
0.0
 30
0.0
  3
VT35808-G11
  1

  0
TEXT
  5
400
  8
LAYER01
  6
CONTINUOUS
 62
     1
 10
3427.609347999999
 20
-918.39357699999994
 30
0.0
 40
10.0
  1
Blatt
  7
SIMPLEX
  0
LINE
  5
401
  8
LAYER01
  6
CONTINUOUS
 62
     1
 10
2362.609348
 20
-848.39357699999982
 30
0.0
 11
2962.609348
 21
-848.39357699999982
 31
0.0
  0
LINE
  5
402
  8
LAYER01
  6
CONTINUOUS
 62
     1
 10
2362.609348
 20
-873.39357700000005
 30
0.0
 11
2962.609348
 21
-873.39357700000005
 31
0.0
  0
LINE
  5
403
  8
LAYER01
  6
CONTINUOUS
 62
     1
 10
2362.609348
 20
-898.39357700000005
 30
0.0
 11
3492.609348
 21
-898.39357700000005
 31
0.0
  0
LINE
  5
404
  8
LAYER01
  6
CONTINUOUS
 62
     1
 10
2362.609348
 20
-973.39357700000005
 30
0.0
 11
3492.609348
 21
-973.39357700000005
 31
0.0
  0
LINE
  5
405
  8
LAYER01
  6
CONTINUOUS
 62
     1
 10
2362.609348
 20
-773.39357699999994
 30
0.0
 11
3492.609348
 21
-773.39357699999994
 31
0.0
  0
POLYLINE
  5
406
  8
LAYER01
  6
CONTINUOUS
 62
     1
 66
     1
 10
0.0
 20
0.0
 30
0.0
 70
     1
  0
VERTEX
  5
12A7
  8
LAYER01
  6
CONTINUOUS
 62
     1
 10
2362.609348
 20
-1003.3935770000001
 30
0.0
  0
VERTEX
  5
12A8
  8
LAYER01
  6
CONTINUOUS
 62
     1
 10
2362.609348
 20
-668.39357699999994
 30
0.0
  0
VERTEX
  5
12A9
  8
LAYER01
  6
CONTINUOUS
 62
     1
 10
3492.609348
 20
-668.39357699999994
 30
0.0
  0
VERTEX
  5
12AA
  8
LAYER01
  6
CONTINUOUS
 62
     1
 10
3492.609348
 20
-1003.3935770000001
 30
0.0
  0
SEQEND
  5
12AB
  8
LAYER01
  6
CONTINUOUS
 62
     1
  0
LINE
  5
40C
  8
LAYER01
  6
CONTINUOUS
 62
     1
 10
2362.609348
 20
-798.39357699999994
 30
0.0
 11
2962.609348
 21
-798.39357699999994
 31
0.0
  0
LINE
  5
40D
  8
LAYER01
  6
CONTINUOUS
 62
     1
 10
2362.609348
 20
-823.39357699999982
 30
0.0
 11
2962.609348
 21
-823.39357699999982
 31
0.0
  0
LINE
  5
40E
  8
LAYER01
  6
CONTINUOUS
 62
     1
 10
2687.609348
 20
-668.39357699999994
 30
0.0
 11
2687.609348
 21
-1003.3935770000001
 31
0.0
  0
INSERT
  5
40F
  8
LAYER01
  2
VT35808-G12
 10
0.0
 20
0.0
 30
0.0
  0
LINE
  5
410
  8
LAYER01
  6
CONTINUOUS
 62
     1
 10
2362.609348
 20
-948.39357700000005
 30
0.0
 11
2687.609348
 21
-948.39357700000005
 31
0.0
  0
LINE
  5
411
  8
LAYER01
  6
CONTINUOUS
 62
     1
 10
2362.609348
 20
-923.39357700000005
 30
0.0
 11
2687.609348
 21
-923.39357700000005
 31
0.0
  0
LINE
  5
412
  8
LAYER01
  6
CONTINUOUS
 62
     1
 10
2407.609348
 20
-773.39357699999994
 30
0.0
 11
2407.609348
 21
-1003.3935770000001
 31
0.0
  0
TEXT
  5
413
  8
LAYER01
  6
CONTINUOUS
 62
     1
 10
2371.008613
 20
-993.39357699999994
 30
0.0
 40
9.5
  1
Zust
  7
SIMPLEX
  0
LINE
  5
414
  8
LAYER01
  6
CONTINUOUS
 62
     1
 10
2565.393963
 20
-1003.3935770000001
 30
0.0
 11
2565.393963
 21
-773.39357699999994
 31
0.0
  0
LINE
  5
415
  8
LAYER01
  6
CONTINUOUS
 62
     1
 10
2642.609348
 20
-773.39357699999994
 30
0.0
 11
2642.609348
 21
-1003.3935770000001
 31
0.0
  0
TEXT
  5
416
  8
LAYER01
  6
CONTINUOUS
 62
     1
 10
2451.7378899999999
 20
-993.39357699999994
 30
0.0
 40
9.5
  1
Änderung
  7
SIMPLEX
  0
TEXT
  5
417
  8
LAYER01
  6
CONTINUOUS
 62
     1
 10
2579.4634919999999
 20
-993.39357699999994
 30
0.0
 40
9.5
  1
Datum
  7
SIMPLEX
  0
TEXT
  5
418
  8
LAYER01
  6
CONTINUOUS
 62
     1
 10
2646.373251
 20
-993.39357699999994
 30
0.0
 40
9.5
  1
Name
  7
SIMPLEX
  0
LINE
  5
419
  8
LAYER01
  6
CONTINUOUS
 62
     1
 10
3492.609348
 20
-708.39357699999994
 30
0.0
 11
2962.609348
 21
-708.39357699999994
 31
0.0
  0
LINE
  5
41A
  8
LAYER01
  6
CONTINUOUS
 62
     1
 10
2752.609348
 20
-873.39357700000005
 30
0.0
 11
2752.609348
 21
-773.39357699999994
 31
0.0
  0
TEXT
  5
41B
  8
LAYER01
  6
CONTINUOUS
 62
     1
 10
2697.609348
 20
-818.39357699999994
 30
0.0
 40
10.0
  1
Bearb.
  7
SIMPLEX
  0
TEXT
  5
41C
  8
LAYER01
  6
CONTINUOUS
 62
     1
 10
2697.609348
 20
-868.39357699999994
 30
0.0
 40
10.0
  1
Norm
  7
SIMPLEX
  0
TEXT
  5
41D
  8
LAYER01
  6
CONTINUOUS
 62
     1
 10
2697.609348
 20
-843.39357699999994
 30
0.0
 40
10.0
  1
Gepr.
  7
SIMPLEX
  0
TEXT
  5
41E
  8
LAYER01
  6
CONTINUOUS
 62
     1
 10
2777.609348
 20
-793.39357699999994
 30
0.0
 40
10.0
  1
Datum
  7
SIMPLEX
  0
TEXT
  5
41F
  8
LAYER01
  6
CONTINUOUS
 62
     1
 10
2877.609348
 20
-793.39357699999994
 30
0.0
 40
10.0
  1
Name
  7
SIMPLEX
  0
TEXT
  5
420
  8
LAYER01
  6
CONTINUOUS
 62
     1
 10
3467.609348
 20
-968.39357699999994
 30
0.0
 40
10.0
  1
Bl.
  7
SIMPLEX
  0
LINE
  5
421
  8
LAYER01
  6
CONTINUOUS
 62
     1
 10
2962.609348
 20
-1003.3935770000001
 30
0.0
 11
2962.609348
 21
-668.39357699999994
 31
0.0
  0
LINE
  5
422
  8
LAYER01
  6
CONTINUOUS
 62
     1
 10
2847.609348
 20
-898.39357700000005
 30
0.0
 11
2847.609348
 21
-668.39357699999994
 31
0.0
  0
LINE
  5
423
  8
LAYER01
  6
CONTINUOUS
 62
     1
 10
3277.609348
 20
-668.39357699999994
 30
0.0
 11
3277.609348
 21
-708.39357699999994
 31
0.0
  0
TEXT
  5
424
  8
LAYER01
  6
CONTINUOUS
 62
     1
 10
2973.5033469999998
 20
-693.92357900000002
 30
0.0
 40
10.0
  1
Maßstab
  7
SIMPLEX
  0
LINE
  5
425
  8
LAYER01
  6
CONTINUOUS
 62
     1
 10
3417.609348
 20
-898.39357700000005
 30
0.0
 11
3417.609348
 21
-973.39357700000005
 31
0.0
  0
LINE
  5
426
  8
LAYER01
  6
CONTINUOUS
 62
     1
 10
3417.609348
 20
-948.39357700000005
 30
0.0
 11
3492.609348
 21
-948.39357700000005
 31
0.0
  0
ENDBLK
  5
427
  8
0
  0
BLOCK
  8
0
  2
*D12
 70
     1
 10
0.0
 20
0.0
 30
0.0
  3
*D12
  1

  0
LINE
  5
42A
  8
LAYER01
 62
     7
 10
1929.1710849999999
 20
571.3968769999999
 30
0.0
 11
1929.1710849999999
 21
464.3968769999999
 31
0.0
  0
LINE
  5
42B
  8
LAYER01
 62
     7
 10
2105.3128569999999
 20
571.3968769999999
 30
0.0
 11
1899.1710849999999
 21
571.3968769999999
 31
0.0
  0
LINE
  5
42C
  8
LAYER01
 62
     7
 10
2105.3128569999999
 20
464.3968769999999
 30
0.0
 11
1899.1710849999999
 21
464.3968769999999
 31
0.0
  0
SOLID
  5
42D
  8
LAYER01
 62
     7
 10
1921.171405
 20
523.39687699999979
 30
0.0
 11
1929.1710849999999
 21
571.3968769999999
 31
0.0
 12
1937.1707650000001
 22
523.39687699999979
 32
0.0
 13
1937.1707650000001
 23
523.39687699999979
 33
0.0
  0
SOLID
  5
42E
  8
LAYER01
 62
     7
 10
1921.171405
 20
512.3968769999999
 30
0.0
 11
1929.1710849999999
 21
464.3968769999999
 31
0.0
 12
1937.1707650000001
 22
512.3968769999999
 32
0.0
 13
1937.1707650000001
 23
512.3968769999999
 33
0.0
  0
TEXT
  5
42F
  8
LAYER01
  6
CONTINUOUS
 62
     7
 10
1899.1710849999999
 20
471.02167299999991
 30
0.0
 40
60.0
  1
107
 50
90.0
  0
POINT
  5
430
  8
LAYER01
 62
     7
 10
2129.3128569999999
 20
571.3968769999999
 30
0.0
  0
POINT
  5
431
  8
LAYER01
 62
     7
 10
2129.3128569999999
 20
464.3968769999999
 30
0.0
  0
POINT
  5
432
  8
LAYER01
 62
     7
 10
1929.1710849999999
 20
464.3968769999999
 30
0.0
  0
ENDBLK
  5
433
  8
0
  0
BLOCK
  8
0
  2
*D13
 70
     1
 10
0.0
 20
0.0
 30
0.0
  3
*D13
  1

  0
LINE
  5
436
  8
LAYER01
 62
     7
 10
1794.5506379999999
 20
571.3968769999999
 30
0.0
 11
1794.5506379999999
 21
451.3968769999999
 31
0.0
  0
LINE
  5
437
  8
LAYER01
 62
     7
 10
2105.3128569999999
 20
571.3968769999999
 30
0.0
 11
1764.5506379999999
 21
571.3968769999999
 31
0.0
  0
LINE
  5
438
  8
LAYER01
 62
     7
 10
2105.3128569999999
 20
451.3968769999999
 30
0.0
 11
1764.5506379999999
 21
451.3968769999999
 31
0.0
  0
SOLID
  5
439
  8
LAYER01
 62
     7
 10
1786.550958
 20
523.39687699999979
 30
0.0
 11
1794.5506379999999
 21
571.3968769999999
 31
0.0
 12
1802.5503180000001
 22
523.39687699999979
 32
0.0
 13
1802.5503180000001
 23
523.39687699999979
 33
0.0
  0
SOLID
  5
43A
  8
LAYER01
 62
     7
 10
1786.550958
 20
499.3968769999999
 30
0.0
 11
1794.5506379999999
 21
451.3968769999999
 31
0.0
 12
1802.5503180000001
 22
499.3968769999999
 32
0.0
 13
1802.5503180000001
 23
499.3968769999999
 33
0.0
  0
TEXT
  5
43B
  8
LAYER01
  6
CONTINUOUS
 62
     7
 10
1764.5506379999999
 20
464.52167300000002
 30
0.0
 40
60.0
  1
120
 50
90.0
  0
POINT
  5
43C
  8
LAYER01
 62
     7
 10
2129.3128569999999
 20
571.3968769999999
 30
0.0
  0
POINT
  5
43D
  8
LAYER01
 62
     7
 10
2129.3128569999999
 20
451.3968769999999
 30
0.0
  0
POINT
  5
43E
  8
LAYER01
 62
     7
 10
1794.5506379999999
 20
451.3968769999999
 30
0.0
  0
ENDBLK
  5
43F
  8
0
  0
BLOCK
  8
0
  2
*D14
 70
     1
 10
0.0
 20
0.0
 30
0.0
  3
*D14
  1

  0
LINE
  5
442
  8
LAYER01
 62
     7
 10
2524.3128670000001
 20
781.92235999999991
 30
0.0
 11
2129.3128569999999
 21
781.92235999999991
 31
0.0
  0
LINE
  5
443
  8
LAYER01
 62
     7
 10
2524.3128670000001
 20
603.50422500000002
 30
0.0
 11
2524.3128670000001
 21
811.92235999999991
 31
0.0
  0
LINE
  5
444
  8
LAYER01
 62
     7
 10
2129.3128569999999
 20
603.50422500000002
 30
0.0
 11
2129.3128569999999
 21
811.92235999999991
 31
0.0
  0
SOLID
  5
445
  8
LAYER01
 62
     7
 10
2476.3128670000001
 20
789.92204000000004
 30
0.0
 11
2524.3128670000001
 21
781.92235999999991
 31
0.0
 12
2476.3128670000001
 22
773.9226799999999
 32
0.0
 13
2476.3128670000001
 23
773.9226799999999
 33
0.0
  0
SOLID
  5
446
  8
LAYER01
 62
     7
 10
2177.3128569999999
 20
789.92204000000004
 30
0.0
 11
2129.3128569999999
 21
781.92235999999991
 31
0.0
 12
2177.3128569999999
 22
773.9226799999999
 32
0.0
 13
2177.3128569999999
 23
773.9226799999999
 33
0.0
  0
TEXT
  5
447
  8
LAYER01
  6
CONTINUOUS
 62
     7
 10
2279.9376579999998
 20
811.92235999999991
 30
0.0
 40
60.0
  1
395
  0
POINT
  5
448
  8
LAYER01
 62
     7
 10
2524.3128670000001
 20
579.50422500000002
 30
0.0
  0
POINT
  5
449
  8
LAYER01
 62
     7
 10
2129.3128569999999
 20
579.50422500000002
 30
0.0
  0
POINT
  5
44A
  8
LAYER01
 62
     7
 10
2129.3128569999999
 20
781.92235999999991
 30
0.0
  0
ENDBLK
  5
44B
  8
0
  0
BLOCK
  8
0
  2
VT35808-G16
 70
     0
 10
0.0
 20
0.0
 30
0.0
  3
VT35808-G16
  1

  0
LINE
  5
44E
  8
LAYER01
  6
CONTINUOUS
 62
     7
 10
2181.0478600000001
 20
483.34852499999988
 30
0.0
 11
2189.1009749999998
 21
491.40163999999999
 31
0.0
  0
LINE
  5
44F
  8
LAYER01
  6
CONTINUOUS
 62
     7
 10
2187.9060979999999
 20
467.75612199999989
 30
0.0
 11
2219.3527210000002
 21
499.20274499999999
 31
0.0
  0
LINE
  5
450
  8
LAYER01
  6
CONTINUOUS
 62
     7
 10
2210.356738
 20
467.75612199999989
 30
0.0
 11
2249.6044659999998
 21
507.00384999999989
 31
0.0
  0
LINE
  5
451
  8
LAYER01
  6
CONTINUOUS
 62
     7
 10
2216.807378
 20
451.75612199999989
 30
0.0
 11
2230.683747
 21
465.63249100000002
 31
0.0
  0
LINE
  5
452
  8
LAYER01
  6
CONTINUOUS
 62
     7
 10
2263.1574959999998
 20
498.1062399999999
 30
0.0
 11
2279.8562109999998
 21
514.80495599999995
 31
0.0
  0
LINE
  5
453
  8
LAYER01
  6
CONTINUOUS
 62
     7
 10
2293.4092420000002
 20
505.90734500000002
 30
0.0
 11
2310.1079570000002
 21
522.60606100000007
 31
0.0
  0
LINE
  5
454
  8
LAYER01
  6
CONTINUOUS
 62
     7
 10
2323.6609870000002
 20
513.70844999999986
 30
0.0
 11
2340.3597020000002
 21
530.40716599999985
 31
0.0
  0
LINE
  5
455
  8
LAYER01
  6
CONTINUOUS
 62
     7
 10
2353.9127319999998
 20
521.50955599999986
 30
0.0
 11
2370.6114480000001
 21
538.20827099999985
 31
0.0
  0
LINE
  5
456
  8
LAYER01
  6
CONTINUOUS
 62
     7
 10
2384.1644780000001
 20
529.31066099999987
 30
0.0
 11
2400.863193000001
 21
546.00937599999986
 31
0.0
  0
LINE
  5
457
  8
LAYER01
  6
CONTINUOUS
 62
     7
 10
2414.4162230000002
 20
537.11176599999999
 30
0.0
 11
2431.114939
 21
553.81048099999998
 31
0.0
  0
LINE
  5
458
  8
LAYER01
  6
CONTINUOUS
 62
     7
 10
2444.6679690000001
 20
544.912871
 30
0.0
 11
2461.3666840000001
 21
561.61158599999987
 31
0.0
  0
LINE
  5
459
  8
LAYER01
  6
CONTINUOUS
 62
     7
 10
2474.9197140000001
 20
552.71397599999989
 30
0.0
 11
2491.61843
 21
569.41269199999999
 31
0.0
  0
LINE
  5
45A
  8
LAYER01
  6
CONTINUOUS
 62
     7
 10
2504.0532549999998
 20
559.3968769999999
 30
0.0
 11
2516.0532549999998
 21
571.3968769999999
 31
0.0
  0
ENDBLK
  5
45B
  8
0
  0
BLOCK
  8
0
  2
*D16
 70
     1
 10
0.0
 20
0.0
 30
0.0
  3
*D16
  1

  0
LINE
  5
45E
  8
LAYER01
 62
     7
 10
2499.3128630000001
 20
661.76264100000003
 30
0.0
 11
2154.3128630000001
 21
661.76264100000003
 31
0.0
  0
LINE
  5
45F
  8
LAYER01
 62
     7
 10
2499.3128630000001
 20
603.50422500000002
 30
0.0
 11
2499.3128630000001
 21
691.76264100000003
 31
0.0
  0
LINE
  5
460
  8
LAYER01
 62
     7
 10
2154.3128630000001
 20
603.50422500000002
 30
0.0
 11
2154.3128630000001
 21
691.76264100000003
 31
0.0
  0
SOLID
  5
461
  8
LAYER01
 62
     7
 10
2451.3128630000001
 20
669.76232100000004
 30
0.0
 11
2499.3128630000001
 21
661.76264100000003
 31
0.0
 12
2451.3128630000001
 22
653.76296100000002
 32
0.0
 13
2451.3128630000001
 23
653.76296100000002
 33
0.0
  0
SOLID
  5
462
  8
LAYER01
 62
     7
 10
2202.3128630000001
 20
669.76232100000004
 30
0.0
 11
2154.3128630000001
 21
661.76264100000003
 31
0.0
 12
2202.3128630000001
 22
653.76296100000002
 32
0.0
 13
2202.3128630000001
 23
653.76296100000002
 33
0.0
  0
TEXT
  5
463
  8
LAYER01
  6
CONTINUOUS
 62
     7
 10
2279.9376590000002
 20
691.76264100000003
 30
0.0
 40
60.0
  1
345
  0
POINT
  5
464
  8
LAYER01
 62
     7
 10
2499.3128630000001
 20
579.50422500000002
 30
0.0
  0
POINT
  5
465
  8
LAYER01
 62
     7
 10
2154.3128630000001
 20
579.50422500000002
 30
0.0
  0
POINT
  5
466
  8
LAYER01
 62
     7
 10
2154.3128630000001
 20
661.76264100000003
 30
0.0
  0
ENDBLK
  5
467
  8
0
  0
BLOCK
  8
0
  2
VT35808-G18
 70
     0
 10
0.0
 20
0.0
 30
0.0
  3
VT35808-G18
  1

  0
LINE
  5
46A
  8
LAYER01
  6
CONTINUOUS
 62
     7
 10
2129.3128620000002
 20
566.31736899999987
 30
0.0
 11
2134.39237
 21
571.3968769999999
 31
0.0
  0
LINE
  5
46B
  8
LAYER01
  6
CONTINUOUS
 62
     7
 10
2142.7762160000011
 20
557.33008199999995
 30
0.0
 11
2154.5164129999998
 21
569.07027900000003
 31
0.0
  0
LINE
  5
46C
  8
LAYER01
  6
CONTINUOUS
 62
     7
 10
2145.2458230000002
 20
537.34904900000004
 30
0.0
 11
2156.3225710000002
 21
548.42579699999987
 31
0.0
  0
LINE
  5
46D
  8
LAYER01
  6
CONTINUOUS
 62
     7
 10
2147.0519810000001
 20
516.704567
 30
0.0
 11
2158.128729
 21
527.78131499999995
 31
0.0
  0
LINE
  5
46E
  8
LAYER01
  6
CONTINUOUS
 62
     7
 10
2148.8581389999999
 20
496.0600849999999
 30
0.0
 11
2159.9348869999999
 21
507.13683300000002
 31
0.0
  0
LINE
  5
46F
  8
LAYER01
  6
CONTINUOUS
 62
     7
 10
2150.6642969999998
 20
475.41560299999998
 30
0.0
 11
2161.7410460000001
 21
486.49235099999993
 31
0.0
  0
LINE
  5
470
  8
LAYER01
  6
CONTINUOUS
 62
     7
 10
2152.6689430000001
 20
454.96960799999999
 30
0.0
 11
2163.9904569999999
 21
466.29112199999992
 31
0.0
  0
ENDBLK
  5
471
  8
0
  0
ENDSEC
  0
SECTION
  2
ENTITIES
  0
POLYLINE
  5
472
  8
LAYER01
  6
CONTINUOUS
 62
     7
 66
     1
 10
0.0
 20
0.0
 30
0.0
 70
     1
  0
VERTEX
  5
12AC
  8
LAYER01
  6
CONTINUOUS
 62
     7
 10
-499.56538799999993
 20
-1003.3935770000001
 30
0.0
  0
VERTEX
  5
12AD
  8
LAYER01
  6
CONTINUOUS
 62
     7
 10
-499.56538799999993
 20
1782.752127
 30
0.0
  0
VERTEX
  5
12AE
  8
LAYER01
  6
CONTINUOUS
 62
     7
 10
3492.609348
 20
1782.752127
 30
0.0
  0
VERTEX
  5
12AF
  8
LAYER01
  6
CONTINUOUS
 62
     7
 10
3492.609348
 20
-1003.3935770000001
 30
0.0
  0
SEQEND
  5
12B0
  8
LAYER01
  6
CONTINUOUS
 62
     7
  0
LINE
  5
479
  8
LAYER01
  6
CONTINUOUS
 62
     7
 10
586.59637699999985
 20
54.985126999999999
 30
0.0
 11
1576.6344140000001
 21
54.985126999999999
 31
0.0
  0
LINE
  5
47A
  8
FORMAT
  6
CONTINUOUS
 62
     7
 10
588.61448799999994
 20
-25.014873000000001
 30
0.0
 11
1574.6163019999999
 21
-25.014873000000001
 31
0.0
  0
LINE
  5
47B
  8
LAYER01
  6
CONTINUOUS
 62
     7
 10
1101.3917280000001
 20
-52.382984
 30
0.0
 11
1568.3568319999999
 21
-45.077854999999992
 31
0.0
  0
LINE
  5
47C
  8
LAYER01
  6
CONTINUOUS
 62
     7
 10
1579.378999
 20
-56.924656999999989
 30
0.0
 11
1146.615393
 21
-64.743504999999985
 31
0.0
  0
INSERT
  5
47D
  8
LAYER01
  2
VT35808-G1
 10
0.0
 20
0.0
 30
0.0
  0
LINE
  5
47E
  8
LAYER01
  6
CONTINUOUS
 62
     7
 10
586.21091300000001
 20
376.39686899999998
 30
0.0
 11
1577.019877
 21
376.39686899999998
 31
0.0
  0
LINE
  5
47F
  8
LAYER01
  6
CONTINUOUS
 62
     7
 10
1576.6344140000001
 20
721.39686799999993
 30
0.0
 11
586.59637699999985
 21
721.39686799999993
 31
0.0
  0
LINE
  5
480
  8
LAYER01
  6
CONTINUOUS
 62
     7
 10
1591.6153859999999
 20
746.39687400000003
 30
0.0
 11
571.61540500000001
 21
746.39687400000003
 31
0.0
  0
LINE
  5
481
  8
LAYER01
  6
CONTINUOUS
 62
     7
 10
571.61540500000001
 20
351.396863
 30
0.0
 11
1591.6153859999999
 21
351.396863
 31
0.0
  0
LINE
  5
482
  8
LAYER01
  6
CONTINUOUS
 62
     7
 10
1081.615395
 20
712.37220300000001
 30
0.0
 11
1568.2786180000001
 21
713.04107199999999
 31
0.0
  0
LINE
  5
483
  8
LAYER01
  6
CONTINUOUS
 62
     7
 10
1568.2786180000001
 20
694.99631699999998
 30
0.0
 11
1081.615395
 21
695.3488339999999
 31
0.0
  0
DIMENSION
  5
484
  8
LAYER01
 62
     7
  2
*D1
 10
581.61539500000003
 20
156.17030399999999
 30
0.0
 11
1082.570287
 21
216.17030399999999
 31
0.0
 13
1581.615395
 23
70.851590999999999
 33
0.0
 14
581.61539500000003
 24
70.851590999999999
 34
0.0
  0
DIMENSION
  5
485
  8
LAYER01
 62
     7
  2
*D2
 10
581.61539500000003
 20
885.41149399999995
 30
0.0
 11
1082.570287
 21
945.41149399999995
 31
0.0
 13
1581.615395
 23
763.04210499999988
 33
0.0
 14
581.61539500000003
 24
763.04210499999988
 34
0.0
  0
DIMENSION
  5
486
  8
LAYER01
 62
     7
  2
*D3
 10
1606.6153710000001
 20
1009.217898
 30
0.0
 11
1082.570287
 21
1069.2178980000001
 31
0.0
 13
556.61541899999997
 23
763.04210499999988
 33
0.0
 14
1606.6153710000001
 24
763.04210499999988
 34
0.0
  0
LINE
  5
488
  8
LAYER01
  6
CONTINUOUS
 62
     7
 10
581.61539500000003
 20
716.41590199999985
 30
0.0
 11
581.61539500000003
 21
394.73067700000001
 31
0.0
  0
LINE
  5
489
  8
LAYER01
  6
CONTINUOUS
 62
     7
 10
556.61541899999997
 20
731.39687399999991
 30
0.0
 11
556.61541899999997
 21
366.39686399999999
 31
0.0
  0
DIMENSION
  5
48A
  8
LAYER01
 62
     7
  2
*D4
 10
417.46542599999992
 20
721.39686799999993
 30
0.0
 11
357.46542599999998
 21
548.04539999999986
 31
0.0
 53
90.0
 13
545.63121299999989
 23
376.39686899999998
 33
0.0
 14
545.63121299999989
 24
721.39686799999993
 34
0.0
 50
90.0
  0
DIMENSION
  5
48B
  8
LAYER01
 62
     7
  2
*D5
 10
283.98706800000002
 20
351.396863
 30
0.0
 11
223.98706799999999
 21
548.04539999999986
 31
0.0
 53
90.0
 13
545.63121299999989
 23
746.39687400000003
 33
0.0
 14
545.63121299999989
 24
351.396863
 34
0.0
 50
90.0
  0
LINE
  5
48C
  8
LAYER01
 62
     7
 10
586.43541399999992
 20
376.39686899999998
 30
0.0
 11
652.53528099999994
 21
430.32137599999999
 31
0.0
  0
LINE
  5
48D
  8
LAYER01
 62
     7
 10
652.53528099999994
 20
430.32137599999999
 30
0.0
 11
689.44048999999995
 21
430.32137599999999
 31
0.0
  0
SOLID
  5
48E
  8
LAYER01
 62
     7
 10
628.68554299999994
 20
400.540637
 30
0.0
 11
586.43541399999992
 21
376.39686899999998
 31
0.0
 12
618.57181500000002
 22
412.93789600000002
 32
0.0
 13
618.57181500000002
 23
412.93789600000002
 33
0.0
  0
TEXT
  5
48F
  8
LAYER01
  6
CONTINUOUS
 62
     7
 10
719.44049000000007
 20
400.32137599999987
 30
0.0
 40
60.0
  1
R5
  0
TEXT
  5
490
  8
LAYER01
  6
CONTINUOUS
 62
     7
 10
185.68185600000001
 20
-458.1554559999999
 30
0.0
 40
35.0
  1
Unterbauwaschtisch VT-35-100-8
  7
SIMPLEX
  0
LINE
  5
491
  8
LAYER01
  6
CONTINUOUS
 62
     7
 10
594.87395900000001
 20
-45.077854999999992
 30
0.0
 11
1061.839062
 21
-52.382984
 31
0.0
  0
LINE
  5
492
  8
LAYER01
  6
CONTINUOUS
 62
     7
 10
1016.615398
 20
-64.743504999999985
 30
0.0
 11
583.85179100000005
 21
-56.924656999999989
 31
0.0
  0
INSERT
  5
493
  8
LAYER01
  2
VT35808-G7
 10
0.0
 20
0.0
 30
0.0
  0
LINE
  5
494
  8
LAYER01
  6
CONTINUOUS
 62
     7
 10
556.61541899999997
 20
42.985126999999991
 30
0.0
 11
556.61541899999997
 21
54.985126999999999
 31
0.0
  0
LINE
  5
495
  8
LAYER01
  6
CONTINUOUS
 62
     7
 10
589.43942900000002
 20
-34.443864000000012
 30
0.0
 11
581.61539500000003
 21
54.985126999999999
 31
0.0
  0
LINE
  5
496
  8
LAYER01
  6
CONTINUOUS
 62
     7
 10
578.961141
 20
-52.361251000000003
 30
0.0
 11
571.01876200000004
 21
38.420904999999998
 31
0.0
  0
ARC
  5
497
  8
LAYER01
  6
CONTINUOUS
 62
     7
 10
583.94212199999993
 20
-51.925471000000002
 30
0.0
 40
5.0
 50
185.0
 51
268.96493500000003
  0
ARC
  5
498
  8
LAYER01
  6
CONTINUOUS
 62
     7
 10
566.03776500000004
 20
37.985126999999999
 30
0.0
 40
5.0
 50
5.0
 51
90.0
  0
LINE
  5
499
  8
LAYER01
  6
CONTINUOUS
 62
     7
 10
556.61541899999997
 20
42.985126999999991
 30
0.0
 11
566.03778099999988
 21
42.985126999999991
 31
0.0
  0
LINE
  5
49A
  8
LAYER01
  6
CONTINUOUS
 62
     7
 10
589.43941799999993
 20
-34.443865000000002
 30
0.0
 11
589.98016500000006
 21
-40.534244999999999
 31
0.0
  0
ARC
  5
49B
  8
LAYER01
  6
CONTINUOUS
 62
     7
 10
594.95216900000003
 20
-40.086328999999999
 30
0.0
 40
4.992138999999999
 50
185.14775299999999
 51
269.10232999999999
  0
LINE
  5
49C
  8
LAYER01
  6
CONTINUOUS
 62
     7
 10
556.61541899999997
 20
54.985126999999999
 30
0.0
 11
581.61539500000003
 21
54.985126999999999
 31
0.0
  0
LINE
  5
49D
  8
LAYER01
  6
CONTINUOUS
 62
     7
 10
581.61539500000003
 20
54.985126999999999
 30
0.0
 11
586.59637699999985
 21
54.985126999999999
 31
0.0
  0
POLYLINE
  5
49E
  8
LAYER01
  6
CONTINUOUS
 62
     7
 66
     1
 10
0.0
 20
0.0
 30
0.0
  0
VERTEX
  5
12B1
  8
LAYER01
  6
CONTINUOUS
 62
     7
 10
581.61539500000003
 20
394.73067600000002
 30
0.0
  0
VERTEX
  5
12B2
  8
LAYER01
  6
CONTINUOUS
 62
     7
 10
581.70176900000001
 20
391.074161
 30
0.0
  0
VERTEX
  5
12B3
  8
LAYER01
  6
CONTINUOUS
 62
     7
 10
581.95791599999995
 20
387.60165799999999
 30
0.0
  0
VERTEX
  5
12B4
  8
LAYER01
  6
CONTINUOUS
 62
     7
 10
582.37502099999995
 20
384.43268399999999
 30
0.0
  0
VERTEX
  5
12B5
  8
LAYER01
  6
CONTINUOUS
 62
     7
 10
582.93872799999997
 20
381.67630700000001
 30
0.0
  0
VERTEX
  5
12B6
  8
LAYER01
  6
CONTINUOUS
 62
     7
 10
583.629636
 20
379.42739699999998
 30
0.0
  0
VERTEX
  5
12B7
  8
LAYER01
  6
CONTINUOUS
 62
     7
 10
584.42396399999996
 20
377.76335499999999
 30
0.0
  0
VERTEX
  5
12B8
  8
LAYER01
  6
CONTINUOUS
 62
     7
 10
585.29437399999995
 20
376.74145499999997
 30
0.0
  0
VERTEX
  5
12B9
  8
LAYER01
  6
CONTINUOUS
 62
     7
 10
586.21090800000002
 20
376.39686899999998
 30
0.0
  0
SEQEND
  5
12BA
  8
LAYER01
  6
CONTINUOUS
 62
     7
  0
ARC
  5
4A9
  8
LAYER01
  6
CONTINUOUS
 62
     7
 10
571.61539500000003
 20
366.39686899999998
 30
0.0
 40
15.0
 50
180.0
 51
270.0
  0
POLYLINE
  5
4AA
  8
LAYER01
  6
CONTINUOUS
 62
     7
 66
     1
 10
0.0
 20
0.0
 30
0.0
  0
VERTEX
  5
12BB
  8
LAYER01
  6
CONTINUOUS
 62
     7
 10
1069.3240069999999
 20
-52.538973999999989
 30
0.0
  0
VERTEX
  5
12BC
  8
LAYER01
  6
CONTINUOUS
 62
     7
 10
1069.450511
 20
-52.540346999999997
 30
0.0
  0
VERTEX
  5
12BD
  8
LAYER01
  6
CONTINUOUS
 62
     7
 10
1069.5773139999999
 20
-52.540517000000001
 30
0.0
  0
VERTEX
  5
12BE
  8
LAYER01
  6
CONTINUOUS
 62
     7
 10
1069.70442
 20
-52.539518000000008
 30
0.0
  0
VERTEX
  5
12BF
  8
LAYER01
  6
CONTINUOUS
 62
     7
 10
1069.8318280000001
 20
-52.537380000000013
 30
0.0
  0
VERTEX
  5
12C0
  8
LAYER01
  6
CONTINUOUS
 62
     7
 10
1069.9595409999999
 20
-52.534137000000001
 30
0.0
  0
VERTEX
  5
12C1
  8
LAYER01
  6
CONTINUOUS
 62
     7
 10
1070.0875610000001
 20
-52.529820999999998
 30
0.0
  0
VERTEX
  5
12C2
  8
LAYER01
  6
CONTINUOUS
 62
     7
 10
1070.2158890000001
 20
-52.52446299999999
 30
0.0
  0
VERTEX
  5
12C3
  8
LAYER01
  6
CONTINUOUS
 62
     7
 10
1070.344527
 20
-52.51809699999999
 30
0.0
  0
VERTEX
  5
12C4
  8
LAYER01
  6
CONTINUOUS
 62
     7
 10
1070.473477
 20
-52.510754000000013
 30
0.0
  0
VERTEX
  5
12C5
  8
LAYER01
  6
CONTINUOUS
 62
     7
 10
1070.60274
 20
-52.502467000000003
 30
0.0
  0
VERTEX
  5
12C6
  8
LAYER01
  6
CONTINUOUS
 62
     7
 10
1070.7323180000001
 20
-52.493268000000008
 30
0.0
  0
VERTEX
  5
12C7
  8
LAYER01
  6
CONTINUOUS
 62
     7
 10
1070.8622130000001
 20
-52.48318900000001
 30
0.0
  0
VERTEX
  5
12C8
  8
LAYER01
  6
CONTINUOUS
 62
     7
 10
1070.992426
 20
-52.472262999999998
 30
0.0
  0
VERTEX
  5
12C9
  8
LAYER01
  6
CONTINUOUS
 62
     7
 10
1071.122959
 20
-52.460521999999997
 30
0.0
  0
VERTEX
  5
12CA
  8
LAYER01
  6
CONTINUOUS
 62
     7
 10
1071.253813
 20
-52.447997999999998
 30
0.0
  0
VERTEX
  5
12CB
  8
LAYER01
  6
CONTINUOUS
 62
     7
 10
1071.384992
 20
-52.434722999999998
 30
0.0
  0
VERTEX
  5
12CC
  8
LAYER01
  6
CONTINUOUS
 62
     7
 10
1071.5164950000001
 20
-52.420729999999999
 30
0.0
  0
VERTEX
  5
12CD
  8
LAYER01
  6
CONTINUOUS
 62
     7
 10
1071.6483250000001
 20
-52.406050999999991
 30
0.0
  0
VERTEX
  5
12CE
  8
LAYER01
  6
CONTINUOUS
 62
     7
 10
1071.780483
 20
-52.39071899999999
 30
0.0
  0
VERTEX
  5
12CF
  8
LAYER01
  6
CONTINUOUS
 62
     7
 10
1071.9129720000001
 20
-52.374764999999996
 30
0.0
  0
VERTEX
  5
12D0
  8
LAYER01
  6
CONTINUOUS
 62
     7
 10
1072.0457919999999
 20
-52.358221999999998
 30
0.0
  0
VERTEX
  5
12D1
  8
LAYER01
  6
CONTINUOUS
 62
     7
 10
1072.178946
 20
-52.341121999999999
 30
0.0
  0
VERTEX
  5
12D2
  8
LAYER01
  6
CONTINUOUS
 62
     7
 10
1072.3124359999999
 20
-52.323481000000001
 30
0.0
  0
VERTEX
  5
12D3
  8
LAYER01
  6
CONTINUOUS
 62
     7
 10
1072.446263
 20
-52.305312000000001
 30
0.0
  0
VERTEX
  5
12D4
  8
LAYER01
  6
CONTINUOUS
 62
     7
 10
1072.5804290000001
 20
-52.286639000000001
 30
0.0
  0
VERTEX
  5
12D5
  8
LAYER01
  6
CONTINUOUS
 62
     7
 10
1072.7149380000001
 20
-52.267485999999998
 30
0.0
  0
VERTEX
  5
12D6
  8
LAYER01
  6
CONTINUOUS
 62
     7
 10
1072.8497910000001
 20
-52.247877000000003
 30
0.0
  0
VERTEX
  5
12D7
  8
LAYER01
  6
CONTINUOUS
 62
     7
 10
1072.984991
 20
-52.227837000000001
 30
0.0
  0
VERTEX
  5
12D8
  8
LAYER01
  6
CONTINUOUS
 62
     7
 10
1073.120539
 20
-52.207390999999987
 30
0.0
  0
VERTEX
  5
12D9
  8
LAYER01
  6
CONTINUOUS
 62
     7
 10
1073.256439
 20
-52.186563
 30
0.0
  0
VERTEX
  5
12DA
  8
LAYER01
  6
CONTINUOUS
 62
     7
 10
1073.3926919999999
 20
-52.165376999999992
 30
0.0
  0
VERTEX
  5
12DB
  8
LAYER01
  6
CONTINUOUS
 62
     7
 10
1073.5292999999999
 20
-52.143858000000002
 30
0.0
  0
VERTEX
  5
12DC
  8
LAYER01
  6
CONTINUOUS
 62
     7
 10
1073.6662670000001
 20
-52.122030000000002
 30
0.0
  0
VERTEX
  5
12DD
  8
LAYER01
  6
CONTINUOUS
 62
     7
 10
1073.8036239999999
 20
-52.099910999999992
 30
0.0
  0
VERTEX
  5
12DE
  8
LAYER01
  6
CONTINUOUS
 62
     7
 10
1073.94139
 20
-52.077523999999997
 30
0.0
  0
VERTEX
  5
12DF
  8
LAYER01
  6
CONTINUOUS
 62
     7
 10
1074.079547
 20
-52.054893999999997
 30
0.0
  0
VERTEX
  5
12E0
  8
LAYER01
  6
CONTINUOUS
 62
     7
 10
1074.2180800000001
 20
-52.032052
 30
0.0
  0
VERTEX
  5
12E1
  8
LAYER01
  6
CONTINUOUS
 62
     7
 10
1074.3569689999999
 20
-52.009025999999999
 30
0.0
  0
VERTEX
  5
12E2
  8
LAYER01
  6
CONTINUOUS
 62
     7
 10
1074.4961989999999
 20
-51.985843000000003
 30
0.0
  0
VERTEX
  5
12E3
  8
LAYER01
  6
CONTINUOUS
 62
     7
 10
1074.635751
 20
-51.962530999999991
 30
0.0
  0
VERTEX
  5
12E4
  8
LAYER01
  6
CONTINUOUS
 62
     7
 10
1074.7756099999999
 20
-51.939120000000003
 30
0.0
  0
VERTEX
  5
12E5
  8
LAYER01
  6
CONTINUOUS
 62
     7
 10
1074.9157560000001
 20
-51.91563699999999
 30
0.0
  0
VERTEX
  5
12E6
  8
LAYER01
  6
CONTINUOUS
 62
     7
 10
1075.0561729999999
 20
-51.892110000000002
 30
0.0
  0
VERTEX
  5
12E7
  8
LAYER01
  6
CONTINUOUS
 62
     7
 10
1075.1968440000001
 20
-51.868569000000001
 30
0.0
  0
VERTEX
  5
12E8
  8
LAYER01
  6
CONTINUOUS
 62
     7
 10
1075.337708
 20
-51.845047999999998
 30
0.0
  0
VERTEX
  5
12E9
  8
LAYER01
  6
CONTINUOUS
 62
     7
 10
1075.478715
 20
-51.821583000000011
 30
0.0
  0
VERTEX
  5
12EA
  8
LAYER01
  6
CONTINUOUS
 62
     7
 10
1075.61987
 20
-51.798198999999997
 30
0.0
  0
VERTEX
  5
12EB
  8
LAYER01
  6
CONTINUOUS
 62
     7
 10
1075.7611730000001
 20
-51.774923000000001
 30
0.0
  0
VERTEX
  5
12EC
  8
LAYER01
  6
CONTINUOUS
 62
     7
 10
1075.9026289999999
 20
-51.751779999999989
 30
0.0
  0
VERTEX
  5
12ED
  8
LAYER01
  6
CONTINUOUS
 62
     7
 10
1076.0442390000001
 20
-51.728797
 30
0.0
  0
VERTEX
  5
12EE
  8
LAYER01
  6
CONTINUOUS
 62
     7
 10
1076.1860059999999
 20
-51.706001000000001
 30
0.0
  0
VERTEX
  5
12EF
  8
LAYER01
  6
CONTINUOUS
 62
     7
 10
1076.327933
 20
-51.683415999999987
 30
0.0
  0
VERTEX
  5
12F0
  8
LAYER01
  6
CONTINUOUS
 62
     7
 10
1076.470022
 20
-51.661068
 30
0.0
  0
VERTEX
  5
12F1
  8
LAYER01
  6
CONTINUOUS
 62
     7
 10
1076.612275
 20
-51.638985999999989
 30
0.0
  0
VERTEX
  5
12F2
  8
LAYER01
  6
CONTINUOUS
 62
     7
 10
1076.754696
 20
-51.617193
 30
0.0
  0
VERTEX
  5
12F3
  8
LAYER01
  6
CONTINUOUS
 62
     7
 10
1076.8972859999999
 20
-51.595715999999989
 30
0.0
  0
VERTEX
  5
12F4
  8
LAYER01
  6
CONTINUOUS
 62
     7
 10
1077.040049
 20
-51.574581999999999
 30
0.0
  0
VERTEX
  5
12F5
  8
LAYER01
  6
CONTINUOUS
 62
     7
 10
1077.1829869999999
 20
-51.553815999999998
 30
0.0
  0
VERTEX
  5
12F6
  8
LAYER01
  6
CONTINUOUS
 62
     7
 10
1077.3261010000001
 20
-51.533445
 30
0.0
  0
VERTEX
  5
12F7
  8
LAYER01
  6
CONTINUOUS
 62
     7
 10
1077.469396
 20
-51.513494000000001
 30
0.0
  0
VERTEX
  5
12F8
  8
LAYER01
  6
CONTINUOUS
 62
     7
 10
1077.612873
 20
-51.493989999999997
 30
0.0
  0
VERTEX
  5
12F9
  8
LAYER01
  6
CONTINUOUS
 62
     7
 10
1077.7565360000001
 20
-51.474958999999998
 30
0.0
  0
VERTEX
  5
12FA
  8
LAYER01
  6
CONTINUOUS
 62
     7
 10
1077.9003849999999
 20
-51.456426
 30
0.0
  0
VERTEX
  5
12FB
  8
LAYER01
  6
CONTINUOUS
 62
     7
 10
1078.044425
 20
-51.438419000000003
 30
0.0
  0
VERTEX
  5
12FC
  8
LAYER01
  6
CONTINUOUS
 62
     7
 10
1078.188658
 20
-51.42096200000001
 30
0.0
  0
VERTEX
  5
12FD
  8
LAYER01
  6
CONTINUOUS
 62
     7
 10
1078.333085
 20
-51.404083
 30
0.0
  0
VERTEX
  5
12FE
  8
LAYER01
  6
CONTINUOUS
 62
     7
 10
1078.4777120000001
 20
-51.387819999999991
 30
0.0
  0
VERTEX
  5
12FF
  8
LAYER01
  6
CONTINUOUS
 62
     7
 10
1078.622543
 20
-51.372208000000001
 30
0.0
  0
VERTEX
  5
1300
  8
LAYER01
  6
CONTINUOUS
 62
     7
 10
1078.767578
 20
-51.357265999999989
 30
0.0
  0
VERTEX
  5
1301
  8
LAYER01
  6
CONTINUOUS
 62
     7
 10
1078.912822
 20
-51.343012000000002
 30
0.0
  0
VERTEX
  5
1302
  8
LAYER01
  6
CONTINUOUS
 62
     7
 10
1079.0582750000001
 20
-51.329464999999999
 30
0.0
  0
VERTEX
  5
1303
  8
LAYER01
  6
CONTINUOUS
 62
     7
 10
1079.2039420000001
 20
-51.316642000000002
 30
0.0
  0
VERTEX
  5
1304
  8
LAYER01
  6
CONTINUOUS
 62
     7
 10
1079.349823
 20
-51.304563000000002
 30
0.0
  0
VERTEX
  5
1305
  8
LAYER01
  6
CONTINUOUS
 62
     7
 10
1079.495921
 20
-51.293246000000003
 30
0.0
  0
VERTEX
  5
1306
  8
LAYER01
  6
CONTINUOUS
 62
     7
 10
1079.642239
 20
-51.282709999999987
 30
0.0
  0
VERTEX
  5
1307
  8
LAYER01
  6
CONTINUOUS
 62
     7
 10
1079.788779
 20
-51.272972000000003
 30
0.0
  0
VERTEX
  5
1308
  8
LAYER01
  6
CONTINUOUS
 62
     7
 10
1079.9355430000001
 20
-51.264051000000002
 30
0.0
  0
VERTEX
  5
1309
  8
LAYER01
  6
CONTINUOUS
 62
     7
 10
1080.0825339999999
 20
-51.255966999999998
 30
0.0
  0
VERTEX
  5
130A
  8
LAYER01
  6
CONTINUOUS
 62
     7
 10
1080.229754
 20
-51.248736999999998
 30
0.0
  0
VERTEX
  5
130B
  8
LAYER01
  6
CONTINUOUS
 62
     7
 10
1080.3772059999999
 20
-51.242379
 30
0.0
  0
VERTEX
  5
130C
  8
LAYER01
  6
CONTINUOUS
 62
     7
 10
1080.524891
 20
-51.236913000000001
 30
0.0
  0
VERTEX
  5
130D
  8
LAYER01
  6
CONTINUOUS
 62
     7
 10
1080.672812
 20
-51.232356000000003
 30
0.0
  0
VERTEX
  5
130E
  8
LAYER01
  6
CONTINUOUS
 62
     7
 10
1080.8209710000001
 20
-51.228727999999997
 30
0.0
  0
VERTEX
  5
130F
  8
LAYER01
  6
CONTINUOUS
 62
     7
 10
1080.9693709999999
 20
-51.226045999999997
 30
0.0
  0
VERTEX
  5
1310
  8
LAYER01
  6
CONTINUOUS
 62
     7
 10
1081.118015
 20
-51.22432899999999
 30
0.0
  0
VERTEX
  5
1311
  8
LAYER01
  6
CONTINUOUS
 62
     7
 10
1081.2669040000001
 20
-51.223596000000001
 30
0.0
  0
VERTEX
  5
1312
  8
LAYER01
  6
CONTINUOUS
 62
     7
 10
1081.4160400000001
 20
-51.223865000000011
 30
0.0
  0
VERTEX
  5
1313
  8
LAYER01
  6
CONTINUOUS
 62
     7
 10
1081.565427
 20
-51.225155000000001
 30
0.0
  0
SEQEND
  5
1314
  8
LAYER01
  6
CONTINUOUS
 62
     7
  0
POLYLINE
  5
505
  8
LAYER01
  6
CONTINUOUS
 62
     7
 66
     1
 10
0.0
 20
0.0
 30
0.0
  0
VERTEX
  5
1315
  8
LAYER01
  6
CONTINUOUS
 62
     7
 10
1081.6653630000001
 20
-51.225155000000001
 30
0.0
  0
VERTEX
  5
1316
  8
LAYER01
  6
CONTINUOUS
 62
     7
 10
1081.814627
 20
-51.223865999999987
 30
0.0
  0
VERTEX
  5
1317
  8
LAYER01
  6
CONTINUOUS
 62
     7
 10
1081.963657
 20
-51.223596999999998
 30
0.0
  0
VERTEX
  5
1318
  8
LAYER01
  6
CONTINUOUS
 62
     7
 10
1082.1124560000001
 20
-51.22432899999999
 30
0.0
  0
VERTEX
  5
1319
  8
LAYER01
  6
CONTINUOUS
 62
     7
 10
1082.2610259999999
 20
-51.22604299999999
 30
0.0
  0
VERTEX
  5
131A
  8
LAYER01
  6
CONTINUOUS
 62
     7
 10
1082.409369
 20
-51.228723000000002
 30
0.0
  0
VERTEX
  5
131B
  8
LAYER01
  6
CONTINUOUS
 62
     7
 10
1082.5574879999999
 20
-51.232347999999988
 30
0.0
  0
VERTEX
  5
131C
  8
LAYER01
  6
CONTINUOUS
 62
     7
 10
1082.7053840000001
 20
-51.236902000000001
 30
0.0
  0
VERTEX
  5
131D
  8
LAYER01
  6
CONTINUOUS
 62
     7
 10
1082.853059
 20
-51.24236599999999
 30
0.0
  0
VERTEX
  5
131E
  8
LAYER01
  6
CONTINUOUS
 62
     7
 10
1083.0005169999999
 20
-51.24872100000001
 30
0.0
  0
VERTEX
  5
131F
  8
LAYER01
  6
CONTINUOUS
 62
     7
 10
1083.147759
 20
-51.255949999999999
 30
0.0
  0
VERTEX
  5
1320
  8
LAYER01
  6
CONTINUOUS
 62
     7
 10
1083.2947859999999
 20
-51.264034000000002
 30
0.0
  0
VERTEX
  5
1321
  8
LAYER01
  6
CONTINUOUS
 62
     7
 10
1083.4416020000001
 20
-51.272954999999989
 30
0.0
  0
VERTEX
  5
1322
  8
LAYER01
  6
CONTINUOUS
 62
     7
 10
1083.588209
 20
-51.282694999999997
 30
0.0
  0
VERTEX
  5
1323
  8
LAYER01
  6
CONTINUOUS
 62
     7
 10
1083.734608
 20
-51.293234999999989
 30
0.0
  0
VERTEX
  5
1324
  8
LAYER01
  6
CONTINUOUS
 62
     7
 10
1083.8808019999999
 20
-51.304557000000003
 30
0.0
  0
VERTEX
  5
1325
  8
LAYER01
  6
CONTINUOUS
 62
     7
 10
1084.026793
 20
-51.316642999999999
 30
0.0
  0
VERTEX
  5
1326
  8
LAYER01
  6
CONTINUOUS
 62
     7
 10
1084.172583
 20
-51.329476
 30
0.0
  0
VERTEX
  5
1327
  8
LAYER01
  6
CONTINUOUS
 62
     7
 10
1084.318174
 20
-51.343035
 30
0.0
  0
VERTEX
  5
1328
  8
LAYER01
  6
CONTINUOUS
 62
     7
 10
1084.463569
 20
-51.357303999999992
 30
0.0
  0
VERTEX
  5
1329
  8
LAYER01
  6
CONTINUOUS
 62
     7
 10
1084.6087689999999
 20
-51.372264000000001
 30
0.0
  0
VERTEX
  5
132A
  8
LAYER01
  6
CONTINUOUS
 62
     7
 10
1084.7537769999999
 20
-51.387897000000002
 30
0.0
  0
VERTEX
  5
132B
  8
LAYER01
  6
CONTINUOUS
 62
     7
 10
1084.8985949999999
 20
-51.404184999999998
 30
0.0
  0
VERTEX
  5
132C
  8
LAYER01
  6
CONTINUOUS
 62
     7
 10
1085.043226
 20
-51.421092999999999
 30
0.0
  0
VERTEX
  5
132D
  8
LAYER01
  6
CONTINUOUS
 62
     7
 10
1085.187674
 20
-51.438580999999999
 30
0.0
  0
VERTEX
  5
132E
  8
LAYER01
  6
CONTINUOUS
 62
     7
 10
1085.3319409999999
 20
-51.456623
 30
0.0
  0
VERTEX
  5
132F
  8
LAYER01
  6
CONTINUOUS
 62
     7
 10
1085.47603
 20
-51.47519299999999
 30
0.0
  0
VERTEX
  5
1330
  8
LAYER01
  6
CONTINUOUS
 62
     7
 10
1085.619944
 20
-51.494265999999989
 30
0.0
  0
VERTEX
  5
1331
  8
LAYER01
  6
CONTINUOUS
 62
     7
 10
1085.763684
 20
-51.513814000000004
 30
0.0
  0
VERTEX
  5
1332
  8
LAYER01
  6
CONTINUOUS
 62
     7
 10
1085.907254
 20
-51.533811999999998
 30
0.0
  0
VERTEX
  5
1333
  8
LAYER01
  6
CONTINUOUS
 62
     7
 10
1086.0506559999999
 20
-51.554234000000001
 30
0.0
  0
VERTEX
  5
1334
  8
LAYER01
  6
CONTINUOUS
 62
     7
 10
1086.1938929999999
 20
-51.575052999999997
 30
0.0
  0
VERTEX
  5
1335
  8
LAYER01
  6
CONTINUOUS
 62
     7
 10
1086.336967
 20
-51.596243000000001
 30
0.0
  0
VERTEX
  5
1336
  8
LAYER01
  6
CONTINUOUS
 62
     7
 10
1086.4798800000001
 20
-51.617778999999999
 30
0.0
  0
VERTEX
  5
1337
  8
LAYER01
  6
CONTINUOUS
 62
     7
 10
1086.6226610000001
 20
-51.639637
 30
0.0
  0
VERTEX
  5
1338
  8
LAYER01
  6
CONTINUOUS
 62
     7
 10
1086.765328
 20
-51.661794
 30
0.0
  0
VERTEX
  5
1339
  8
LAYER01
  6
CONTINUOUS
 62
     7
 10
1086.9078649999999
 20
-51.684221000000001
 30
0.0
  0
VERTEX
  5
133A
  8
LAYER01
  6
CONTINUOUS
 62
     7
 10
1087.0502570000001
 20
-51.706888999999997
 30
0.0
  0
VERTEX
  5
133B
  8
LAYER01
  6
CONTINUOUS
 62
     7
 10
1087.192489
 20
-51.729768
 30
0.0
  0
VERTEX
  5
133C
  8
LAYER01
  6
CONTINUOUS
 62
     7
 10
1087.3345449999999
 20
-51.752830000000003
 30
0.0
  0
VERTEX
  5
133D
  8
LAYER01
  6
CONTINUOUS
 62
     7
 10
1087.4764110000001
 20
-51.776045000000011
 30
0.0
  0
VERTEX
  5
133E
  8
LAYER01
  6
CONTINUOUS
 62
     7
 10
1087.618072
 20
-51.799385000000001
 30
0.0
  0
VERTEX
  5
133F
  8
LAYER01
  6
CONTINUOUS
 62
     7
 10
1087.7595120000001
 20
-51.82282
 30
0.0
  0
VERTEX
  5
1340
  8
LAYER01
  6
CONTINUOUS
 62
     7
 10
1087.900715
 20
-51.846321000000003
 30
0.0
  0
VERTEX
  5
1341
  8
LAYER01
  6
CONTINUOUS
 62
     7
 10
1088.0416680000001
 20
-51.869860000000003
 30
0.0
  0
VERTEX
  5
1342
  8
LAYER01
  6
CONTINUOUS
 62
     7
 10
1088.1823010000001
 20
-51.893397
 30
0.0
  0
VERTEX
  5
1343
  8
LAYER01
  6
CONTINUOUS
 62
     7
 10
1088.3225580000001
 20
-51.916894999999997
 30
0.0
  0
VERTEX
  5
1344
  8
LAYER01
  6
CONTINUOUS
 62
     7
 10
1088.4624409999999
 20
-51.940330000000003
 30
0.0
  0
VERTEX
  5
1345
  8
LAYER01
  6
CONTINUOUS
 62
     7
 10
1088.601954
 20
-51.963678000000002
 30
0.0
  0
VERTEX
  5
1346
  8
LAYER01
  6
CONTINUOUS
 62
     7
 10
1088.741098
 20
-51.986915000000003
 30
0.0
  0
VERTEX
  5
1347
  8
LAYER01
  6
CONTINUOUS
 62
     7
 10
1088.8798770000001
 20
-52.010015000000003
 30
0.0
  0
VERTEX
  5
1348
  8
LAYER01
  6
CONTINUOUS
 62
     7
 10
1089.0182930000001
 20
-52.032955000000001
 30
0.0
  0
VERTEX
  5
1349
  8
LAYER01
  6
CONTINUOUS
 62
     7
 10
1089.156348
 20
-52.055711000000002
 30
0.0
  0
VERTEX
  5
134A
  8
LAYER01
  6
CONTINUOUS
 62
     7
 10
1089.294046
 20
-52.078257000000001
 30
0.0
  0
VERTEX
  5
134B
  8
LAYER01
  6
CONTINUOUS
 62
     7
 10
1089.4313890000001
 20
-52.100569999999998
 30
0.0
  0
VERTEX
  5
134C
  8
LAYER01
  6
CONTINUOUS
 62
     7
 10
1089.5683799999999
 20
-52.122624999999999
 30
0.0
  0
VERTEX
  5
134D
  8
LAYER01
  6
CONTINUOUS
 62
     7
 10
1089.7050220000001
 20
-52.144398000000002
 30
0.0
  0
VERTEX
  5
134E
  8
LAYER01
  6
CONTINUOUS
 62
     7
 10
1089.841316
 20
-52.165864999999997
 30
0.0
  0
VERTEX
  5
134F
  8
LAYER01
  6
CONTINUOUS
 62
     7
 10
1089.977267
 20
-52.186999999999998
 30
0.0
  0
VERTEX
  5
1350
  8
LAYER01
  6
CONTINUOUS
 62
     7
 10
1090.112875
 20
-52.207780999999997
 30
0.0
  0
VERTEX
  5
1351
  8
LAYER01
  6
CONTINUOUS
 62
     7
 10
1090.248145
 20
-52.228180999999999
 30
0.0
  0
VERTEX
  5
1352
  8
LAYER01
  6
CONTINUOUS
 62
     7
 10
1090.383079
 20
-52.248176999999998
 30
0.0
  0
VERTEX
  5
1353
  8
LAYER01
  6
CONTINUOUS
 62
     7
 10
1090.517679
 20
-52.267744999999998
 30
0.0
  0
VERTEX
  5
1354
  8
LAYER01
  6
CONTINUOUS
 62
     7
 10
1090.6519490000001
 20
-52.286861000000002
 30
0.0
  0
VERTEX
  5
1355
  8
LAYER01
  6
CONTINUOUS
 62
     7
 10
1090.7858900000001
 20
-52.30549899999999
 30
0.0
  0
VERTEX
  5
1356
  8
LAYER01
  6
CONTINUOUS
 62
     7
 10
1090.919506
 20
-52.323634999999989
 30
0.0
  0
VERTEX
  5
1357
  8
LAYER01
  6
CONTINUOUS
 62
     7
 10
1091.0527990000001
 20
-52.341246000000012
 30
0.0
  0
VERTEX
  5
1358
  8
LAYER01
  6
CONTINUOUS
 62
     7
 10
1091.18577
 20
-52.358319999999999
 30
0.0
  0
VERTEX
  5
1359
  8
LAYER01
  6
CONTINUOUS
 62
     7
 10
1091.3184209999999
 20
-52.374839999999999
 30
0.0
  0
VERTEX
  5
135A
  8
LAYER01
  6
CONTINUOUS
 62
     7
 10
1091.450752
 20
-52.390774
 30
0.0
  0
VERTEX
  5
135B
  8
LAYER01
  6
CONTINUOUS
 62
     7
 10
1091.5827670000001
 20
-52.406089999999999
 30
0.0
  0
VERTEX
  5
135C
  8
LAYER01
  6
CONTINUOUS
 62
     7
 10
1091.7144659999999
 20
-52.420755
 30
0.0
  0
VERTEX
  5
135D
  8
LAYER01
  6
CONTINUOUS
 62
     7
 10
1091.845851
 20
-52.434736999999998
 30
0.0
  0
VERTEX
  5
135E
  8
LAYER01
  6
CONTINUOUS
 62
     7
 10
1091.9769240000001
 20
-52.448003
 30
0.0
  0
VERTEX
  5
135F
  8
LAYER01
  6
CONTINUOUS
 62
     7
 10
1092.1076880000001
 20
-52.460519999999988
 30
0.0
  0
VERTEX
  5
1360
  8
LAYER01
  6
CONTINUOUS
 62
     7
 10
1092.2381419999999
 20
-52.472256999999992
 30
0.0
  0
VERTEX
  5
1361
  8
LAYER01
  6
CONTINUOUS
 62
     7
 10
1092.3682899999999
 20
-52.483180000000011
 30
0.0
  0
VERTEX
  5
1362
  8
LAYER01
  6
CONTINUOUS
 62
     7
 10
1092.4981330000001
 20
-52.493256999999993
 30
0.0
  0
VERTEX
  5
1363
  8
LAYER01
  6
CONTINUOUS
 62
     7
 10
1092.627673
 20
-52.502455000000012
 30
0.0
  0
VERTEX
  5
1364
  8
LAYER01
  6
CONTINUOUS
 62
     7
 10
1092.7569120000001
 20
-52.510742999999998
 30
0.0
  0
VERTEX
  5
1365
  8
LAYER01
  6
CONTINUOUS
 62
     7
 10
1092.885851
 20
-52.518087000000001
 30
0.0
  0
VERTEX
  5
1366
  8
LAYER01
  6
CONTINUOUS
 62
     7
 10
1093.0144909999999
 20
-52.524455000000003
 30
0.0
  0
VERTEX
  5
1367
  8
LAYER01
  6
CONTINUOUS
 62
     7
 10
1093.142836
 20
-52.529814999999999
 30
0.0
  0
VERTEX
  5
1368
  8
LAYER01
  6
CONTINUOUS
 62
     7
 10
1093.2708869999999
 20
-52.534133999999987
 30
0.0
  0
VERTEX
  5
1369
  8
LAYER01
  6
CONTINUOUS
 62
     7
 10
1093.3986440000001
 20
-52.537379000000001
 30
0.0
  0
VERTEX
  5
136A
  8
LAYER01
  6
CONTINUOUS
 62
     7
 10
1093.5261109999999
 20
-52.539518000000008
 30
0.0
  0
VERTEX
  5
136B
  8
LAYER01
  6
CONTINUOUS
 62
     7
 10
1093.6532890000001
 20
-52.540517999999999
 30
0.0
  0
VERTEX
  5
136C
  8
LAYER01
  6
CONTINUOUS
 62
     7
 10
1093.7801790000001
 20
-52.540348000000002
 30
0.0
  0
VERTEX
  5
136D
  8
LAYER01
  6
CONTINUOUS
 62
     7
 10
1093.906784
 20
-52.538973999999989
 30
0.0
  0
SEQEND
  5
136E
  8
LAYER01
  6
CONTINUOUS
 62
     7
  0
LINE
  5
560
  8
LAYER01
  6
CONTINUOUS
 62
     7
 10
1061.839062
 20
-64.743504999999985
 30
0.0
 11
1061.839062
 21
-52.382984999999991
 31
0.0
  0
LINE
  5
561
  8
LAYER01
  6
CONTINUOUS
 62
     7
 10
1061.839062
 20
-64.743504999999985
 30
0.0
 11
1016.615398
 21
-64.743504999999985
 31
0.0
  0
POLYLINE
  5
562
  8
LAYER01
  6
CONTINUOUS
 62
     7
 66
     1
 10
0.0
 20
0.0
 30
0.0
  0
VERTEX
  5
136F
  8
LAYER01
  6
CONTINUOUS
 62
     7
 10
1101.0109560000001
 20
-52.427372999999989
 30
0.0
  0
VERTEX
  5
1370
  8
LAYER01
  6
CONTINUOUS
 62
     7
 10
1101.0273540000001
 20
-52.42704899999999
 30
0.0
  0
VERTEX
  5
1371
  8
LAYER01
  6
CONTINUOUS
 62
     7
 10
1101.043705
 20
-52.426594000000001
 30
0.0
  0
VERTEX
  5
1372
  8
LAYER01
  6
CONTINUOUS
 62
     7
 10
1101.0600099999999
 20
-52.426006000000001
 30
0.0
  0
VERTEX
  5
1373
  8
LAYER01
  6
CONTINUOUS
 62
     7
 10
1101.0762669999999
 20
-52.425286999999997
 30
0.0
  0
VERTEX
  5
1374
  8
LAYER01
  6
CONTINUOUS
 62
     7
 10
1101.092478
 20
-52.424436
 30
0.0
  0
VERTEX
  5
1375
  8
LAYER01
  6
CONTINUOUS
 62
     7
 10
1101.108643
 20
-52.423453000000002
 30
0.0
  0
VERTEX
  5
1376
  8
LAYER01
  6
CONTINUOUS
 62
     7
 10
1101.124761
 20
-52.422338000000011
 30
0.0
  0
VERTEX
  5
1377
  8
LAYER01
  6
CONTINUOUS
 62
     7
 10
1101.1408329999999
 20
-52.42109
 30
0.0
  0
VERTEX
  5
1378
  8
LAYER01
  6
CONTINUOUS
 62
     7
 10
1101.1568589999999
 20
-52.419708999999997
 30
0.0
  0
VERTEX
  5
1379
  8
LAYER01
  6
CONTINUOUS
 62
     7
 10
1101.172838
 20
-52.418194999999997
 30
0.0
  0
VERTEX
  5
137A
  8
LAYER01
  6
CONTINUOUS
 62
     7
 10
1101.1887710000001
 20
-52.416549000000003
 30
0.0
  0
VERTEX
  5
137B
  8
LAYER01
  6
CONTINUOUS
 62
     7
 10
1101.2046580000001
 20
-52.414769
 30
0.0
  0
VERTEX
  5
137C
  8
LAYER01
  6
CONTINUOUS
 62
     7
 10
1101.220499
 20
-52.412857000000002
 30
0.0
  0
VERTEX
  5
137D
  8
LAYER01
  6
CONTINUOUS
 62
     7
 10
1101.236294
 20
-52.410810999999988
 30
0.0
  0
VERTEX
  5
137E
  8
LAYER01
  6
CONTINUOUS
 62
     7
 10
1101.252043
 20
-52.408631
 30
0.0
  0
VERTEX
  5
137F
  8
LAYER01
  6
CONTINUOUS
 62
     7
 10
1101.267746
 20
-52.406317999999999
 30
0.0
  0
VERTEX
  5
1380
  8
LAYER01
  6
CONTINUOUS
 62
     7
 10
1101.2834029999999
 20
-52.403871000000002
 30
0.0
  0
VERTEX
  5
1381
  8
LAYER01
  6
CONTINUOUS
 62
     7
 10
1101.2990150000001
 20
-52.401290000000003
 30
0.0
  0
VERTEX
  5
1382
  8
LAYER01
  6
CONTINUOUS
 62
     7
 10
1101.3145810000001
 20
-52.398575000000001
 30
0.0
  0
VERTEX
  5
1383
  8
LAYER01
  6
CONTINUOUS
 62
     7
 10
1101.330101
 20
-52.395726000000003
 30
0.0
  0
VERTEX
  5
1384
  8
LAYER01
  6
CONTINUOUS
 62
     7
 10
1101.3455759999999
 20
-52.392741999999998
 30
0.0
  0
VERTEX
  5
1385
  8
LAYER01
  6
CONTINUOUS
 62
     7
 10
1101.361005
 20
-52.389623999999998
 30
0.0
  0
VERTEX
  5
1386
  8
LAYER01
  6
CONTINUOUS
 62
     7
 10
1101.376389
 20
-52.386370999999997
 30
0.0
  0
VERTEX
  5
1387
  8
LAYER01
  6
CONTINUOUS
 62
     7
 10
1101.3917280000001
 20
-52.382984
 30
0.0
  0
SEQEND
  5
1388
  8
LAYER01
  6
CONTINUOUS
 62
     7
  0
POLYLINE
  5
57D
  8
LAYER01
  6
CONTINUOUS
 62
     7
 66
     1
 10
0.0
 20
0.0
 30
0.0
  0
VERTEX
  5
1389
  8
LAYER01
  6
CONTINUOUS
 62
     7
 10
1061.839062
 20
-52.382984
 30
0.0
  0
VERTEX
  5
138A
  8
LAYER01
  6
CONTINUOUS
 62
     7
 10
1061.854407
 20
-52.386372999999999
 30
0.0
  0
VERTEX
  5
138B
  8
LAYER01
  6
CONTINUOUS
 62
     7
 10
1061.8697970000001
 20
-52.389626999999997
 30
0.0
  0
VERTEX
  5
138C
  8
LAYER01
  6
CONTINUOUS
 62
     7
 10
1061.885231
 20
-52.392746000000002
 30
0.0
  0
VERTEX
  5
138D
  8
LAYER01
  6
CONTINUOUS
 62
     7
 10
1061.9007099999999
 20
-52.39573
 30
0.0
  0
VERTEX
  5
138E
  8
LAYER01
  6
CONTINUOUS
 62
     7
 10
1061.9162349999999
 20
-52.398579999999988
 30
0.0
  0
VERTEX
  5
138F
  8
LAYER01
  6
CONTINUOUS
 62
     7
 10
1061.9318040000001
 20
-52.401294999999998
 30
0.0
  0
VERTEX
  5
1390
  8
LAYER01
  6
CONTINUOUS
 62
     7
 10
1061.9474190000001
 20
-52.403875999999997
 30
0.0
  0
VERTEX
  5
1391
  8
LAYER01
  6
CONTINUOUS
 62
     7
 10
1061.9630790000001
 20
-52.406323
 30
0.0
  0
VERTEX
  5
1392
  8
LAYER01
  6
CONTINUOUS
 62
     7
 10
1061.9787839999999
 20
-52.408636000000001
 30
0.0
  0
VERTEX
  5
1393
  8
LAYER01
  6
CONTINUOUS
 62
     7
 10
1061.9945339999999
 20
-52.410815999999997
 30
0.0
  0
VERTEX
  5
1394
  8
LAYER01
  6
CONTINUOUS
 62
     7
 10
1062.0103300000001
 20
-52.412861999999997
 30
0.0
  0
VERTEX
  5
1395
  8
LAYER01
  6
CONTINUOUS
 62
     7
 10
1062.026171
 20
-52.414774000000001
 30
0.0
  0
VERTEX
  5
1396
  8
LAYER01
  6
CONTINUOUS
 62
     7
 10
1062.042058
 20
-52.416553
 30
0.0
  0
VERTEX
  5
1397
  8
LAYER01
  6
CONTINUOUS
 62
     7
 10
1062.05799
 20
-52.418199000000001
 30
0.0
  0
VERTEX
  5
1398
  8
LAYER01
  6
CONTINUOUS
 62
     7
 10
1062.0739679999999
 20
-52.419711999999997
 30
0.0
  0
VERTEX
  5
1399
  8
LAYER01
  6
CONTINUOUS
 62
     7
 10
1062.0899919999999
 20
-52.421092000000002
 30
0.0
  0
VERTEX
  5
139A
  8
LAYER01
  6
CONTINUOUS
 62
     7
 10
1062.106061
 20
-52.422339999999998
 30
0.0
  0
VERTEX
  5
139B
  8
LAYER01
  6
CONTINUOUS
 62
     7
 10
1062.122177
 20
-52.42345499999999
 30
0.0
  0
VERTEX
  5
139C
  8
LAYER01
  6
CONTINUOUS
 62
     7
 10
1062.138338
 20
-52.424438000000002
 30
0.0
  0
VERTEX
  5
139D
  8
LAYER01
  6
CONTINUOUS
 62
     7
 10
1062.1545450000001
 20
-52.425288999999992
 30
0.0
  0
VERTEX
  5
139E
  8
LAYER01
  6
CONTINUOUS
 62
     7
 10
1062.1707980000001
 20
-52.426006999999998
 30
0.0
  0
VERTEX
  5
139F
  8
LAYER01
  6
CONTINUOUS
 62
     7
 10
1062.187097
 20
-52.426594000000001
 30
0.0
  0
VERTEX
  5
13A0
  8
LAYER01
  6
CONTINUOUS
 62
     7
 10
1062.2034430000001
 20
-52.42704899999999
 30
0.0
  0
VERTEX
  5
13A1
  8
LAYER01
  6
CONTINUOUS
 62
     7
 10
1062.219834
 20
-52.427372999999989
 30
0.0
  0
SEQEND
  5
13A2
  8
LAYER01
  6
CONTINUOUS
 62
     7
  0
POLYLINE
  5
598
  8
LAYER01
  6
CONTINUOUS
 62
     7
 66
     1
 10
0.0
 20
0.0
 30
0.0
  0
VERTEX
  5
13A3
  8
LAYER01
  6
CONTINUOUS
 62
     7
 10
1069.3240069999999
 20
-52.538977000000003
 30
0.0
  0
VERTEX
  5
13A4
  8
LAYER01
  6
CONTINUOUS
 62
     7
 10
1067.6646490000001
 20
-52.512907999999989
 30
0.0
  0
VERTEX
  5
13A5
  8
LAYER01
  6
CONTINUOUS
 62
     7
 10
1066.1130390000001
 20
-52.488529999999997
 30
0.0
  0
VERTEX
  5
13A6
  8
LAYER01
  6
CONTINUOUS
 62
     7
 10
1064.6811620000001
 20
-52.466036000000003
 30
0.0
  0
VERTEX
  5
13A7
  8
LAYER01
  6
CONTINUOUS
 62
     7
 10
1063.380079
 20
-52.445599000000001
 30
0.0
  0
VERTEX
  5
13A8
  8
LAYER01
  6
CONTINUOUS
 62
     7
 10
1062.2198330000001
 20
-52.427374999999998
 30
0.0
  0
SEQEND
  5
13A9
  8
LAYER01
  6
CONTINUOUS
 62
     7
  0
POLYLINE
  5
5A0
  8
LAYER01
  6
CONTINUOUS
 62
     7
 66
     1
 10
0.0
 20
0.0
 30
0.0
  0
VERTEX
  5
13AA
  8
LAYER01
  6
CONTINUOUS
 62
     7
 10
1093.906784
 20
-52.538977000000003
 30
0.0
  0
VERTEX
  5
13AB
  8
LAYER01
  6
CONTINUOUS
 62
     7
 10
1095.5661419999999
 20
-52.512907999999989
 30
0.0
  0
VERTEX
  5
13AC
  8
LAYER01
  6
CONTINUOUS
 62
     7
 10
1097.117751
 20
-52.488529999999997
 30
0.0
  0
VERTEX
  5
13AD
  8
LAYER01
  6
CONTINUOUS
 62
     7
 10
1098.549628
 20
-52.466036000000003
 30
0.0
  0
VERTEX
  5
13AE
  8
LAYER01
  6
CONTINUOUS
 62
     7
 10
1099.8507119999999
 20
-52.445599000000001
 30
0.0
  0
VERTEX
  5
13AF
  8
LAYER01
  6
CONTINUOUS
 62
     7
 10
1101.010957
 20
-52.427374999999998
 30
0.0
  0
SEQEND
  5
13B0
  8
LAYER01
  6
CONTINUOUS
 62
     7
  0
LINE
  5
5A8
  8
LAYER01
  6
CONTINUOUS
 62
     7
 10
1101.3917280000001
 20
-52.382984999999991
 30
0.0
 11
1101.3917280000001
 21
-64.743504999999985
 31
0.0
  0
LINE
  5
5A9
  8
LAYER01
  6
CONTINUOUS
 62
     7
 10
1061.839062
 20
-64.743504999999985
 30
0.0
 11
1101.3917280000001
 21
-64.743504999999985
 31
0.0
  0
LINE
  5
5AA
  8
LAYER01
  6
CONTINUOUS
 62
     7
 10
1146.615393
 20
-64.743504999999985
 30
0.0
 11
1101.3917280000001
 21
-64.743504999999985
 31
0.0
  0
POLYLINE
  5
5AB
  8
LAYER01
  6
CONTINUOUS
 62
     7
 66
     1
 10
0.0
 20
0.0
 30
0.0
  0
VERTEX
  5
13B1
  8
LAYER01
  6
CONTINUOUS
 62
     7
 10
1081.565427
 20
-51.225155000000001
 30
0.0
  0
VERTEX
  5
13B2
  8
LAYER01
  6
CONTINUOUS
 62
     7
 10
1081.5695909999999
 20
-51.225203
 30
0.0
  0
VERTEX
  5
13B3
  8
LAYER01
  6
CONTINUOUS
 62
     7
 10
1081.5737549999999
 20
-51.225246999999989
 30
0.0
  0
VERTEX
  5
13B4
  8
LAYER01
  6
CONTINUOUS
 62
     7
 10
1081.5779190000001
 20
-51.225287000000002
 30
0.0
  0
VERTEX
  5
13B5
  8
LAYER01
  6
CONTINUOUS
 62
     7
 10
1081.5820819999999
 20
-51.225321999999998
 30
0.0
  0
VERTEX
  5
13B6
  8
LAYER01
  6
CONTINUOUS
 62
     7
 10
1081.5862460000001
 20
-51.225354000000003
 30
0.0
  0
VERTEX
  5
13B7
  8
LAYER01
  6
CONTINUOUS
 62
     7
 10
1081.59041
 20
-51.225380999999992
 30
0.0
  0
VERTEX
  5
13B8
  8
LAYER01
  6
CONTINUOUS
 62
     7
 10
1081.5945750000001
 20
-51.225403999999997
 30
0.0
  0
VERTEX
  5
13B9
  8
LAYER01
  6
CONTINUOUS
 62
     7
 10
1081.598739
 20
-51.225422999999999
 30
0.0
  0
VERTEX
  5
13BA
  8
LAYER01
  6
CONTINUOUS
 62
     7
 10
1081.602903
 20
-51.22543799999999
 30
0.0
  0
VERTEX
  5
13BB
  8
LAYER01
  6
CONTINUOUS
 62
     7
 10
1081.6070669999999
 20
-51.225448
 30
0.0
  0
VERTEX
  5
13BC
  8
LAYER01
  6
CONTINUOUS
 62
     7
 10
1081.6112310000001
 20
-51.225453999999992
 30
0.0
  0
VERTEX
  5
13BD
  8
LAYER01
  6
CONTINUOUS
 62
     7
 10
1081.615395
 20
-51.225456000000001
 30
0.0
  0
VERTEX
  5
13BE
  8
LAYER01
  6
CONTINUOUS
 62
     7
 10
1081.619559
 20
-51.225453999999992
 30
0.0
  0
VERTEX
  5
13BF
  8
LAYER01
  6
CONTINUOUS
 62
     7
 10
1081.623724
 20
-51.225448
 30
0.0
  0
VERTEX
  5
13C0
  8
LAYER01
  6
CONTINUOUS
 62
     7
 10
1081.627888
 20
-51.22543799999999
 30
0.0
  0
VERTEX
  5
13C1
  8
LAYER01
  6
CONTINUOUS
 62
     7
 10
1081.6320519999999
 20
-51.225422999999999
 30
0.0
  0
VERTEX
  5
13C2
  8
LAYER01
  6
CONTINUOUS
 62
     7
 10
1081.6362160000001
 20
-51.225403999999997
 30
0.0
  0
VERTEX
  5
13C3
  8
LAYER01
  6
CONTINUOUS
 62
     7
 10
1081.6403800000001
 20
-51.225380999999992
 30
0.0
  0
VERTEX
  5
13C4
  8
LAYER01
  6
CONTINUOUS
 62
     7
 10
1081.644544
 20
-51.225354000000003
 30
0.0
  0
VERTEX
  5
13C5
  8
LAYER01
  6
CONTINUOUS
 62
     7
 10
1081.6487079999999
 20
-51.225321999999998
 30
0.0
  0
VERTEX
  5
13C6
  8
LAYER01
  6
CONTINUOUS
 62
     7
 10
1081.6528719999999
 20
-51.225287000000002
 30
0.0
  0
VERTEX
  5
13C7
  8
LAYER01
  6
CONTINUOUS
 62
     7
 10
1081.6570360000001
 20
-51.225246999999989
 30
0.0
  0
VERTEX
  5
13C8
  8
LAYER01
  6
CONTINUOUS
 62
     7
 10
1081.6612
 20
-51.225203
 30
0.0
  0
VERTEX
  5
13C9
  8
LAYER01
  6
CONTINUOUS
 62
     7
 10
1081.6653630000001
 20
-51.225155000000001
 30
0.0
  0
SEQEND
  5
13CA
  8
LAYER01
  6
CONTINUOUS
 62
     7
  0
LINE
  5
5C6
  8
LAYER01
  6
CONTINUOUS
 62
     7
 10
594.9521729999999
 20
713.04107199999999
 30
0.0
 11
1081.615395
 21
712.37220300000001
 31
0.0
  0
LINE
  5
5C7
  8
LAYER01
  6
CONTINUOUS
 62
     7
 10
1081.615395
 20
695.3488339999999
 30
0.0
 11
594.9521729999999
 21
694.99631699999998
 31
0.0
  0
POLYLINE
  5
5C8
  8
LAYER01
  6
CONTINUOUS
 62
     7
 66
     1
 10
0.0
 20
0.0
 30
0.0
  0
VERTEX
  5
13CB
  8
LAYER01
  6
CONTINUOUS
 62
     7
 10
586.59636899999998
 20
721.39686900000004
 30
0.0
  0
VERTEX
  5
13CC
  8
LAYER01
  6
CONTINUOUS
 62
     7
 10
585.62261899999999
 20
721.30135599999994
 30
0.0
  0
VERTEX
  5
13CD
  8
LAYER01
  6
CONTINUOUS
 62
     7
 10
584.68738199999996
 20
721.01845199999991
 30
0.0
  0
VERTEX
  5
13CE
  8
LAYER01
  6
CONTINUOUS
 62
     7
 10
583.82625099999996
 20
720.55892400000005
 30
0.0
  0
VERTEX
  5
13CF
  8
LAYER01
  6
CONTINUOUS
 62
     7
 10
583.072001
 20
719.94026299999985
 30
0.0
  0
VERTEX
  5
13D0
  8
LAYER01
  6
CONTINUOUS
 62
     7
 10
582.45333999999991
 20
719.186013
 30
0.0
  0
VERTEX
  5
13D1
  8
LAYER01
  6
CONTINUOUS
 62
     7
 10
581.99381200000005
 20
718.324882
 30
0.0
  0
VERTEX
  5
13D2
  8
LAYER01
  6
CONTINUOUS
 62
     7
 10
581.71090800000002
 20
717.38964499999986
 30
0.0
  0
VERTEX
  5
13D3
  8
LAYER01
  6
CONTINUOUS
 62
     7
 10
581.61539500000003
 20
716.41589499999998
 30
0.0
  0
SEQEND
  5
13D4
  8
LAYER01
  6
CONTINUOUS
 62
     7
  0
ARC
  5
5D3
  8
LAYER01
  6
CONTINUOUS
 62
     7
 10
571.61539500000003
 20
731.39686900000004
 30
0.0
 40
15.0
 50
90.0
 51
180.0
  0
ARC
  5
5D4
  8
LAYER01
  6
CONTINUOUS
 62
     7
 10
594.99676399999987
 20
708.01549899999986
 30
0.0
 40
5.0257699999999987
 50
90.508363000000003
 51
179.491637
  0
LINE
  5
5D5
  8
LAYER01
  6
CONTINUOUS
 62
     7
 10
589.97119199999986
 20
699.99100700000008
 30
0.0
 11
589.97119199999986
 21
708.06008999999995
 31
0.0
  0
ARC
  5
5D6
  8
LAYER01
  6
CONTINUOUS
 62
     7
 10
594.98258899999985
 20
700.00765000000001
 30
0.0
 40
5.011425
 50
180.19027700000001
 51
269.65224599999999
  0
LINE
  5
5D7
  8
LAYER01
  6
CONTINUOUS
 62
     7
 10
1081.627747
 20
695.44703800000002
 30
0.0
 11
1103.342083
 21
695.51439900000003
 31
0.0
  0
POLYLINE
  5
5D8
  8
LAYER01
  6
CONTINUOUS
 62
     7
 66
     1
 10
0.0
 20
0.0
 30
0.0
  0
VERTEX
  5
13D5
  8
LAYER01
  6
CONTINUOUS
 62
     7
 10
1101.0109560000001
 20
700.32953299999997
 30
0.0
  0
VERTEX
  5
13D6
  8
LAYER01
  6
CONTINUOUS
 62
     7
 10
1101.042359
 20
700.280124
 30
0.0
  0
VERTEX
  5
13D7
  8
LAYER01
  6
CONTINUOUS
 62
     7
 10
1101.07359
 20
700.23070700000005
 30
0.0
  0
VERTEX
  5
13D8
  8
LAYER01
  6
CONTINUOUS
 62
     7
 10
1101.10465
 20
700.18128300000001
 30
0.0
  0
VERTEX
  5
13D9
  8
LAYER01
  6
CONTINUOUS
 62
     7
 10
1101.13554
 20
700.13185199999987
 30
0.0
  0
VERTEX
  5
13DA
  8
LAYER01
  6
CONTINUOUS
 62
     7
 10
1101.16626
 20
700.08241499999997
 30
0.0
  0
VERTEX
  5
13DB
  8
LAYER01
  6
CONTINUOUS
 62
     7
 10
1101.1968099999999
 20
700.03297299999997
 30
0.0
  0
VERTEX
  5
13DC
  8
LAYER01
  6
CONTINUOUS
 62
     7
 10
1101.2271909999999
 20
699.98352599999998
 30
0.0
  0
VERTEX
  5
13DD
  8
LAYER01
  6
CONTINUOUS
 62
     7
 10
1101.2574029999989
 20
699.93407499999989
 30
0.0
  0
VERTEX
  5
13DE
  8
LAYER01
  6
CONTINUOUS
 62
     7
 10
1101.287446
 20
699.88462100000004
 30
0.0
  0
VERTEX
  5
13DF
  8
LAYER01
  6
CONTINUOUS
 62
     7
 10
1101.317321
 20
699.83516399999996
 30
0.0
  0
VERTEX
  5
13E0
  8
LAYER01
  6
CONTINUOUS
 62
     7
 10
1101.3470279999999
 20
699.78570400000001
 30
0.0
  0
VERTEX
  5
13E1
  8
LAYER01
  6
CONTINUOUS
 62
     7
 10
1101.3765679999999
 20
699.73624299999994
 30
0.0
  0
VERTEX
  5
13E2
  8
LAYER01
  6
CONTINUOUS
 62
     7
 10
1101.405941
 20
699.686781
 30
0.0
  0
VERTEX
  5
13E3
  8
LAYER01
  6
CONTINUOUS
 62
     7
 10
1101.435146
 20
699.63731900000005
 30
0.0
  0
VERTEX
  5
13E4
  8
LAYER01
  6
CONTINUOUS
 62
     7
 10
1101.464185
 20
699.58785699999999
 30
0.0
  0
VERTEX
  5
13E5
  8
LAYER01
  6
CONTINUOUS
 62
     7
 10
1101.4930589999999
 20
699.53839600000003
 30
0.0
  0
VERTEX
  5
13E6
  8
LAYER01
  6
CONTINUOUS
 62
     7
 10
1101.5217660000001
 20
699.48893699999996
 30
0.0
  0
VERTEX
  5
13E7
  8
LAYER01
  6
CONTINUOUS
 62
     7
 10
1101.5503080000001
 20
699.43948
 30
0.0
  0
VERTEX
  5
13E8
  8
LAYER01
  6
CONTINUOUS
 62
     7
 10
1101.5786860000001
 20
699.39002600000003
 30
0.0
  0
VERTEX
  5
13E9
  8
LAYER01
  6
CONTINUOUS
 62
     7
 10
1101.606898
 20
699.34057499999994
 30
0.0
  0
VERTEX
  5
13EA
  8
LAYER01
  6
CONTINUOUS
 62
     7
 10
1101.6349459999999
 20
699.29112800000007
 30
0.0
  0
VERTEX
  5
13EB
  8
LAYER01
  6
CONTINUOUS
 62
     7
 10
1101.6628310000001
 20
699.24168699999996
 30
0.0
  0
VERTEX
  5
13EC
  8
LAYER01
  6
CONTINUOUS
 62
     7
 10
1101.690552
 20
699.19224999999994
 30
0.0
  0
VERTEX
  5
13ED
  8
LAYER01
  6
CONTINUOUS
 62
     7
 10
1101.71811
 20
699.14282000000003
 30
0.0
  0
VERTEX
  5
13EE
  8
LAYER01
  6
CONTINUOUS
 62
     7
 10
1101.745504
 20
699.09339599999987
 30
0.0
  0
VERTEX
  5
13EF
  8
LAYER01
  6
CONTINUOUS
 62
     7
 10
1101.772737
 20
699.04398000000003
 30
0.0
  0
VERTEX
  5
13F0
  8
LAYER01
  6
CONTINUOUS
 62
     7
 10
1101.7998070000001
 20
698.99457199999995
 30
0.0
  0
VERTEX
  5
13F1
  8
LAYER01
  6
CONTINUOUS
 62
     7
 10
1101.826716
 20
698.94517199999996
 30
0.0
  0
VERTEX
  5
13F2
  8
LAYER01
  6
CONTINUOUS
 62
     7
 10
1101.853464
 20
698.89578200000005
 30
0.0
  0
VERTEX
  5
13F3
  8
LAYER01
  6
CONTINUOUS
 62
     7
 10
1101.88005
 20
698.84640100000001
 30
0.0
  0
VERTEX
  5
13F4
  8
LAYER01
  6
CONTINUOUS
 62
     7
 10
1101.906475
 20
698.79702799999995
 30
0.0
  0
VERTEX
  5
13F5
  8
LAYER01
  6
CONTINUOUS
 62
     7
 10
1101.9327350000001
 20
698.74767299999996
 30
0.0
  0
VERTEX
  5
13F6
  8
LAYER01
  6
CONTINUOUS
 62
     7
 10
1101.9588209999999
 20
698.69835299999988
 30
0.0
  0
VERTEX
  5
13F7
  8
LAYER01
  6
CONTINUOUS
 62
     7
 10
1101.9847259999999
 20
698.64908699999989
 30
0.0
  0
VERTEX
  5
13F8
  8
LAYER01
  6
CONTINUOUS
 62
     7
 10
1102.0104429999999
 20
698.59989100000007
 30
0.0
  0
VERTEX
  5
13F9
  8
LAYER01
  6
CONTINUOUS
 62
     7
 10
1102.0359639999999
 20
698.55078500000002
 30
0.0
  0
VERTEX
  5
13FA
  8
LAYER01
  6
CONTINUOUS
 62
     7
 10
1102.0612819999999
 20
698.50178499999993
 30
0.0
  0
VERTEX
  5
13FB
  8
LAYER01
  6
CONTINUOUS
 62
     7
 10
1102.0863890000001
 20
698.45290999999986
 30
0.0
  0
VERTEX
  5
13FC
  8
LAYER01
  6
CONTINUOUS
 62
     7
 10
1102.1112780000001
 20
698.404178
 30
0.0
  0
VERTEX
  5
13FD
  8
LAYER01
  6
CONTINUOUS
 62
     7
 10
1102.135941
 20
698.35560699999996
 30
0.0
  0
VERTEX
  5
13FE
  8
LAYER01
  6
CONTINUOUS
 62
     7
 10
1102.1603720000001
 20
698.30721299999993
 30
0.0
  0
VERTEX
  5
13FF
  8
LAYER01
  6
CONTINUOUS
 62
     7
 10
1102.1845619999999
 20
698.25901699999986
 30
0.0
  0
VERTEX
  5
1400
  8
LAYER01
  6
CONTINUOUS
 62
     7
 10
1102.2085039999999
 20
698.21103400000004
 30
0.0
  0
VERTEX
  5
1401
  8
LAYER01
  6
CONTINUOUS
 62
     7
 10
1102.2321899999999
 20
698.16328299999986
 30
0.0
  0
VERTEX
  5
1402
  8
LAYER01
  6
CONTINUOUS
 62
     7
 10
1102.2556139999999
 20
698.11578299999985
 30
0.0
  0
VERTEX
  5
1403
  8
LAYER01
  6
CONTINUOUS
 62
     7
 10
1102.278785
 20
698.06851700000004
 30
0.0
  0
VERTEX
  5
1404
  8
LAYER01
  6
CONTINUOUS
 62
     7
 10
1102.301721
 20
698.02146100000004
 30
0.0
  0
VERTEX
  5
1405
  8
LAYER01
  6
CONTINUOUS
 62
     7
 10
1102.324423
 20
697.97461500000009
 30
0.0
  0
VERTEX
  5
1406
  8
LAYER01
  6
CONTINUOUS
 62
     7
 10
1102.346892
 20
697.92798200000004
 30
0.0
  0
VERTEX
  5
1407
  8
LAYER01
  6
CONTINUOUS
 62
     7
 10
1102.3691289999999
 20
697.88156399999991
 30
0.0
  0
VERTEX
  5
1408
  8
LAYER01
  6
CONTINUOUS
 62
     7
 10
1102.391136
 20
697.83536300000003
 30
0.0
  0
VERTEX
  5
1409
  8
LAYER01
  6
CONTINUOUS
 62
     7
 10
1102.4129129999999
 20
697.78937999999994
 30
0.0
  0
VERTEX
  5
140A
  8
LAYER01
  6
CONTINUOUS
 62
     7
 10
1102.4344630000001
 20
697.74361699999986
 30
0.0
  0
VERTEX
  5
140B
  8
LAYER01
  6
CONTINUOUS
 62
     7
 10
1102.455786
 20
697.6980769999999
 30
0.0
  0
VERTEX
  5
140C
  8
LAYER01
  6
CONTINUOUS
 62
     7
 10
1102.4768839999999
 20
697.65275999999994
 30
0.0
  0
VERTEX
  5
140D
  8
LAYER01
  6
CONTINUOUS
 62
     7
 10
1102.497758
 20
697.60766999999998
 30
0.0
  0
VERTEX
  5
140E
  8
LAYER01
  6
CONTINUOUS
 62
     7
 10
1102.5184099999999
 20
697.56280699999991
 30
0.0
  0
VERTEX
  5
140F
  8
LAYER01
  6
CONTINUOUS
 62
     7
 10
1102.5388399999999
 20
697.51817300000005
 30
0.0
  0
VERTEX
  5
1410
  8
LAYER01
  6
CONTINUOUS
 62
     7
 10
1102.5590500000001
 20
697.47377099999994
 30
0.0
  0
VERTEX
  5
1411
  8
LAYER01
  6
CONTINUOUS
 62
     7
 10
1102.5790420000001
 20
697.42960199999993
 30
0.0
  0
VERTEX
  5
1412
  8
LAYER01
  6
CONTINUOUS
 62
     7
 10
1102.598825
 20
697.38564399999996
 30
0.0
  0
VERTEX
  5
1413
  8
LAYER01
  6
CONTINUOUS
 62
     7
 10
1102.6184089999999
 20
697.34188300000005
 30
0.0
  0
VERTEX
  5
1414
  8
LAYER01
  6
CONTINUOUS
 62
     7
 10
1102.637788
 20
697.29833499999995
 30
0.0
  0
VERTEX
  5
1415
  8
LAYER01
  6
CONTINUOUS
 62
     7
 10
1102.6569569999999
 20
697.25501699999995
 30
0.0
  0
VERTEX
  5
1416
  8
LAYER01
  6
CONTINUOUS
 62
     7
 10
1102.675913
 20
697.21194400000002
 30
0.0
  0
VERTEX
  5
1417
  8
LAYER01
  6
CONTINUOUS
 62
     7
 10
1102.694651
 20
697.16913199999988
 30
0.0
  0
VERTEX
  5
1418
  8
LAYER01
  6
CONTINUOUS
 62
     7
 10
1102.713166
 20
697.12659699999995
 30
0.0
  0
VERTEX
  5
1419
  8
LAYER01
  6
CONTINUOUS
 62
     7
 10
1102.7314530000001
 20
697.08435599999984
 30
0.0
  0
VERTEX
  5
141A
  8
LAYER01
  6
CONTINUOUS
 62
     7
 10
1102.749509
 20
697.04242299999999
 30
0.0
  0
VERTEX
  5
141B
  8
LAYER01
  6
CONTINUOUS
 62
     7
 10
1102.7673279999999
 20
697.00081499999987
 30
0.0
  0
VERTEX
  5
141C
  8
LAYER01
  6
CONTINUOUS
 62
     7
 10
1102.784907
 20
696.95954800000004
 30
0.0
  0
VERTEX
  5
141D
  8
LAYER01
  6
CONTINUOUS
 62
     7
 10
1102.80224
 20
696.91863799999999
 30
0.0
  0
VERTEX
  5
141E
  8
LAYER01
  6
CONTINUOUS
 62
     7
 10
1102.8193229999999
 20
696.8780999999999
 30
0.0
  0
VERTEX
  5
141F
  8
LAYER01
  6
CONTINUOUS
 62
     7
 10
1102.8361520000001
 20
696.83795099999998
 30
0.0
  0
VERTEX
  5
1420
  8
LAYER01
  6
CONTINUOUS
 62
     7
 10
1102.852723
 20
696.79820700000005
 30
0.0
  0
VERTEX
  5
1421
  8
LAYER01
  6
CONTINUOUS
 62
     7
 10
1102.8690260000001
 20
696.75889500000005
 30
0.0
  0
VERTEX
  5
1422
  8
LAYER01
  6
CONTINUOUS
 62
     7
 10
1102.885059
 20
696.72003399999994
 30
0.0
  0
VERTEX
  5
1423
  8
LAYER01
  6
CONTINUOUS
 62
     7
 10
1102.9008240000001
 20
696.68162599999994
 30
0.0
  0
VERTEX
  5
1424
  8
LAYER01
  6
CONTINUOUS
 62
     7
 10
1102.9163229999999
 20
696.64367100000004
 30
0.0
  0
VERTEX
  5
1425
  8
LAYER01
  6
CONTINUOUS
 62
     7
 10
1102.9315590000001
 20
696.6061709999999
 30
0.0
  0
VERTEX
  5
1426
  8
LAYER01
  6
CONTINUOUS
 62
     7
 10
1102.946535
 20
696.56912699999987
 30
0.0
  0
VERTEX
  5
1427
  8
LAYER01
  6
CONTINUOUS
 62
     7
 10
1102.9612520000001
 20
696.53254000000004
 30
0.0
  0
VERTEX
  5
1428
  8
LAYER01
  6
CONTINUOUS
 62
     7
 10
1102.975713
 20
696.49640999999986
 30
0.0
  0
VERTEX
  5
1429
  8
LAYER01
  6
CONTINUOUS
 62
     7
 10
1102.98992
 20
696.46073999999999
 30
0.0
  0
VERTEX
  5
142A
  8
LAYER01
  6
CONTINUOUS
 62
     7
 10
1103.003876
 20
696.42553099999986
 30
0.0
  0
VERTEX
  5
142B
  8
LAYER01
  6
CONTINUOUS
 62
     7
 10
1103.0175830000001
 20
696.39078300000006
 30
0.0
  0
VERTEX
  5
142C
  8
LAYER01
  6
CONTINUOUS
 62
     7
 10
1103.031043
 20
696.3564980000001
 30
0.0
  0
VERTEX
  5
142D
  8
LAYER01
  6
CONTINUOUS
 62
     7
 10
1103.0442599999999
 20
696.322677
 30
0.0
  0
VERTEX
  5
142E
  8
LAYER01
  6
CONTINUOUS
 62
     7
 10
1103.0572340000001
 20
696.28932099999986
 30
0.0
  0
VERTEX
  5
142F
  8
LAYER01
  6
CONTINUOUS
 62
     7
 10
1103.0699689999999
 20
696.25643099999991
 30
0.0
  0
VERTEX
  5
1430
  8
LAYER01
  6
CONTINUOUS
 62
     7
 10
1103.0824700000001
 20
696.22399999999993
 30
0.0
  0
VERTEX
  5
1431
  8
LAYER01
  6
CONTINUOUS
 62
     7
 10
1103.09474
 20
696.19202499999994
 30
0.0
  0
VERTEX
  5
1432
  8
LAYER01
  6
CONTINUOUS
 62
     7
 10
1103.1067800000001
 20
696.16051200000004
 30
0.0
  0
VERTEX
  5
1433
  8
LAYER01
  6
CONTINUOUS
 62
     7
 10
1103.1185869999999
 20
696.12947199999985
 30
0.0
  0
VERTEX
  5
1434
  8
LAYER01
  6
CONTINUOUS
 62
     7
 10
1103.1301619999999
 20
696.09890999999993
 30
0.0
  0
VERTEX
  5
1435
  8
LAYER01
  6
CONTINUOUS
 62
     7
 10
1103.1415039999999
 20
696.06883499999981
 30
0.0
  0
VERTEX
  5
1436
  8
LAYER01
  6
CONTINUOUS
 62
     7
 10
1103.152613
 20
696.0392559999998
 30
0.0
  0
VERTEX
  5
1437
  8
LAYER01
  6
CONTINUOUS
 62
     7
 10
1103.1634869999989
 20
696.01017899999999
 30
0.0
  0
VERTEX
  5
1438
  8
LAYER01
  6
CONTINUOUS
 62
     7
 10
1103.174127
 20
695.98161300000004
 30
0.0
  0
VERTEX
  5
1439
  8
LAYER01
  6
CONTINUOUS
 62
     7
 10
1103.184532
 20
695.95356600000002
 30
0.0
  0
VERTEX
  5
143A
  8
LAYER01
  6
CONTINUOUS
 62
     7
 10
1103.194702
 20
695.92604600000004
 30
0.0
  0
VERTEX
  5
143B
  8
LAYER01
  6
CONTINUOUS
 62
     7
 10
1103.2046350000001
 20
695.89905999999985
 30
0.0
  0
VERTEX
  5
143C
  8
LAYER01
  6
CONTINUOUS
 62
     7
 10
1103.2143309999999
 20
695.87261699999999
 30
0.0
  0
VERTEX
  5
143D
  8
LAYER01
  6
CONTINUOUS
 62
     7
 10
1103.22379
 20
695.846723
 30
0.0
  0
VERTEX
  5
143E
  8
LAYER01
  6
CONTINUOUS
 62
     7
 10
1103.2330099999999
 20
695.82138899999995
 30
0.0
  0
VERTEX
  5
143F
  8
LAYER01
  6
CONTINUOUS
 62
     7
 10
1103.2419870000001
 20
695.79663800000003
 30
0.0
  0
VERTEX
  5
1440
  8
LAYER01
  6
CONTINUOUS
 62
     7
 10
1103.2507129999999
 20
695.77249299999994
 30
0.0
  0
VERTEX
  5
1441
  8
LAYER01
  6
CONTINUOUS
 62
     7
 10
1103.2591910000001
 20
695.74895500000002
 30
0.0
  0
VERTEX
  5
1442
  8
LAYER01
  6
CONTINUOUS
 62
     7
 10
1103.2674219999999
 20
695.72602699999993
 30
0.0
  0
VERTEX
  5
1443
  8
LAYER01
  6
CONTINUOUS
 62
     7
 10
1103.2754070000001
 20
695.70370800000001
 30
0.0
  0
VERTEX
  5
1444
  8
LAYER01
  6
CONTINUOUS
 62
     7
 10
1103.2831490000001
 20
695.68200100000001
 30
0.0
  0
VERTEX
  5
1445
  8
LAYER01
  6
CONTINUOUS
 62
     7
 10
1103.2906479999999
 20
695.66090699999995
 30
0.0
  0
VERTEX
  5
1446
  8
LAYER01
  6
CONTINUOUS
 62
     7
 10
1103.2979049999999
 20
695.64042699999993
 30
0.0
  0
VERTEX
  5
1447
  8
LAYER01
  6
CONTINUOUS
 62
     7
 10
1103.304924
 20
695.62056399999994
 30
0.0
  0
VERTEX
  5
1448
  8
LAYER01
  6
CONTINUOUS
 62
     7
 10
1103.311704
 20
695.60131799999999
 30
0.0
  0
VERTEX
  5
1449
  8
LAYER01
  6
CONTINUOUS
 62
     7
 10
1103.3182469999999
 20
695.58268999999996
 30
0.0
  0
VERTEX
  5
144A
  8
LAYER01
  6
CONTINUOUS
 62
     7
 10
1103.3245549999999
 20
695.56468299999995
 30
0.0
  0
VERTEX
  5
144B
  8
LAYER01
  6
CONTINUOUS
 62
     7
 10
1103.3306299999999
 20
695.54729799999996
 30
0.0
  0
VERTEX
  5
144C
  8
LAYER01
  6
CONTINUOUS
 62
     7
 10
1103.336472
 20
695.53053599999987
 30
0.0
  0
VERTEX
  5
144D
  8
LAYER01
  6
CONTINUOUS
 62
     7
 10
1103.342083
 20
695.51439900000003
 30
0.0
  0
SEQEND
  5
144E
  8
LAYER01
  6
CONTINUOUS
 62
     7
  0
POLYLINE
  5
653
  8
LAYER01
  6
CONTINUOUS
 62
     7
 66
     1
 10
0.0
 20
0.0
 30
0.0
  0
VERTEX
  5
144F
  8
LAYER01
  6
CONTINUOUS
 62
     7
 10
1059.8887070000001
 20
695.51439900000003
 30
0.0
  0
VERTEX
  5
1450
  8
LAYER01
  6
CONTINUOUS
 62
     7
 10
1059.8943079999999
 20
695.53050499999995
 30
0.0
  0
VERTEX
  5
1451
  8
LAYER01
  6
CONTINUOUS
 62
     7
 10
1059.9001330000001
 20
695.54721900000004
 30
0.0
  0
VERTEX
  5
1452
  8
LAYER01
  6
CONTINUOUS
 62
     7
 10
1059.9061850000001
 20
695.56453799999986
 30
0.0
  0
VERTEX
  5
1453
  8
LAYER01
  6
CONTINUOUS
 62
     7
 10
1059.9124629999999
 20
695.58245999999986
 30
0.0
  0
VERTEX
  5
1454
  8
LAYER01
  6
CONTINUOUS
 62
     7
 10
1059.9189690000001
 20
695.60098099999993
 30
0.0
  0
VERTEX
  5
1455
  8
LAYER01
  6
CONTINUOUS
 62
     7
 10
1059.925704
 20
695.6200980000001
 30
0.0
  0
VERTEX
  5
1456
  8
LAYER01
  6
CONTINUOUS
 62
     7
 10
1059.9326679999999
 20
695.63980900000001
 30
0.0
  0
VERTEX
  5
1457
  8
LAYER01
  6
CONTINUOUS
 62
     7
 10
1059.9398619999999
 20
695.66011100000003
 30
0.0
  0
VERTEX
  5
1458
  8
LAYER01
  6
CONTINUOUS
 62
     7
 10
1059.947287
 20
695.68100099999981
 30
0.0
  0
VERTEX
  5
1459
  8
LAYER01
  6
CONTINUOUS
 62
     7
 10
1059.954945
 20
695.70247699999993
 30
0.0
  0
VERTEX
  5
145A
  8
LAYER01
  6
CONTINUOUS
 62
     7
 10
1059.962835
 20
695.72453399999995
 30
0.0
  0
VERTEX
  5
145B
  8
LAYER01
  6
CONTINUOUS
 62
     7
 10
1059.970959
 20
695.74717099999998
 30
0.0
  0
VERTEX
  5
145C
  8
LAYER01
  6
CONTINUOUS
 62
     7
 10
1059.979317
 20
695.77038400000004
 30
0.0
  0
VERTEX
  5
145D
  8
LAYER01
  6
CONTINUOUS
 62
     7
 10
1059.9879109999999
 20
695.79417100000001
 30
0.0
  0
VERTEX
  5
145E
  8
LAYER01
  6
CONTINUOUS
 62
     7
 10
1059.9967409999999
 20
695.81852900000001
 30
0.0
  0
VERTEX
  5
145F
  8
LAYER01
  6
CONTINUOUS
 62
     7
 10
1060.0058140000001
 20
695.84346700000003
 30
0.0
  0
VERTEX
  5
1460
  8
LAYER01
  6
CONTINUOUS
 62
     7
 10
1060.0151330000001
 20
695.86899299999993
 30
0.0
  0
VERTEX
  5
1461
  8
LAYER01
  6
CONTINUOUS
 62
     7
 10
1060.0247010000001
 20
695.89510199999995
 30
0.0
  0
VERTEX
  5
1462
  8
LAYER01
  6
CONTINUOUS
 62
     7
 10
1060.0345179999999
 20
695.92178999999987
 30
0.0
  0
VERTEX
  5
1463
  8
LAYER01
  6
CONTINUOUS
 62
     7
 10
1060.044584
 20
695.94905099999994
 30
0.0
  0
VERTEX
  5
1464
  8
LAYER01
  6
CONTINUOUS
 62
     7
 10
1060.054901
 20
695.97688099999993
 30
0.0
  0
VERTEX
  5
1465
  8
LAYER01
  6
CONTINUOUS
 62
     7
 10
1060.06547
 20
696.00527599999987
 30
0.0
  0
VERTEX
  5
1466
  8
LAYER01
  6
CONTINUOUS
 62
     7
 10
1060.0762910000001
 20
696.03422899999987
 30
0.0
  0
VERTEX
  5
1467
  8
LAYER01
  6
CONTINUOUS
 62
     7
 10
1060.0873650000001
 20
696.06373699999995
 30
0.0
  0
VERTEX
  5
1468
  8
LAYER01
  6
CONTINUOUS
 62
     7
 10
1060.0986929999999
 20
696.09379399999989
 30
0.0
  0
VERTEX
  5
1469
  8
LAYER01
  6
CONTINUOUS
 62
     7
 10
1060.1102760000001
 20
696.12439600000005
 30
0.0
  0
VERTEX
  5
146A
  8
LAYER01
  6
CONTINUOUS
 62
     7
 10
1060.122114
 20
696.15553899999998
 30
0.0
  0
VERTEX
  5
146B
  8
LAYER01
  6
CONTINUOUS
 62
     7
 10
1060.1342090000001
 20
696.18721600000003
 30
0.0
  0
VERTEX
  5
146C
  8
LAYER01
  6
CONTINUOUS
 62
     7
 10
1060.146561
 20
696.219424
 30
0.0
  0
VERTEX
  5
146D
  8
LAYER01
  6
CONTINUOUS
 62
     7
 10
1060.159171
 20
696.25215800000001
 30
0.0
  0
VERTEX
  5
146E
  8
LAYER01
  6
CONTINUOUS
 62
     7
 10
1060.172024
 20
696.28537000000006
 30
0.0
  0
VERTEX
  5
146F
  8
LAYER01
  6
CONTINUOUS
 62
     7
 10
1060.1851039999999
 20
696.31901399999992
 30
0.0
  0
VERTEX
  5
1470
  8
LAYER01
  6
CONTINUOUS
 62
     7
 10
1060.1984130000001
 20
696.35308699999985
 30
0.0
  0
VERTEX
  5
1471
  8
LAYER01
  6
CONTINUOUS
 62
     7
 10
1060.2119520000001
 20
696.38758700000005
 30
0.0
  0
VERTEX
  5
1472
  8
LAYER01
  6
CONTINUOUS
 62
     7
 10
1060.225723
 20
696.42251099999999
 30
0.0
  0
VERTEX
  5
1473
  8
LAYER01
  6
CONTINUOUS
 62
     7
 10
1060.2397269999999
 20
696.45785599999988
 30
0.0
  0
VERTEX
  5
1474
  8
LAYER01
  6
CONTINUOUS
 62
     7
 10
1060.253966
 20
696.49361900000008
 30
0.0
  0
VERTEX
  5
1475
  8
LAYER01
  6
CONTINUOUS
 62
     7
 10
1060.2684409999999
 20
696.52979700000003
 30
0.0
  0
VERTEX
  5
1476
  8
LAYER01
  6
CONTINUOUS
 62
     7
 10
1060.283154
 20
696.56638699999996
 30
0.0
  0
VERTEX
  5
1477
  8
LAYER01
  6
CONTINUOUS
 62
     7
 10
1060.2981050000001
 20
696.603387
 30
0.0
  0
VERTEX
  5
1478
  8
LAYER01
  6
CONTINUOUS
 62
     7
 10
1060.3132969999999
 20
696.64079500000003
 30
0.0
  0
VERTEX
  5
1479
  8
LAYER01
  6
CONTINUOUS
 62
     7
 10
1060.3287310000001
 20
696.67860599999995
 30
0.0
  0
VERTEX
  5
147A
  8
LAYER01
  6
CONTINUOUS
 62
     7
 10
1060.344409
 20
696.71681799999988
 30
0.0
  0
VERTEX
  5
147B
  8
LAYER01
  6
CONTINUOUS
 62
     7
 10
1060.3603310000001
 20
696.75542900000005
 30
0.0
  0
VERTEX
  5
147C
  8
LAYER01
  6
CONTINUOUS
 62
     7
 10
1060.3765000000001
 20
696.79443600000002
 30
0.0
  0
VERTEX
  5
147D
  8
LAYER01
  6
CONTINUOUS
 62
     7
 10
1060.3929270000001
 20
696.83385700000008
 30
0.0
  0
VERTEX
  5
147E
  8
LAYER01
  6
CONTINUOUS
 62
     7
 10
1060.409621
 20
696.87370899999985
 30
0.0
  0
VERTEX
  5
147F
  8
LAYER01
  6
CONTINUOUS
 62
     7
 10
1060.4265800000001
 20
696.91397699999993
 30
0.0
  0
VERTEX
  5
1480
  8
LAYER01
  6
CONTINUOUS
 62
     7
 10
1060.4438009999999
 20
696.95465100000001
 30
0.0
  0
VERTEX
  5
1481
  8
LAYER01
  6
CONTINUOUS
 62
     7
 10
1060.461282
 20
696.99571900000001
 30
0.0
  0
VERTEX
  5
1482
  8
LAYER01
  6
CONTINUOUS
 62
     7
 10
1060.4790210000001
 20
697.03716799999995
 30
0.0
  0
VERTEX
  5
1483
  8
LAYER01
  6
CONTINUOUS
 62
     7
 10
1060.497014
 20
697.07898699999987
 30
0.0
  0
VERTEX
  5
1484
  8
LAYER01
  6
CONTINUOUS
 62
     7
 10
1060.515261
 20
697.12116399999991
 30
0.0
  0
VERTEX
  5
1485
  8
LAYER01
  6
CONTINUOUS
 62
     7
 10
1060.533758
 20
697.16368599999998
 30
0.0
  0
VERTEX
  5
1486
  8
LAYER01
  6
CONTINUOUS
 62
     7
 10
1060.552502
 20
697.20654300000001
 30
0.0
  0
VERTEX
  5
1487
  8
LAYER01
  6
CONTINUOUS
 62
     7
 10
1060.5714929999999
 20
697.24972200000002
 30
0.0
  0
VERTEX
  5
1488
  8
LAYER01
  6
CONTINUOUS
 62
     7
 10
1060.5907259999999
 20
697.29320999999993
 30
0.0
  0
VERTEX
  5
1489
  8
LAYER01
  6
CONTINUOUS
 62
     7
 10
1060.6102000000001
 20
697.33699799999999
 30
0.0
  0
VERTEX
  5
148A
  8
LAYER01
  6
CONTINUOUS
 62
     7
 10
1060.629913
 20
697.38107100000002
 30
0.0
  0
VERTEX
  5
148B
  8
LAYER01
  6
CONTINUOUS
 62
     7
 10
1060.6498610000001
 20
697.42541900000003
 30
0.0
  0
VERTEX
  5
148C
  8
LAYER01
  6
CONTINUOUS
 62
     7
 10
1060.670032
 20
697.4700069999999
 30
0.0
  0
VERTEX
  5
148D
  8
LAYER01
  6
CONTINUOUS
 62
     7
 10
1060.690415
 20
697.51480800000002
 30
0.0
  0
VERTEX
  5
148E
  8
LAYER01
  6
CONTINUOUS
 62
     7
 10
1060.7110090000001
 20
697.55981799999995
 30
0.0
  0
VERTEX
  5
148F
  8
LAYER01
  6
CONTINUOUS
 62
     7
 10
1060.731818
 20
697.60503700000004
 30
0.0
  0
VERTEX
  5
1490
  8
LAYER01
  6
CONTINUOUS
 62
     7
 10
1060.7528400000001
 20
697.65046199999995
 30
0.0
  0
VERTEX
  5
1491
  8
LAYER01
  6
CONTINUOUS
 62
     7
 10
1060.7740779999999
 20
697.69609100000002
 30
0.0
  0
VERTEX
  5
1492
  8
LAYER01
  6
CONTINUOUS
 62
     7
 10
1060.7955320000001
 20
697.74192199999993
 30
0.0
  0
VERTEX
  5
1493
  8
LAYER01
  6
CONTINUOUS
 62
     7
 10
1060.8172030000001
 20
697.7879519999999
 30
0.0
  0
VERTEX
  5
1494
  8
LAYER01
  6
CONTINUOUS
 62
     7
 10
1060.839093
 20
697.83417899999995
 30
0.0
  0
VERTEX
  5
1495
  8
LAYER01
  6
CONTINUOUS
 62
     7
 10
1060.861202
 20
697.88060199999995
 30
0.0
  0
VERTEX
  5
1496
  8
LAYER01
  6
CONTINUOUS
 62
     7
 10
1060.8835320000001
 20
697.92721799999993
 30
0.0
  0
VERTEX
  5
1497
  8
LAYER01
  6
CONTINUOUS
 62
     7
 10
1060.906082
 20
697.97402499999987
 30
0.0
  0
VERTEX
  5
1498
  8
LAYER01
  6
CONTINUOUS
 62
     7
 10
1060.9288550000001
 20
698.02102000000002
 30
0.0
  0
VERTEX
  5
1499
  8
LAYER01
  6
CONTINUOUS
 62
     7
 10
1060.9518519999999
 20
698.06820300000004
 30
0.0
  0
VERTEX
  5
149A
  8
LAYER01
  6
CONTINUOUS
 62
     7
 10
1060.975072
 20
698.11557000000005
 30
0.0
  0
VERTEX
  5
149B
  8
LAYER01
  6
CONTINUOUS
 62
     7
 10
1060.998531
 20
698.16314299999999
 30
0.0
  0
VERTEX
  5
149C
  8
LAYER01
  6
CONTINUOUS
 62
     7
 10
1061.0222369999999
 20
698.21093699999994
 30
0.0
  0
VERTEX
  5
149D
  8
LAYER01
  6
CONTINUOUS
 62
     7
 10
1061.046186
 20
698.25893599999995
 30
0.0
  0
VERTEX
  5
149E
  8
LAYER01
  6
CONTINUOUS
 62
     7
 10
1061.0703719999999
 20
698.30712900000003
 30
0.0
  0
VERTEX
  5
149F
  8
LAYER01
  6
CONTINUOUS
 62
     7
 10
1061.0947900000001
 20
698.35549999999989
 30
0.0
  0
VERTEX
  5
14A0
  8
LAYER01
  6
CONTINUOUS
 62
     7
 10
1061.1194350000001
 20
698.40403800000001
 30
0.0
  0
VERTEX
  5
14A1
  8
LAYER01
  6
CONTINUOUS
 62
     7
 10
1061.144301
 20
698.45272799999998
 30
0.0
  0
VERTEX
  5
14A2
  8
LAYER01
  6
CONTINUOUS
 62
     7
 10
1061.1693829999999
 20
698.50155599999994
 30
0.0
  0
VERTEX
  5
14A3
  8
LAYER01
  6
CONTINUOUS
 62
     7
 10
1061.194677
 20
698.55050900000003
 30
0.0
  0
VERTEX
  5
14A4
  8
LAYER01
  6
CONTINUOUS
 62
     7
 10
1061.220176
 20
698.59957399999996
 30
0.0
  0
VERTEX
  5
14A5
  8
LAYER01
  6
CONTINUOUS
 62
     7
 10
1061.245876
 20
698.64873599999987
 30
0.0
  0
VERTEX
  5
14A6
  8
LAYER01
  6
CONTINUOUS
 62
     7
 10
1061.2717709999999
 20
698.69798300000002
 30
0.0
  0
VERTEX
  5
14A7
  8
LAYER01
  6
CONTINUOUS
 62
     7
 10
1061.297857
 20
698.74730099999999
 30
0.0
  0
VERTEX
  5
14A8
  8
LAYER01
  6
CONTINUOUS
 62
     7
 10
1061.3241270000001
 20
698.79667599999993
 30
0.0
  0
VERTEX
  5
14A9
  8
LAYER01
  6
CONTINUOUS
 62
     7
 10
1061.350576
 20
698.84609499999999
 30
0.0
  0
VERTEX
  5
14AA
  8
LAYER01
  6
CONTINUOUS
 62
     7
 10
1061.3771939999999
 20
698.895535
 30
0.0
  0
VERTEX
  5
14AB
  8
LAYER01
  6
CONTINUOUS
 62
     7
 10
1061.4039700000001
 20
698.94498099999987
 30
0.0
  0
VERTEX
  5
14AC
  8
LAYER01
  6
CONTINUOUS
 62
     7
 10
1061.4309069999999
 20
698.99443200000007
 30
0.0
  0
VERTEX
  5
14AD
  8
LAYER01
  6
CONTINUOUS
 62
     7
 10
1061.458003
 20
699.04388899999992
 30
0.0
  0
VERTEX
  5
14AE
  8
LAYER01
  6
CONTINUOUS
 62
     7
 10
1061.485261
 20
699.09334999999987
 30
0.0
  0
VERTEX
  5
14AF
  8
LAYER01
  6
CONTINUOUS
 62
     7
 10
1061.5126789999999
 20
699.14281600000004
 30
0.0
  0
VERTEX
  5
14B0
  8
LAYER01
  6
CONTINUOUS
 62
     7
 10
1061.540258
 20
699.19228399999986
 30
0.0
  0
VERTEX
  5
14B1
  8
LAYER01
  6
CONTINUOUS
 62
     7
 10
1061.567998
 20
699.2417549999999
 30
0.0
  0
VERTEX
  5
14B2
  8
LAYER01
  6
CONTINUOUS
 62
     7
 10
1061.5959009999999
 20
699.29122800000005
 30
0.0
  0
VERTEX
  5
14B3
  8
LAYER01
  6
CONTINUOUS
 62
     7
 10
1061.623965
 20
699.34070300000008
 30
0.0
  0
VERTEX
  5
14B4
  8
LAYER01
  6
CONTINUOUS
 62
     7
 10
1061.6521929999999
 20
699.39017799999988
 30
0.0
  0
VERTEX
  5
14B5
  8
LAYER01
  6
CONTINUOUS
 62
     7
 10
1061.6805830000001
 20
699.43965400000002
 30
0.0
  0
VERTEX
  5
14B6
  8
LAYER01
  6
CONTINUOUS
 62
     7
 10
1061.7091359999999
 20
699.48912900000005
 30
0.0
  0
VERTEX
  5
14B7
  8
LAYER01
  6
CONTINUOUS
 62
     7
 10
1061.737852
 20
699.53860299999997
 30
0.0
  0
VERTEX
  5
14B8
  8
LAYER01
  6
CONTINUOUS
 62
     7
 10
1061.7667329999999
 20
699.588075
 30
0.0
  0
VERTEX
  5
14B9
  8
LAYER01
  6
CONTINUOUS
 62
     7
 10
1061.7957779999999
 20
699.63754500000005
 30
0.0
  0
VERTEX
  5
14BA
  8
LAYER01
  6
CONTINUOUS
 62
     7
 10
1061.824987
 20
699.68701199999987
 30
0.0
  0
VERTEX
  5
14BB
  8
LAYER01
  6
CONTINUOUS
 62
     7
 10
1061.8543609999999
 20
699.73647599999993
 30
0.0
  0
VERTEX
  5
14BC
  8
LAYER01
  6
CONTINUOUS
 62
     7
 10
1061.8839009999999
 20
699.78593499999988
 30
0.0
  0
VERTEX
  5
14BD
  8
LAYER01
  6
CONTINUOUS
 62
     7
 10
1061.913605
 20
699.83538899999985
 30
0.0
  0
VERTEX
  5
14BE
  8
LAYER01
  6
CONTINUOUS
 62
     7
 10
1061.9434759999999
 20
699.88483899999994
 30
0.0
  0
VERTEX
  5
14BF
  8
LAYER01
  6
CONTINUOUS
 62
     7
 10
1061.9735129999999
 20
699.93428099999994
 30
0.0
  0
VERTEX
  5
14C0
  8
LAYER01
  6
CONTINUOUS
 62
     7
 10
1062.0037170000001
 20
699.98371799999995
 30
0.0
  0
VERTEX
  5
14C1
  8
LAYER01
  6
CONTINUOUS
 62
     7
 10
1062.034087
 20
700.03314699999987
 30
0.0
  0
VERTEX
  5
14C2
  8
LAYER01
  6
CONTINUOUS
 62
     7
 10
1062.064625
 20
700.08256799999992
 30
0.0
  0
VERTEX
  5
14C3
  8
LAYER01
  6
CONTINUOUS
 62
     7
 10
1062.0953300000001
 20
700.13198
 30
0.0
  0
VERTEX
  5
14C4
  8
LAYER01
  6
CONTINUOUS
 62
     7
 10
1062.1262039999999
 20
700.18138399999987
 30
0.0
  0
VERTEX
  5
14C5
  8
LAYER01
  6
CONTINUOUS
 62
     7
 10
1062.1572450000001
 20
700.23077699999988
 30
0.0
  0
VERTEX
  5
14C6
  8
LAYER01
  6
CONTINUOUS
 62
     7
 10
1062.188455
 20
700.2801599999998
 30
0.0
  0
VERTEX
  5
14C7
  8
LAYER01
  6
CONTINUOUS
 62
     7
 10
1062.219834
 20
700.32953299999997
 30
0.0
  0
SEQEND
  5
14C8
  8
LAYER01
  6
CONTINUOUS
 62
     7
  0
LINE
  5
6CE
  8
LAYER01
  6
CONTINUOUS
 62
     7
 10
1059.8887070000001
 20
695.51439900000003
 30
0.0
 11
1081.6030430000001
 21
695.44703800000002
 31
0.0
  0
POLYLINE
  5
6CF
  8
LAYER01
  6
CONTINUOUS
 62
     7
 66
     1
 10
0.0
 20
0.0
 30
0.0
  0
VERTEX
  5
14C9
  8
LAYER01
  6
CONTINUOUS
 62
     7
 10
1069.3240069999999
 20
707.40801899999997
 30
0.0
  0
VERTEX
  5
14CA
  8
LAYER01
  6
CONTINUOUS
 62
     7
 10
1069.450511
 20
707.48743400000001
 30
0.0
  0
VERTEX
  5
14CB
  8
LAYER01
  6
CONTINUOUS
 62
     7
 10
1069.5773139999999
 20
707.56590199999994
 30
0.0
  0
VERTEX
  5
14CC
  8
LAYER01
  6
CONTINUOUS
 62
     7
 10
1069.70442
 20
707.64342799999986
 30
0.0
  0
VERTEX
  5
14CD
  8
LAYER01
  6
CONTINUOUS
 62
     7
 10
1069.8318280000001
 20
707.72001499999999
 30
0.0
  0
VERTEX
  5
14CE
  8
LAYER01
  6
CONTINUOUS
 62
     7
 10
1069.9595409999999
 20
707.79566799999986
 30
0.0
  0
VERTEX
  5
14CF
  8
LAYER01
  6
CONTINUOUS
 62
     7
 10
1070.0875610000001
 20
707.87039000000004
 30
0.0
  0
VERTEX
  5
14D0
  8
LAYER01
  6
CONTINUOUS
 62
     7
 10
1070.2158890000001
 20
707.94418700000006
 30
0.0
  0
VERTEX
  5
14D1
  8
LAYER01
  6
CONTINUOUS
 62
     7
 10
1070.344527
 20
708.01706200000001
 30
0.0
  0
VERTEX
  5
14D2
  8
LAYER01
  6
CONTINUOUS
 62
     7
 10
1070.473477
 20
708.08901999999989
 30
0.0
  0
VERTEX
  5
14D3
  8
LAYER01
  6
CONTINUOUS
 62
     7
 10
1070.60274
 20
708.16006399999992
 30
0.0
  0
VERTEX
  5
14D4
  8
LAYER01
  6
CONTINUOUS
 62
     7
 10
1070.7323180000001
 20
708.23019999999985
 30
0.0
  0
VERTEX
  5
14D5
  8
LAYER01
  6
CONTINUOUS
 62
     7
 10
1070.8622130000001
 20
708.29943000000003
 30
0.0
  0
VERTEX
  5
14D6
  8
LAYER01
  6
CONTINUOUS
 62
     7
 10
1070.992426
 20
708.36775899999986
 30
0.0
  0
VERTEX
  5
14D7
  8
LAYER01
  6
CONTINUOUS
 62
     7
 10
1071.122959
 20
708.43519200000003
 30
0.0
  0
VERTEX
  5
14D8
  8
LAYER01
  6
CONTINUOUS
 62
     7
 10
1071.253813
 20
708.50173199999995
 30
0.0
  0
VERTEX
  5
14D9
  8
LAYER01
  6
CONTINUOUS
 62
     7
 10
1071.384992
 20
708.56738399999995
 30
0.0
  0
VERTEX
  5
14DA
  8
LAYER01
  6
CONTINUOUS
 62
     7
 10
1071.5164950000001
 20
708.63215199999991
 30
0.0
  0
VERTEX
  5
14DB
  8
LAYER01
  6
CONTINUOUS
 62
     7
 10
1071.6483250000001
 20
708.69604000000004
 30
0.0
  0
VERTEX
  5
14DC
  8
LAYER01
  6
CONTINUOUS
 62
     7
 10
1071.780483
 20
708.759052
 30
0.0
  0
VERTEX
  5
14DD
  8
LAYER01
  6
CONTINUOUS
 62
     7
 10
1071.9129720000001
 20
708.82119299999988
 30
0.0
  0
VERTEX
  5
14DE
  8
LAYER01
  6
CONTINUOUS
 62
     7
 10
1072.0457919999999
 20
708.88246600000002
 30
0.0
  0
VERTEX
  5
14DF
  8
LAYER01
  6
CONTINUOUS
 62
     7
 10
1072.178946
 20
708.94287599999996
 30
0.0
  0
VERTEX
  5
14E0
  8
LAYER01
  6
CONTINUOUS
 62
     7
 10
1072.3124359999999
 20
709.00242300000002
 30
0.0
  0
VERTEX
  5
14E1
  8
LAYER01
  6
CONTINUOUS
 62
     7
 10
1072.446263
 20
709.06110399999989
 30
0.0
  0
VERTEX
  5
14E2
  8
LAYER01
  6
CONTINUOUS
 62
     7
 10
1072.5804290000001
 20
709.118922
 30
0.0
  0
VERTEX
  5
14E3
  8
LAYER01
  6
CONTINUOUS
 62
     7
 10
1072.7149380000001
 20
709.17587600000002
 30
0.0
  0
VERTEX
  5
14E4
  8
LAYER01
  6
CONTINUOUS
 62
     7
 10
1072.8497910000001
 20
709.23196799999994
 30
0.0
  0
VERTEX
  5
14E5
  8
LAYER01
  6
CONTINUOUS
 62
     7
 10
1072.984991
 20
709.28719899999987
 30
0.0
  0
VERTEX
  5
14E6
  8
LAYER01
  6
CONTINUOUS
 62
     7
 10
1073.120539
 20
709.34157000000005
 30
0.0
  0
VERTEX
  5
14E7
  8
LAYER01
  6
CONTINUOUS
 62
     7
 10
1073.256439
 20
709.39508199999989
 30
0.0
  0
VERTEX
  5
14E8
  8
LAYER01
  6
CONTINUOUS
 62
     7
 10
1073.3926919999999
 20
709.44773599999996
 30
0.0
  0
VERTEX
  5
14E9
  8
LAYER01
  6
CONTINUOUS
 62
     7
 10
1073.5292999999999
 20
709.49953200000004
 30
0.0
  0
VERTEX
  5
14EA
  8
LAYER01
  6
CONTINUOUS
 62
     7
 10
1073.6662670000001
 20
709.55047200000001
 30
0.0
  0
VERTEX
  5
14EB
  8
LAYER01
  6
CONTINUOUS
 62
     7
 10
1073.8036239999999
 20
709.60056500000007
 30
0.0
  0
VERTEX
  5
14EC
  8
LAYER01
  6
CONTINUOUS
 62
     7
 10
1073.94139
 20
709.64981599999999
 30
0.0
  0
VERTEX
  5
14ED
  8
LAYER01
  6
CONTINUOUS
 62
     7
 10
1074.079547
 20
709.698216
 30
0.0
  0
VERTEX
  5
14EE
  8
LAYER01
  6
CONTINUOUS
 62
     7
 10
1074.2180800000001
 20
709.74576100000002
 30
0.0
  0
VERTEX
  5
14EF
  8
LAYER01
  6
CONTINUOUS
 62
     7
 10
1074.3569689999999
 20
709.79244299999993
 30
0.0
  0
VERTEX
  5
14F0
  8
LAYER01
  6
CONTINUOUS
 62
     7
 10
1074.4961989999999
 20
709.838255
 30
0.0
  0
VERTEX
  5
14F1
  8
LAYER01
  6
CONTINUOUS
 62
     7
 10
1074.635751
 20
709.88319200000001
 30
0.0
  0
VERTEX
  5
14F2
  8
LAYER01
  6
CONTINUOUS
 62
     7
 10
1074.7756099999999
 20
709.92724699999985
 30
0.0
  0
VERTEX
  5
14F3
  8
LAYER01
  6
CONTINUOUS
 62
     7
 10
1074.9157560000001
 20
709.97041300000001
 30
0.0
  0
VERTEX
  5
14F4
  8
LAYER01
  6
CONTINUOUS
 62
     7
 10
1075.0561729999999
 20
710.01268400000004
 30
0.0
  0
VERTEX
  5
14F5
  8
LAYER01
  6
CONTINUOUS
 62
     7
 10
1075.1968440000001
 20
710.05405299999995
 30
0.0
  0
VERTEX
  5
14F6
  8
LAYER01
  6
CONTINUOUS
 62
     7
 10
1075.337708
 20
710.09450700000002
 30
0.0
  0
VERTEX
  5
14F7
  8
LAYER01
  6
CONTINUOUS
 62
     7
 10
1075.478715
 20
710.13403800000003
 30
0.0
  0
VERTEX
  5
14F8
  8
LAYER01
  6
CONTINUOUS
 62
     7
 10
1075.61987
 20
710.17264599999999
 30
0.0
  0
VERTEX
  5
14F9
  8
LAYER01
  6
CONTINUOUS
 62
     7
 10
1075.7611730000001
 20
710.21033299999999
 30
0.0
  0
VERTEX
  5
14FA
  8
LAYER01
  6
CONTINUOUS
 62
     7
 10
1075.9026289999999
 20
710.24710000000005
 30
0.0
  0
VERTEX
  5
14FB
  8
LAYER01
  6
CONTINUOUS
 62
     7
 10
1076.0442390000001
 20
710.28294800000003
 30
0.0
  0
VERTEX
  5
14FC
  8
LAYER01
  6
CONTINUOUS
 62
     7
 10
1076.1860059999999
 20
710.31787799999995
 30
0.0
  0
VERTEX
  5
14FD
  8
LAYER01
  6
CONTINUOUS
 62
     7
 10
1076.327933
 20
710.35189000000003
 30
0.0
  0
VERTEX
  5
14FE
  8
LAYER01
  6
CONTINUOUS
 62
     7
 10
1076.470022
 20
710.38498700000002
 30
0.0
  0
VERTEX
  5
14FF
  8
LAYER01
  6
CONTINUOUS
 62
     7
 10
1076.612275
 20
710.41717000000006
 30
0.0
  0
VERTEX
  5
1500
  8
LAYER01
  6
CONTINUOUS
 62
     7
 10
1076.754696
 20
710.44843800000001
 30
0.0
  0
VERTEX
  5
1501
  8
LAYER01
  6
CONTINUOUS
 62
     7
 10
1076.8972859999999
 20
710.47879399999999
 30
0.0
  0
VERTEX
  5
1502
  8
LAYER01
  6
CONTINUOUS
 62
     7
 10
1077.040049
 20
710.50823799999989
 30
0.0
  0
VERTEX
  5
1503
  8
LAYER01
  6
CONTINUOUS
 62
     7
 10
1077.1829869999999
 20
710.53677199999993
 30
0.0
  0
VERTEX
  5
1504
  8
LAYER01
  6
CONTINUOUS
 62
     7
 10
1077.3261010000001
 20
710.56439699999999
 30
0.0
  0
VERTEX
  5
1505
  8
LAYER01
  6
CONTINUOUS
 62
     7
 10
1077.469396
 20
710.59111299999995
 30
0.0
  0
VERTEX
  5
1506
  8
LAYER01
  6
CONTINUOUS
 62
     7
 10
1077.612873
 20
710.61692199999993
 30
0.0
  0
VERTEX
  5
1507
  8
LAYER01
  6
CONTINUOUS
 62
     7
 10
1077.7565360000001
 20
710.64182500000004
 30
0.0
  0
VERTEX
  5
1508
  8
LAYER01
  6
CONTINUOUS
 62
     7
 10
1077.9003849999999
 20
710.66582300000005
 30
0.0
  0
VERTEX
  5
1509
  8
LAYER01
  6
CONTINUOUS
 62
     7
 10
1078.044425
 20
710.68891599999995
 30
0.0
  0
VERTEX
  5
150A
  8
LAYER01
  6
CONTINUOUS
 62
     7
 10
1078.188658
 20
710.71110700000008
 30
0.0
  0
VERTEX
  5
150B
  8
LAYER01
  6
CONTINUOUS
 62
     7
 10
1078.333085
 20
710.73239599999999
 30
0.0
  0
VERTEX
  5
150C
  8
LAYER01
  6
CONTINUOUS
 62
     7
 10
1078.4777120000001
 20
710.75278400000002
 30
0.0
  0
VERTEX
  5
150D
  8
LAYER01
  6
CONTINUOUS
 62
     7
 10
1078.622543
 20
710.77226799999994
 30
0.0
  0
VERTEX
  5
150E
  8
LAYER01
  6
CONTINUOUS
 62
     7
 10
1078.767578
 20
710.79084599999987
 30
0.0
  0
VERTEX
  5
150F
  8
LAYER01
  6
CONTINUOUS
 62
     7
 10
1078.912822
 20
710.80851399999995
 30
0.0
  0
VERTEX
  5
1510
  8
LAYER01
  6
CONTINUOUS
 62
     7
 10
1079.0582750000001
 20
710.82527000000005
 30
0.0
  0
VERTEX
  5
1511
  8
LAYER01
  6
CONTINUOUS
 62
     7
 10
1079.2039420000001
 20
710.84111099999996
 30
0.0
  0
VERTEX
  5
1512
  8
LAYER01
  6
CONTINUOUS
 62
     7
 10
1079.349823
 20
710.85603400000002
 30
0.0
  0
VERTEX
  5
1513
  8
LAYER01
  6
CONTINUOUS
 62
     7
 10
1079.495921
 20
710.87003600000003
 30
0.0
  0
VERTEX
  5
1514
  8
LAYER01
  6
CONTINUOUS
 62
     7
 10
1079.642239
 20
710.88311399999986
 30
0.0
  0
VERTEX
  5
1515
  8
LAYER01
  6
CONTINUOUS
 62
     7
 10
1079.788779
 20
710.89526599999988
 30
0.0
  0
VERTEX
  5
1516
  8
LAYER01
  6
CONTINUOUS
 62
     7
 10
1079.9355430000001
 20
710.90648799999997
 30
0.0
  0
VERTEX
  5
1517
  8
LAYER01
  6
CONTINUOUS
 62
     7
 10
1080.0825339999999
 20
710.91677799999991
 30
0.0
  0
VERTEX
  5
1518
  8
LAYER01
  6
CONTINUOUS
 62
     7
 10
1080.229754
 20
710.92613200000005
 30
0.0
  0
VERTEX
  5
1519
  8
LAYER01
  6
CONTINUOUS
 62
     7
 10
1080.3772059999999
 20
710.93454799999995
 30
0.0
  0
VERTEX
  5
151A
  8
LAYER01
  6
CONTINUOUS
 62
     7
 10
1080.524891
 20
710.94202299999995
 30
0.0
  0
VERTEX
  5
151B
  8
LAYER01
  6
CONTINUOUS
 62
     7
 10
1080.672812
 20
710.94855399999994
 30
0.0
  0
VERTEX
  5
151C
  8
LAYER01
  6
CONTINUOUS
 62
     7
 10
1080.8209710000001
 20
710.95413799999994
 30
0.0
  0
VERTEX
  5
151D
  8
LAYER01
  6
CONTINUOUS
 62
     7
 10
1080.9693709999999
 20
710.95877199999995
 30
0.0
  0
VERTEX
  5
151E
  8
LAYER01
  6
CONTINUOUS
 62
     7
 10
1081.118015
 20
710.96245399999987
 30
0.0
  0
VERTEX
  5
151F
  8
LAYER01
  6
CONTINUOUS
 62
     7
 10
1081.2669040000001
 20
710.96518000000003
 30
0.0
  0
VERTEX
  5
1520
  8
LAYER01
  6
CONTINUOUS
 62
     7
 10
1081.4160400000001
 20
710.96694799999989
 30
0.0
  0
VERTEX
  5
1521
  8
LAYER01
  6
CONTINUOUS
 62
     7
 10
1081.565427
 20
710.96775500000001
 30
0.0
  0
SEQEND
  5
1522
  8
LAYER01
  6
CONTINUOUS
 62
     7
  0
POLYLINE
  5
72A
  8
LAYER01
  6
CONTINUOUS
 62
     7
 66
     1
 10
0.0
 20
0.0
 30
0.0
  0
VERTEX
  5
1523
  8
LAYER01
  6
CONTINUOUS
 62
     7
 10
1081.6653630000001
 20
710.96775500000001
 30
0.0
  0
VERTEX
  5
1524
  8
LAYER01
  6
CONTINUOUS
 62
     7
 10
1081.814627
 20
710.96694899999989
 30
0.0
  0
VERTEX
  5
1525
  8
LAYER01
  6
CONTINUOUS
 62
     7
 10
1081.963657
 20
710.96518300000002
 30
0.0
  0
VERTEX
  5
1526
  8
LAYER01
  6
CONTINUOUS
 62
     7
 10
1082.1124560000001
 20
710.96245999999996
 30
0.0
  0
VERTEX
  5
1527
  8
LAYER01
  6
CONTINUOUS
 62
     7
 10
1082.2610259999999
 20
710.95878200000004
 30
0.0
  0
VERTEX
  5
1528
  8
LAYER01
  6
CONTINUOUS
 62
     7
 10
1082.409369
 20
710.95415199999991
 30
0.0
  0
VERTEX
  5
1529
  8
LAYER01
  6
CONTINUOUS
 62
     7
 10
1082.5574879999999
 20
710.94857200000001
 30
0.0
  0
VERTEX
  5
152A
  8
LAYER01
  6
CONTINUOUS
 62
     7
 10
1082.7053840000001
 20
710.94204500000001
 30
0.0
  0
VERTEX
  5
152B
  8
LAYER01
  6
CONTINUOUS
 62
     7
 10
1082.853059
 20
710.934574
 30
0.0
  0
VERTEX
  5
152C
  8
LAYER01
  6
CONTINUOUS
 62
     7
 10
1083.0005169999999
 20
710.92615999999987
 30
0.0
  0
VERTEX
  5
152D
  8
LAYER01
  6
CONTINUOUS
 62
     7
 10
1083.147759
 20
710.91680799999995
 30
0.0
  0
VERTEX
  5
152E
  8
LAYER01
  6
CONTINUOUS
 62
     7
 10
1083.2947859999999
 20
710.90651899999989
 30
0.0
  0
VERTEX
  5
152F
  8
LAYER01
  6
CONTINUOUS
 62
     7
 10
1083.4416020000001
 20
710.89529600000003
 30
0.0
  0
VERTEX
  5
1530
  8
LAYER01
  6
CONTINUOUS
 62
     7
 10
1083.588209
 20
710.88314100000002
 30
0.0
  0
VERTEX
  5
1531
  8
LAYER01
  6
CONTINUOUS
 62
     7
 10
1083.734608
 20
710.87005799999986
 30
0.0
  0
VERTEX
  5
1532
  8
LAYER01
  6
CONTINUOUS
 62
     7
 10
1083.8808019999999
 20
710.8560480000001
 30
0.0
  0
VERTEX
  5
1533
  8
LAYER01
  6
CONTINUOUS
 62
     7
 10
1084.026793
 20
710.84111500000006
 30
0.0
  0
VERTEX
  5
1534
  8
LAYER01
  6
CONTINUOUS
 62
     7
 10
1084.172583
 20
710.82526099999995
 30
0.0
  0
VERTEX
  5
1535
  8
LAYER01
  6
CONTINUOUS
 62
     7
 10
1084.318174
 20
710.80848900000001
 30
0.0
  0
VERTEX
  5
1536
  8
LAYER01
  6
CONTINUOUS
 62
     7
 10
1084.463569
 20
710.79080099999999
 30
0.0
  0
VERTEX
  5
1537
  8
LAYER01
  6
CONTINUOUS
 62
     7
 10
1084.6087689999999
 20
710.77219899999989
 30
0.0
  0
VERTEX
  5
1538
  8
LAYER01
  6
CONTINUOUS
 62
     7
 10
1084.7537769999999
 20
710.75268800000003
 30
0.0
  0
VERTEX
  5
1539
  8
LAYER01
  6
CONTINUOUS
 62
     7
 10
1084.8985949999999
 20
710.73226799999998
 30
0.0
  0
VERTEX
  5
153A
  8
LAYER01
  6
CONTINUOUS
 62
     7
 10
1085.043226
 20
710.71094000000005
 30
0.0
  0
VERTEX
  5
153B
  8
LAYER01
  6
CONTINUOUS
 62
     7
 10
1085.187674
 20
710.68870099999992
 30
0.0
  0
VERTEX
  5
153C
  8
LAYER01
  6
CONTINUOUS
 62
     7
 10
1085.3319409999999
 20
710.66555099999994
 30
0.0
  0
VERTEX
  5
153D
  8
LAYER01
  6
CONTINUOUS
 62
     7
 10
1085.47603
 20
710.64148899999986
 30
0.0
  0
VERTEX
  5
153E
  8
LAYER01
  6
CONTINUOUS
 62
     7
 10
1085.619944
 20
710.61651500000005
 30
0.0
  0
VERTEX
  5
153F
  8
LAYER01
  6
CONTINUOUS
 62
     7
 10
1085.763684
 20
710.59062900000004
 30
0.0
  0
VERTEX
  5
1540
  8
LAYER01
  6
CONTINUOUS
 62
     7
 10
1085.907254
 20
710.56383099999994
 30
0.0
  0
VERTEX
  5
1541
  8
LAYER01
  6
CONTINUOUS
 62
     7
 10
1086.0506559999999
 20
710.53611999999987
 30
0.0
  0
VERTEX
  5
1542
  8
LAYER01
  6
CONTINUOUS
 62
     7
 10
1086.1938929999999
 20
710.50749499999995
 30
0.0
  0
VERTEX
  5
1543
  8
LAYER01
  6
CONTINUOUS
 62
     7
 10
1086.336967
 20
710.47795799999994
 30
0.0
  0
VERTEX
  5
1544
  8
LAYER01
  6
CONTINUOUS
 62
     7
 10
1086.4798800000001
 20
710.44750599999986
 30
0.0
  0
VERTEX
  5
1545
  8
LAYER01
  6
CONTINUOUS
 62
     7
 10
1086.6226610000001
 20
710.41613200000006
 30
0.0
  0
VERTEX
  5
1546
  8
LAYER01
  6
CONTINUOUS
 62
     7
 10
1086.765328
 20
710.38382999999988
 30
0.0
  0
VERTEX
  5
1547
  8
LAYER01
  6
CONTINUOUS
 62
     7
 10
1086.9078649999999
 20
710.35060299999998
 30
0.0
  0
VERTEX
  5
1548
  8
LAYER01
  6
CONTINUOUS
 62
     7
 10
1087.0502570000001
 20
710.31645199999991
 30
0.0
  0
VERTEX
  5
1549
  8
LAYER01
  6
CONTINUOUS
 62
     7
 10
1087.192489
 20
710.28138200000001
 30
0.0
  0
VERTEX
  5
154A
  8
LAYER01
  6
CONTINUOUS
 62
     7
 10
1087.3345449999999
 20
710.24539500000003
 30
0.0
  0
VERTEX
  5
154B
  8
LAYER01
  6
CONTINUOUS
 62
     7
 10
1087.4764110000001
 20
710.20849400000009
 30
0.0
  0
VERTEX
  5
154C
  8
LAYER01
  6
CONTINUOUS
 62
     7
 10
1087.618072
 20
710.17068200000006
 30
0.0
  0
VERTEX
  5
154D
  8
LAYER01
  6
CONTINUOUS
 62
     7
 10
1087.7595120000001
 20
710.13196100000005
 30
0.0
  0
VERTEX
  5
154E
  8
LAYER01
  6
CONTINUOUS
 62
     7
 10
1087.900715
 20
710.09233600000005
 30
0.0
  0
VERTEX
  5
154F
  8
LAYER01
  6
CONTINUOUS
 62
     7
 10
1088.0416680000001
 20
710.05180800000005
 30
0.0
  0
VERTEX
  5
1550
  8
LAYER01
  6
CONTINUOUS
 62
     7
 10
1088.1823010000001
 20
710.01040199999989
 30
0.0
  0
VERTEX
  5
1551
  8
LAYER01
  6
CONTINUOUS
 62
     7
 10
1088.3225580000001
 20
709.96813899999995
 30
0.0
  0
VERTEX
  5
1552
  8
LAYER01
  6
CONTINUOUS
 62
     7
 10
1088.4624409999999
 20
709.92501900000002
 30
0.0
  0
VERTEX
  5
1553
  8
LAYER01
  6
CONTINUOUS
 62
     7
 10
1088.601954
 20
709.88104199999987
 30
0.0
  0
VERTEX
  5
1554
  8
LAYER01
  6
CONTINUOUS
 62
     7
 10
1088.741098
 20
709.83620699999994
 30
0.0
  0
VERTEX
  5
1555
  8
LAYER01
  6
CONTINUOUS
 62
     7
 10
1088.8798770000001
 20
709.79051399999992
 30
0.0
  0
VERTEX
  5
1556
  8
LAYER01
  6
CONTINUOUS
 62
     7
 10
1089.0182930000001
 20
709.74396300000001
 30
0.0
  0
VERTEX
  5
1557
  8
LAYER01
  6
CONTINUOUS
 62
     7
 10
1089.156348
 20
709.69655299999999
 30
0.0
  0
VERTEX
  5
1558
  8
LAYER01
  6
CONTINUOUS
 62
     7
 10
1089.294046
 20
709.64828399999999
 30
0.0
  0
VERTEX
  5
1559
  8
LAYER01
  6
CONTINUOUS
 62
     7
 10
1089.4313890000001
 20
709.59915599999988
 30
0.0
  0
VERTEX
  5
155A
  8
LAYER01
  6
CONTINUOUS
 62
     7
 10
1089.5683799999999
 20
709.54916800000001
 30
0.0
  0
VERTEX
  5
155B
  8
LAYER01
  6
CONTINUOUS
 62
     7
 10
1089.7050220000001
 20
709.49831900000004
 30
0.0
  0
VERTEX
  5
155C
  8
LAYER01
  6
CONTINUOUS
 62
     7
 10
1089.841316
 20
709.44660999999985
 30
0.0
  0
VERTEX
  5
155D
  8
LAYER01
  6
CONTINUOUS
 62
     7
 10
1089.977267
 20
709.39404100000002
 30
0.0
  0
VERTEX
  5
155E
  8
LAYER01
  6
CONTINUOUS
 62
     7
 10
1090.112875
 20
709.34060999999997
 30
0.0
  0
VERTEX
  5
155F
  8
LAYER01
  6
CONTINUOUS
 62
     7
 10
1090.248145
 20
709.28631699999994
 30
0.0
  0
VERTEX
  5
1560
  8
LAYER01
  6
CONTINUOUS
 62
     7
 10
1090.383079
 20
709.23116200000004
 30
0.0
  0
VERTEX
  5
1561
  8
LAYER01
  6
CONTINUOUS
 62
     7
 10
1090.517679
 20
709.17514500000004
 30
0.0
  0
VERTEX
  5
1562
  8
LAYER01
  6
CONTINUOUS
 62
     7
 10
1090.6519490000001
 20
709.11826499999995
 30
0.0
  0
VERTEX
  5
1563
  8
LAYER01
  6
CONTINUOUS
 62
     7
 10
1090.7858900000001
 20
709.06052299999999
 30
0.0
  0
VERTEX
  5
1564
  8
LAYER01
  6
CONTINUOUS
 62
     7
 10
1090.919506
 20
709.00191600000005
 30
0.0
  0
VERTEX
  5
1565
  8
LAYER01
  6
CONTINUOUS
 62
     7
 10
1091.0527990000001
 20
708.94244600000002
 30
0.0
  0
VERTEX
  5
1566
  8
LAYER01
  6
CONTINUOUS
 62
     7
 10
1091.18577
 20
708.882113
 30
0.0
  0
VERTEX
  5
1567
  8
LAYER01
  6
CONTINUOUS
 62
     7
 10
1091.3184209999999
 20
708.82091300000002
 30
0.0
  0
VERTEX
  5
1568
  8
LAYER01
  6
CONTINUOUS
 62
     7
 10
1091.450752
 20
708.75884199999985
 30
0.0
  0
VERTEX
  5
1569
  8
LAYER01
  6
CONTINUOUS
 62
     7
 10
1091.5827670000001
 20
708.69589699999995
 30
0.0
  0
VERTEX
  5
156A
  8
LAYER01
  6
CONTINUOUS
 62
     7
 10
1091.7144659999999
 20
708.63207099999988
 30
0.0
  0
VERTEX
  5
156B
  8
LAYER01
  6
CONTINUOUS
 62
     7
 10
1091.845851
 20
708.56736100000001
 30
0.0
  0
VERTEX
  5
156C
  8
LAYER01
  6
CONTINUOUS
 62
     7
 10
1091.9769240000001
 20
708.50176199999999
 30
0.0
  0
VERTEX
  5
156D
  8
LAYER01
  6
CONTINUOUS
 62
     7
 10
1092.1076880000001
 20
708.43527000000006
 30
0.0
  0
VERTEX
  5
156E
  8
LAYER01
  6
CONTINUOUS
 62
     7
 10
1092.2381419999999
 20
708.36787900000002
 30
0.0
  0
VERTEX
  5
156F
  8
LAYER01
  6
CONTINUOUS
 62
     7
 10
1092.3682899999999
 20
708.29958600000009
 30
0.0
  0
VERTEX
  5
1570
  8
LAYER01
  6
CONTINUOUS
 62
     7
 10
1092.4981330000001
 20
708.23038599999995
 30
0.0
  0
VERTEX
  5
1571
  8
LAYER01
  6
CONTINUOUS
 62
     7
 10
1092.627673
 20
708.16027499999996
 30
0.0
  0
VERTEX
  5
1572
  8
LAYER01
  6
CONTINUOUS
 62
     7
 10
1092.7569120000001
 20
708.089247
 30
0.0
  0
VERTEX
  5
1573
  8
LAYER01
  6
CONTINUOUS
 62
     7
 10
1092.885851
 20
708.0172980000001
 30
0.0
  0
VERTEX
  5
1574
  8
LAYER01
  6
CONTINUOUS
 62
     7
 10
1093.0144909999999
 20
707.94442500000002
 30
0.0
  0
VERTEX
  5
1575
  8
LAYER01
  6
CONTINUOUS
 62
     7
 10
1093.142836
 20
707.87062099999991
 30
0.0
  0
VERTEX
  5
1576
  8
LAYER01
  6
CONTINUOUS
 62
     7
 10
1093.2708869999999
 20
707.795883
 30
0.0
  0
VERTEX
  5
1577
  8
LAYER01
  6
CONTINUOUS
 62
     7
 10
1093.3986440000001
 20
707.72020599999985
 30
0.0
  0
VERTEX
  5
1578
  8
LAYER01
  6
CONTINUOUS
 62
     7
 10
1093.5261109999999
 20
707.64358600000003
 30
0.0
  0
VERTEX
  5
1579
  8
LAYER01
  6
CONTINUOUS
 62
     7
 10
1093.6532890000001
 20
707.56601799999987
 30
0.0
  0
VERTEX
  5
157A
  8
LAYER01
  6
CONTINUOUS
 62
     7
 10
1093.7801790000001
 20
707.48749699999985
 30
0.0
  0
VERTEX
  5
157B
  8
LAYER01
  6
CONTINUOUS
 62
     7
 10
1093.906784
 20
707.40801899999997
 30
0.0
  0
SEQEND
  5
157C
  8
LAYER01
  6
CONTINUOUS
 62
     7
  0
ARC
  5
785
  8
LAYER01
  6
CONTINUOUS
 62
     7
 10
1081.615395
 20
687.96780899999987
 30
0.0
 40
23.0
 50
32.511321000000002
 51
57.696215000000009
  0
ARC
  5
786
  8
LAYER01
  6
CONTINUOUS
 62
     7
 10
1081.615395
 20
687.96780899999987
 30
0.0
 40
23.0
 50
122.303785
 51
147.48867899999999
  0
POLYLINE
  5
787
  8
LAYER01
  6
CONTINUOUS
 62
     7
 66
     1
 10
0.0
 20
0.0
 30
0.0
  0
VERTEX
  5
157D
  8
LAYER01
  6
CONTINUOUS
 62
     7
 10
1081.6030430000001
 20
695.44703200000004
 30
0.0
  0
VERTEX
  5
157E
  8
LAYER01
  6
CONTINUOUS
 62
     7
 10
1081.606131
 20
695.44703200000004
 30
0.0
  0
VERTEX
  5
157F
  8
LAYER01
  6
CONTINUOUS
 62
     7
 10
1081.6092189999999
 20
695.44703200000004
 30
0.0
  0
VERTEX
  5
1580
  8
LAYER01
  6
CONTINUOUS
 62
     7
 10
1081.6123070000001
 20
695.44701699999985
 30
0.0
  0
VERTEX
  5
1581
  8
LAYER01
  6
CONTINUOUS
 62
     7
 10
1081.615395
 20
695.44701699999985
 30
0.0
  0
VERTEX
  5
1582
  8
LAYER01
  6
CONTINUOUS
 62
     7
 10
1081.618483
 20
695.44701699999985
 30
0.0
  0
VERTEX
  5
1583
  8
LAYER01
  6
CONTINUOUS
 62
     7
 10
1081.6215709999999
 20
695.44703200000004
 30
0.0
  0
VERTEX
  5
1584
  8
LAYER01
  6
CONTINUOUS
 62
     7
 10
1081.6246590000001
 20
695.44703200000004
 30
0.0
  0
VERTEX
  5
1585
  8
LAYER01
  6
CONTINUOUS
 62
     7
 10
1081.627747
 20
695.44703200000004
 30
0.0
  0
SEQEND
  5
1586
  8
LAYER01
  6
CONTINUOUS
 62
     7
  0
POLYLINE
  5
792
  8
LAYER01
  6
CONTINUOUS
 62
     7
 66
     1
 10
0.0
 20
0.0
 30
0.0
  0
VERTEX
  5
1587
  8
LAYER01
  6
CONTINUOUS
 62
     7
 10
1081.565427
 20
710.96775500000001
 30
0.0
  0
VERTEX
  5
1588
  8
LAYER01
  6
CONTINUOUS
 62
     7
 10
1081.5695909999999
 20
710.96776299999999
 30
0.0
  0
VERTEX
  5
1589
  8
LAYER01
  6
CONTINUOUS
 62
     7
 10
1081.5737549999999
 20
710.96777099999986
 30
0.0
  0
VERTEX
  5
158A
  8
LAYER01
  6
CONTINUOUS
 62
     7
 10
1081.5779190000001
 20
710.96777800000007
 30
0.0
  0
VERTEX
  5
158B
  8
LAYER01
  6
CONTINUOUS
 62
     7
 10
1081.5820819999999
 20
710.96778499999994
 30
0.0
  0
VERTEX
  5
158C
  8
LAYER01
  6
CONTINUOUS
 62
     7
 10
1081.5862460000001
 20
710.96779000000004
 30
0.0
  0
VERTEX
  5
158D
  8
LAYER01
  6
CONTINUOUS
 62
     7
 10
1081.59041
 20
710.96779500000002
 30
0.0
  0
VERTEX
  5
158E
  8
LAYER01
  6
CONTINUOUS
 62
     7
 10
1081.5945750000001
 20
710.96779900000001
 30
0.0
  0
VERTEX
  5
158F
  8
LAYER01
  6
CONTINUOUS
 62
     7
 10
1081.598739
 20
710.967803
 30
0.0
  0
VERTEX
  5
1590
  8
LAYER01
  6
CONTINUOUS
 62
     7
 10
1081.602903
 20
710.967805
 30
0.0
  0
VERTEX
  5
1591
  8
LAYER01
  6
CONTINUOUS
 62
     7
 10
1081.6070669999999
 20
710.96780699999999
 30
0.0
  0
VERTEX
  5
1592
  8
LAYER01
  6
CONTINUOUS
 62
     7
 10
1081.6112310000001
 20
710.96780799999999
 30
0.0
  0
VERTEX
  5
1593
  8
LAYER01
  6
CONTINUOUS
 62
     7
 10
1081.615395
 20
710.96780899999999
 30
0.0
  0
VERTEX
  5
1594
  8
LAYER01
  6
CONTINUOUS
 62
     7
 10
1081.619559
 20
710.96780799999999
 30
0.0
  0
VERTEX
  5
1595
  8
LAYER01
  6
CONTINUOUS
 62
     7
 10
1081.623724
 20
710.96780699999999
 30
0.0
  0
VERTEX
  5
1596
  8
LAYER01
  6
CONTINUOUS
 62
     7
 10
1081.627888
 20
710.967805
 30
0.0
  0
VERTEX
  5
1597
  8
LAYER01
  6
CONTINUOUS
 62
     7
 10
1081.6320519999999
 20
710.967803
 30
0.0
  0
VERTEX
  5
1598
  8
LAYER01
  6
CONTINUOUS
 62
     7
 10
1081.6362160000001
 20
710.96779900000001
 30
0.0
  0
VERTEX
  5
1599
  8
LAYER01
  6
CONTINUOUS
 62
     7
 10
1081.6403800000001
 20
710.96779500000002
 30
0.0
  0
VERTEX
  5
159A
  8
LAYER01
  6
CONTINUOUS
 62
     7
 10
1081.644544
 20
710.96779000000004
 30
0.0
  0
VERTEX
  5
159B
  8
LAYER01
  6
CONTINUOUS
 62
     7
 10
1081.6487079999999
 20
710.96778499999994
 30
0.0
  0
VERTEX
  5
159C
  8
LAYER01
  6
CONTINUOUS
 62
     7
 10
1081.6528719999999
 20
710.96777800000007
 30
0.0
  0
VERTEX
  5
159D
  8
LAYER01
  6
CONTINUOUS
 62
     7
 10
1081.6570360000001
 20
710.96777099999986
 30
0.0
  0
VERTEX
  5
159E
  8
LAYER01
  6
CONTINUOUS
 62
     7
 10
1081.6612
 20
710.96776299999999
 30
0.0
  0
VERTEX
  5
159F
  8
LAYER01
  6
CONTINUOUS
 62
     7
 10
1081.6653630000001
 20
710.96775500000001
 30
0.0
  0
SEQEND
  5
15A0
  8
LAYER01
  6
CONTINUOUS
 62
     7
  0
DIMENSION
  5
7AD
  8
LAYER01
 62
     7
  2
*D7
 10
2210.7342319999998
 20
347.41529500000001
 30
0.0
 11
2367.9843679999999
 21
407.41529500000001
 31
0.0
 13
2164.7342279999998
 23
451.756124
 33
0.0
 14
2210.7342319999998
 24
451.756124
 34
0.0
  0
DIMENSION
  5
7AE
  8
LAYER01
 62
     7
  2
*D8
 10
2031.4237740000001
 20
491.3968769999999
 30
0.0
 11
1971.423773999999
 21
728.64701300000002
 31
0.0
 53
90.0
 13
2129.3128569999999
 23
571.3968769999999
 33
0.0
 14
2129.3128569999999
 24
491.3968769999999
 34
0.0
 50
90.0
  0
LINE
  5
7AF
  8
LAYER01
  6
CONTINUOUS
 62
     7
 10
1581.615395
 20
394.73067700000001
 30
0.0
 11
1581.615395
 21
716.41590199999985
 31
0.0
  0
LINE
  5
7B0
  8
LAYER01
  6
CONTINUOUS
 62
     7
 10
1606.6153710000001
 20
366.39686399999999
 30
0.0
 11
1606.6153710000001
 21
731.39687399999991
 31
0.0
  0
INSERT
  5
7B1
  8
LAYER01
  2
VT35808-G10
 10
0.0
 20
0.0
 30
0.0
  0
INSERT
  5
7B2
  8
LAYER01
  2
VT35808-G11
 10
0.0
 20
0.0
 30
0.0
  0
TEXT
  5
7B3
  8
LAYER01
  6
STRICHPUNKTIERT
 62
     7
 10
2314.6282819564749
 20
-516.91001388598784
 30
0.0
 40
39.285955799999989
  1
http://www.mineralwerkstoff.de
  0
LINE
  5
7B4
  8
LAYER01
  6
CONTINUOUS
 62
     7
 10
1573.7913619999999
 20
-34.443864000000012
 30
0.0
 11
1581.615395
 21
54.985126999999999
 31
0.0
  0
LINE
  5
7B5
  8
LAYER01
  6
CONTINUOUS
 62
     7
 10
1606.6153710000001
 20
54.985126999999999
 30
0.0
 11
1606.6153710000001
 21
42.985126999999991
 31
0.0
  0
LINE
  5
7B6
  8
LAYER01
  6
CONTINUOUS
 62
     7
 10
1584.26965
 20
-52.361251000000003
 30
0.0
 11
1592.2120279999999
 21
38.420904999999998
 31
0.0
  0
ARC
  5
7B7
  8
LAYER01
  6
CONTINUOUS
 62
     7
 10
1579.288669
 20
-51.925471000000002
 30
0.0
 40
5.0
 50
271.03506499999997
 51
355.0
  0
LINE
  5
7B8
  8
LAYER01
  6
CONTINUOUS
 62
     7
 10
1573.2506249999999
 20
-40.534244999999999
 30
0.0
 11
1573.7913719999999
 21
-34.443865000000002
 31
0.0
  0
ARC
  5
7B9
  8
LAYER01
  6
CONTINUOUS
 62
     7
 10
1568.2786209999999
 20
-40.086328999999999
 30
0.0
 40
4.992138999999999
 50
270.89767000000001
 51
354.85224699999998
  0
ARC
  5
7BA
  8
LAYER01
  6
CONTINUOUS
 62
     7
 10
1597.193025
 20
37.985126999999999
 30
0.0
 40
5.0
 50
90.0
 51
175.0
  0
LINE
  5
7BB
  8
LAYER01
  6
CONTINUOUS
 62
     7
 10
1597.19301
 20
42.985126999999991
 30
0.0
 11
1606.6153710000001
 21
42.985126999999991
 31
0.0
  0
LINE
  5
7BC
  8
LAYER01
  6
CONTINUOUS
 62
     7
 10
1581.615395
 20
54.985126999999999
 30
0.0
 11
1606.6153710000001
 21
54.985126999999999
 31
0.0
  0
LINE
  5
7BD
  8
LAYER01
  6
CONTINUOUS
 62
     7
 10
1576.6344140000001
 20
54.985126999999999
 30
0.0
 11
1581.615395
 21
54.985126999999999
 31
0.0
  0
POLYLINE
  5
7BE
  8
LAYER01
  6
CONTINUOUS
 62
     7
 66
     1
 10
0.0
 20
0.0
 30
0.0
  0
VERTEX
  5
15A1
  8
LAYER01
  6
CONTINUOUS
 62
     7
 10
1577.0198820000001
 20
376.39686899999998
 30
0.0
  0
VERTEX
  5
15A2
  8
LAYER01
  6
CONTINUOUS
 62
     7
 10
1577.936416
 20
376.74145499999997
 30
0.0
  0
VERTEX
  5
15A3
  8
LAYER01
  6
CONTINUOUS
 62
     7
 10
1578.806826
 20
377.76335499999999
 30
0.0
  0
VERTEX
  5
15A4
  8
LAYER01
  6
CONTINUOUS
 62
     7
 10
1579.6011550000001
 20
379.42739699999998
 30
0.0
  0
VERTEX
  5
15A5
  8
LAYER01
  6
CONTINUOUS
 62
     7
 10
1580.292062
 20
381.67630700000001
 30
0.0
  0
VERTEX
  5
15A6
  8
LAYER01
  6
CONTINUOUS
 62
     7
 10
1580.855769
 20
384.43268399999999
 30
0.0
  0
VERTEX
  5
15A7
  8
LAYER01
  6
CONTINUOUS
 62
     7
 10
1581.2728750000001
 20
387.60165799999999
 30
0.0
  0
VERTEX
  5
15A8
  8
LAYER01
  6
CONTINUOUS
 62
     7
 10
1581.5290219999999
 20
391.074161
 30
0.0
  0
VERTEX
  5
15A9
  8
LAYER01
  6
CONTINUOUS
 62
     7
 10
1581.615395
 20
394.73067600000002
 30
0.0
  0
SEQEND
  5
15AA
  8
LAYER01
  6
CONTINUOUS
 62
     7
  0
ARC
  5
7C9
  8
LAYER01
  6
CONTINUOUS
 62
     7
 10
1591.615395
 20
366.39686899999998
 30
0.0
 40
15.0
 50
270.0
 51
0.0
  0
TEXT
  5
7CA
  8
LAYER01
  6
VERDECKT
 62
     1
 10
2993.0782810000001
 20
-758.874233
 30
0.0
 40
25.0
  1
A. Sprenger GmbH
  7
SIMPLEX
  0
TEXT
  5
7CB
  8
LAYER01
  6
CONTINUOUS
 62
     7
 10
2984.9681249999999
 20
-604.05256399999985
 30
0.0
 40
7.5
  1
Diese Zeichnung ist geistiges Eigentum der A. Sprenger GmbH
  7
SIMPLEX
  0
TEXT
  5
7CC
  8
LAYER01
  6
CONTINUOUS
 62
     7
 10
2984.9681249999999
 20
-616.90970700000003
 30
0.0
 40
7.5
  1
und urheberrechtlich geschützt. Ohne unsere Zustimmung darf 
  7
SIMPLEX
  0
TEXT
  5
7CD
  8
LAYER01
  6
CONTINUOUS
 62
     7
 10
2984.9681249999999
 20
-629.76684999999998
 30
0.0
 40
7.5
  1
sie in keiner Form verwendet oder Dritten zugänglich gemacht
  7
SIMPLEX
  0
TEXT
  5
7CE
  8
LAYER01
  6
CONTINUOUS
 62
     7
 10
2984.9681249999999
 20
-642.62399299999993
 30
0.0
 40
7.5
  1
werden. (§106 Urheberrecht)
  7
SIMPLEX
  0
TEXT
  5
7CF
  8
LAYER01
  6
VERDECKT
 62
     1
 10
2993.0782810000001
 20
-857.05711699999995
 30
0.0
 40
35.0
  1
VT-35-100-8
  7
SIMPLEX
  0
TEXT
  5
7D0
  8
LAYER01
  6
VERDECKT
 62
     1
 10
2857.5693740000002
 20
-816.795568
 30
0.0
 40
10.0
  1
b.s.
  7
SIMPLEX
  0
TEXT
  5
7D1
  8
LAYER01
  6
VERDECKT
 62
     1
 10
2761.4122179999999
 20
-816.75903099999994
 30
0.0
 40
10.0
  1
16.1.2023
  7
SIMPLEX
  0
TEXT
  5
7D2
  8
LAYER01
  6
VERDECKT
 62
     1
 10
3059.0220089999998
 20
-694.39592100000004
 30
0.0
 40
10.0
  1
1 : 10 (DIN A3)
  7
SIMPLEX
  0
TEXT
  5
7D3
  8
LAYER01
  6
VERDECKT
 62
     1
 10
3316.750603
 20
-694.39592100000004
 30
0.0
 40
10.0
  1
VT351008.skd
  7
SIMPLEX
  0
DIMENSION
  5
7D4
  8
LAYER01
 62
     7
  2
*D12
 10
1929.1710849999999
 20
464.3968769999999
 30
0.0
 11
1869.1710849999999
 21
517.8968769999999
 31
0.0
 53
90.0
 13
2129.3128569999999
 23
571.3968769999999
 33
0.0
 14
2129.3128569999999
 24
464.3968769999999
 34
0.0
 50
90.0
  0
DIMENSION
  5
7D5
  8
LAYER01
 62
     7
  2
*D13
 10
1794.5506379999999
 20
451.3968769999999
 30
0.0
 11
1734.5506379999999
 21
511.3968769999999
 31
0.0
 53
90.0
 13
2129.3128569999999
 23
571.3968769999999
 33
0.0
 14
2129.3128569999999
 24
451.3968769999999
 34
0.0
 50
90.0
  0
POLYLINE
  5
7D6
  8
LAYER01
  6
CONTINUOUS
 62
     7
 66
     1
 10
0.0
 20
0.0
 30
0.0
  0
VERTEX
  5
15AB
  8
LAYER01
  6
CONTINUOUS
 62
     7
 10
1581.615395
 20
716.41589499999998
 30
0.0
  0
VERTEX
  5
15AC
  8
LAYER01
  6
CONTINUOUS
 62
     7
 10
1581.5198820000001
 20
717.38964499999986
 30
0.0
  0
VERTEX
  5
15AD
  8
LAYER01
  6
CONTINUOUS
 62
     7
 10
1581.2369779999999
 20
718.324882
 30
0.0
  0
VERTEX
  5
15AE
  8
LAYER01
  6
CONTINUOUS
 62
     7
 10
1580.7774509999999
 20
719.186013
 30
0.0
  0
VERTEX
  5
15AF
  8
LAYER01
  6
CONTINUOUS
 62
     7
 10
1580.1587890000001
 20
719.94026299999985
 30
0.0
  0
VERTEX
  5
15B0
  8
LAYER01
  6
CONTINUOUS
 62
     7
 10
1579.40454
 20
720.55892400000005
 30
0.0
  0
VERTEX
  5
15B1
  8
LAYER01
  6
CONTINUOUS
 62
     7
 10
1578.5434090000001
 20
721.01845199999991
 30
0.0
  0
VERTEX
  5
15B2
  8
LAYER01
  6
CONTINUOUS
 62
     7
 10
1577.6081710000001
 20
721.30135599999994
 30
0.0
  0
VERTEX
  5
15B3
  8
LAYER01
  6
CONTINUOUS
 62
     7
 10
1576.6344220000001
 20
721.39686900000004
 30
0.0
  0
SEQEND
  5
15B4
  8
LAYER01
  6
CONTINUOUS
 62
     7
  0
ARC
  5
7E1
  8
LAYER01
  6
CONTINUOUS
 62
     7
 10
1591.615395
 20
731.39686900000004
 30
0.0
 40
15.0
 50
0.0
 51
90.0
  0
ARC
  5
7E2
  8
LAYER01
  6
CONTINUOUS
 62
     7
 10
1568.2340260000001
 20
708.01549899999986
 30
0.0
 40
5.0257699999999987
 50
0.5083630000000001
 51
89.491636999999983
  0
LINE
  5
7E3
  8
LAYER01
  6
CONTINUOUS
 62
     7
 10
1573.259599
 20
708.06008999999995
 30
0.0
 11
1573.259599
 21
699.99100700000008
 31
0.0
  0
ARC
  5
7E4
  8
LAYER01
  6
CONTINUOUS
 62
     7
 10
1568.2482010000001
 20
700.00765000000001
 30
0.0
 40
5.011425
 50
270.34775400000001
 51
359.80972300000002
  0
DIMENSION
  5
7E5
  8
LAYER01
 62
     7
  2
*D14
 10
2129.3128569999999
 20
781.92235999999991
 30
0.0
 11
2326.8128620000002
 21
841.9223599999998
 31
0.0
 13
2524.3128670000001
 23
579.50422500000002
 33
0.0
 14
2129.3128569999999
 24
579.50422500000002
 34
0.0
  0
INSERT
  5
7E6
  8
LAYER01
  2
VT35808-G16
 10
0.0
 20
0.0
 30
0.0
  0
DIMENSION
  5
7E7
  8
LAYER01
 62
     7
  2
*D16
 10
2154.3128630000001
 20
661.76264100000003
 30
0.0
 11
2326.8128630000001
 21
721.76264100000003
 31
0.0
 13
2499.3128630000001
 23
579.50422500000002
 33
0.0
 14
2154.3128630000001
 24
579.50422500000002
 34
0.0
  0
INSERT
  5
7E8
  8
LAYER01
  2
VT35808-G18
 10
0.0
 20
0.0
 30
0.0
  0
LINE
  5
7E9
  8
LAYER01
  6
CONTINUOUS
 62
     7
 10
2154.3128630000001
 20
571.3968769999999
 30
0.0
 11
2159.2938290000002
 21
571.3968769999999
 31
0.0
  0
LINE
  5
7EA
  8
LAYER01
  6
CONTINUOUS
 62
     7
 10
2154.3128630000001
 20
571.3968769999999
 30
0.0
 11
2129.3128569999999
 21
571.3968769999999
 31
0.0
  0
LINE
  5
7EB
  8
LAYER01
  6
CONTINUOUS
 62
     7
 10
2129.3128569999999
 20
571.3968769999999
 30
0.0
 11
2129.3128569999999
 21
559.3968769999999
 31
0.0
  0
LINE
  5
7EC
  8
LAYER01
  6
CONTINUOUS
 62
     7
 10
2138.7352329999999
 20
559.3968769999999
 30
0.0
 11
2129.3128569999999
 21
559.3968769999999
 31
0.0
  0
ARC
  5
7ED
  8
LAYER01
  6
CONTINUOUS
 62
     7
 10
2138.735232
 20
554.3968769999999
 30
0.0
 40
5.0
 50
5.0
 51
90.0
  0
LINE
  5
7EE
  8
LAYER01
  6
CONTINUOUS
 62
     7
 10
2154.3128630000001
 20
571.3968769999999
 30
0.0
 11
2163.3295109999999
 21
468.33613200000002
 31
0.0
  0
LINE
  5
7EF
  8
LAYER01
  6
CONTINUOUS
 62
     7
 10
2143.7161999999998
 20
554.83265499999993
 30
0.0
 11
2152.3349119999998
 21
456.32034299999992
 31
0.0
  0
POLYLINE
  5
7F0
  8
LAYER01
  6
CONTINUOUS
 62
     7
 66
     1
 10
0.0
 20
0.0
 30
0.0
  0
VERTEX
  5
15B5
  8
LAYER01
  6
CONTINUOUS
 62
     7
 10
2175.3937070000002
 20
464.27844199999993
 30
0.0
  0
VERTEX
  5
15B6
  8
LAYER01
  6
CONTINUOUS
 62
     7
 10
2171.4427110000001
 20
464.19533499999989
 30
0.0
  0
VERTEX
  5
15B7
  8
LAYER01
  6
CONTINUOUS
 62
     7
 10
2168.2826639999998
 20
464.091588
 30
0.0
  0
SEQEND
  5
15B8
  8
LAYER01
  6
CONTINUOUS
 62
     7
  0
POLYLINE
  5
7F5
  8
LAYER01
  6
CONTINUOUS
 62
     7
 66
     1
 10
0.0
 20
0.0
 30
0.0
  0
VERTEX
  5
15B9
  8
LAYER01
  6
CONTINUOUS
 62
     7
 10
2175.3937070000002
 20
464.27844199999993
 30
0.0
  0
VERTEX
  5
15BA
  8
LAYER01
  6
CONTINUOUS
 62
     7
 10
2175.4414959999999
 20
464.27945899999997
 30
0.0
  0
VERTEX
  5
15BB
  8
LAYER01
  6
CONTINUOUS
 62
     7
 10
2175.48929
 20
464.28092199999998
 30
0.0
  0
VERTEX
  5
15BC
  8
LAYER01
  6
CONTINUOUS
 62
     7
 10
2175.5370889999999
 20
464.28283099999987
 30
0.0
  0
VERTEX
  5
15BD
  8
LAYER01
  6
CONTINUOUS
 62
     7
 10
2175.5848919999999
 20
464.28518800000001
 30
0.0
  0
VERTEX
  5
15BE
  8
LAYER01
  6
CONTINUOUS
 62
     7
 10
2175.6326979999999
 20
464.28799700000002
 30
0.0
  0
VERTEX
  5
15BF
  8
LAYER01
  6
CONTINUOUS
 62
     7
 10
2175.680507
 20
464.29125699999997
 30
0.0
  0
VERTEX
  5
15C0
  8
LAYER01
  6
CONTINUOUS
 62
     7
 10
2175.7283179999999
 20
464.29497300000003
 30
0.0
  0
VERTEX
  5
15C1
  8
LAYER01
  6
CONTINUOUS
 62
     7
 10
2175.7761300000002
 20
464.29914400000013
 30
0.0
  0
VERTEX
  5
15C2
  8
LAYER01
  6
CONTINUOUS
 62
     7
 10
2175.8239440000011
 20
464.30377299999998
 30
0.0
  0
VERTEX
  5
15C3
  8
LAYER01
  6
CONTINUOUS
 62
     7
 10
2175.8717580000002
 20
464.30886199999998
 30
0.0
  0
VERTEX
  5
15C4
  8
LAYER01
  6
CONTINUOUS
 62
     7
 10
2175.9195719999998
 20
464.314413
 30
0.0
  0
VERTEX
  5
15C5
  8
LAYER01
  6
CONTINUOUS
 62
     7
 10
2175.9673859999998
 20
464.32042799999999
 30
0.0
  0
VERTEX
  5
15C6
  8
LAYER01
  6
CONTINUOUS
 62
     7
 10
2176.0151980000001
 20
464.326908
 30
0.0
  0
VERTEX
  5
15C7
  8
LAYER01
  6
CONTINUOUS
 62
     7
 10
2176.0630079999992
 20
464.33385600000003
 30
0.0
  0
VERTEX
  5
15C8
  8
LAYER01
  6
CONTINUOUS
 62
     7
 10
2176.1108159999999
 20
464.341273
 30
0.0
  0
VERTEX
  5
15C9
  8
LAYER01
  6
CONTINUOUS
 62
     7
 10
2176.158621
 20
464.34916099999998
 30
0.0
  0
VERTEX
  5
15CA
  8
LAYER01
  6
CONTINUOUS
 62
     7
 10
2176.2064220000002
 20
464.35752300000001
 30
0.0
  0
VERTEX
  5
15CB
  8
LAYER01
  6
CONTINUOUS
 62
     7
 10
2176.2542199999998
 20
464.36635899999999
 30
0.0
  0
VERTEX
  5
15CC
  8
LAYER01
  6
CONTINUOUS
 62
     7
 10
2176.302013
 20
464.37567199999989
 30
0.0
  0
VERTEX
  5
15CD
  8
LAYER01
  6
CONTINUOUS
 62
     7
 10
2176.3498
 20
464.3854639999999
 30
0.0
  0
VERTEX
  5
15CE
  8
LAYER01
  6
CONTINUOUS
 62
     7
 10
2176.3975820000001
 20
464.39573699999988
 30
0.0
  0
VERTEX
  5
15CF
  8
LAYER01
  6
CONTINUOUS
 62
     7
 10
2176.4453570000001
 20
464.4064919999999
 30
0.0
  0
VERTEX
  5
15D0
  8
LAYER01
  6
CONTINUOUS
 62
     7
 10
2176.493125
 20
464.41773099999989
 30
0.0
  0
VERTEX
  5
15D1
  8
LAYER01
  6
CONTINUOUS
 62
     7
 10
2176.5408859999998
 20
464.42945700000001
 30
0.0
  0
VERTEX
  5
15D2
  8
LAYER01
  6
CONTINUOUS
 62
     7
 10
2176.5886390000001
 20
464.44167099999987
 30
0.0
  0
VERTEX
  5
15D3
  8
LAYER01
  6
CONTINUOUS
 62
     7
 10
2176.636383
 20
464.45437399999997
 30
0.0
  0
VERTEX
  5
15D4
  8
LAYER01
  6
CONTINUOUS
 62
     7
 10
2176.6841180000001
 20
464.46757000000002
 30
0.0
  0
VERTEX
  5
15D5
  8
LAYER01
  6
CONTINUOUS
 62
     7
 10
2176.731843
 20
464.48125899999991
 30
0.0
  0
VERTEX
  5
15D6
  8
LAYER01
  6
CONTINUOUS
 62
     7
 10
2176.7795580000002
 20
464.49544400000002
 30
0.0
  0
VERTEX
  5
15D7
  8
LAYER01
  6
CONTINUOUS
 62
     7
 10
2176.8272609999999
 20
464.5101269999999
 30
0.0
  0
VERTEX
  5
15D8
  8
LAYER01
  6
CONTINUOUS
 62
     7
 10
2176.8749670000002
 20
464.52532400000001
 30
0.0
  0
VERTEX
  5
15D9
  8
LAYER01
  6
CONTINUOUS
 62
     7
 10
2176.9226779999999
 20
464.54104699999988
 30
0.0
  0
VERTEX
  5
15DA
  8
LAYER01
  6
CONTINUOUS
 62
     7
 10
2176.9703749999999
 20
464.55729200000002
 30
0.0
  0
VERTEX
  5
15DB
  8
LAYER01
  6
CONTINUOUS
 62
     7
 10
2177.0180409999998
 20
464.57405599999998
 30
0.0
  0
VERTEX
  5
15DC
  8
LAYER01
  6
CONTINUOUS
 62
     7
 10
2177.0656589999999
 20
464.59133200000002
 30
0.0
  0
VERTEX
  5
15DD
  8
LAYER01
  6
CONTINUOUS
 62
     7
 10
2177.1132109999999
 20
464.60911700000003
 30
0.0
  0
VERTEX
  5
15DE
  8
LAYER01
  6
CONTINUOUS
 62
     7
 10
2177.16068
 20
464.62740700000001
 30
0.0
  0
VERTEX
  5
15DF
  8
LAYER01
  6
CONTINUOUS
 62
     7
 10
2177.2080470000001
 20
464.64619699999992
 30
0.0
  0
VERTEX
  5
15E0
  8
LAYER01
  6
CONTINUOUS
 62
     7
 10
2177.2552949999999
 20
464.66548200000011
 30
0.0
  0
VERTEX
  5
15E1
  8
LAYER01
  6
CONTINUOUS
 62
     7
 10
2177.3024070000001
 20
464.68525799999998
 30
0.0
  0
VERTEX
  5
15E2
  8
LAYER01
  6
CONTINUOUS
 62
     7
 10
2177.349365
 20
464.70552199999992
 30
0.0
  0
VERTEX
  5
15E3
  8
LAYER01
  6
CONTINUOUS
 62
     7
 10
2177.3961509999999
 20
464.72626699999989
 30
0.0
  0
VERTEX
  5
15E4
  8
LAYER01
  6
CONTINUOUS
 62
     7
 10
2177.4427489999998
 20
464.74749100000002
 30
0.0
  0
VERTEX
  5
15E5
  8
LAYER01
  6
CONTINUOUS
 62
     7
 10
2177.4891389999998
 20
464.76918699999999
 30
0.0
  0
VERTEX
  5
15E6
  8
LAYER01
  6
CONTINUOUS
 62
     7
 10
2177.5353049999999
 20
464.79135300000002
 30
0.0
  0
VERTEX
  5
15E7
  8
LAYER01
  6
CONTINUOUS
 62
     7
 10
2177.5812559999999
 20
464.81398899999999
 30
0.0
  0
VERTEX
  5
15E8
  8
LAYER01
  6
CONTINUOUS
 62
     7
 10
2177.6270119999999
 20
464.8371009999999
 30
0.0
  0
VERTEX
  5
15E9
  8
LAYER01
  6
CONTINUOUS
 62
     7
 10
2177.6725710000001
 20
464.86068899999992
 30
0.0
  0
VERTEX
  5
15EA
  8
LAYER01
  6
CONTINUOUS
 62
     7
 10
2177.7179329999999
 20
464.88475499999998
 30
0.0
  0
VERTEX
  5
15EB
  8
LAYER01
  6
CONTINUOUS
 62
     7
 10
2177.7630949999998
 20
464.90929999999992
 30
0.0
  0
VERTEX
  5
15EC
  8
LAYER01
  6
CONTINUOUS
 62
     7
 10
2177.8080559999999
 20
464.93432699999988
 30
0.0
  0
VERTEX
  5
15ED
  8
LAYER01
  6
CONTINUOUS
 62
     7
 10
2177.8528139999999
 20
464.959836
 30
0.0
  0
VERTEX
  5
15EE
  8
LAYER01
  6
CONTINUOUS
 62
     7
 10
2177.8973679999999
 20
464.98582999999991
 30
0.0
  0
VERTEX
  5
15EF
  8
LAYER01
  6
CONTINUOUS
 62
     7
 10
2177.9417170000002
 20
465.01230900000002
 30
0.0
  0
VERTEX
  5
15F0
  8
LAYER01
  6
CONTINUOUS
 62
     7
 10
2177.985858
 20
465.03927499999992
 30
0.0
  0
VERTEX
  5
15F1
  8
LAYER01
  6
CONTINUOUS
 62
     7
 10
2178.0297909999999
 20
465.06673000000001
 30
0.0
  0
VERTEX
  5
15F2
  8
LAYER01
  6
CONTINUOUS
 62
     7
 10
2178.0735129999998
 20
465.094675
 30
0.0
  0
VERTEX
  5
15F3
  8
LAYER01
  6
CONTINUOUS
 62
     7
 10
2178.1170240000001
 20
465.12311199999999
 30
0.0
  0
VERTEX
  5
15F4
  8
LAYER01
  6
CONTINUOUS
 62
     7
 10
2178.1603209999998
 20
465.15204099999988
 30
0.0
  0
VERTEX
  5
15F5
  8
LAYER01
  6
CONTINUOUS
 62
     7
 10
2178.2034039999999
 20
465.181466
 30
0.0
  0
VERTEX
  5
15F6
  8
LAYER01
  6
CONTINUOUS
 62
     7
 10
2178.2462780000001
 20
465.21139299999987
 30
0.0
  0
VERTEX
  5
15F7
  8
LAYER01
  6
CONTINUOUS
 62
     7
 10
2178.2889460000001
 20
465.24183199999999
 30
0.0
  0
VERTEX
  5
15F8
  8
LAYER01
  6
CONTINUOUS
 62
     7
 10
2178.3314030000001
 20
465.27278299999989
 30
0.0
  0
VERTEX
  5
15F9
  8
LAYER01
  6
CONTINUOUS
 62
     7
 10
2178.373642
 20
465.30424699999992
 30
0.0
  0
VERTEX
  5
15FA
  8
LAYER01
  6
CONTINUOUS
 62
     7
 10
2178.4156579999999
 20
465.3362239999999
 30
0.0
  0
VERTEX
  5
15FB
  8
LAYER01
  6
CONTINUOUS
 62
     7
 10
2178.4574429999998
 20
465.3687139999999
 30
0.0
  0
VERTEX
  5
15FC
  8
LAYER01
  6
CONTINUOUS
 62
     7
 10
2178.4989930000002
 20
465.40171900000001
 30
0.0
  0
VERTEX
  5
15FD
  8
LAYER01
  6
CONTINUOUS
 62
     7
 10
2178.5403000000001
 20
465.43523899999991
 30
0.0
  0
VERTEX
  5
15FE
  8
LAYER01
  6
CONTINUOUS
 62
     7
 10
2178.5813589999998
 20
465.46927399999998
 30
0.0
  0
VERTEX
  5
15FF
  8
LAYER01
  6
CONTINUOUS
 62
     7
 10
2178.6221639999999
 20
465.50382500000001
 30
0.0
  0
VERTEX
  5
1600
  8
LAYER01
  6
CONTINUOUS
 62
     7
 10
2178.6627090000011
 20
465.53889299999992
 30
0.0
  0
VERTEX
  5
1601
  8
LAYER01
  6
CONTINUOUS
 62
     7
 10
2178.7029870000001
 20
465.574478
 30
0.0
  0
VERTEX
  5
1602
  8
LAYER01
  6
CONTINUOUS
 62
     7
 10
2178.742992
 20
465.61058099999991
 30
0.0
  0
VERTEX
  5
1603
  8
LAYER01
  6
CONTINUOUS
 62
     7
 10
2178.7827189999998
 20
465.64720099999988
 30
0.0
  0
VERTEX
  5
1604
  8
LAYER01
  6
CONTINUOUS
 62
     7
 10
2178.8221600000011
 20
465.68434100000002
 30
0.0
  0
VERTEX
  5
1605
  8
LAYER01
  6
CONTINUOUS
 62
     7
 10
2178.8612469999998
 20
465.72193600000003
 30
0.0
  0
VERTEX
  5
1606
  8
LAYER01
  6
CONTINUOUS
 62
     7
 10
2178.8999130000002
 20
465.75992300000001
 30
0.0
  0
VERTEX
  5
1607
  8
LAYER01
  6
CONTINUOUS
 62
     7
 10
2178.938157
 20
465.79830099999992
 30
0.0
  0
VERTEX
  5
1608
  8
LAYER01
  6
CONTINUOUS
 62
     7
 10
2178.9759779999999
 20
465.83707099999992
 30
0.0
  0
VERTEX
  5
1609
  8
LAYER01
  6
CONTINUOUS
 62
     7
 10
2179.013375
 20
465.8762309999999
 30
0.0
  0
VERTEX
  5
160A
  8
LAYER01
  6
CONTINUOUS
 62
     7
 10
2179.0503490000001
 20
465.91578199999998
 30
0.0
  0
VERTEX
  5
160B
  8
LAYER01
  6
CONTINUOUS
 62
     7
 10
2179.086898
 20
465.95572399999998
 30
0.0
  0
VERTEX
  5
160C
  8
LAYER01
  6
CONTINUOUS
 62
     7
 10
2179.1230220000002
 20
465.99605600000001
 30
0.0
  0
VERTEX
  5
160D
  8
LAYER01
  6
CONTINUOUS
 62
     7
 10
2179.1587199999999
 20
466.03677800000003
 30
0.0
  0
VERTEX
  5
160E
  8
LAYER01
  6
CONTINUOUS
 62
     7
 10
2179.193992
 20
466.07789000000002
 30
0.0
  0
VERTEX
  5
160F
  8
LAYER01
  6
CONTINUOUS
 62
     7
 10
2179.2288359999998
 20
466.11939100000001
 30
0.0
  0
VERTEX
  5
1610
  8
LAYER01
  6
CONTINUOUS
 62
     7
 10
2179.2632530000001
 20
466.16128200000003
 30
0.0
  0
VERTEX
  5
1611
  8
LAYER01
  6
CONTINUOUS
 62
     7
 10
2179.2972410000002
 20
466.20356199999998
 30
0.0
  0
VERTEX
  5
1612
  8
LAYER01
  6
CONTINUOUS
 62
     7
 10
2179.3308000000002
 20
466.24623200000002
 30
0.0
  0
VERTEX
  5
1613
  8
LAYER01
  6
CONTINUOUS
 62
     7
 10
2179.3639290000001
 20
466.28928899999988
 30
0.0
  0
VERTEX
  5
1614
  8
LAYER01
  6
CONTINUOUS
 62
     7
 10
2179.396628
 20
466.33273600000001
 30
0.0
  0
VERTEX
  5
1615
  8
LAYER01
  6
CONTINUOUS
 62
     7
 10
2179.428895
 20
466.3765719999999
 30
0.0
  0
VERTEX
  5
1616
  8
LAYER01
  6
CONTINUOUS
 62
     7
 10
2179.4607249999999
 20
466.42079999999999
 30
0.0
  0
VERTEX
  5
1617
  8
LAYER01
  6
CONTINUOUS
 62
     7
 10
2179.4921180000001
 20
466.46542099999999
 30
0.0
  0
VERTEX
  5
1618
  8
LAYER01
  6
CONTINUOUS
 62
     7
 10
2179.5230700000002
 20
466.51043700000002
 30
0.0
  0
VERTEX
  5
1619
  8
LAYER01
  6
CONTINUOUS
 62
     7
 10
2179.5535789999999
 20
466.55585000000002
 30
0.0
  0
VERTEX
  5
161A
  8
LAYER01
  6
CONTINUOUS
 62
     7
 10
2179.5836410000002
 20
466.60166099999998
 30
0.0
  0
VERTEX
  5
161B
  8
LAYER01
  6
CONTINUOUS
 62
     7
 10
2179.6132539999999
 20
466.64787199999989
 30
0.0
  0
VERTEX
  5
161C
  8
LAYER01
  6
CONTINUOUS
 62
     7
 10
2179.6424160000001
 20
466.69448499999999
 30
0.0
  0
VERTEX
  5
161D
  8
LAYER01
  6
CONTINUOUS
 62
     7
 10
2179.6711220000002
 20
466.74150100000003
 30
0.0
  0
VERTEX
  5
161E
  8
LAYER01
  6
CONTINUOUS
 62
     7
 10
2179.699372
 20
466.78892300000001
 30
0.0
  0
VERTEX
  5
161F
  8
LAYER01
  6
CONTINUOUS
 62
     7
 10
2179.7271609999998
 20
466.83675199999988
 30
0.0
  0
VERTEX
  5
1620
  8
LAYER01
  6
CONTINUOUS
 62
     7
 10
2179.754488
 20
466.88499000000002
 30
0.0
  0
VERTEX
  5
1621
  8
LAYER01
  6
CONTINUOUS
 62
     7
 10
2179.7813489999999
 20
466.93363799999992
 30
0.0
  0
VERTEX
  5
1622
  8
LAYER01
  6
CONTINUOUS
 62
     7
 10
2179.807742
 20
466.98269800000003
 30
0.0
  0
VERTEX
  5
1623
  8
LAYER01
  6
CONTINUOUS
 62
     7
 10
2179.8336399999998
 20
467.03213299999999
 30
0.0
  0
VERTEX
  5
1624
  8
LAYER01
  6
CONTINUOUS
 62
     7
 10
2179.859015
 20
467.0819019999999
 30
0.0
  0
VERTEX
  5
1625
  8
LAYER01
  6
CONTINUOUS
 62
     7
 10
2179.8838639999999
 20
467.13199800000001
 30
0.0
  0
VERTEX
  5
1626
  8
LAYER01
  6
CONTINUOUS
 62
     7
 10
2179.9081799999999
 20
467.182413
 30
0.0
  0
VERTEX
  5
1627
  8
LAYER01
  6
CONTINUOUS
 62
     7
 10
2179.931959
 20
467.23314099999988
 30
0.0
  0
VERTEX
  5
1628
  8
LAYER01
  6
CONTINUOUS
 62
     7
 10
2179.9551959999999
 20
467.28417599999989
 30
0.0
  0
VERTEX
  5
1629
  8
LAYER01
  6
CONTINUOUS
 62
     7
 10
2179.9778860000001
 20
467.335509
 30
0.0
  0
VERTEX
  5
162A
  8
LAYER01
  6
CONTINUOUS
 62
     7
 10
2180.0000249999998
 20
467.38713499999989
 30
0.0
  0
VERTEX
  5
162B
  8
LAYER01
  6
CONTINUOUS
 62
     7
 10
2180.021608
 20
467.43904600000002
 30
0.0
  0
VERTEX
  5
162C
  8
LAYER01
  6
CONTINUOUS
 62
     7
 10
2180.042629
 20
467.4912349999999
 30
0.0
  0
VERTEX
  5
162D
  8
LAYER01
  6
CONTINUOUS
 62
     7
 10
2180.0630839999999
 20
467.5436969999999
 30
0.0
  0
VERTEX
  5
162E
  8
LAYER01
  6
CONTINUOUS
 62
     7
 10
2180.0829680000002
 20
467.59642300000002
 30
0.0
  0
VERTEX
  5
162F
  8
LAYER01
  6
CONTINUOUS
 62
     7
 10
2180.1022760000001
 20
467.649407
 30
0.0
  0
VERTEX
  5
1630
  8
LAYER01
  6
CONTINUOUS
 62
     7
 10
2180.1210040000001
 20
467.70264299999991
 30
0.0
  0
VERTEX
  5
1631
  8
LAYER01
  6
CONTINUOUS
 62
     7
 10
2180.139146
 20
467.75612199999989
 30
0.0
  0
SEQEND
  5
1632
  8
LAYER01
  6
CONTINUOUS
 62
     7
  0
LINE
  5
870
  8
LAYER01
  6
CONTINUOUS
 62
     7
 10
2210.7342319999998
 20
451.756124
 30
0.0
 11
2210.7342319999998
 21
467.75612000000001
 31
0.0
  0
LINE
  5
871
  8
LAYER01
  6
CONTINUOUS
 62
     7
 10
2164.7342279999998
 20
451.756124
 30
0.0
 11
2210.7342319999998
 21
451.756124
 31
0.0
  0
LINE
  5
872
  8
LAYER01
  6
CONTINUOUS
 62
     7
 10
2235.45955
 20
488.10086899999999
 30
0.0
 11
2227.7342370000001
 21
451.756124
 31
0.0
  0
ARC
  5
873
  8
LAYER01
  6
CONTINUOUS
 62
     7
 10
2240.3502859999999
 20
487.061308
 30
0.0
 40
5.0
 50
104.45999999999999
 51
168.0
  0
LINE
  5
874
  8
LAYER01
  6
CONTINUOUS
 62
     7
 10
2180.2661549999998
 20
467.75612000000001
 30
0.0
 11
2210.7342319999998
 21
467.75612000000001
 31
0.0
  0
ARC
  5
875
  8
LAYER01
  6
CONTINUOUS
 62
     7
 10
2175.3704299999999
 20
468.77191199999987
 30
0.0
 40
5.0
 50
348.27831499999991
 51
357.36000000000001
  0
LINE
  5
876
  8
LAYER01
  6
CONTINUOUS
 62
     7
 10
2180.3651289999998
 20
468.54161199999999
 30
0.0
 11
2181.3267460000002
 21
489.39687499999991
 31
0.0
  0
LINE
  5
877
  8
LAYER01
  6
CONTINUOUS
 62
     7
 10
2210.7342319999998
 20
451.756124
 30
0.0
 11
2227.7342370000001
 21
451.756124
 31
0.0
  0
ARC
  5
878
  8
LAYER01
  6
CONTINUOUS
 62
     7
 10
2175.3727159999999
 20
468.77196199999997
 30
0.0
 40
4.9977239999999989
 50
348.27227900000003
 51
357.35824200000002
  0
LINE
  5
879
  8
LAYER01
  6
CONTINUOUS
 62
     7
 10
2180.2661109999999
 20
467.75612000000001
 30
0.0
 11
2180.2661549999998
 21
467.75612000000001
 31
0.0
  0
LINE
  5
87A
  8
LAYER01
  6
CONTINUOUS
 62
     7
 10
2180.2661109999999
 20
467.75612000000001
 30
0.0
 11
2180.1391530000001
 21
467.75612000000001
 31
0.0
  0
ARC
  5
87B
  8
LAYER01
  6
CONTINUOUS
 62
     7
 10
2168.307695
 20
468.77175599999998
 30
0.0
 40
4.9972079999999997
 50
185.001012
 51
224.35164900000001
  0
LINE
  5
87C
  8
LAYER01
  6
CONTINUOUS
 62
     7
 10
2157.3158939999998
 20
451.756124
 30
0.0
 11
2164.7342279999998
 21
451.756124
 31
0.0
  0
ARC
  5
87D
  8
LAYER01
  6
CONTINUOUS
 62
     7
 10
2157.3158899999999
 20
456.75612199999989
 30
0.0
 40
5.0
 50
185.0
 51
270.0
  0
ARC
  5
87E
  8
LAYER01
  6
CONTINUOUS
 62
     7
 10
2168.3104819999999
 20
468.77191199999987
 30
0.0
 40
5.0
 50
185.0
 51
224.336332
  0
POLYLINE
  5
87F
  8
LAYER01
  6
CONTINUOUS
 62
     7
 66
     1
 10
0.0
 20
0.0
 30
0.0
  0
VERTEX
  5
1633
  8
LAYER01
  6
CONTINUOUS
 62
     7
 10
2164.7343850000002
 20
465.27840500000002
 30
0.0
  0
VERTEX
  5
1634
  8
LAYER01
  6
CONTINUOUS
 62
     7
 10
2164.7357529999999
 20
465.28129999999999
 30
0.0
  0
VERTEX
  5
1635
  8
LAYER01
  6
CONTINUOUS
 62
     7
 10
2164.7385389999999
 20
465.28269399999999
 30
0.0
  0
VERTEX
  5
1636
  8
LAYER01
  6
CONTINUOUS
 62
     7
 10
2164.7427390000012
 20
465.28261999999989
 30
0.0
  0
VERTEX
  5
1637
  8
LAYER01
  6
CONTINUOUS
 62
     7
 10
2164.748349
 20
465.28111100000001
 30
0.0
  0
VERTEX
  5
1638
  8
LAYER01
  6
CONTINUOUS
 62
     7
 10
2164.7553630000002
 20
465.27820100000002
 30
0.0
  0
VERTEX
  5
1639
  8
LAYER01
  6
CONTINUOUS
 62
     7
 10
2164.763778
 20
465.27392400000002
 30
0.0
  0
VERTEX
  5
163A
  8
LAYER01
  6
CONTINUOUS
 62
     7
 10
2164.773588
 20
465.26831199999998
 30
0.0
  0
VERTEX
  5
163B
  8
LAYER01
  6
CONTINUOUS
 62
     7
 10
2164.7847900000002
 20
465.26139799999999
 30
0.0
  0
VERTEX
  5
163C
  8
LAYER01
  6
CONTINUOUS
 62
     7
 10
2164.7973790000001
 20
465.25321699999989
 30
0.0
  0
VERTEX
  5
163D
  8
LAYER01
  6
CONTINUOUS
 62
     7
 10
2164.8113499999999
 20
465.24380100000002
 30
0.0
  0
VERTEX
  5
163E
  8
LAYER01
  6
CONTINUOUS
 62
     7
 10
2164.8266990000002
 20
465.233183
 30
0.0
  0
VERTEX
  5
163F
  8
LAYER01
  6
CONTINUOUS
 62
     7
 10
2164.843421
 20
465.22139700000002
 30
0.0
  0
VERTEX
  5
1640
  8
LAYER01
  6
CONTINUOUS
 62
     7
 10
2164.8615129999998
 20
465.20847700000002
 30
0.0
  0
VERTEX
  5
1641
  8
LAYER01
  6
CONTINUOUS
 62
     7
 10
2164.8809689999998
 20
465.194455
 30
0.0
  0
VERTEX
  5
1642
  8
LAYER01
  6
CONTINUOUS
 62
     7
 10
2164.901785
 20
465.17936400000002
 30
0.0
  0
VERTEX
  5
1643
  8
LAYER01
  6
CONTINUOUS
 62
     7
 10
2164.923957
 20
465.16323899999992
 30
0.0
  0
VERTEX
  5
1644
  8
LAYER01
  6
CONTINUOUS
 62
     7
 10
2164.9474789999999
 20
465.14611200000002
 30
0.0
  0
VERTEX
  5
1645
  8
LAYER01
  6
CONTINUOUS
 62
     7
 10
2164.9723490000001
 20
465.12801599999989
 30
0.0
  0
VERTEX
  5
1646
  8
LAYER01
  6
CONTINUOUS
 62
     7
 10
2164.9985670000001
 20
465.10900700000002
 30
0.0
  0
VERTEX
  5
1647
  8
LAYER01
  6
CONTINUOUS
 62
     7
 10
2165.0261399999999
 20
465.08914699999991
 30
0.0
  0
VERTEX
  5
1648
  8
LAYER01
  6
CONTINUOUS
 62
     7
 10
2165.0550680000001
 20
465.0684849999999
 30
0.0
  0
VERTEX
  5
1649
  8
LAYER01
  6
CONTINUOUS
 62
     7
 10
2165.0853499999998
 20
465.04707000000002
 30
0.0
  0
VERTEX
  5
164A
  8
LAYER01
  6
CONTINUOUS
 62
     7
 10
2165.1169880000002
 20
465.02494999999999
 30
0.0
  0
VERTEX
  5
164B
  8
LAYER01
  6
CONTINUOUS
 62
     7
 10
2165.149981
 20
465.00217400000002
 30
0.0
  0
VERTEX
  5
164C
  8
LAYER01
  6
CONTINUOUS
 62
     7
 10
2165.18433
 20
464.97879099999989
 30
0.0
  0
VERTEX
  5
164D
  8
LAYER01
  6
CONTINUOUS
 62
     7
 10
2165.2200339999999
 20
464.95484799999991
 30
0.0
  0
VERTEX
  5
164E
  8
LAYER01
  6
CONTINUOUS
 62
     7
 10
2165.2570940000001
 20
464.93039399999998
 30
0.0
  0
VERTEX
  5
164F
  8
LAYER01
  6
CONTINUOUS
 62
     7
 10
2165.2955109999998
 20
464.90547800000002
 30
0.0
  0
VERTEX
  5
1650
  8
LAYER01
  6
CONTINUOUS
 62
     7
 10
2165.3352839999998
 20
464.88014800000002
 30
0.0
  0
VERTEX
  5
1651
  8
LAYER01
  6
CONTINUOUS
 62
     7
 10
2165.376413
 20
464.85445299999998
 30
0.0
  0
VERTEX
  5
1652
  8
LAYER01
  6
CONTINUOUS
 62
     7
 10
2165.4188989999998
 20
464.828441
 30
0.0
  0
VERTEX
  5
1653
  8
LAYER01
  6
CONTINUOUS
 62
     7
 10
2165.4627420000002
 20
464.8021599999999
 30
0.0
  0
VERTEX
  5
1654
  8
LAYER01
  6
CONTINUOUS
 62
     7
 10
2165.5079430000001
 20
464.77566000000002
 30
0.0
  0
VERTEX
  5
1655
  8
LAYER01
  6
CONTINUOUS
 62
     7
 10
2165.5545000000002
 20
464.748988
 30
0.0
  0
VERTEX
  5
1656
  8
LAYER01
  6
CONTINUOUS
 62
     7
 10
2165.6024149999998
 20
464.722194
 30
0.0
  0
VERTEX
  5
1657
  8
LAYER01
  6
CONTINUOUS
 62
     7
 10
2165.6516879999999
 20
464.69532500000003
 30
0.0
  0
VERTEX
  5
1658
  8
LAYER01
  6
CONTINUOUS
 62
     7
 10
2165.702275000001
 20
464.66845399999988
 30
0.0
  0
VERTEX
  5
1659
  8
LAYER01
  6
CONTINUOUS
 62
     7
 10
2165.7541329999999
 20
464.64164899999997
 30
0.0
  0
VERTEX
  5
165A
  8
LAYER01
  6
CONTINUOUS
 62
     7
 10
2165.8072619999998
 20
464.61495500000001
 30
0.0
  0
VERTEX
  5
165B
  8
LAYER01
  6
CONTINUOUS
 62
     7
 10
2165.8616630000001
 20
464.588415
 30
0.0
  0
VERTEX
  5
165C
  8
LAYER01
  6
CONTINUOUS
 62
     7
 10
2165.917336
 20
464.562074
 30
0.0
  0
VERTEX
  5
165D
  8
LAYER01
  6
CONTINUOUS
 62
     7
 10
2165.9742799999999
 20
464.53597599999989
 30
0.0
  0
VERTEX
  5
165E
  8
LAYER01
  6
CONTINUOUS
 62
     7
 10
2166.032498
 20
464.51016499999992
 30
0.0
  0
VERTEX
  5
165F
  8
LAYER01
  6
CONTINUOUS
 62
     7
 10
2166.091989
 20
464.4846849999999
 30
0.0
  0
VERTEX
  5
1660
  8
LAYER01
  6
CONTINUOUS
 62
     7
 10
2166.1527529999998
 20
464.4595799999999
 30
0.0
  0
VERTEX
  5
1661
  8
LAYER01
  6
CONTINUOUS
 62
     7
 10
2166.2147920000002
 20
464.43489499999998
 30
0.0
  0
VERTEX
  5
1662
  8
LAYER01
  6
CONTINUOUS
 62
     7
 10
2166.278104
 20
464.41067199999992
 30
0.0
  0
VERTEX
  5
1663
  8
LAYER01
  6
CONTINUOUS
 62
     7
 10
2166.3426920000002
 20
464.386957
 30
0.0
  0
VERTEX
  5
1664
  8
LAYER01
  6
CONTINUOUS
 62
     7
 10
2166.4085540000001
 20
464.36379399999998
 30
0.0
  0
VERTEX
  5
1665
  8
LAYER01
  6
CONTINUOUS
 62
     7
 10
2166.475692
 20
464.34122599999989
 30
0.0
  0
VERTEX
  5
1666
  8
LAYER01
  6
CONTINUOUS
 62
     7
 10
2166.5441059999998
 20
464.31929699999989
 30
0.0
  0
VERTEX
  5
1667
  8
LAYER01
  6
CONTINUOUS
 62
     7
 10
2166.6137960000001
 20
464.29805199999993
 30
0.0
  0
VERTEX
  5
1668
  8
LAYER01
  6
CONTINUOUS
 62
     7
 10
2166.6847630000002
 20
464.27753499999989
 30
0.0
  0
VERTEX
  5
1669
  8
LAYER01
  6
CONTINUOUS
 62
     7
 10
2166.7570070000011
 20
464.25779
 30
0.0
  0
VERTEX
  5
166A
  8
LAYER01
  6
CONTINUOUS
 62
     7
 10
2166.830528
 20
464.23884199999992
 30
0.0
  0
VERTEX
  5
166B
  8
LAYER01
  6
CONTINUOUS
 62
     7
 10
2166.90533
 20
464.2207259999999
 30
0.0
  0
VERTEX
  5
166C
  8
LAYER01
  6
CONTINUOUS
 62
     7
 10
2166.9814219999998
 20
464.20349999999991
 30
0.0
  0
VERTEX
  5
166D
  8
LAYER01
  6
CONTINUOUS
 62
     7
 10
2167.0588109999999
 20
464.18722300000002
 30
0.0
  0
VERTEX
  5
166E
  8
LAYER01
  6
CONTINUOUS
 62
     7
 10
2167.1375039999998
 20
464.17195199999992
 30
0.0
  0
VERTEX
  5
166F
  8
LAYER01
  6
CONTINUOUS
 62
     7
 10
2167.2175099999999
 20
464.15774599999992
 30
0.0
  0
VERTEX
  5
1670
  8
LAYER01
  6
CONTINUOUS
 62
     7
 10
2167.2988350000001
 20
464.14466399999992
 30
0.0
  0
VERTEX
  5
1671
  8
LAYER01
  6
CONTINUOUS
 62
     7
 10
2167.3814870000001
 20
464.13276300000001
 30
0.0
  0
VERTEX
  5
1672
  8
LAYER01
  6
CONTINUOUS
 62
     7
 10
2167.4654740000001
 20
464.12210299999998
 30
0.0
  0
VERTEX
  5
1673
  8
LAYER01
  6
CONTINUOUS
 62
     7
 10
2167.5508030000001
 20
464.11274100000003
 30
0.0
  0
VERTEX
  5
1674
  8
LAYER01
  6
CONTINUOUS
 62
     7
 10
2167.6374820000001
 20
464.10473500000001
 30
0.0
  0
VERTEX
  5
1675
  8
LAYER01
  6
CONTINUOUS
 62
     7
 10
2167.7255180000011
 20
464.09814499999999
 30
0.0
  0
VERTEX
  5
1676
  8
LAYER01
  6
CONTINUOUS
 62
     7
 10
2167.8149189999999
 20
464.093029
 30
0.0
  0
VERTEX
  5
1677
  8
LAYER01
  6
CONTINUOUS
 62
     7
 10
2167.9056930000002
 20
464.08944400000001
 30
0.0
  0
VERTEX
  5
1678
  8
LAYER01
  6
CONTINUOUS
 62
     7
 10
2167.9978470000001
 20
464.08744899999999
 30
0.0
  0
VERTEX
  5
1679
  8
LAYER01
  6
CONTINUOUS
 62
     7
 10
2168.0913879999998
 20
464.0871019999999
 30
0.0
  0
VERTEX
  5
167A
  8
LAYER01
  6
CONTINUOUS
 62
     7
 10
2168.1863250000001
 20
464.08846299999999
 30
0.0
  0
VERTEX
  5
167B
  8
LAYER01
  6
CONTINUOUS
 62
     7
 10
2168.2826639999998
 20
464.091588
 30
0.0
  0
SEQEND
  5
167C
  8
LAYER01
  6
CONTINUOUS
 62
     7
  0
POLYLINE
  5
8CA
  8
LAYER01
  6
CONTINUOUS
 62
     7
 66
     1
 10
0.0
 20
0.0
 30
0.0
  0
VERTEX
  5
167D
  8
LAYER01
  6
CONTINUOUS
 62
     7
 10
2164.734234
 20
465.27756699999992
 30
0.0
  0
VERTEX
  5
167E
  8
LAYER01
  6
CONTINUOUS
 62
     7
 10
2164.734234
 20
465.27756799999992
 30
0.0
  0
VERTEX
  5
167F
  8
LAYER01
  6
CONTINUOUS
 62
     7
 10
2164.7342349999999
 20
465.27757300000002
 30
0.0
  0
VERTEX
  5
1680
  8
LAYER01
  6
CONTINUOUS
 62
     7
 10
2164.7342359999998
 20
465.27757999999989
 30
0.0
  0
VERTEX
  5
1681
  8
LAYER01
  6
CONTINUOUS
 62
     7
 10
2164.734238
 20
465.27758999999998
 30
0.0
  0
VERTEX
  5
1682
  8
LAYER01
  6
CONTINUOUS
 62
     7
 10
2164.7342400000002
 20
465.277603
 30
0.0
  0
VERTEX
  5
1683
  8
LAYER01
  6
CONTINUOUS
 62
     7
 10
2164.7342429999999
 20
465.2776189999999
 30
0.0
  0
VERTEX
  5
1684
  8
LAYER01
  6
CONTINUOUS
 62
     7
 10
2164.7342469999999
 20
465.27763799999991
 30
0.0
  0
VERTEX
  5
1685
  8
LAYER01
  6
CONTINUOUS
 62
     7
 10
2164.73425
 20
465.27766000000003
 30
0.0
  0
VERTEX
  5
1686
  8
LAYER01
  6
CONTINUOUS
 62
     7
 10
2164.7342549999998
 20
465.27768499999991
 30
0.0
  0
VERTEX
  5
1687
  8
LAYER01
  6
CONTINUOUS
 62
     7
 10
2164.7342600000002
 20
465.27771200000001
 30
0.0
  0
VERTEX
  5
1688
  8
LAYER01
  6
CONTINUOUS
 62
     7
 10
2164.7342650000001
 20
465.27774299999987
 30
0.0
  0
VERTEX
  5
1689
  8
LAYER01
  6
CONTINUOUS
 62
     7
 10
2164.7342709999998
 20
465.2777759999999
 30
0.0
  0
VERTEX
  5
168A
  8
LAYER01
  6
CONTINUOUS
 62
     7
 10
2164.7342779999999
 20
465.27781299999992
 30
0.0
  0
VERTEX
  5
168B
  8
LAYER01
  6
CONTINUOUS
 62
     7
 10
2164.734285
 20
465.27785199999988
 30
0.0
  0
VERTEX
  5
168C
  8
LAYER01
  6
CONTINUOUS
 62
     7
 10
2164.734293
 20
465.27789400000012
 30
0.0
  0
VERTEX
  5
168D
  8
LAYER01
  6
CONTINUOUS
 62
     7
 10
2164.734301
 20
465.27793899999989
 30
0.0
  0
VERTEX
  5
168E
  8
LAYER01
  6
CONTINUOUS
 62
     7
 10
2164.7343089999999
 20
465.27798699999988
 30
0.0
  0
VERTEX
  5
168F
  8
LAYER01
  6
CONTINUOUS
 62
     7
 10
2164.7343190000001
 20
465.27803799999998
 30
0.0
  0
VERTEX
  5
1690
  8
LAYER01
  6
CONTINUOUS
 62
     7
 10
2164.734328
 20
465.27809200000002
 30
0.0
  0
VERTEX
  5
1691
  8
LAYER01
  6
CONTINUOUS
 62
     7
 10
2164.7343380000002
 20
465.27814899999998
 30
0.0
  0
VERTEX
  5
1692
  8
LAYER01
  6
CONTINUOUS
 62
     7
 10
2164.7343489999998
 20
465.278209
 30
0.0
  0
VERTEX
  5
1693
  8
LAYER01
  6
CONTINUOUS
 62
     7
 10
2164.7343599999999
 20
465.27827100000002
 30
0.0
  0
VERTEX
  5
1694
  8
LAYER01
  6
CONTINUOUS
 62
     7
 10
2164.7343719999999
 20
465.27833700000002
 30
0.0
  0
VERTEX
  5
1695
  8
LAYER01
  6
CONTINUOUS
 62
     7
 10
2164.7343850000002
 20
465.27840500000002
 30
0.0
  0
SEQEND
  5
1696
  8
LAYER01
  6
CONTINUOUS
 62
     7
  0
LINE
  5
8E5
  8
LAYER01
  6
CONTINUOUS
 62
     7
 10
2164.7342279999998
 20
465.27756499999998
 30
0.0
 11
2164.7342279999998
 21
451.756124
 31
0.0
  0
LINE
  5
8E6
  8
LAYER01
  6
CONTINUOUS
 62
     7
 10
2500.2209830000002
 20
559.23848799999996
 30
0.0
 11
2239.1017660000002
 21
491.90292199999988
 31
0.0
  0
LINE
  5
8E7
  8
LAYER01
  6
CONTINUOUS
 62
     7
 10
2499.3128609999999
 20
571.3968769999999
 30
0.0
 11
2181.3267460000002
 21
489.39687499999991
 31
0.0
  0
LINE
  5
8E8
  8
LAYER01
  6
CONTINUOUS
 62
     7
 10
2524.3128670000001
 20
571.3968769999999
 30
0.0
 11
2499.3128609999999
 21
571.3968769999999
 31
0.0
  0
LINE
  5
8E9
  8
LAYER01
  6
CONTINUOUS
 62
     7
 10
2524.3128670000001
 20
559.3968769999999
 30
0.0
 11
2524.3128670000001
 21
571.3968769999999
 31
0.0
  0
LINE
  5
8EA
  8
LAYER01
  6
CONTINUOUS
 62
     7
 10
2524.3128670000001
 20
559.3968769999999
 30
0.0
 11
2501.4695069999998
 21
559.3968769999999
 31
0.0
  0
ARC
  5
8EB
  8
LAYER01
  6
CONTINUOUS
 62
     7
 10
2501.469505
 20
554.3968769999999
 30
0.0
 40
5.0
 50
90.0
 51
104.45999999999999
  0
LINE
  5
8EC
  8
LAYER01
  6
CONTINUOUS
 62
     7
 10
2480.9790539999999
 20
571.3968769999999
 30
0.0
 11
2499.3128609999999
 21
571.3968769999999
 31
0.0
  0
LINE
  5
8ED
  8
LAYER01
  6
CONTINUOUS
 62
     7
 10
2480.9790539999999
 20
571.3968769999999
 30
0.0
 11
2159.2938290000002
 21
571.3968769999999
 31
0.0
  0
ENDSEC
  0
EOF
