  0
SECTION
  2
HEADER
  9
$ACADVER
  1
AC1009
  9
$INSBASE
 10
0.0
 20
0.0
 30
0.0
  9
$EXTMIN
 10
-499.77629182412602
 20
-1003.5722314144419
 30
-0.0015258207003583
  9
$EXTMAX
 10
4629.7596902270234
 20
1782.842681338198
 30
0.0000000349246037
  9
$LIMMIN
 10
-574.42559500000004
 20
-1053.01331
  9
$LIMMAX
 10
3561.0064390000011
 20
1871.327914
  9
$ORTHOMODE
 70
     1
  9
$REGENMODE
 70
     1
  9
$FILLMODE
 70
     1
  9
$QTEXTMODE
 70
     0
  9
$MIRRTEXT
 70
     0
  9
$DRAGMODE
 70
     2
  9
$LTSCALE
 40
1.0
  9
$OSMODE
 70
    37
  9
$ATTMODE
 70
     1
  9
$TEXTSIZE
 40
0.0
  9
$TRACEWID
 40
0.05
  9
$TEXTSTYLE
  7
STANDARD
  9
$CLAYER
  8
LAYER01
  9
$CELTYPE
  6
CONTINUOUS
  9
$CECOLOR
 62
     7
  9
$DIMSCALE
 40
1.0
  9
$DIMASZ
 40
0.18
  9
$DIMEXO
 40
0.0625
  9
$DIMDLI
 40
0.38
  9
$DIMRND
 40
0.0
  9
$DIMDLE
 40
0.0
  9
$DIMEXE
 40
0.18
  9
$DIMTP
 40
0.0
  9
$DIMTM
 40
0.0
  9
$DIMTXT
 40
0.18
  9
$DIMCEN
 40
0.09
  9
$DIMTSZ
 40
0.0
  9
$DIMTOL
 70
     0
  9
$DIMLIM
 70
     0
  9
$DIMTIH
 70
     1
  9
$DIMTOH
 70
     1
  9
$DIMSE1
 70
     0
  9
$DIMSE2
 70
     0
  9
$DIMTAD
 70
     0
  9
$DIMZIN
 70
     0
  9
$DIMBLK
  1

  9
$DIMASO
 70
     1
  9
$DIMSHO
 70
     1
  9
$DIMPOST
  1

  9
$DIMAPOST
  1

  9
$DIMALT
 70
     0
  9
$DIMALTD
 70
     2
  9
$DIMALTF
 40
25.399999999999999
  9
$DIMLFAC
 40
1.0
  9
$DIMTOFL
 70
     0
  9
$DIMTVP
 40
0.0
  9
$DIMTIX
 70
     0
  9
$DIMSOXD
 70
     0
  9
$DIMSAH
 70
     0
  9
$DIMBLK1
  1

  9
$DIMBLK2
  1

  9
$DIMSTYLE
  2
STANDARD
  9
$DIMCLRD
 70
     0
  9
$DIMCLRE
 70
     0
  9
$DIMCLRT
 70
     0
  9
$DIMTFAC
 40
1.0
  9
$DIMGAP
 40
0.09
  9
$LUNITS
 70
     2
  9
$LUPREC
 70
     4
  9
$SKETCHINC
 40
0.1
  9
$FILLETRAD
 40
5.0
  9
$AUNITS
 70
     0
  9
$AUPREC
 70
     0
  9
$MENU
  1
acad
  9
$ELEVATION
 40
0.0
  9
$PELEVATION
 40
0.0
  9
$THICKNESS
 40
0.0
  9
$LIMCHECK
 70
     0
  9
$BLIPMODE
 70
     0
  9
$CHAMFERA
 40
10.0
  9
$CHAMFERB
 40
10.0
  9
$SKPOLY
 70
     0
  9
$TDCREATE
 40
2305814.0418901742
  9
$TDUPDATE
 40
2459961.3274176968
  9
$TDINDWG
 40
0.0013706829
  9
$TDUSRTIMER
 40
0.0013702083
  9
$USRTIMER
 70
     1
  9
$ANGBASE
 50
0.0
  9
$ANGDIR
 70
     0
  9
$PDMODE
 70
     0
  9
$PDSIZE
 40
0.0
  9
$PLINEWID
 40
0.0
  9
$COORDS
 70
     0
  9
$SPLFRAME
 70
     0
  9
$SPLINETYPE
 70
     6
  9
$SPLINESEGS
 70
    10
  9
$ATTDIA
 70
     0
  9
$ATTREQ
 70
     1
  9
$HANDLING
 70
     1
  9
$HANDSEED
  5
1173
  9
$SURFTAB1
 70
     6
  9
$SURFTAB2
 70
     6
  9
$SURFTYPE
 70
     6
  9
$SURFU
 70
     6
  9
$SURFV
 70
     6
  9
$UCSNAME
  2

  9
$UCSORG
 10
0.0
 20
0.0
 30
0.0
  9
$UCSXDIR
 10
1.0
 20
0.0
 30
0.0
  9
$UCSYDIR
 10
0.0
 20
1.0
 30
0.0
  9
$PUCSNAME
  2

  9
$PUCSORG
 10
0.0
 20
0.0
 30
0.0
  9
$PUCSXDIR
 10
1.0
 20
0.0
 30
0.0
  9
$PUCSYDIR
 10
0.0
 20
1.0
 30
0.0
  9
$USERI1
 70
     0
  9
$USERI2
 70
     0
  9
$USERI3
 70
     0
  9
$USERI4
 70
     0
  9
$USERI5
 70
     0
  9
$USERR1
 40
0.0
  9
$USERR2
 40
0.0
  9
$USERR3
 40
0.0
  9
$USERR4
 40
0.0
  9
$USERR5
 40
0.0
  9
$WORLDVIEW
 70
     1
  9
$SHADEDGE
 70
     3
  9
$SHADEDIF
 70
    70
  9
$TILEMODE
 70
     1
  9
$MAXACTVP
 70
    64
  9
$PLIMCHECK
 70
     0
  9
$PEXTMIN
 10
1.0000000000000000E+020
 20
1.0000000000000000E+020
 30
1.0000000000000000E+020
  9
$PEXTMAX
 10
-1.0000000000000000E+020
 20
-1.0000000000000000E+020
 30
-1.0000000000000000E+020
  9
$PLIMMIN
 10
0.0
 20
0.0
  9
$PLIMMAX
 10
12.0
 20
9.0
  9
$UNITMODE
 70
     0
  9
$VISRETAIN
 70
     1
  9
$PLINEGEN
 70
     0
  9
$PSLTSCALE
 70
     1
  0
ENDSEC
  0
SECTION
  2
TABLES
  0
TABLE
  2
VPORT
 70
     1
  0
VPORT
  2
*ACTIVE
 70
     0
 10
0.0
 20
0.0
 11
1.0
 21
1.0
 12
2027.6670476135121
 22
409.15730200000007
 13
0.0
 23
0.0
 14
1.0
 24
1.0
 15
0.0
 25
0.0
 16
0.0
 26
0.0
 36
1.0
 17
0.0
 27
0.0
 37
0.0
 40
2951.7141527737908
 41
1.9312499999999999
 42
50.0
 43
0.0
 44
0.0
 50
0.0
 51
0.0
 71
     0
 72
   100
 73
     1
 74
     1
 75
     0
 76
     0
 77
     0
 78
     0
  0
ENDTAB
  0
TABLE
  2
LTYPE
 70
    11
  0
LTYPE
  2
CONTINUOUS
 70
     0
  3
Solid line
 72
    65
 73
     0
 40
0.0
  0
LTYPE
  2
GESTRICHELT
 70
     0
  3
__ __ __ __ __ __ __ __ __ __ __ __ __ __ __
 72
    65
 73
     2
 40
0.75
 49
0.5
 49
-0.25
  0
LTYPE
  2
VERDECKT
 70
     0
  3
_ _ _ _ _ _ _ _ _ _ _ _ _ _ _ _ _ _ _ _ _ _ 
 72
    65
 73
     2
 40
0.25
 49
0.125
 49
-0.125
  0
LTYPE
  2
MITTELLINIE
 70
     0
  3
____ _ ____ _ ____ _ ____ _ ____ _ ____ _ __
 72
    65
 73
     4
 40
2.0
 49
1.25
 49
-0.25
 49
0.25
 49
-0.25
  0
LTYPE
  2
PHANTOM
 70
     0
  3
_____ _ _ _____ _ _ _____ _ _ _____ _ _ ____
 72
    65
 73
     6
 40
2.5
 49
1.25
 49
-0.25
 49
0.25
 49
-0.25
 49
0.25
 49
-0.25
  0
LTYPE
  2
PUNKTIERT
 70
     0
  3
............................................
 72
    65
 73
     2
 40
0.25
 49
0.0
 49
-0.25
  0
LTYPE
  2
STRICHPUNKTIERT
 70
     0
  3
__ . __ . __ . __ . __ . __ . __ . __ . __ .
 72
    65
 73
     4
 40
1.0
 49
0.5
 49
-0.25
 49
0.0
 49
-0.25
  0
LTYPE
  2
RAND
 70
     0
  3
__ __ . __ __ . __ __ . __ __ . __ __ . __ _
 72
    65
 73
     6
 40
1.75
 49
0.5
 49
-0.25
 49
0.5
 49
-0.25
 49
0.0
 49
-0.25
  0
LTYPE
  2
TRENNLINIE
 70
     0
  3
__ . . __ . . __ . . __ . . __ . . __ . . __
 72
    65
 73
     6
 40
1.25
 49
0.5
 49
-0.25
 49
0.0
 49
-0.25
 49
0.0
 49
-0.25
  0
LTYPE
  2
ENG_PUNKTIERT
 70
     0
  3
Schließen                                   
 72
    65
 73
     2
 40
0.1
 49
0.05
 49
-0.05
  0
LTYPE
  2
CLOSE
 70
     0
  3
                                            
 72
    65
 73
     0
 40
0.0
  0
ENDTAB
  0
TABLE
  2
LAYER
 70
   256
  0
LAYER
  2
0
 70
     0
 62
     7
  6
CONTINUOUS
  0
LAYER
  2
LAYER01
 70
     0
 62
     7
  6
CONTINUOUS
  0
LAYER
  2
LAYER02
 70
     0
 62
     7
  6
CONTINUOUS
  0
LAYER
  2
LAYER03
 70
     0
 62
     7
  6
CONTINUOUS
  0
LAYER
  2
LAYER04
 70
     0
 62
     7
  6
CONTINUOUS
  0
LAYER
  2
LAYER05
 70
     0
 62
     7
  6
CONTINUOUS
  0
LAYER
  2
LAYER06
 70
     0
 62
     7
  6
CONTINUOUS
  0
LAYER
  2
LAYER07
 70
     0
 62
     7
  6
CONTINUOUS
  0
LAYER
  2
LAYER08
 70
     0
 62
     7
  6
CONTINUOUS
  0
LAYER
  2
LAYER09
 70
     0
 62
     7
  6
CONTINUOUS
  0
LAYER
  2
LAYER10
 70
     0
 62
     7
  6
CONTINUOUS
  0
LAYER
  2
FORMAT
 70
     0
 62
     7
  6
CONTINUOUS
  0
LAYER
  2
2
 70
     0
 62
     7
  6
CONTINUOUS
  0
LAYER
  2
5
 70
     0
 62
     7
  6
CONTINUOUS
  0
LAYER
  2
RAUMAUFM
 70
     0
 62
     7
  6
CONTINUOUS
  0
LAYER
  2
EINRICHT
 70
     0
 62
     7
  6
CONTINUOUS
  0
LAYER
  2
HILFE
 70
     0
 62
     7
  6
CONTINUOUS
  0
LAYER
  2
SCHNITTE
 70
     0
 62
     7
  6
CONTINUOUS
  0
LAYER
  2
SCHRAFF1
 70
     0
 62
     7
  6
CONTINUOUS
  0
LAYER
  2
SCHRAFF2
 70
     0
 62
     7
  6
CONTINUOUS
  0
LAYER
  2
BEMASS-1
 70
     0
 62
     7
  6
CONTINUOUS
  0
LAYER
  2
BEMASS-2
 70
     0
 62
     7
  6
CONTINUOUS
  0
LAYER
  2
TEXT
 70
     0
 62
     7
  6
CONTINUOUS
  0
LAYER
  2
SYMBOLE
 70
     0
 62
     7
  6
CONTINUOUS
  0
LAYER
  2
RAHMEN
 70
     0
 62
     7
  6
CONTINUOUS
  0
LAYER
  2
SCHRIFTF
 70
     0
 62
     7
  6
CONTINUOUS
  0
LAYER
  2
ACHSEN
 70
     0
 62
     7
  6
CONTINUOUS
  0
LAYER
  2
ZEICHN
 70
     0
 62
     7
  6
CONTINUOUS
  0
LAYER
  2
7
 70
     0
 62
     7
  6
CONTINUOUS
  0
LAYER
  2
1
 70
     0
 62
     7
  6
CONTINUOUS
  0
LAYER
  2
6
 70
     0
 62
     7
  6
CONTINUOUS
  0
LAYER
  2
4
 70
     0
 62
     7
  6
CONTINUOUS
  0
LAYER
  2
GRUNDEBENE
 70
     0
 62
     7
  6
CONTINUOUS
  0
LAYER
  2
GRUNDRISS
 70
     0
 62
     7
  6
CONTINUOUS
  0
LAYER
  2
BEMASSUNGGRUNDRISS
 70
     0
 62
     7
  6
CONTINUOUS
  0
LAYER
  2
WANDELEMENTE
 70
     0
 62
     7
  6
CONTINUOUS
  0
LAYER
  2
KUECHE
 70
     0
 62
     7
  6
CONTINUOUS
  0
LAYER
  2
THEKEBROETCHEN
 70
     0
 62
     7
  6
CONTINUOUS
  0
LAYER
  2
CENTERLINIE
 70
     0
 62
     7
  6
CONTINUOUS
  0
LAYER
  2
UMRISSE
 70
     0
 62
     7
  6
CONTINUOUS
  0
LAYER
  2
MAUER
 70
     0
 62
     7
  6
CONTINUOUS
  0
LAYER
  2
SCHRAFFUR
 70
     0
 62
     7
  6
CONTINUOUS
  0
LAYER
  2
MASSLINIE
 70
     0
 62
     7
  6
CONTINUOUS
  0
LAYER
  2
PV
 70
     0
 62
     7
  6
CONTINUOUS
  0
LAYER
  2
BESCHRIFTUNG
 70
     0
 62
     7
  6
CONTINUOUS
  0
LAYER
  2
AS
 70
     0
 62
     7
  6
CONTINUOUS
  0
LAYER
  2
PL
 70
     0
 62
     7
  6
CONTINUOUS
  0
LAYER
  2
UK
 70
     0
 62
     7
  6
CONTINUOUS
  0
LAYER
  2
TEXT3
 70
     0
 62
     7
  6
CONTINUOUS
  0
LAYER
  2
TEXT7
 70
     0
 62
     7
  6
CONTINUOUS
  0
LAYER
  2
BEPL1
 70
     0
 62
     7
  6
CONTINUOUS
  0
LAYER
  2
BEPL2
 70
     0
 62
     7
  6
CONTINUOUS
  0
LAYER
  2
BEPL2V
 70
     0
 62
     7
  6
CONTINUOUS
  0
LAYER
  2
BEPL4
 70
     0
 62
     7
  6
CONTINUOUS
  0
LAYER
  2
BEPL
 70
     0
 62
     7
  6
CONTINUOUS
  0
LAYER
  2
UK1
 70
     0
 62
     7
  6
CONTINUOUS
  0
LAYER
  2
UK2
 70
     0
 62
     7
  6
CONTINUOUS
  0
LAYER
  2
UK2V
 70
     0
 62
     7
  6
CONTINUOUS
  0
LAYER
  2
UK3
 70
     0
 62
     7
  6
CONTINUOUS
  0
LAYER
  2
TEXT2
 70
     0
 62
     7
  6
CONTINUOUS
  0
LAYER
  2
HILF2S
 70
     0
 62
     7
  6
CONTINUOUS
  0
LAYER
  2
UK1V
 70
     0
 62
     7
  6
CONTINUOUS
  0
LAYER
  2
GAIN_ZRA
 70
     0
 62
     7
  6
CONTINUOUS
  0
LAYER
  2
GAIN_ZSF
 70
     0
 62
     7
  6
CONTINUOUS
  0
LAYER
  2
RAHM4
 70
     0
 62
     7
  6
CONTINUOUS
  0
LAYER
  2
KORPUSBAND
 70
     0
 62
     7
  6
CONTINUOUS
  0
LAYER
  2
E---LGPL--------
 70
     0
 62
     7
  6
CONTINUOUS
  0
LAYER
  2
E---NPFL--------
 70
     0
 62
     7
  6
CONTINUOUS
  0
LAYER
  2
E---PLNKTXT-----
 70
     0
 62
     7
  6
CONTINUOUS
  0
LAYER
  2
E---PLNK--------
 70
     0
 62
     7
  6
CONTINUOUS
  0
LAYER
  2
E---PLNR--------
 70
     0
 62
     7
  6
CONTINUOUS
  0
LAYER
  2
D547_ARCHICAD
 70
     0
 62
     7
  6
CONTINUOUS
  0
LAYER
  2
D547_E---TEXT--------
 70
     0
 62
     7
  6
CONTINUOUS
  0
LAYER
  2
E---LEGD--------
 70
     0
 62
     7
  6
CONTINUOUS
  0
LAYER
  2
D43_ARCHICAD
 70
     0
 62
     7
  6
CONTINUOUS
  0
LAYER
  2
D43_FENSTER_VON_B---FASS--
 70
     0
 62
     7
  6
CONTINUOUS
  0
LAYER
  2
D43_E---SCHN--------
 70
     0
 62
     7
  6
CONTINUOUS
  0
LAYER
  2
D43_B---MW-N--------
 70
     0
 62
     7
  6
CONTINUOUS
  0
LAYER
  2
D43_B---DECK--------
 70
     0
 62
     7
  6
CONTINUOUS
  0
LAYER
  2
D43_B---MW-S--------
 70
     0
 62
     7
  6
CONTINUOUS
  0
LAYER
  2
D43_B---MW----------
 70
     0
 62
     7
  6
CONTINUOUS
  0
LAYER
  2
D43_B---FASS--------
 70
     0
 62
     7
  6
CONTINUOUS
  0
LAYER
  2
D43_E---RASG--------
 70
     0
 62
     7
  6
CONTINUOUS
  0
LAYER
  2
D40_ARCHICAD
 70
     0
 62
     7
  6
CONTINUOUS
  0
LAYER
  2
D40_E---MW--------
 70
     0
 62
     7
  6
CONTINUOUS
  0
LAYER
  2
D40_E---FASSKON-----
 70
     0
 62
     7
  6
CONTINUOUS
  0
LAYER
  2
D40_TÜREN_VON_B---MW-N----
 70
     0
 62
     7
  6
CONTINUOUS
  0
LAYER
  2
D40_E---MW-L------
 70
     0
 62
     7
  6
CONTINUOUS
  0
LAYER
  2
D40_TÜREN_VON_B---MW------
 70
     0
 62
     7
  6
CONTINUOUS
  0
LAYER
  2
D40_E---VERM--------
 70
     0
 62
     7
  6
CONTINUOUS
  0
LAYER
  2
D40_FENSTER_VON_E---MW-L--
 70
     0
 62
     7
  6
CONTINUOUS
  0
LAYER
  2
D40_FENSTER_VON_B---MW-N--
 70
     0
 62
     7
  6
CONTINUOUS
  0
LAYER
  2
D40_E---SCHN--------
 70
     0
 62
     7
  6
CONTINUOUS
  0
LAYER
  2
D40_E---AUFZ--------
 70
     0
 62
     7
  6
CONTINUOUS
  0
LAYER
  2
D40_E---DECK--------
 70
     0
 62
     7
  6
CONTINUOUS
  0
LAYER
  2
D40_E---RAUMINF-----
 70
     0
 62
     7
  6
CONTINUOUS
  0
LAYER
  2
D40_E---TEXT--------
 70
     0
 62
     7
  6
CONTINUOUS
  0
LAYER
  2
D40_B---TEXT--------
 70
     0
 62
     7
  6
CONTINUOUS
  0
LAYER
  2
D40_B---MW-N--------
 70
     0
 62
     7
  6
CONTINUOUS
  0
LAYER
  2
D40_B---DECK--------
 70
     0
 62
     7
  6
CONTINUOUS
  0
LAYER
  2
D40_B---AUFZ--------
 70
     0
 62
     7
  6
CONTINUOUS
  0
LAYER
  2
D40_B---MW-S--------
 70
     0
 62
     7
  6
CONTINUOUS
  0
LAYER
  2
D40_B---MW----------
 70
     0
 62
     7
  6
CONTINUOUS
  0
LAYER
  2
D40_E---MOEB--------
 70
     0
 62
     7
  6
CONTINUOUS
  0
LAYER
  2
D40_B---UMGB--------
 70
     0
 62
     7
  6
CONTINUOUS
  0
LAYER
  2
D40_B---FASS--------
 70
     0
 62
     7
  6
CONTINUOUS
  0
LAYER
  2
D40_E---DACH--------
 70
     0
 62
     7
  6
CONTINUOUS
  0
LAYER
  2
D40_E---BODE--------
 70
     0
 62
     7
  6
CONTINUOUS
  0
LAYER
  2
D40_E---TREP--------
 70
     0
 62
     7
  6
CONTINUOUS
  0
LAYER
  2
D40_E---RASG--------
 70
     0
 62
     7
  6
CONTINUOUS
  0
LAYER
  2
D40_B---MW-K--------
 70
     0
 62
     7
  6
CONTINUOUS
  0
LAYER
  2
D40_E---FASSGLA-----
 70
     0
 62
     7
  6
CONTINUOUS
  0
LAYER
  2
D40_B---VERM--------
 70
     0
 62
     7
  6
CONTINUOUS
  0
LAYER
  2
D40_E---UMGBGSG-----
 70
     0
 62
     7
  6
CONTINUOUS
  0
LAYER
  2
D40_E---RASF--------
 70
     0
 62
     7
  6
CONTINUOUS
  0
LAYER
  2
D40_E---PFLA--------
 70
     0
 62
     7
  6
CONTINUOUS
  0
LAYER
  2
D40_E---KONS-ST-----
 70
     0
 62
     7
  6
CONTINUOUS
  0
LAYER
  2
D40_E---WERB--------
 70
     0
 62
     7
  6
CONTINUOUS
  0
LAYER
  2
D40_E---TUERINF-----
 70
     0
 62
     7
  6
CONTINUOUS
  0
LAYER
  2
D40_E---WOLK--------
 70
     0
 62
     7
  6
CONTINUOUS
  0
LAYER
  2
D40_B---MW-L--------
 70
     0
 62
     7
  6
CONTINUOUS
  0
LAYER
  2
D40_B---SANI--------
 70
     0
 62
     7
  6
CONTINUOUS
  0
LAYER
  2
D40_E---SANI--------
 70
     0
 62
     7
  6
CONTINUOUS
  0
LAYER
  2
D40_E---MW-K------
 70
     0
 62
     7
  6
CONTINUOUS
  0
LAYER
  2
D40_E---OBJE--------
 70
     0
 62
     7
  6
CONTINUOUS
  0
LAYER
  2
D40_E---ASPR--------
 70
     0
 62
     7
  6
CONTINUOUS
  0
LAYER
  2
D40_E---VERMTGA-----
 70
     0
 62
     7
  6
CONTINUOUS
  0
LAYER
  2
D40_E---PARK--------
 70
     0
 62
     7
  6
CONTINUOUS
  0
LAYER
  2
D40_E---ISOL--------
 70
     0
 62
     7
  6
CONTINUOUS
  0
LAYER
  2
D40_E---TUER--------
 70
     0
 62
     7
  6
CONTINUOUS
  0
LAYER
  2
D40_E---MW--BRA---
 70
     0
 62
     7
  6
CONTINUOUS
  0
LAYER
  2
D41_ARCHICAD
 70
     0
 62
     7
  6
CONTINUOUS
  0
LAYER
  2
D41_E---MW--------
 70
     0
 62
     7
  6
CONTINUOUS
  0
LAYER
  2
D41_E---FASSKON-----
 70
     0
 62
     7
  6
CONTINUOUS
  0
LAYER
  2
D41_TÜREN_VON_B---MW-N----
 70
     0
 62
     7
  6
CONTINUOUS
  0
LAYER
  2
D41_E---MW-L------
 70
     0
 62
     7
  6
CONTINUOUS
  0
LAYER
  2
D41_TÜREN_VON_B---MW------
 70
     0
 62
     7
  6
CONTINUOUS
  0
LAYER
  2
D41_E---VERM--------
 70
     0
 62
     7
  6
CONTINUOUS
  0
LAYER
  2
D41_FENSTER_VON_E---MW-L--
 70
     0
 62
     7
  6
CONTINUOUS
  0
LAYER
  2
D41_FENSTER_VON_B---MW-N--
 70
     0
 62
     7
  6
CONTINUOUS
  0
LAYER
  2
D41_E---SCHN--------
 70
     0
 62
     7
  6
CONTINUOUS
  0
LAYER
  2
D41_E---AUFZ--------
 70
     0
 62
     7
  6
CONTINUOUS
  0
LAYER
  2
D41_E---DECK--------
 70
     0
 62
     7
  6
CONTINUOUS
  0
LAYER
  2
D41_E---RAUMINF-----
 70
     0
 62
     7
  6
CONTINUOUS
  0
LAYER
  2
D41_E---TEXT--------
 70
     0
 62
     7
  6
CONTINUOUS
  0
LAYER
  2
D41_B---TEXT--------
 70
     0
 62
     7
  6
CONTINUOUS
  0
LAYER
  2
D41_B---MW-N--------
 70
     0
 62
     7
  6
CONTINUOUS
  0
LAYER
  2
D41_B---DECK--------
 70
     0
 62
     7
  6
CONTINUOUS
  0
LAYER
  2
D41_B---AUFZ--------
 70
     0
 62
     7
  6
CONTINUOUS
  0
LAYER
  2
D41_B---MW-S--------
 70
     0
 62
     7
  6
CONTINUOUS
  0
LAYER
  2
D41_B---MW----------
 70
     0
 62
     7
  6
CONTINUOUS
  0
LAYER
  2
D41_E---MOEB--------
 70
     0
 62
     7
  6
CONTINUOUS
  0
LAYER
  2
D41_B---UMGB--------
 70
     0
 62
     7
  6
CONTINUOUS
  0
LAYER
  2
D41_B---FASS--------
 70
     0
 62
     7
  6
CONTINUOUS
  0
LAYER
  2
D41_E---DACH--------
 70
     0
 62
     7
  6
CONTINUOUS
  0
LAYER
  2
D41_E---BODE--------
 70
     0
 62
     7
  6
CONTINUOUS
  0
LAYER
  2
D41_E---TREP--------
 70
     0
 62
     7
  6
CONTINUOUS
  0
LAYER
  2
D41_E---RASG--------
 70
     0
 62
     7
  6
CONTINUOUS
  0
LAYER
  2
D41_B---MW-K--------
 70
     0
 62
     7
  6
CONTINUOUS
  0
LAYER
  2
D41_E---FASSGLA-----
 70
     0
 62
     7
  6
CONTINUOUS
  0
LAYER
  2
D41_B---VERM--------
 70
     0
 62
     7
  6
CONTINUOUS
  0
LAYER
  2
D41_E---UMGBGSG-----
 70
     0
 62
     7
  6
CONTINUOUS
  0
LAYER
  2
D41_E---RASF--------
 70
     0
 62
     7
  6
CONTINUOUS
  0
LAYER
  2
D41_E---PFLA--------
 70
     0
 62
     7
  6
CONTINUOUS
  0
LAYER
  2
D41_E---KONS-ST-----
 70
     0
 62
     7
  6
CONTINUOUS
  0
LAYER
  2
D41_E---WERB--------
 70
     0
 62
     7
  6
CONTINUOUS
  0
LAYER
  2
D41_E---TUERINF-----
 70
     0
 62
     7
  6
CONTINUOUS
  0
LAYER
  2
D41_E---WOLK--------
 70
     0
 62
     7
  6
CONTINUOUS
  0
LAYER
  2
D41_B---MW-L--------
 70
     0
 62
     7
  6
CONTINUOUS
  0
LAYER
  2
D41_B---SANI--------
 70
     0
 62
     7
  6
CONTINUOUS
  0
LAYER
  2
D41_E---SANI--------
 70
     0
 62
     7
  6
CONTINUOUS
  0
LAYER
  2
D41_E---MW-K------
 70
     0
 62
     7
  6
CONTINUOUS
  0
LAYER
  2
D41_E---OBJE--------
 70
     0
 62
     7
  6
CONTINUOUS
  0
LAYER
  2
D41_E---ASPR--------
 70
     0
 62
     7
  6
CONTINUOUS
  0
LAYER
  2
D41_E---VERMTGA-----
 70
     0
 62
     7
  6
CONTINUOUS
  0
LAYER
  2
D41_E---PARK--------
 70
     0
 62
     7
  6
CONTINUOUS
  0
LAYER
  2
D41_E---ISOL--------
 70
     0
 62
     7
  6
CONTINUOUS
  0
LAYER
  2
D41_E---TUER--------
 70
     0
 62
     7
  6
CONTINUOUS
  0
LAYER
  2
D41_E---MW--BRA---
 70
     0
 62
     7
  6
CONTINUOUS
  0
LAYER
  2
D42_ARCHICAD
 70
     0
 62
     7
  6
CONTINUOUS
  0
LAYER
  2
D42_FENSTER_VON_B---FASS--
 70
     0
 62
     7
  6
CONTINUOUS
  0
LAYER
  2
D42_E---SCHN--------
 70
     0
 62
     7
  6
CONTINUOUS
  0
LAYER
  2
D42_B---MW-N--------
 70
     0
 62
     7
  6
CONTINUOUS
  0
LAYER
  2
D42_B---DECK--------
 70
     0
 62
     7
  6
CONTINUOUS
  0
LAYER
  2
D42_B---MW-S--------
 70
     0
 62
     7
  6
CONTINUOUS
  0
LAYER
  2
D42_B---MW----------
 70
     0
 62
     7
  6
CONTINUOUS
  0
LAYER
  2
D42_B---FASS--------
 70
     0
 62
     7
  6
CONTINUOUS
  0
LAYER
  2
D42_E---RASG--------
 70
     0
 62
     7
  6
CONTINUOUS
  0
LAYER
  2
CONSTRUCTION_CLASS
 70
     0
 62
     7
  6
CONTINUOUS
  0
LAYER
  2
PATTERN_CLASS
 70
     0
 62
     7
  6
CONTINUOUS
  0
LAYER
  2
KONSTRUKTION
 70
     0
 62
     7
  6
CONTINUOUS
  0
LAYER
  2
BEMAßUNG
 70
     0
 62
     7
  6
CONTINUOUS
  0
LAYER
  2
HILFSGEOMETRIE
 70
     0
 62
     7
  6
CONTINUOUS
  0
LAYER
  2
UNSICHTBAR
 70
     0
 62
     7
  6
CONTINUOUS
  0
LAYER
  2
LOGO
 70
     0
 62
     7
  6
CONTINUOUS
  0
LAYER
  2
VERWALTUNG
 70
     0
 62
     7
  6
CONTINUOUS
  0
LAYER
  2
UNSICHTBARE_GEWINDE
 70
     0
 62
     7
  6
CONTINUOUS
  0
LAYER
  2
SICHTBARE_GEWINDE
 70
     0
 62
     7
  6
CONTINUOUS
  0
LAYER
  2
DEFPOINTS
 70
     0
 62
     7
  6
CONTINUOUS
  0
LAYER
  2
THICK
 70
     0
 62
     7
  6
CONTINUOUS
  0
LAYER
  2
HIDDEN
 70
     0
 62
     7
  6
CONTINUOUS
  0
LAYER
  2
SCHRAFFURGRUNDRISS
 70
     0
 62
     7
  6
CONTINUOUS
  0
LAYER
  2
BEMASSUNG_GRUNDRISS
 70
     0
 62
     7
  6
CONTINUOUS
  0
LAYER
  2
STATIK
 70
     0
 62
     7
  6
CONTINUOUS
  0
LAYER
  2
TÜREN
 70
     0
 62
     7
  6
CONTINUOUS
  0
LAYER
  2
SANITÄR
 70
     0
 62
     7
  6
CONTINUOUS
  0
LAYER
  2
BEMASSUNG_GIPSKARTON
 70
     0
 62
     7
  6
CONTINUOUS
  0
LAYER
  2
EINRICHTUNGEN
 70
     0
 62
     7
  6
CONTINUOUS
  0
LAYER
  2
BECKEN
 70
     0
 62
     7
  6
CONTINUOUS
  0
LAYER
  2
BELEUCHTUNG
 70
     0
 62
     7
  6
CONTINUOUS
  0
LAYER
  2
BESCHRIFTUNGEN
 70
     0
 62
     7
  6
CONTINUOUS
  0
LAYER
  2
ELEKTRO_1__DOSEN_SCHALTER
 70
     0
 62
     7
  6
CONTINUOUS
  0
LAYER
  2
DEFAULT_1
 70
     0
 62
     7
  6
CONTINUOUS
  0
LAYER
  2
AM_0
 70
     0
 62
     7
  6
CONTINUOUS
  0
LAYER
  2
FRAME0_7
 70
     0
 62
     7
  6
CONTINUOUS
  0
LAYER
  2
AM_BOR
 70
     0
 62
     7
  6
CONTINUOUS
  0
LAYER
  2
RAHM2
 70
     0
 62
     7
  6
CONTINUOUS
  0
LAYER
  2
RAHM3
 70
     0
 62
     7
  6
CONTINUOUS
  0
LAYER
  2
FRAME0_5
 70
     0
 62
     7
  6
CONTINUOUS
  0
LAYER
  2
8
 70
     0
 62
     7
  6
CONTINUOUS
  0
LAYER
  2
AM_5
 70
     0
 62
     7
  6
CONTINUOUS
  0
LAYER
  2
AM_7
 70
     0
 62
     7
  6
CONTINUOUS
  0
LAYER
  2
HILFSLINIEN
 70
     0
 62
     7
  6
CONTINUOUS
  0
LAYER
  2
DRAWING_TEMPLATE
 70
     0
 62
     7
  6
CONTINUOUS
  0
LAYER
  2
TECHNOBOX_EXTERNALREFSYMBO
 70
     0
 62
     7
  6
CONTINUOUS
  0
LAYER
  2
TECHNOBOX_POLYCLIPSYMBOL_L
 70
     0
 62
     7
  6
CONTINUOUS
  0
LAYER
  2
100
 70
     0
 62
     7
  6
CONTINUOUS
  0
LAYER
  2
101
 70
     0
 62
     7
  6
CONTINUOUS
  0
LAYER
  2
KONTUR
 70
     0
 62
     7
  6
CONTINUOUS
  0
LAYER
  2
MITTELLINIE
 70
     0
 62
     7
  6
CONTINUOUS
  0
LAYER
  2
GESTRICHELT
 70
     0
 62
     7
  6
CONTINUOUS
  0
LAYER
  2
HILFSLINIE
 70
     0
 62
     7
  6
CONTINUOUS
  0
LAYER
  2
TEXT-25
 70
     0
 62
     7
  6
CONTINUOUS
  0
LAYER
  2
TEXT35
 70
     0
 62
     7
  6
CONTINUOUS
  0
LAYER
  2
TEXT-50
 70
     0
 62
     7
  6
CONTINUOUS
  0
LAYER
  2
TEXT-70
 70
     0
 62
     7
  6
CONTINUOUS
  0
LAYER
  2
ANSICHTSFENSTER
 70
     0
 62
     7
  6
CONTINUOUS
  0
LAYER
  2
KERA0
 70
     0
 62
     7
  6
CONTINUOUS
  0
LAYER
  2
KERA1
 70
     0
 62
     7
  6
CONTINUOUS
  0
LAYER
  2
KERA2
 70
     0
 62
     7
  6
CONTINUOUS
  0
LAYER
  2
KERA3
 70
     0
 62
     7
  6
CONTINUOUS
  0
LAYER
  2
KERA4
 70
     0
 62
     7
  6
CONTINUOUS
  0
LAYER
  2
KERA5
 70
     0
 62
     7
  6
CONTINUOUS
  0
LAYER
  2
KERA6
 70
     0
 62
     7
  6
CONTINUOUS
  0
LAYER
  2
KERA7
 70
     0
 62
     7
  6
CONTINUOUS
  0
LAYER
  2
20
 70
     0
 62
     7
  6
CONTINUOUS
  0
LAYER
  2
50
 70
     0
 62
     7
  6
CONTINUOUS
  0
LAYER
  2
BECKEN_FUTURA_EBENE_1
 70
     0
 62
     7
  6
CONTINUOUS
  0
LAYER
  2
EBENE_1
 70
     0
 62
     7
  6
CONTINUOUS
  0
LAYER
  2
EBENE_2
 70
     0
 62
     7
  6
CONTINUOUS
  0
LAYER
  2
EBENE_5
 70
     0
 62
     7
  6
CONTINUOUS
  0
LAYER
  2
3
 70
     0
 62
     7
  6
CONTINUOUS
  0
LAYER
  2
GEB-KONTUR-A
 70
     0
 62
     7
  6
CONTINUOUS
  0
LAYER
  2
GEB-SYMETRIE
 70
     0
 62
     7
  6
CONTINUOUS
  0
LAYER
  2
GEB-ART-NR
 70
     0
 62
     7
  6
CONTINUOUS
  0
LAYER
  2
PROJECTION
 70
     0
 62
     7
  6
CONTINUOUS
  0
ENDTAB
  0
TABLE
  2
STYLE
 70
     3
  0
STYLE
  2
STANDARD
 70
     0
 40
0.0
 41
1.0
 50
0.0
 71
     0
 42
0.0
  3
txt
  4

  0
STYLE
  2
ANNOTATIVE
 70
     0
 40
0.0
 41
1.0
 50
0.0
 71
     0
 42
0.2
  3
txt
  4

  0
STYLE
  2
SIMPLEX
 70
     0
 40
0.0
 41
1.0
 50
0.0
 71
     0
 42
0.0
  3
SIMPLEX
  4

  0
ENDTAB
  0
TABLE
  2
VIEW
 70
     0
  0
ENDTAB
  0
TABLE
  2
UCS
 70
     0
  0
ENDTAB
  0
TABLE
  2
APPID
 70
     3
  0
APPID
  2
ACAD
 70
     0
  0
APPID
  2
ACADANNOTATIVE
 70
     0
  0
APPID
  2
ACAD_MLEADERVER
 70
     0
  0
ENDTAB
  0
TABLE
  2
DIMSTYLE
 70
     2
  0
DIMSTYLE
  2
STANDARD
 70
     0
  3

  4

  5

  6

  7

 40
1.0
 41
0.18
 42
0.0625
 43
0.38
 44
0.18
 45
0.0
 46
0.0
 47
0.0
 48
0.0
140
0.18
141
0.09
142
0.0
143
25.399999999999999
144
1.0
145
0.0
146
1.0
147
0.09
 71
     0
 72
     0
 73
     1
 74
     1
 75
     0
 76
     0
 77
     0
 78
     0
170
     0
171
     2
172
     0
173
     0
174
     0
175
     0
176
     0
177
     0
178
     0
  0
DIMSTYLE
  2
ANNOTATIVE
 70
     0
  3

  4

  5

  6

  7

 40
1.0
 41
0.18
 42
0.0625
 43
0.38
 44
0.18
 45
0.0
 46
0.0
 47
0.0
 48
0.0
140
0.18
141
0.09
142
0.0
143
25.399999999999999
144
1.0
145
0.0
146
1.0
147
0.09
 71
     0
 72
     0
 73
     1
 74
     1
 75
     0
 76
     0
 77
     0
 78
     0
170
     0
171
     2
172
     0
173
     0
174
     0
175
     0
176
     0
177
     0
178
     0
  0
ENDTAB
  0
ENDSEC
  0
SECTION
  2
BLOCKS
  0
BLOCK
  8
0
  2
$MODEL_SPACE
 70
     0
 10
0.0
 20
0.0
 30
0.0
  3
$MODEL_SPACE
  1

  0
ENDBLK
  5
76
  8
0
  0
BLOCK
 67
     1
  8
0
  2
$PAPER_SPACE
 70
     0
 10
0.0
 20
0.0
 30
0.0
  3
$PAPER_SPACE
  1

  0
ENDBLK
  5
72
 67
     1
  8
0
  0
BLOCK
  8
0
  2
*D0
 70
     1
 10
0.0
 20
0.0
 30
0.0
  3
*D0
  1

  0
LINE
  5
187
  8
LAYER01
 62
     7
 10
483.98705599999988
 20
746.39687400000003
 30
0.0
 11
483.98705599999988
 21
351.396863
 31
0.0
  0
LINE
  5
188
  8
LAYER01
 62
     7
 10
721.63120100000003
 20
746.39687400000003
 30
0.0
 11
453.98705599999988
 21
746.39687400000003
 31
0.0
  0
LINE
  5
189
  8
LAYER01
 62
     7
 10
721.63120100000003
 20
351.396863
 30
0.0
 11
453.98705599999988
 21
351.396863
 31
0.0
  0
SOLID
  5
18A
  8
LAYER01
 62
     7
 10
475.98737599999993
 20
698.39687400000003
 30
0.0
 11
483.98705599999988
 21
746.39687400000003
 31
0.0
 12
491.98673600000001
 22
698.39687400000003
 32
0.0
 13
491.98673600000001
 23
698.39687400000003
 33
0.0
  0
SOLID
  5
18B
  8
LAYER01
 62
     7
 10
475.98737599999993
 20
399.396863
 30
0.0
 11
483.98705599999988
 21
351.396863
 31
0.0
 12
491.98673600000001
 22
399.396863
 32
0.0
 13
491.98673600000001
 23
399.396863
 33
0.0
  0
TEXT
  5
18C
  8
LAYER01
  6
CONTINUOUS
 62
     7
 10
453.98705599999988
 20
503.07594
 30
0.0
 40
60.0
  1
395
 50
90.0
  0
POINT
  5
18D
  8
LAYER01
 62
     7
 10
745.63120100000003
 20
746.39687400000003
 30
0.0
  0
POINT
  5
18E
  8
LAYER01
 62
     7
 10
745.63120100000003
 20
351.396863
 30
0.0
  0
POINT
  5
18F
  8
LAYER01
 62
     7
 10
483.98705599999988
 20
351.396863
 30
0.0
  0
ENDBLK
  5
190
  8
0
  0
BLOCK
  8
0
  2
VT35608-G2
 70
     0
 10
0.0
 20
0.0
 30
0.0
  3
VT35608-G2
  1

  0
LINE
  5
193
  8
FORMAT
  6
CONTINUOUS
 62
     7
 10
788.61448799999994
 20
-25.014873000000001
 30
0.0
 11
1374.6163019999999
 21
-25.014873000000001
 31
0.0
  0
ENDBLK
  5
194
  8
0
  0
BLOCK
  8
0
  2
VT35608-G3
 70
     0
 10
0.0
 20
0.0
 30
0.0
  3
VT35608-G3
  1

  0
LINE
  5
197
  8
LAYER01
  6
CONTINUOUS
 62
     7
 10
761.17365499999994
 20
42.985126999999991
 30
0.0
 11
773.17365499999994
 21
54.985126999999999
 31
0.0
  0
LINE
  5
198
  8
LAYER01
  6
CONTINUOUS
 62
     7
 10
771.66566599999987
 20
31.026496999999999
 30
0.0
 11
782.74241399999994
 21
42.103245000000001
 31
0.0
  0
LINE
  5
199
  8
LAYER01
  6
CONTINUOUS
 62
     7
 10
773.47182399999997
 20
10.382015000000001
 30
0.0
 11
784.54857199999992
 21
21.458763000000001
 31
0.0
  0
LINE
  5
19A
  8
LAYER01
  6
CONTINUOUS
 62
     7
 10
775.27798199999995
 20
-10.262466999999999
 30
0.0
 11
786.35473000000002
 21
0.814281
 31
0.0
  0
LINE
  5
19B
  8
LAYER01
  6
CONTINUOUS
 62
     7
 10
777.08414000000005
 20
-30.906949000000001
 30
0.0
 11
788.16088799999989
 21
-19.830200999999999
 31
0.0
  0
LINE
  5
19C
  8
LAYER01
  6
CONTINUOUS
 62
     7
 10
778.89029800000003
 20
-51.551431000000001
 30
0.0
 11
789.967311
 21
-40.47441899999999
 31
0.0
  0
LINE
  5
19D
  8
LAYER01
  6
CONTINUOUS
 62
     7
 10
795.61836700000003
 20
-57.274003
 30
0.0
 11
807.43111299999987
 21
-45.461257000000003
 31
0.0
  0
LINE
  5
19E
  8
LAYER01
  6
CONTINUOUS
 62
     7
 10
817.34336099999996
 20
-57.999650000000003
 30
0.0
 11
829.30930599999999
 21
-46.033704999999991
 31
0.0
  0
LINE
  5
19F
  8
LAYER01
  6
CONTINUOUS
 62
     7
 10
839.06835500000022
 20
-58.725296
 30
0.0
 11
851.187634
 21
-46.606016999999987
 31
0.0
  0
LINE
  5
1A0
  8
LAYER01
  6
CONTINUOUS
 62
     7
 10
860.79334799999992
 20
-59.450943000000002
 30
0.0
 11
873.06609999999989
 21
-47.178190999999991
 31
0.0
  0
LINE
  5
1A1
  8
LAYER01
  6
CONTINUOUS
 62
     7
 10
882.51834199999996
 20
-60.176589999999997
 30
0.0
 11
894.94470100000001
 21
-47.750230000000002
 31
0.0
  0
LINE
  5
1A2
  8
LAYER01
  6
CONTINUOUS
 62
     7
 10
904.24333499999989
 20
-60.902236000000002
 30
0.0
 11
916.82343900000001
 21
-48.322133000000001
 31
0.0
  0
LINE
  5
1A3
  8
LAYER01
  6
CONTINUOUS
 62
     7
 10
925.96832899999993
 20
-61.62788299999999
 30
0.0
 11
938.70231199999978
 21
-48.893900000000002
 31
0.0
  0
LINE
  5
1A4
  8
LAYER01
  6
CONTINUOUS
 62
     7
 10
947.69332299999996
 20
-62.353529000000002
 30
0.0
 11
960.581323
 21
-49.465528999999997
 31
0.0
  0
LINE
  5
1A5
  8
LAYER01
  6
CONTINUOUS
 62
     7
 10
969.41831599999989
 20
-63.079175999999997
 30
0.0
 11
982.46047099999998
 21
-50.037022
 31
0.0
  0
LINE
  5
1A6
  8
LAYER01
  6
CONTINUOUS
 62
     7
 10
991.14330999999993
 20
-63.804822999999999
 30
0.0
 11
1004.339755
 21
-50.608378000000002
 31
0.0
  0
LINE
  5
1A7
  8
LAYER01
  6
CONTINUOUS
 62
     7
 10
1012.868304
 20
-64.530468999999997
 30
0.0
 11
1026.219175
 21
-51.179597999999999
 31
0.0
  0
LINE
  5
1A8
  8
LAYER01
  6
CONTINUOUS
 62
     7
 10
1035.193786
 20
-64.655627999999993
 30
0.0
 11
1048.098733
 21
-51.750679999999988
 31
0.0
  0
LINE
  5
1A9
  8
LAYER01
  6
CONTINUOUS
 62
     7
 10
1057.6444260000001
 20
-64.655627999999993
 30
0.0
 11
1061.969805
 21
-60.330249000000002
 31
0.0
  0
ENDBLK
  5
1AA
  8
0
  0
BLOCK
  8
0
  2
*D3
 70
     1
 10
0.0
 20
0.0
 30
0.0
  3
*D3
  1

  0
LINE
  5
1AD
  8
LAYER01
 62
     7
 10
1381.615407
 20
152.514309
 30
0.0
 11
781.61538299999995
 21
152.514309
 31
0.0
  0
LINE
  5
1AE
  8
LAYER01
 62
     7
 10
1381.615407
 20
94.851590999999999
 30
0.0
 11
1381.615407
 21
182.514309
 31
0.0
  0
LINE
  5
1AF
  8
LAYER01
 62
     7
 10
781.61538299999995
 20
94.851590999999999
 30
0.0
 11
781.61538299999995
 21
182.514309
 31
0.0
  0
SOLID
  5
1B0
  8
LAYER01
 62
     7
 10
1333.615407
 20
160.51398900000001
 30
0.0
 11
1381.615407
 21
152.514309
 31
0.0
 12
1333.615407
 22
144.51462900000001
 32
0.0
 13
1333.615407
 23
144.51462900000001
 33
0.0
  0
SOLID
  5
1B1
  8
LAYER01
 62
     7
 10
829.61538299999995
 20
160.51398900000001
 30
0.0
 11
781.61538299999995
 21
152.514309
 31
0.0
 12
829.61538299999995
 22
144.51462900000001
 32
0.0
 13
829.61538299999995
 23
144.51462900000001
 33
0.0
  0
TEXT
  5
1B2
  8
LAYER01
  6
CONTINUOUS
 62
     7
 10
1021.535536
 20
182.514309
 30
0.0
 40
60.0
  1
600
  0
POINT
  5
1B3
  8
LAYER01
 62
     7
 10
1381.615407
 20
70.851590999999999
 30
0.0
  0
POINT
  5
1B4
  8
LAYER01
 62
     7
 10
781.61538299999995
 20
70.851590999999999
 30
0.0
  0
POINT
  5
1B5
  8
LAYER01
 62
     7
 10
781.61538299999995
 20
152.514309
 30
0.0
  0
ENDBLK
  5
1B6
  8
0
  0
BLOCK
  8
0
  2
VT35608-G5
 70
     0
 10
0.0
 20
0.0
 30
0.0
  3
VT35608-G5
  1

  0
LINE
  5
1B9
  8
LAYER01
  6
CONTINUOUS
 62
     7
 10
1102.545707
 20
-64.655627999999993
 30
0.0
 11
1115.459192
 21
-51.742142999999999
 31
0.0
  0
LINE
  5
1BA
  8
LAYER01
  6
CONTINUOUS
 62
     7
 10
1124.996347
 20
-64.655627999999993
 30
0.0
 11
1138.511532
 21
-51.140442999999991
 31
0.0
  0
LINE
  5
1BB
  8
LAYER01
  6
CONTINUOUS
 62
     7
 10
1147.475723
 20
-64.626891999999984
 30
0.0
 11
1161.564032
 21
-50.538583000000003
 31
0.0
  0
LINE
  5
1BC
  8
LAYER01
  6
CONTINUOUS
 62
     7
 10
1170.7021609999999
 20
-63.851094000000003
 30
0.0
 11
1184.6166920000001
 21
-49.936563
 31
0.0
  0
LINE
  5
1BD
  8
LAYER01
  6
CONTINUOUS
 62
     7
 10
1193.928598
 20
-63.075296999999992
 30
0.0
 11
1207.6695119999999
 21
-49.334383000000003
 31
0.0
  0
LINE
  5
1BE
  8
LAYER01
  6
CONTINUOUS
 62
     7
 10
1217.1550360000001
 20
-62.299500000000002
 30
0.0
 11
1230.7224920000001
 21
-48.732044000000002
 31
0.0
  0
LINE
  5
1BF
  8
LAYER01
  6
CONTINUOUS
 62
     7
 10
1240.3814729999999
 20
-61.523703000000012
 30
0.0
 11
1253.7756320000001
 21
-48.129544000000003
 31
0.0
  0
LINE
  5
1C0
  8
LAYER01
  6
CONTINUOUS
 62
     7
 10
1263.6079099999999
 20
-60.747906
 30
0.0
 11
1276.828931
 21
-47.526885
 31
0.0
  0
LINE
  5
1C1
  8
LAYER01
  6
CONTINUOUS
 62
     7
 10
1286.8343480000001
 20
-59.972108999999989
 30
0.0
 11
1299.88239
 21
-46.924067000000001
 31
0.0
  0
LINE
  5
1C2
  8
LAYER01
  6
CONTINUOUS
 62
     7
 10
1379.680967
 20
32.874510000000001
 30
0.0
 11
1401.7915840000001
 21
54.985126999999999
 31
0.0
  0
LINE
  5
1C3
  8
LAYER01
  6
CONTINUOUS
 62
     7
 10
1310.0607849999999
 20
-59.196311999999999
 30
0.0
 11
1322.936007
 21
-46.321089999999998
 31
0.0
  0
LINE
  5
1C4
  8
LAYER01
  6
CONTINUOUS
 62
     7
 10
1377.5284710000001
 20
8.2713739999999998
 30
0.0
 11
1390.7292259999999
 21
21.472128999999999
 31
0.0
  0
LINE
  5
1C5
  8
LAYER01
  6
CONTINUOUS
 62
     7
 10
1333.2872219999999
 20
-58.420515000000002
 30
0.0
 11
1345.989785
 21
-45.717951999999997
 31
0.0
  0
LINE
  5
1C6
  8
LAYER01
  6
CONTINUOUS
 62
     7
 10
1375.375976
 20
-16.331761
 30
0.0
 11
1388.57673
 21
-3.131006999999999
 31
0.0
  0
LINE
  5
1C7
  8
LAYER01
  6
CONTINUOUS
 62
     7
 10
1356.5136600000001
 20
-57.644717999999997
 30
0.0
 11
1369.1099939999999
 21
-45.048383000000001
 31
0.0
  0
LINE
  5
1C8
  8
LAYER01
  6
CONTINUOUS
 62
     7
 10
1373.1817269999999
 20
-40.976649999999999
 30
0.0
 11
1386.424235
 21
-27.734143
 31
0.0
  0
LINE
  5
1C9
  8
LAYER01
  6
CONTINUOUS
 62
     7
 10
1379.7693549999999
 20
-56.839663000000002
 30
0.0
 11
1384.2694409999999
 21
-52.339576999999998
 31
0.0
  0
ENDBLK
  5
1CA
  8
0
  0
BLOCK
  8
0
  2
*D5
 70
     1
 10
0.0
 20
0.0
 30
0.0
  3
*D5
  1

  0
LINE
  5
1CD
  8
LAYER01
 62
     7
 10
1406.6153830000001
 20
1010.798015
 30
0.0
 11
756.615407
 21
1010.798015
 31
0.0
  0
LINE
  5
1CE
  8
LAYER01
 62
     7
 10
1406.6153830000001
 20
787.04210499999999
 30
0.0
 11
1406.6153830000001
 21
1040.7980150000001
 31
0.0
  0
LINE
  5
1CF
  8
LAYER01
 62
     7
 10
756.615407
 20
787.04210499999999
 30
0.0
 11
756.615407
 21
1040.7980150000001
 31
0.0
  0
SOLID
  5
1D0
  8
LAYER01
 62
     7
 10
1358.6153830000001
 20
1018.797695
 30
0.0
 11
1406.6153830000001
 21
1010.798015
 31
0.0
 12
1358.6153830000001
 22
1002.798335
 32
0.0
 13
1358.6153830000001
 23
1002.798335
 33
0.0
  0
SOLID
  5
1D1
  8
LAYER01
 62
     7
 10
804.615407
 20
1018.797695
 30
0.0
 11
756.615407
 21
1010.798015
 31
0.0
 12
804.615407
 22
1002.798335
 32
0.0
 13
804.615407
 23
1002.798335
 33
0.0
  0
TEXT
  5
1D2
  8
LAYER01
  6
CONTINUOUS
 62
     7
 10
1021.535536
 20
1040.7980150000001
 30
0.0
 40
60.0
  1
650
  0
POINT
  5
1D3
  8
LAYER01
 62
     7
 10
1406.6153830000001
 20
763.04210499999988
 30
0.0
  0
POINT
  5
1D4
  8
LAYER01
 62
     7
 10
756.615407
 20
763.04210499999988
 30
0.0
  0
POINT
  5
1D5
  8
LAYER01
 62
     7
 10
756.615407
 20
1010.798015
 30
0.0
  0
ENDBLK
  5
1D6
  8
0
  0
BLOCK
  8
0
  2
*D6
 70
     1
 10
0.0
 20
0.0
 30
0.0
  3
*D6
  1

  0
LINE
  5
1D9
  8
LAYER01
 62
     7
 10
1381.615407
 20
884.91640399999994
 30
0.0
 11
781.61538299999995
 21
884.91640399999994
 31
0.0
  0
LINE
  5
1DA
  8
LAYER01
 62
     7
 10
1381.615407
 20
787.04210499999999
 30
0.0
 11
1381.615407
 21
914.91640400000006
 31
0.0
  0
LINE
  5
1DB
  8
LAYER01
 62
     7
 10
781.61538299999995
 20
787.04210499999999
 30
0.0
 11
781.61538299999995
 21
914.91640400000006
 31
0.0
  0
SOLID
  5
1DC
  8
LAYER01
 62
     7
 10
1333.615407
 20
892.91608399999996
 30
0.0
 11
1381.615407
 21
884.91640399999994
 31
0.0
 12
1333.615407
 22
876.91672399999993
 32
0.0
 13
1333.615407
 23
876.91672399999993
 33
0.0
  0
SOLID
  5
1DD
  8
LAYER01
 62
     7
 10
829.61538299999995
 20
892.91608399999996
 30
0.0
 11
781.61538299999995
 21
884.91640399999994
 31
0.0
 12
829.61538299999995
 22
876.91672399999993
 32
0.0
 13
829.61538299999995
 23
876.91672399999993
 33
0.0
  0
TEXT
  5
1DE
  8
LAYER01
  6
CONTINUOUS
 62
     7
 10
1021.535536
 20
914.91640400000006
 30
0.0
 40
60.0
  1
600
  0
POINT
  5
1DF
  8
LAYER01
 62
     7
 10
1381.615407
 20
763.04210499999988
 30
0.0
  0
POINT
  5
1E0
  8
LAYER01
 62
     7
 10
781.61538299999995
 20
763.04210499999988
 30
0.0
  0
POINT
  5
1E1
  8
LAYER01
 62
     7
 10
781.61538299999995
 20
884.91640399999994
 30
0.0
  0
ENDBLK
  5
1E2
  8
0
  0
BLOCK
  8
0
  2
*D7
 70
     1
 10
0.0
 20
0.0
 30
0.0
  3
*D7
  1

  0
LINE
  5
1E5
  8
LAYER01
 62
     7
 10
617.46541400000001
 20
376.39686899999998
 30
0.0
 11
617.46541400000001
 21
721.39686799999993
 31
0.0
  0
LINE
  5
1E6
  8
LAYER01
 62
     7
 10
721.63120100000003
 20
376.39686899999998
 30
0.0
 11
587.46541400000001
 21
376.39686899999998
 31
0.0
  0
LINE
  5
1E7
  8
LAYER01
 62
     7
 10
721.63120100000003
 20
721.39686799999993
 30
0.0
 11
587.46541400000001
 21
721.39686799999993
 31
0.0
  0
SOLID
  5
1E8
  8
LAYER01
 62
     7
 10
625.46509400000002
 20
424.39686899999998
 30
0.0
 11
617.46541400000001
 21
376.39686899999998
 31
0.0
 12
609.465734
 22
424.39686899999998
 32
0.0
 13
609.465734
 23
424.39686899999998
 33
0.0
  0
SOLID
  5
1E9
  8
LAYER01
 62
     7
 10
625.46509400000002
 20
673.39686799999993
 30
0.0
 11
617.46541400000001
 21
721.39686799999993
 31
0.0
 12
609.465734
 22
673.39686799999993
 32
0.0
 13
609.465734
 23
673.39686799999993
 33
0.0
  0
TEXT
  5
1EA
  8
LAYER01
  6
CONTINUOUS
 62
     7
 10
587.46541400000001
 20
503.07594
 30
0.0
 40
60.0
  1
345
 50
90.0
  0
POINT
  5
1EB
  8
LAYER01
 62
     7
 10
745.63120100000003
 20
376.39686899999998
 30
0.0
  0
POINT
  5
1EC
  8
LAYER01
 62
     7
 10
745.63120100000003
 20
721.39686799999993
 30
0.0
  0
POINT
  5
1ED
  8
LAYER01
 62
     7
 10
617.46541400000001
 20
721.39686799999993
 30
0.0
  0
ENDBLK
  5
1EE
  8
0
  0
BLOCK
  8
0
  2
*D8
 70
     1
 10
0.0
 20
0.0
 30
0.0
  3
*D8
  1

  0
LINE
  5
1F1
  8
LAYER01
 62
     7
 10
2164.7342279999998
 20
347.41529500000001
 30
0.0
 11
2052.7342279999998
 21
347.41529500000001
 31
0.0
  0
LINE
  5
1F2
  8
LAYER01
 62
     7
 10
2210.7342319999998
 20
347.41529500000001
 30
0.0
 11
2322.7342319999998
 21
347.41529500000001
 31
0.0
  0
LINE
  5
1F3
  8
LAYER01
 62
     7
 10
2164.7342279999998
 20
427.75612399999989
 30
0.0
 11
2164.7342279999998
 21
317.41529500000001
 31
0.0
  0
LINE
  5
1F4
  8
LAYER01
 62
     7
 10
2210.7342319999998
 20
427.75612399999989
 30
0.0
 11
2210.7342319999998
 21
317.41529500000001
 31
0.0
  0
SOLID
  5
1F5
  8
LAYER01
 62
     7
 10
2108.7342279999998
 20
338.082335
 30
0.0
 11
2164.7342279999998
 21
347.41529500000001
 31
0.0
 12
2108.7342279999998
 22
356.74825499999997
 32
0.0
 13
2108.7342279999998
 23
356.74825499999997
 33
0.0
  0
SOLID
  5
1F6
  8
LAYER01
 62
     7
 10
2266.7342320000012
 20
338.082335
 30
0.0
 11
2210.7342319999998
 21
347.41529500000001
 31
0.0
 12
2266.7342320000012
 22
356.74825499999997
 32
0.0
 13
2266.7342320000012
 23
356.74825499999997
 33
0.0
  0
TEXT
  5
1F7
  8
LAYER01
  6
CONTINUOUS
 62
     7
 10
2285.8589189999998
 20
357.41518600000001
 30
0.0
 40
70.0
  1
46
  0
POINT
  5
1F8
  8
LAYER01
 62
     7
 10
2164.7342279999998
 20
451.756124
 30
0.0
  0
POINT
  5
1F9
  8
LAYER01
 62
     7
 10
2210.7342319999998
 20
451.756124
 30
0.0
  0
POINT
  5
1FA
  8
LAYER01
 62
     7
 10
2210.7342319999998
 20
347.41529500000001
 30
0.0
  0
ENDBLK
  5
1FB
  8
0
  0
BLOCK
  8
0
  2
VT35608-G10
 70
     0
 10
0.0
 20
0.0
 30
0.0
  3
VT35608-G10
  1

  0
POLYLINE
  5
1FE
  8
LAYER01
  6
CONTINUOUS
 62
     7
 66
     1
 10
0.0
 20
0.0
 30
0.0
 70
     1
  0
VERTEX
  5
B5B
  8
LAYER01
  6
CONTINUOUS
 62
     7
 10
2295.8037859999999
 20
-177.11403799999999
 30
0.0
  0
VERTEX
  5
B5C
  8
LAYER01
  6
CONTINUOUS
 62
     7
 10
2337.2334729999998
 20
-177.11403799999999
 30
0.0
  0
VERTEX
  5
B5D
  8
LAYER01
  6
CONTINUOUS
 62
     7
 10
2389.2614520000002
 20
-295.62221099999999
 30
0.0
  0
VERTEX
  5
B5E
  8
LAYER01
  6
CONTINUOUS
 62
     7
 10
2441.2894300000012
 20
-177.11403799999999
 30
0.0
  0
VERTEX
  5
B5F
  8
LAYER01
  6
CONTINUOUS
 62
     7
 10
2484.6460790000001
 20
-177.11403799999999
 30
0.0
  0
VERTEX
  5
B60
  8
LAYER01
  6
CONTINUOUS
 62
     7
 10
2389.2614520000002
 20
-389.07987700000001
 30
0.0
  0
VERTEX
  5
B61
  8
LAYER01
  6
CONTINUOUS
 62
     7
 10
2295.8037859999999
 20
-177.11403799999999
 30
0.0
  0
VERTEX
  5
B62
  8
LAYER01
  6
CONTINUOUS
 62
     7
 10
2295.8037859999999
 20
-177.11403799999999
 30
0.0
  0
SEQEND
  5
B63
  8
LAYER01
  6
CONTINUOUS
 62
     7
  0
POLYLINE
  5
208
  8
LAYER01
  6
CONTINUOUS
 62
     7
 66
     1
 10
0.0
 20
0.0
 30
0.0
 70
     1
  0
VERTEX
  5
B64
  8
LAYER01
  6
CONTINUOUS
 62
     7
 10
2437.4355059999998
 20
-321.63620100000003
 30
0.0
  0
VERTEX
  5
B65
  8
LAYER01
  6
CONTINUOUS
 62
     7
 10
2451.8877219999999
 20
-287.91436299999998
 30
0.0
  0
VERTEX
  5
B66
  8
LAYER01
  6
CONTINUOUS
 62
     7
 10
2514.513993
 20
-287.91436299999998
 30
0.0
  0
VERTEX
  5
B67
  8
LAYER01
  6
CONTINUOUS
 62
     7
 10
2482.7191170000001
 20
-218.543724
 30
0.0
  0
VERTEX
  5
B68
  8
LAYER01
  6
CONTINUOUS
 62
     7
 10
2501.0252580000001
 20
-174.22359399999999
 30
0.0
  0
VERTEX
  5
B69
  8
LAYER01
  6
CONTINUOUS
 62
     7
 10
2586.775075
 20
-355.35803900000002
 30
0.0
  0
VERTEX
  5
B6A
  8
LAYER01
  6
CONTINUOUS
 62
     7
 10
2586.775075
 20
-177.11403799999999
 30
0.0
  0
VERTEX
  5
B6B
  8
LAYER01
  6
CONTINUOUS
 62
     7
 10
2701.4293240000002
 20
-177.11403799999999
 30
0.0
  0
VERTEX
  5
B6C
  8
LAYER01
  6
CONTINUOUS
 62
     7
 10
2701.4293240000002
 20
-177.11403799999999
 30
0.0
  0
VERTEX
  5
B6D
  8
LAYER01
  6
CONTINUOUS
 62
     7
 10
2712.0276159999999
 20
-179.041
 30
0.0
  0
VERTEX
  5
B6E
  8
LAYER01
  6
CONTINUOUS
 62
     7
 10
2721.6624270000002
 20
-182.894924
 30
0.0
  0
VERTEX
  5
B6F
  8
LAYER01
  6
CONTINUOUS
 62
     7
 10
2730.3337569999999
 20
-189.63929200000001
 30
0.0
  0
VERTEX
  5
B70
  8
LAYER01
  6
CONTINUOUS
 62
     7
 10
2738.0416059999998
 20
-196.38365899999999
 30
0.0
  0
VERTEX
  5
B71
  8
LAYER01
  6
CONTINUOUS
 62
     7
 10
2744.785973
 20
-205.05498900000001
 30
0.0
  0
VERTEX
  5
B72
  8
LAYER01
  6
CONTINUOUS
 62
     7
 10
2749.6033790000001
 20
-214.68979999999999
 30
0.0
  0
VERTEX
  5
B73
  8
LAYER01
  6
CONTINUOUS
 62
     7
 10
2753.4573030000001
 20
-226.25157300000001
 30
0.0
  0
VERTEX
  5
B74
  8
LAYER01
  6
CONTINUOUS
 62
     7
 10
2754.4207839999999
 20
-236.84986499999999
 30
0.0
  0
VERTEX
  5
B75
  8
LAYER01
  6
CONTINUOUS
 62
     7
 10
2754.4207839999999
 20
-236.84986499999999
 30
0.0
  0
VERTEX
  5
B76
  8
LAYER01
  6
CONTINUOUS
 62
     7
 10
2754.4207839999999
 20
-248.41163800000001
 30
0.0
  0
VERTEX
  5
B77
  8
LAYER01
  6
CONTINUOUS
 62
     7
 10
2752.4938219999999
 20
-258.046449
 30
0.0
  0
VERTEX
  5
B78
  8
LAYER01
  6
CONTINUOUS
 62
     7
 10
2748.639897
 20
-267.68126000000001
 30
0.0
  0
VERTEX
  5
B79
  8
LAYER01
  6
CONTINUOUS
 62
     7
 10
2743.8224919999998
 20
-276.35259000000002
 30
0.0
  0
VERTEX
  5
B7A
  8
LAYER01
  6
CONTINUOUS
 62
     7
 10
2737.0781240000001
 20
-284.06043799999998
 30
0.0
  0
VERTEX
  5
B7B
  8
LAYER01
  6
CONTINUOUS
 62
     7
 10
2729.3702760000001
 20
-290.80480599999999
 30
0.0
  0
VERTEX
  5
B7C
  8
LAYER01
  6
CONTINUOUS
 62
     7
 10
2720.698946
 20
-295.62221099999999
 30
0.0
  0
VERTEX
  5
B7D
  8
LAYER01
  6
CONTINUOUS
 62
     7
 10
2710.1006539999998
 20
-299.476136
 30
0.0
  0
VERTEX
  5
B7E
  8
LAYER01
  6
CONTINUOUS
 62
     7
 10
2771.7634440000002
 20
-381.372028
 30
0.0
  0
VERTEX
  5
B7F
  8
LAYER01
  6
CONTINUOUS
 62
     7
 10
2771.7634440000002
 20
-177.11403799999999
 30
0.0
  0
VERTEX
  5
B80
  8
LAYER01
  6
CONTINUOUS
 62
     7
 10
2812.2296489999999
 20
-177.11403799999999
 30
0.0
  0
VERTEX
  5
B81
  8
LAYER01
  6
CONTINUOUS
 62
     7
 10
2812.2296489999999
 20
-383.29899
 30
0.0
  0
VERTEX
  5
B82
  8
LAYER01
  6
CONTINUOUS
 62
     7
 10
2725.5163510000002
 20
-383.29899
 30
0.0
  0
VERTEX
  5
B83
  8
LAYER01
  6
CONTINUOUS
 62
     7
 10
2641.6934970000002
 20
-276.35259000000002
 30
0.0
  0
VERTEX
  5
B84
  8
LAYER01
  6
CONTINUOUS
 62
     7
 10
2684.0866649999998
 20
-276.35259000000002
 30
0.0
  0
VERTEX
  5
B85
  8
LAYER01
  6
CONTINUOUS
 62
     7
 10
2684.0866649999998
 20
-276.35259000000002
 30
0.0
  0
VERTEX
  5
B86
  8
LAYER01
  6
CONTINUOUS
 62
     7
 10
2689.8675510000012
 20
-275.38910900000002
 30
0.0
  0
VERTEX
  5
B87
  8
LAYER01
  6
CONTINUOUS
 62
     7
 10
2695.6484380000002
 20
-273.46214600000002
 30
0.0
  0
VERTEX
  5
B88
  8
LAYER01
  6
CONTINUOUS
 62
     7
 10
2700.4658429999999
 20
-270.57170300000001
 30
0.0
  0
VERTEX
  5
B89
  8
LAYER01
  6
CONTINUOUS
 62
     7
 10
2705.2832490000001
 20
-266.71777900000001
 30
0.0
  0
VERTEX
  5
B8A
  8
LAYER01
  6
CONTINUOUS
 62
     7
 10
2708.1736920000012
 20
-261.900373
 30
0.0
  0
VERTEX
  5
B8B
  8
LAYER01
  6
CONTINUOUS
 62
     7
 10
2711.0641350000001
 20
-256.11948699999999
 30
0.0
  0
VERTEX
  5
B8C
  8
LAYER01
  6
CONTINUOUS
 62
     7
 10
2712.9910970000001
 20
-250.33860000000001
 30
0.0
  0
VERTEX
  5
B8D
  8
LAYER01
  6
CONTINUOUS
 62
     7
 10
2712.9910970000001
 20
-243.594233
 30
0.0
  0
VERTEX
  5
B8E
  8
LAYER01
  6
CONTINUOUS
 62
     7
 10
2712.9910970000001
 20
-243.594233
 30
0.0
  0
VERTEX
  5
B8F
  8
LAYER01
  6
CONTINUOUS
 62
     7
 10
2712.9910970000001
 20
-237.813346
 30
0.0
  0
VERTEX
  5
B90
  8
LAYER01
  6
CONTINUOUS
 62
     7
 10
2711.0641350000001
 20
-232.03245999999999
 30
0.0
  0
VERTEX
  5
B91
  8
LAYER01
  6
CONTINUOUS
 62
     7
 10
2709.1371730000001
 20
-226.25157300000001
 30
0.0
  0
VERTEX
  5
B92
  8
LAYER01
  6
CONTINUOUS
 62
     7
 10
2705.2832490000001
 20
-221.434168
 30
0.0
  0
VERTEX
  5
B93
  8
LAYER01
  6
CONTINUOUS
 62
     7
 10
2701.4293240000002
 20
-217.580243
 30
0.0
  0
VERTEX
  5
B94
  8
LAYER01
  6
CONTINUOUS
 62
     7
 10
2695.6484380000002
 20
-214.68979999999999
 30
0.0
  0
VERTEX
  5
B95
  8
LAYER01
  6
CONTINUOUS
 62
     7
 10
2689.8675510000012
 20
-212.76283799999999
 30
0.0
  0
VERTEX
  5
B96
  8
LAYER01
  6
CONTINUOUS
 62
     7
 10
2684.0866649999998
 20
-211.79935699999999
 30
0.0
  0
VERTEX
  5
B97
  8
LAYER01
  6
CONTINUOUS
 62
     7
 10
2630.1317239999998
 20
-211.79935699999999
 30
0.0
  0
VERTEX
  5
B98
  8
LAYER01
  6
CONTINUOUS
 62
     7
 10
2630.1317239999998
 20
-383.29899
 30
0.0
  0
VERTEX
  5
B99
  8
LAYER01
  6
CONTINUOUS
 62
     7
 10
2560.7610850000001
 20
-383.29899
 30
0.0
  0
VERTEX
  5
B9A
  8
LAYER01
  6
CONTINUOUS
 62
     7
 10
2531.8566529999998
 20
-321.63620100000003
 30
0.0
  0
VERTEX
  5
B9B
  8
LAYER01
  6
CONTINUOUS
 62
     7
 10
2437.4355059999998
 20
-321.63620100000003
 30
0.0
  0
VERTEX
  5
B9C
  8
LAYER01
  6
CONTINUOUS
 62
     7
 10
2437.4355059999998
 20
-321.63620100000003
 30
0.0
  0
SEQEND
  5
B9D
  8
LAYER01
  6
CONTINUOUS
 62
     7
  0
POLYLINE
  5
243
  8
LAYER01
  6
CONTINUOUS
 62
     7
 66
     1
 10
0.0
 20
0.0
 30
0.0
 70
     1
  0
VERTEX
  5
B9E
  8
LAYER01
  6
CONTINUOUS
 62
     7
 10
2999.14498
 20
-190.60277300000001
 30
0.0
  0
VERTEX
  5
B9F
  8
LAYER01
  6
CONTINUOUS
 62
     7
 10
2973.130991
 20
-223.36113
 30
0.0
  0
VERTEX
  5
BA0
  8
LAYER01
  6
CONTINUOUS
 62
     7
 10
2973.130991
 20
-223.36113
 30
0.0
  0
VERTEX
  5
BA1
  8
LAYER01
  6
CONTINUOUS
 62
     7
 10
2964.4596609999999
 20
-217.580243
 30
0.0
  0
VERTEX
  5
BA2
  8
LAYER01
  6
CONTINUOUS
 62
     7
 10
2955.7883310000002
 20
-212.76283799999999
 30
0.0
  0
VERTEX
  5
BA3
  8
LAYER01
  6
CONTINUOUS
 62
     7
 10
2946.1535210000002
 20
-209.87239500000001
 30
0.0
  0
VERTEX
  5
BA4
  8
LAYER01
  6
CONTINUOUS
 62
     7
 10
2935.5552290000001
 20
-209.87239500000001
 30
0.0
  0
VERTEX
  5
BA5
  8
LAYER01
  6
CONTINUOUS
 62
     7
 10
2935.5552290000001
 20
-209.87239500000001
 30
0.0
  0
VERTEX
  5
BA6
  8
LAYER01
  6
CONTINUOUS
 62
     7
 10
2928.8108609999999
 20
-209.87239500000001
 30
0.0
  0
VERTEX
  5
BA7
  8
LAYER01
  6
CONTINUOUS
 62
     7
 10
2922.0664929999998
 20
-210.83587600000001
 30
0.0
  0
VERTEX
  5
BA8
  8
LAYER01
  6
CONTINUOUS
 62
     7
 10
2915.322126
 20
-212.76283799999999
 30
0.0
  0
VERTEX
  5
BA9
  8
LAYER01
  6
CONTINUOUS
 62
     7
 10
2908.5777579999999
 20
-215.65328099999999
 30
0.0
  0
VERTEX
  5
BAA
  8
LAYER01
  6
CONTINUOUS
 62
     7
 10
2902.7968719999999
 20
-218.543724
 30
0.0
  0
VERTEX
  5
BAB
  8
LAYER01
  6
CONTINUOUS
 62
     7
 10
2897.9794660000011
 20
-222.397649
 30
0.0
  0
VERTEX
  5
BAC
  8
LAYER01
  6
CONTINUOUS
 62
     7
 10
2892.1985800000002
 20
-226.25157300000001
 30
0.0
  0
VERTEX
  5
BAD
  8
LAYER01
  6
CONTINUOUS
 62
     7
 10
2888.3446549999999
 20
-231.06897900000001
 30
0.0
  0
VERTEX
  5
BAE
  8
LAYER01
  6
CONTINUOUS
 62
     7
 10
2883.5272500000001
 20
-236.84986499999999
 30
0.0
  0
VERTEX
  5
BAF
  8
LAYER01
  6
CONTINUOUS
 62
     7
 10
2880.6368069999999
 20
-242.630752
 30
0.0
  0
VERTEX
  5
BB0
  8
LAYER01
  6
CONTINUOUS
 62
     7
 10
2876.782882
 20
-248.41163800000001
 30
0.0
  0
VERTEX
  5
BB1
  8
LAYER01
  6
CONTINUOUS
 62
     7
 10
2873.8924390000002
 20
-254.19252499999999
 30
0.0
  0
VERTEX
  5
BB2
  8
LAYER01
  6
CONTINUOUS
 62
     7
 10
2871.9654770000002
 20
-260.936892
 30
0.0
  0
VERTEX
  5
BB3
  8
LAYER01
  6
CONTINUOUS
 62
     7
 10
2871.001996
 20
-267.68126000000001
 30
0.0
  0
VERTEX
  5
BB4
  8
LAYER01
  6
CONTINUOUS
 62
     7
 10
2870.0385150000002
 20
-274.42562700000002
 30
0.0
  0
VERTEX
  5
BB5
  8
LAYER01
  6
CONTINUOUS
 62
     7
 10
2869.0750330000001
 20
-282.13347599999997
 30
0.0
  0
VERTEX
  5
BB6
  8
LAYER01
  6
CONTINUOUS
 62
     7
 10
2869.0750330000001
 20
-282.13347599999997
 30
0.0
  0
VERTEX
  5
BB7
  8
LAYER01
  6
CONTINUOUS
 62
     7
 10
2870.0385150000002
 20
-288.87784399999998
 30
0.0
  0
VERTEX
  5
BB8
  8
LAYER01
  6
CONTINUOUS
 62
     7
 10
2871.001996
 20
-295.62221099999999
 30
0.0
  0
VERTEX
  5
BB9
  8
LAYER01
  6
CONTINUOUS
 62
     7
 10
2871.9654770000002
 20
-302.366579
 30
0.0
  0
VERTEX
  5
BBA
  8
LAYER01
  6
CONTINUOUS
 62
     7
 10
2874.85592
 20
-308.14746600000001
 30
0.0
  0
VERTEX
  5
BBB
  8
LAYER01
  6
CONTINUOUS
 62
     7
 10
2876.782882
 20
-313.92835200000002
 30
0.0
  0
VERTEX
  5
BBC
  8
LAYER01
  6
CONTINUOUS
 62
     7
 10
2880.6368069999999
 20
-319.70923900000003
 30
0.0
  0
VERTEX
  5
BBD
  8
LAYER01
  6
CONTINUOUS
 62
     7
 10
2884.4907309999999
 20
-325.49012499999998
 30
0.0
  0
VERTEX
  5
BBE
  8
LAYER01
  6
CONTINUOUS
 62
     7
 10
2888.3446549999999
 20
-330.30753099999998
 30
0.0
  0
VERTEX
  5
BBF
  8
LAYER01
  6
CONTINUOUS
 62
     7
 10
2893.162061
 20
-335.12493599999999
 30
0.0
  0
VERTEX
  5
BC0
  8
LAYER01
  6
CONTINUOUS
 62
     7
 10
2897.9794660000011
 20
-338.97886
 30
0.0
  0
VERTEX
  5
BC1
  8
LAYER01
  6
CONTINUOUS
 62
     7
 10
2903.7603530000001
 20
-341.869304
 30
0.0
  0
VERTEX
  5
BC2
  8
LAYER01
  6
CONTINUOUS
 62
     7
 10
2909.541239000001
 20
-344.759747
 30
0.0
  0
VERTEX
  5
BC3
  8
LAYER01
  6
CONTINUOUS
 62
     7
 10
2916.2856070000012
 20
-347.65019000000001
 30
0.0
  0
VERTEX
  5
BC4
  8
LAYER01
  6
CONTINUOUS
 62
     7
 10
2922.0664929999998
 20
-349.57715200000001
 30
0.0
  0
VERTEX
  5
BC5
  8
LAYER01
  6
CONTINUOUS
 62
     7
 10
2928.8108609999999
 20
-350.54063300000001
 30
0.0
  0
VERTEX
  5
BC6
  8
LAYER01
  6
CONTINUOUS
 62
     7
 10
2936.5187100000012
 20
-350.54063300000001
 30
0.0
  0
VERTEX
  5
BC7
  8
LAYER01
  6
CONTINUOUS
 62
     7
 10
2936.5187100000012
 20
-350.54063300000001
 30
0.0
  0
VERTEX
  5
BC8
  8
LAYER01
  6
CONTINUOUS
 62
     7
 10
2947.117002
 20
-349.57715200000001
 30
0.0
  0
VERTEX
  5
BC9
  8
LAYER01
  6
CONTINUOUS
 62
     7
 10
2955.7883310000002
 20
-347.65019000000001
 30
0.0
  0
VERTEX
  5
BCA
  8
LAYER01
  6
CONTINUOUS
 62
     7
 10
2964.4596609999999
 20
-342.832785
 30
0.0
  0
VERTEX
  5
BCB
  8
LAYER01
  6
CONTINUOUS
 62
     7
 10
2973.130991
 20
-337.05189799999999
 30
0.0
  0
VERTEX
  5
BCC
  8
LAYER01
  6
CONTINUOUS
 62
     7
 10
2998.1814989999998
 20
-370.77373599999999
 30
0.0
  0
VERTEX
  5
BCD
  8
LAYER01
  6
CONTINUOUS
 62
     7
 10
2998.1814989999998
 20
-370.77373599999999
 30
0.0
  0
VERTEX
  5
BCE
  8
LAYER01
  6
CONTINUOUS
 62
     7
 10
2983.7292830000001
 20
-379.445066
 30
0.0
  0
VERTEX
  5
BCF
  8
LAYER01
  6
CONTINUOUS
 62
     7
 10
2976.0214340000002
 20
-382.335509
 30
0.0
  0
VERTEX
  5
BD0
  8
LAYER01
  6
CONTINUOUS
 62
     7
 10
2969.277067
 20
-385.225953
 30
0.0
  0
VERTEX
  5
BD1
  8
LAYER01
  6
CONTINUOUS
 62
     7
 10
2961.5692180000001
 20
-387.15291500000001
 30
0.0
  0
VERTEX
  5
BD2
  8
LAYER01
  6
CONTINUOUS
 62
     7
 10
2953.8613690000002
 20
-388.11639600000001
 30
0.0
  0
VERTEX
  5
BD3
  8
LAYER01
  6
CONTINUOUS
 62
     7
 10
2936.5187100000012
 20
-389.07987700000001
 30
0.0
  0
VERTEX
  5
BD4
  8
LAYER01
  6
CONTINUOUS
 62
     7
 10
2936.5187100000012
 20
-389.07987700000001
 30
0.0
  0
VERTEX
  5
BD5
  8
LAYER01
  6
CONTINUOUS
 62
     7
 10
2924.9569369999999
 20
-388.11639600000001
 30
0.0
  0
VERTEX
  5
BD6
  8
LAYER01
  6
CONTINUOUS
 62
     7
 10
2914.3586449999998
 20
-386.18943400000001
 30
0.0
  0
VERTEX
  5
BD7
  8
LAYER01
  6
CONTINUOUS
 62
     7
 10
2903.7603530000001
 20
-384.262472
 30
0.0
  0
VERTEX
  5
BD8
  8
LAYER01
  6
CONTINUOUS
 62
     7
 10
2894.1255420000011
 20
-380.408547
 30
0.0
  0
VERTEX
  5
BD9
  8
LAYER01
  6
CONTINUOUS
 62
     7
 10
2884.4907309999999
 20
-375.59114199999999
 30
0.0
  0
VERTEX
  5
BDA
  8
LAYER01
  6
CONTINUOUS
 62
     7
 10
2875.8194010000011
 20
-370.77373599999999
 30
0.0
  0
VERTEX
  5
BDB
  8
LAYER01
  6
CONTINUOUS
 62
     7
 10
2867.1480710000001
 20
-364.02936899999997
 30
0.0
  0
VERTEX
  5
BDC
  8
LAYER01
  6
CONTINUOUS
 62
     7
 10
2859.4402230000001
 20
-357.28500100000002
 30
0.0
  0
VERTEX
  5
BDD
  8
LAYER01
  6
CONTINUOUS
 62
     7
 10
2851.7323740000002
 20
-349.57715200000001
 30
0.0
  0
VERTEX
  5
BDE
  8
LAYER01
  6
CONTINUOUS
 62
     7
 10
2845.9514870000012
 20
-340.905823
 30
0.0
  0
VERTEX
  5
BDF
  8
LAYER01
  6
CONTINUOUS
 62
     7
 10
2840.1706009999998
 20
-332.23449299999999
 30
0.0
  0
VERTEX
  5
BE0
  8
LAYER01
  6
CONTINUOUS
 62
     7
 10
2835.3531950000001
 20
-322.59968199999997
 30
0.0
  0
VERTEX
  5
BE1
  8
LAYER01
  6
CONTINUOUS
 62
     7
 10
2832.4627519999999
 20
-312.96487100000002
 30
0.0
  0
VERTEX
  5
BE2
  8
LAYER01
  6
CONTINUOUS
 62
     7
 10
2829.5723090000001
 20
-302.366579
 30
0.0
  0
VERTEX
  5
BE3
  8
LAYER01
  6
CONTINUOUS
 62
     7
 10
2827.6453470000001
 20
-291.76828699999999
 30
0.0
  0
VERTEX
  5
BE4
  8
LAYER01
  6
CONTINUOUS
 62
     7
 10
2826.6818659999999
 20
-280.20651400000003
 30
0.0
  0
VERTEX
  5
BE5
  8
LAYER01
  6
CONTINUOUS
 62
     7
 10
2826.6818659999999
 20
-280.20651400000003
 30
0.0
  0
VERTEX
  5
BE6
  8
LAYER01
  6
CONTINUOUS
 62
     7
 10
2827.6453470000001
 20
-269.60822200000001
 30
0.0
  0
VERTEX
  5
BE7
  8
LAYER01
  6
CONTINUOUS
 62
     7
 10
2829.5723090000001
 20
-258.046449
 30
0.0
  0
VERTEX
  5
BE8
  8
LAYER01
  6
CONTINUOUS
 62
     7
 10
2831.4992710000001
 20
-248.41163800000001
 30
0.0
  0
VERTEX
  5
BE9
  8
LAYER01
  6
CONTINUOUS
 62
     7
 10
2835.3531950000001
 20
-237.813346
 30
0.0
  0
VERTEX
  5
BEA
  8
LAYER01
  6
CONTINUOUS
 62
     7
 10
2840.1706009999998
 20
-228.17853500000001
 30
0.0
  0
VERTEX
  5
BEB
  8
LAYER01
  6
CONTINUOUS
 62
     7
 10
2844.988006
 20
-219.507205
 30
0.0
  0
VERTEX
  5
BEC
  8
LAYER01
  6
CONTINUOUS
 62
     7
 10
2851.7323740000002
 20
-210.83587600000001
 30
0.0
  0
VERTEX
  5
BED
  8
LAYER01
  6
CONTINUOUS
 62
     7
 10
2858.4767419999998
 20
-203.128027
 30
0.0
  0
VERTEX
  5
BEE
  8
LAYER01
  6
CONTINUOUS
 62
     7
 10
2866.1845899999998
 20
-196.38365899999999
 30
0.0
  0
VERTEX
  5
BEF
  8
LAYER01
  6
CONTINUOUS
 62
     7
 10
2874.85592
 20
-189.63929200000001
 30
0.0
  0
VERTEX
  5
BF0
  8
LAYER01
  6
CONTINUOUS
 62
     7
 10
2883.5272500000001
 20
-184.82188600000001
 30
0.0
  0
VERTEX
  5
BF1
  8
LAYER01
  6
CONTINUOUS
 62
     7
 10
2893.162061
 20
-180.004481
 30
0.0
  0
VERTEX
  5
BF2
  8
LAYER01
  6
CONTINUOUS
 62
     7
 10
2902.7968719999999
 20
-176.15055699999999
 30
0.0
  0
VERTEX
  5
BF3
  8
LAYER01
  6
CONTINUOUS
 62
     7
 10
2913.395164
 20
-173.26011299999999
 30
0.0
  0
VERTEX
  5
BF4
  8
LAYER01
  6
CONTINUOUS
 62
     7
 10
2924.9569369999999
 20
-172.29663199999999
 30
0.0
  0
VERTEX
  5
BF5
  8
LAYER01
  6
CONTINUOUS
 62
     7
 10
2935.5552290000001
 20
-171.33315099999999
 30
0.0
  0
VERTEX
  5
BF6
  8
LAYER01
  6
CONTINUOUS
 62
     7
 10
2935.5552290000001
 20
-171.33315099999999
 30
0.0
  0
VERTEX
  5
BF7
  8
LAYER01
  6
CONTINUOUS
 62
     7
 10
2952.897888
 20
-172.29663199999999
 30
0.0
  0
VERTEX
  5
BF8
  8
LAYER01
  6
CONTINUOUS
 62
     7
 10
2961.5692180000001
 20
-173.26011299999999
 30
0.0
  0
VERTEX
  5
BF9
  8
LAYER01
  6
CONTINUOUS
 62
     7
 10
2969.277067
 20
-175.18707499999999
 30
0.0
  0
VERTEX
  5
BFA
  8
LAYER01
  6
CONTINUOUS
 62
     7
 10
2976.0214340000002
 20
-178.077519
 30
0.0
  0
VERTEX
  5
BFB
  8
LAYER01
  6
CONTINUOUS
 62
     7
 10
2983.7292830000001
 20
-180.967962
 30
0.0
  0
VERTEX
  5
BFC
  8
LAYER01
  6
CONTINUOUS
 62
     7
 10
2991.437132
 20
-185.78536700000001
 30
0.0
  0
VERTEX
  5
BFD
  8
LAYER01
  6
CONTINUOUS
 62
     7
 10
2999.14498
 20
-190.60277300000001
 30
0.0
  0
VERTEX
  5
BFE
  8
LAYER01
  6
CONTINUOUS
 62
     7
 10
2999.14498
 20
-190.60277300000001
 30
0.0
  0
SEQEND
  5
BFF
  8
LAYER01
  6
CONTINUOUS
 62
     7
  0
POLYLINE
  5
2A6
  8
LAYER01
  6
CONTINUOUS
 62
     7
 66
     1
 10
0.0
 20
0.0
 30
0.0
 70
     1
  0
VERTEX
  5
C00
  8
LAYER01
  6
CONTINUOUS
 62
     7
 10
3092.6026459999998
 20
-172.29663199999999
 30
0.0
  0
VERTEX
  5
C01
  8
LAYER01
  6
CONTINUOUS
 62
     7
 10
3092.6026459999998
 20
-172.29663199999999
 30
0.0
  0
VERTEX
  5
C02
  8
LAYER01
  6
CONTINUOUS
 62
     7
 10
3082.0043540000001
 20
-173.26011299999999
 30
0.0
  0
VERTEX
  5
C03
  8
LAYER01
  6
CONTINUOUS
 62
     7
 10
3070.4425809999998
 20
-174.22359399999999
 30
0.0
  0
VERTEX
  5
C04
  8
LAYER01
  6
CONTINUOUS
 62
     7
 10
3060.8077699999999
 20
-177.11403799999999
 30
0.0
  0
VERTEX
  5
C05
  8
LAYER01
  6
CONTINUOUS
 62
     7
 10
3050.2094780000011
 20
-180.967962
 30
0.0
  0
VERTEX
  5
C06
  8
LAYER01
  6
CONTINUOUS
 62
     7
 10
3040.5746669999999
 20
-184.82188600000001
 30
0.0
  0
VERTEX
  5
C07
  8
LAYER01
  6
CONTINUOUS
 62
     7
 10
3031.9033370000011
 20
-190.60277300000001
 30
0.0
  0
VERTEX
  5
C08
  8
LAYER01
  6
CONTINUOUS
 62
     7
 10
3023.232008
 20
-196.38365899999999
 30
0.0
  0
VERTEX
  5
C09
  8
LAYER01
  6
CONTINUOUS
 62
     7
 10
3015.5241590000001
 20
-204.091508
 30
0.0
  0
VERTEX
  5
C0A
  8
LAYER01
  6
CONTINUOUS
 62
     7
 10
3008.7797909999999
 20
-211.79935699999999
 30
0.0
  0
VERTEX
  5
C0B
  8
LAYER01
  6
CONTINUOUS
 62
     7
 10
3002.0354240000001
 20
-219.507205
 30
0.0
  0
VERTEX
  5
C0C
  8
LAYER01
  6
CONTINUOUS
 62
     7
 10
2996.2545369999998
 20
-228.17853500000001
 30
0.0
  0
VERTEX
  5
C0D
  8
LAYER01
  6
CONTINUOUS
 62
     7
 10
2991.437132
 20
-237.813346
 30
0.0
  0
VERTEX
  5
C0E
  8
LAYER01
  6
CONTINUOUS
 62
     7
 10
2988.5466879999999
 20
-248.41163800000001
 30
0.0
  0
VERTEX
  5
C0F
  8
LAYER01
  6
CONTINUOUS
 62
     7
 10
2985.6562450000001
 20
-258.046449
 30
0.0
  0
VERTEX
  5
C10
  8
LAYER01
  6
CONTINUOUS
 62
     7
 10
2983.7292830000001
 20
-269.60822200000001
 30
0.0
  0
VERTEX
  5
C11
  8
LAYER01
  6
CONTINUOUS
 62
     7
 10
2982.7658019999999
 20
-280.20651400000003
 30
0.0
  0
VERTEX
  5
C12
  8
LAYER01
  6
CONTINUOUS
 62
     7
 10
2982.7658019999999
 20
-280.20651400000003
 30
0.0
  0
VERTEX
  5
C13
  8
LAYER01
  6
CONTINUOUS
 62
     7
 10
2983.7292830000001
 20
-291.76828699999999
 30
0.0
  0
VERTEX
  5
C14
  8
LAYER01
  6
CONTINUOUS
 62
     7
 10
2984.6927639999999
 20
-302.366579
 30
0.0
  0
VERTEX
  5
C15
  8
LAYER01
  6
CONTINUOUS
 62
     7
 10
2987.5832070000001
 20
-312.96487100000002
 30
0.0
  0
VERTEX
  5
C16
  8
LAYER01
  6
CONTINUOUS
 62
     7
 10
2991.437132
 20
-322.59968199999997
 30
0.0
  0
VERTEX
  5
C17
  8
LAYER01
  6
CONTINUOUS
 62
     7
 10
2995.291056
 20
-332.23449299999999
 30
0.0
  0
VERTEX
  5
C18
  8
LAYER01
  6
CONTINUOUS
 62
     7
 10
3001.0719429999999
 20
-340.905823
 30
0.0
  0
VERTEX
  5
C19
  8
LAYER01
  6
CONTINUOUS
 62
     7
 10
3006.8528289999999
 20
-349.57715200000001
 30
0.0
  0
VERTEX
  5
C1A
  8
LAYER01
  6
CONTINUOUS
 62
     7
 10
3013.5971970000001
 20
-357.28500100000002
 30
0.0
  0
VERTEX
  5
C1B
  8
LAYER01
  6
CONTINUOUS
 62
     7
 10
3021.3050450000001
 20
-364.99284999999998
 30
0.0
  0
VERTEX
  5
C1C
  8
LAYER01
  6
CONTINUOUS
 62
     7
 10
3029.9763750000002
 20
-370.77373599999999
 30
0.0
  0
VERTEX
  5
C1D
  8
LAYER01
  6
CONTINUOUS
 62
     7
 10
3038.6477049999999
 20
-376.55462299999999
 30
0.0
  0
VERTEX
  5
C1E
  8
LAYER01
  6
CONTINUOUS
 62
     7
 10
3048.2825160000002
 20
-381.372028
 30
0.0
  0
VERTEX
  5
C1F
  8
LAYER01
  6
CONTINUOUS
 62
     7
 10
3057.9173270000001
 20
-385.225953
 30
0.0
  0
VERTEX
  5
C20
  8
LAYER01
  6
CONTINUOUS
 62
     7
 10
3068.5156190000012
 20
-387.15291500000001
 30
0.0
  0
VERTEX
  5
C21
  8
LAYER01
  6
CONTINUOUS
 62
     7
 10
3079.1139109999999
 20
-389.07987700000001
 30
0.0
  0
VERTEX
  5
C22
  8
LAYER01
  6
CONTINUOUS
 62
     7
 10
3089.712203
 20
-390.04335800000001
 30
0.0
  0
VERTEX
  5
C23
  8
LAYER01
  6
CONTINUOUS
 62
     7
 10
3089.712203
 20
-390.04335800000001
 30
0.0
  0
VERTEX
  5
C24
  8
LAYER01
  6
CONTINUOUS
 62
     7
 10
3101.2739759999999
 20
-389.07987700000001
 30
0.0
  0
VERTEX
  5
C25
  8
LAYER01
  6
CONTINUOUS
 62
     7
 10
3111.8722680000001
 20
-387.15291500000001
 30
0.0
  0
VERTEX
  5
C26
  8
LAYER01
  6
CONTINUOUS
 62
     7
 10
3122.4705600000002
 20
-384.262472
 30
0.0
  0
VERTEX
  5
C27
  8
LAYER01
  6
CONTINUOUS
 62
     7
 10
3132.1053710000001
 20
-380.408547
 30
0.0
  0
VERTEX
  5
C28
  8
LAYER01
  6
CONTINUOUS
 62
     7
 10
3141.7401810000001
 20
-375.59114199999999
 30
0.0
  0
VERTEX
  5
C29
  8
LAYER01
  6
CONTINUOUS
 62
     7
 10
3150.4115109999998
 20
-369.81025499999998
 30
0.0
  0
VERTEX
  5
C2A
  8
LAYER01
  6
CONTINUOUS
 62
     7
 10
3159.0828409999999
 20
-364.02936899999997
 30
0.0
  0
VERTEX
  5
C2B
  8
LAYER01
  6
CONTINUOUS
 62
     7
 10
3166.7906899999998
 20
-356.32152000000002
 30
0.0
  0
VERTEX
  5
C2C
  8
LAYER01
  6
CONTINUOUS
 62
     7
 10
3173.5350570000001
 20
-348.61367100000001
 30
0.0
  0
VERTEX
  5
C2D
  8
LAYER01
  6
CONTINUOUS
 62
     7
 10
3179.3159439999999
 20
-339.942341
 30
0.0
  0
VERTEX
  5
C2E
  8
LAYER01
  6
CONTINUOUS
 62
     7
 10
3184.1333490000002
 20
-331.27101199999998
 30
0.0
  0
VERTEX
  5
C2F
  8
LAYER01
  6
CONTINUOUS
 62
     7
 10
3188.9507549999998
 20
-321.63620100000003
 30
0.0
  0
VERTEX
  5
C30
  8
LAYER01
  6
CONTINUOUS
 62
     7
 10
3192.8046789999999
 20
-311.03790900000001
 30
0.0
  0
VERTEX
  5
C31
  8
LAYER01
  6
CONTINUOUS
 62
     7
 10
3194.7316409999999
 20
-300.439617
 30
0.0
  0
VERTEX
  5
C32
  8
LAYER01
  6
CONTINUOUS
 62
     7
 10
3195.6951220000001
 20
-289.84132499999998
 30
0.0
  0
VERTEX
  5
C33
  8
LAYER01
  6
CONTINUOUS
 62
     7
 10
3196.6586030000012
 20
-278.27955200000002
 30
0.0
  0
VERTEX
  5
C34
  8
LAYER01
  6
CONTINUOUS
 62
     7
 10
3196.6586030000012
 20
-278.27955200000002
 30
0.0
  0
VERTEX
  5
C35
  8
LAYER01
  6
CONTINUOUS
 62
     7
 10
3195.6951220000001
 20
-267.68126000000001
 30
0.0
  0
VERTEX
  5
C36
  8
LAYER01
  6
CONTINUOUS
 62
     7
 10
3193.7681600000001
 20
-257.08296799999999
 30
0.0
  0
VERTEX
  5
C37
  8
LAYER01
  6
CONTINUOUS
 62
     7
 10
3190.8777170000012
 20
-247.44815700000001
 30
0.0
  0
VERTEX
  5
C38
  8
LAYER01
  6
CONTINUOUS
 62
     7
 10
3187.9872740000001
 20
-237.813346
 30
0.0
  0
VERTEX
  5
C39
  8
LAYER01
  6
CONTINUOUS
 62
     7
 10
3183.169868
 20
-229.14201600000001
 30
0.0
  0
VERTEX
  5
C3A
  8
LAYER01
  6
CONTINUOUS
 62
     7
 10
3178.3524630000002
 20
-220.470687
 30
0.0
  0
VERTEX
  5
C3B
  8
LAYER01
  6
CONTINUOUS
 62
     7
 10
3172.5715760000012
 20
-211.79935699999999
 30
0.0
  0
VERTEX
  5
C3C
  8
LAYER01
  6
CONTINUOUS
 62
     7
 10
3165.827209
 20
-205.05498900000001
 30
0.0
  0
VERTEX
  5
C3D
  8
LAYER01
  6
CONTINUOUS
 62
     7
 10
3158.1193600000011
 20
-198.310622
 30
0.0
  0
VERTEX
  5
C3E
  8
LAYER01
  6
CONTINUOUS
 62
     7
 10
3150.4115109999998
 20
-191.56625399999999
 30
0.0
  0
VERTEX
  5
C3F
  8
LAYER01
  6
CONTINUOUS
 62
     7
 10
3141.7401810000001
 20
-186.74884800000001
 30
0.0
  0
VERTEX
  5
C40
  8
LAYER01
  6
CONTINUOUS
 62
     7
 10
3133.0688519999999
 20
-181.931443
 30
0.0
  0
VERTEX
  5
C41
  8
LAYER01
  6
CONTINUOUS
 62
     7
 10
3123.434041
 20
-178.077519
 30
0.0
  0
VERTEX
  5
C42
  8
LAYER01
  6
CONTINUOUS
 62
     7
 10
3113.7992300000001
 20
-175.18707499999999
 30
0.0
  0
VERTEX
  5
C43
  8
LAYER01
  6
CONTINUOUS
 62
     7
 10
3103.200938
 20
-173.26011299999999
 30
0.0
  0
VERTEX
  5
C44
  8
LAYER01
  6
CONTINUOUS
 62
     7
 10
3092.6026459999998
 20
-172.29663199999999
 30
0.0
  0
VERTEX
  5
C45
  8
LAYER01
  6
CONTINUOUS
 62
     7
 10
3092.6026459999998
 20
-172.29663199999999
 30
0.0
  0
SEQEND
  5
C46
  8
LAYER01
  6
CONTINUOUS
 62
     7
  0
POLYLINE
  5
2EE
  8
LAYER01
  6
CONTINUOUS
 62
     7
 66
     1
 10
0.0
 20
0.0
 30
0.0
 70
     1
  0
VERTEX
  5
C47
  8
LAYER01
  6
CONTINUOUS
 62
     7
 10
3089.712203
 20
-350.54063300000001
 30
0.0
  0
VERTEX
  5
C48
  8
LAYER01
  6
CONTINUOUS
 62
     7
 10
3089.712203
 20
-350.54063300000001
 30
0.0
  0
VERTEX
  5
C49
  8
LAYER01
  6
CONTINUOUS
 62
     7
 10
3082.9678349999999
 20
-349.57715200000001
 30
0.0
  0
VERTEX
  5
C4A
  8
LAYER01
  6
CONTINUOUS
 62
     7
 10
3076.2234669999998
 20
-348.61367100000001
 30
0.0
  0
VERTEX
  5
C4B
  8
LAYER01
  6
CONTINUOUS
 62
     7
 10
3069.4791000000009
 20
-347.65019000000001
 30
0.0
  0
VERTEX
  5
C4C
  8
LAYER01
  6
CONTINUOUS
 62
     7
 10
3062.7347319999999
 20
-344.759747
 30
0.0
  0
VERTEX
  5
C4D
  8
LAYER01
  6
CONTINUOUS
 62
     7
 10
3056.9538459999999
 20
-341.869304
 30
0.0
  0
VERTEX
  5
C4E
  8
LAYER01
  6
CONTINUOUS
 62
     7
 10
3051.172959
 20
-338.015379
 30
0.0
  0
VERTEX
  5
C4F
  8
LAYER01
  6
CONTINUOUS
 62
     7
 10
3046.3555540000002
 20
-334.16145499999999
 30
0.0
  0
VERTEX
  5
C50
  8
LAYER01
  6
CONTINUOUS
 62
     7
 10
3041.5381480000001
 20
-329.34404999999998
 30
0.0
  0
VERTEX
  5
C51
  8
LAYER01
  6
CONTINUOUS
 62
     7
 10
3036.7207429999999
 20
-324.52664399999998
 30
0.0
  0
VERTEX
  5
C52
  8
LAYER01
  6
CONTINUOUS
 62
     7
 10
3032.866818
 20
-319.70923900000003
 30
0.0
  0
VERTEX
  5
C53
  8
LAYER01
  6
CONTINUOUS
 62
     7
 10
3029.9763750000002
 20
-313.92835200000002
 30
0.0
  0
VERTEX
  5
C54
  8
LAYER01
  6
CONTINUOUS
 62
     7
 10
3027.085932
 20
-307.18398400000001
 30
0.0
  0
VERTEX
  5
C55
  8
LAYER01
  6
CONTINUOUS
 62
     7
 10
3024.1954890000002
 20
-301.403098
 30
0.0
  0
VERTEX
  5
C56
  8
LAYER01
  6
CONTINUOUS
 62
     7
 10
3023.232008
 20
-294.65872999999999
 30
0.0
  0
VERTEX
  5
C57
  8
LAYER01
  6
CONTINUOUS
 62
     7
 10
3021.3050450000001
 20
-287.91436299999998
 30
0.0
  0
VERTEX
  5
C58
  8
LAYER01
  6
CONTINUOUS
 62
     7
 10
3021.3050450000001
 20
-280.20651400000003
 30
0.0
  0
VERTEX
  5
C59
  8
LAYER01
  6
CONTINUOUS
 62
     7
 10
3021.3050450000001
 20
-280.20651400000003
 30
0.0
  0
VERTEX
  5
C5A
  8
LAYER01
  6
CONTINUOUS
 62
     7
 10
3022.2685270000002
 20
-273.46214600000002
 30
0.0
  0
VERTEX
  5
C5B
  8
LAYER01
  6
CONTINUOUS
 62
     7
 10
3023.232008
 20
-266.71777900000001
 30
0.0
  0
VERTEX
  5
C5C
  8
LAYER01
  6
CONTINUOUS
 62
     7
 10
3025.15897
 20
-259.973411
 30
0.0
  0
VERTEX
  5
C5D
  8
LAYER01
  6
CONTINUOUS
 62
     7
 10
3027.085932
 20
-253.22904399999999
 30
0.0
  0
VERTEX
  5
C5E
  8
LAYER01
  6
CONTINUOUS
 62
     7
 10
3029.9763750000002
 20
-247.44815700000001
 30
0.0
  0
VERTEX
  5
C5F
  8
LAYER01
  6
CONTINUOUS
 62
     7
 10
3033.8303000000001
 20
-241.66727
 30
0.0
  0
VERTEX
  5
C60
  8
LAYER01
  6
CONTINUOUS
 62
     7
 10
3037.6842240000001
 20
-236.84986499999999
 30
0.0
  0
VERTEX
  5
C61
  8
LAYER01
  6
CONTINUOUS
 62
     7
 10
3042.5016289999999
 20
-232.03245999999999
 30
0.0
  0
VERTEX
  5
C62
  8
LAYER01
  6
CONTINUOUS
 62
     7
 10
3047.319035
 20
-227.21505400000001
 30
0.0
  0
VERTEX
  5
C63
  8
LAYER01
  6
CONTINUOUS
 62
     7
 10
3052.1364400000002
 20
-223.36113
 30
0.0
  0
VERTEX
  5
C64
  8
LAYER01
  6
CONTINUOUS
 62
     7
 10
3057.9173270000001
 20
-219.507205
 30
0.0
  0
VERTEX
  5
C65
  8
LAYER01
  6
CONTINUOUS
 62
     7
 10
3064.6616940000008
 20
-216.61676199999999
 30
0.0
  0
VERTEX
  5
C66
  8
LAYER01
  6
CONTINUOUS
 62
     7
 10
3070.4425809999998
 20
-214.68979999999999
 30
0.0
  0
VERTEX
  5
C67
  8
LAYER01
  6
CONTINUOUS
 62
     7
 10
3077.1869489999999
 20
-212.76283799999999
 30
0.0
  0
VERTEX
  5
C68
  8
LAYER01
  6
CONTINUOUS
 62
     7
 10
3083.9313160000011
 20
-211.79935699999999
 30
0.0
  0
VERTEX
  5
C69
  8
LAYER01
  6
CONTINUOUS
 62
     7
 10
3091.639165
 20
-211.79935699999999
 30
0.0
  0
VERTEX
  5
C6A
  8
LAYER01
  6
CONTINUOUS
 62
     7
 10
3091.639165
 20
-211.79935699999999
 30
0.0
  0
VERTEX
  5
C6B
  8
LAYER01
  6
CONTINUOUS
 62
     7
 10
3098.3835319999998
 20
-212.76283799999999
 30
0.0
  0
VERTEX
  5
C6C
  8
LAYER01
  6
CONTINUOUS
 62
     7
 10
3105.1279
 20
-213.72631899999999
 30
0.0
  0
VERTEX
  5
C6D
  8
LAYER01
  6
CONTINUOUS
 62
     7
 10
3110.9087869999998
 20
-215.65328099999999
 30
0.0
  0
VERTEX
  5
C6E
  8
LAYER01
  6
CONTINUOUS
 62
     7
 10
3117.6531540000001
 20
-217.580243
 30
0.0
  0
VERTEX
  5
C6F
  8
LAYER01
  6
CONTINUOUS
 62
     7
 10
3122.4705600000002
 20
-220.470687
 30
0.0
  0
VERTEX
  5
C70
  8
LAYER01
  6
CONTINUOUS
 62
     7
 10
3128.2514460000002
 20
-224.324611
 30
0.0
  0
VERTEX
  5
C71
  8
LAYER01
  6
CONTINUOUS
 62
     7
 10
3133.0688519999999
 20
-228.17853500000001
 30
0.0
  0
VERTEX
  5
C72
  8
LAYER01
  6
CONTINUOUS
 62
     7
 10
3137.8862570000001
 20
-232.03245999999999
 30
0.0
  0
VERTEX
  5
C73
  8
LAYER01
  6
CONTINUOUS
 62
     7
 10
3141.7401810000001
 20
-236.84986499999999
 30
0.0
  0
VERTEX
  5
C74
  8
LAYER01
  6
CONTINUOUS
 62
     7
 10
3145.594106
 20
-242.630752
 30
0.0
  0
VERTEX
  5
C75
  8
LAYER01
  6
CONTINUOUS
 62
     7
 10
3149.44803
 20
-247.44815700000001
 30
0.0
  0
VERTEX
  5
C76
  8
LAYER01
  6
CONTINUOUS
 62
     7
 10
3152.3384729999998
 20
-253.22904399999999
 30
0.0
  0
VERTEX
  5
C77
  8
LAYER01
  6
CONTINUOUS
 62
     7
 10
3154.265436000001
 20
-259.973411
 30
0.0
  0
VERTEX
  5
C78
  8
LAYER01
  6
CONTINUOUS
 62
     7
 10
3156.1923980000001
 20
-265.75429800000001
 30
0.0
  0
VERTEX
  5
C79
  8
LAYER01
  6
CONTINUOUS
 62
     7
 10
3157.1558789999999
 20
-272.49866500000002
 30
0.0
  0
VERTEX
  5
C7A
  8
LAYER01
  6
CONTINUOUS
 62
     7
 10
3157.1558789999999
 20
-279.24303300000003
 30
0.0
  0
VERTEX
  5
C7B
  8
LAYER01
  6
CONTINUOUS
 62
     7
 10
3157.1558789999999
 20
-279.24303300000003
 30
0.0
  0
VERTEX
  5
C7C
  8
LAYER01
  6
CONTINUOUS
 62
     7
 10
3157.1558789999999
 20
-286.95088199999998
 30
0.0
  0
VERTEX
  5
C7D
  8
LAYER01
  6
CONTINUOUS
 62
     7
 10
3156.1923980000001
 20
-293.69524899999999
 30
0.0
  0
VERTEX
  5
C7E
  8
LAYER01
  6
CONTINUOUS
 62
     7
 10
3155.2289169999999
 20
-300.439617
 30
0.0
  0
VERTEX
  5
C7F
  8
LAYER01
  6
CONTINUOUS
 62
     7
 10
3152.3384729999998
 20
-306.22050300000001
 30
0.0
  0
VERTEX
  5
C80
  8
LAYER01
  6
CONTINUOUS
 62
     7
 10
3150.4115109999998
 20
-312.96487100000002
 30
0.0
  0
VERTEX
  5
C81
  8
LAYER01
  6
CONTINUOUS
 62
     7
 10
3146.5575869999998
 20
-318.74575800000002
 30
0.0
  0
VERTEX
  5
C82
  8
LAYER01
  6
CONTINUOUS
 62
     7
 10
3142.7036629999998
 20
-324.52664399999998
 30
0.0
  0
VERTEX
  5
C83
  8
LAYER01
  6
CONTINUOUS
 62
     7
 10
3137.8862570000001
 20
-329.34404999999998
 30
0.0
  0
VERTEX
  5
C84
  8
LAYER01
  6
CONTINUOUS
 62
     7
 10
3133.0688519999999
 20
-334.16145499999999
 30
0.0
  0
VERTEX
  5
C85
  8
LAYER01
  6
CONTINUOUS
 62
     7
 10
3128.2514460000002
 20
-338.015379
 30
0.0
  0
VERTEX
  5
C86
  8
LAYER01
  6
CONTINUOUS
 62
     7
 10
3122.4705600000002
 20
-341.869304
 30
0.0
  0
VERTEX
  5
C87
  8
LAYER01
  6
CONTINUOUS
 62
     7
 10
3116.6896729999999
 20
-344.759747
 30
0.0
  0
VERTEX
  5
C88
  8
LAYER01
  6
CONTINUOUS
 62
     7
 10
3109.9453060000001
 20
-346.68670900000001
 30
0.0
  0
VERTEX
  5
C89
  8
LAYER01
  6
CONTINUOUS
 62
     7
 10
3103.200938
 20
-348.61367100000001
 30
0.0
  0
VERTEX
  5
C8A
  8
LAYER01
  6
CONTINUOUS
 62
     7
 10
3096.4565699999998
 20
-349.57715200000001
 30
0.0
  0
VERTEX
  5
C8B
  8
LAYER01
  6
CONTINUOUS
 62
     7
 10
3089.712203
 20
-350.54063300000001
 30
0.0
  0
VERTEX
  5
C8C
  8
LAYER01
  6
CONTINUOUS
 62
     7
 10
3089.712203
 20
-350.54063300000001
 30
0.0
  0
SEQEND
  5
C8D
  8
LAYER01
  6
CONTINUOUS
 62
     7
  0
POLYLINE
  5
336
  8
LAYER01
  6
CONTINUOUS
 62
     7
 66
     1
 10
0.0
 20
0.0
 30
0.0
 70
     1
  0
VERTEX
  5
C8E
  8
LAYER01
  6
CONTINUOUS
 62
     7
 10
3166.7906899999998
 20
-177.11403799999999
 30
0.0
  0
VERTEX
  5
C8F
  8
LAYER01
  6
CONTINUOUS
 62
     7
 10
3268.9196849999998
 20
-177.11403799999999
 30
0.0
  0
VERTEX
  5
C90
  8
LAYER01
  6
CONTINUOUS
 62
     7
 10
3268.9196849999998
 20
-177.11403799999999
 30
0.0
  0
VERTEX
  5
C91
  8
LAYER01
  6
CONTINUOUS
 62
     7
 10
3280.4814580000002
 20
-179.041
 30
0.0
  0
VERTEX
  5
C92
  8
LAYER01
  6
CONTINUOUS
 62
     7
 10
3291.0797499999999
 20
-183.858405
 30
0.0
  0
VERTEX
  5
C93
  8
LAYER01
  6
CONTINUOUS
 62
     7
 10
3299.75108
 20
-189.63929200000001
 30
0.0
  0
VERTEX
  5
C94
  8
LAYER01
  6
CONTINUOUS
 62
     7
 10
3307.4589289999999
 20
-197.34714
 30
0.0
  0
VERTEX
  5
C95
  8
LAYER01
  6
CONTINUOUS
 62
     7
 10
3314.2032960000001
 20
-205.05498900000001
 30
0.0
  0
VERTEX
  5
C96
  8
LAYER01
  6
CONTINUOUS
 62
     7
 10
3319.0207019999989
 20
-214.68979999999999
 30
0.0
  0
VERTEX
  5
C97
  8
LAYER01
  6
CONTINUOUS
 62
     7
 10
3321.911145
 20
-226.25157300000001
 30
0.0
  0
VERTEX
  5
C98
  8
LAYER01
  6
CONTINUOUS
 62
     7
 10
3322.8746259999998
 20
-236.84986499999999
 30
0.0
  0
VERTEX
  5
C99
  8
LAYER01
  6
CONTINUOUS
 62
     7
 10
3322.8746259999998
 20
-236.84986499999999
 30
0.0
  0
VERTEX
  5
C9A
  8
LAYER01
  6
CONTINUOUS
 62
     7
 10
3321.911145
 20
-248.41163800000001
 30
0.0
  0
VERTEX
  5
C9B
  8
LAYER01
  6
CONTINUOUS
 62
     7
 10
3319.9841830000009
 20
-258.046449
 30
0.0
  0
VERTEX
  5
C9C
  8
LAYER01
  6
CONTINUOUS
 62
     7
 10
3316.1302580000001
 20
-267.68126000000001
 30
0.0
  0
VERTEX
  5
C9D
  8
LAYER01
  6
CONTINUOUS
 62
     7
 10
3311.3128529999999
 20
-276.35259000000002
 30
0.0
  0
VERTEX
  5
C9E
  8
LAYER01
  6
CONTINUOUS
 62
     7
 10
3304.5684849999998
 20
-284.06043799999998
 30
0.0
  0
VERTEX
  5
C9F
  8
LAYER01
  6
CONTINUOUS
 62
     7
 10
3297.824118
 20
-289.84132499999998
 30
0.0
  0
VERTEX
  5
CA0
  8
LAYER01
  6
CONTINUOUS
 62
     7
 10
3288.189307000001
 20
-295.62221099999999
 30
0.0
  0
VERTEX
  5
CA1
  8
LAYER01
  6
CONTINUOUS
 62
     7
 10
3278.5544960000002
 20
-299.476136
 30
0.0
  0
VERTEX
  5
CA2
  8
LAYER01
  6
CONTINUOUS
 62
     7
 10
3341.1807669999998
 20
-383.29899
 30
0.0
  0
VERTEX
  5
CA3
  8
LAYER01
  6
CONTINUOUS
 62
     7
 10
3293.0067119999999
 20
-383.29899
 30
0.0
  0
VERTEX
  5
CA4
  8
LAYER01
  6
CONTINUOUS
 62
     7
 10
3209.1838579999999
 20
-276.35259000000002
 30
0.0
  0
VERTEX
  5
CA5
  8
LAYER01
  6
CONTINUOUS
 62
     7
 10
3256.3944310000002
 20
-276.35259000000002
 30
0.0
  0
VERTEX
  5
CA6
  8
LAYER01
  6
CONTINUOUS
 62
     7
 10
3256.3944310000002
 20
-276.35259000000002
 30
0.0
  0
VERTEX
  5
CA7
  8
LAYER01
  6
CONTINUOUS
 62
     7
 10
3262.1753170000002
 20
-274.42562700000002
 30
0.0
  0
VERTEX
  5
CA8
  8
LAYER01
  6
CONTINUOUS
 62
     7
 10
3266.9927229999998
 20
-272.49866500000002
 30
0.0
  0
VERTEX
  5
CA9
  8
LAYER01
  6
CONTINUOUS
 62
     7
 10
3270.8466469999998
 20
-268.64474100000001
 30
0.0
  0
VERTEX
  5
CAA
  8
LAYER01
  6
CONTINUOUS
 62
     7
 10
3274.7005720000002
 20
-264.790817
 30
0.0
  0
VERTEX
  5
CAB
  8
LAYER01
  6
CONTINUOUS
 62
     7
 10
3277.591015
 20
-259.973411
 30
0.0
  0
VERTEX
  5
CAC
  8
LAYER01
  6
CONTINUOUS
 62
     7
 10
3280.4814580000002
 20
-255.15600599999999
 30
0.0
  0
VERTEX
  5
CAD
  8
LAYER01
  6
CONTINUOUS
 62
     7
 10
3281.444939
 20
-249.37511900000001
 30
0.0
  0
VERTEX
  5
CAE
  8
LAYER01
  6
CONTINUOUS
 62
     7
 10
3281.444939
 20
-243.594233
 30
0.0
  0
VERTEX
  5
CAF
  8
LAYER01
  6
CONTINUOUS
 62
     7
 10
3281.444939
 20
-243.594233
 30
0.0
  0
VERTEX
  5
CB0
  8
LAYER01
  6
CONTINUOUS
 62
     7
 10
3281.444939
 20
-237.813346
 30
0.0
  0
VERTEX
  5
CB1
  8
LAYER01
  6
CONTINUOUS
 62
     7
 10
3279.517977
 20
-232.99594099999999
 30
0.0
  0
VERTEX
  5
CB2
  8
LAYER01
  6
CONTINUOUS
 62
     7
 10
3277.591015
 20
-228.17853500000001
 30
0.0
  0
VERTEX
  5
CB3
  8
LAYER01
  6
CONTINUOUS
 62
     7
 10
3274.7005720000002
 20
-223.36113
 30
0.0
  0
VERTEX
  5
CB4
  8
LAYER01
  6
CONTINUOUS
 62
     7
 10
3270.8466469999998
 20
-219.507205
 30
0.0
  0
VERTEX
  5
CB5
  8
LAYER01
  6
CONTINUOUS
 62
     7
 10
3266.9927229999998
 20
-216.61676199999999
 30
0.0
  0
VERTEX
  5
CB6
  8
LAYER01
  6
CONTINUOUS
 62
     7
 10
3261.2118359999999
 20
-213.72631899999999
 30
0.0
  0
VERTEX
  5
CB7
  8
LAYER01
  6
CONTINUOUS
 62
     7
 10
3256.3944310000002
 20
-211.79935699999999
 30
0.0
  0
VERTEX
  5
CB8
  8
LAYER01
  6
CONTINUOUS
 62
     7
 10
3201.476009
 20
-211.79935699999999
 30
0.0
  0
VERTEX
  5
CB9
  8
LAYER01
  6
CONTINUOUS
 62
     7
 10
3166.7906899999998
 20
-177.11403799999999
 30
0.0
  0
VERTEX
  5
CBA
  8
LAYER01
  6
CONTINUOUS
 62
     7
 10
3166.7906899999998
 20
-177.11403799999999
 30
0.0
  0
SEQEND
  5
CBB
  8
LAYER01
  6
CONTINUOUS
 62
     7
  0
POLYLINE
  5
365
  8
LAYER01
  6
CONTINUOUS
 62
     7
 66
     1
 10
0.0
 20
0.0
 30
0.0
 70
     1
  0
VERTEX
  5
CBC
  8
LAYER01
  6
CONTINUOUS
 62
     7
 10
3367.1947560000008
 20
-228.17853500000001
 30
0.0
  0
VERTEX
  5
CBD
  8
LAYER01
  6
CONTINUOUS
 62
     7
 10
3367.1947560000008
 20
-228.17853500000001
 30
0.0
  0
VERTEX
  5
CBE
  8
LAYER01
  6
CONTINUOUS
 62
     7
 10
3372.0121610000001
 20
-227.21505400000001
 30
0.0
  0
VERTEX
  5
CBF
  8
LAYER01
  6
CONTINUOUS
 62
     7
 10
3376.8295670000002
 20
-226.25157300000001
 30
0.0
  0
VERTEX
  5
CC0
  8
LAYER01
  6
CONTINUOUS
 62
     7
 10
3381.646972
 20
-223.36113
 30
0.0
  0
VERTEX
  5
CC1
  8
LAYER01
  6
CONTINUOUS
 62
     7
 10
3385.5008969999999
 20
-220.470687
 30
0.0
  0
VERTEX
  5
CC2
  8
LAYER01
  6
CONTINUOUS
 62
     7
 10
3388.3913400000001
 20
-216.61676199999999
 30
0.0
  0
VERTEX
  5
CC3
  8
LAYER01
  6
CONTINUOUS
 62
     7
 10
3390.3183020000001
 20
-212.76283799999999
 30
0.0
  0
VERTEX
  5
CC4
  8
LAYER01
  6
CONTINUOUS
 62
     7
 10
3392.2452640000001
 20
-207.94543200000001
 30
0.0
  0
VERTEX
  5
CC5
  8
LAYER01
  6
CONTINUOUS
 62
     7
 10
3392.2452640000001
 20
-202.164546
 30
0.0
  0
VERTEX
  5
CC6
  8
LAYER01
  6
CONTINUOUS
 62
     7
 10
3392.2452640000001
 20
-202.164546
 30
0.0
  0
VERTEX
  5
CC7
  8
LAYER01
  6
CONTINUOUS
 62
     7
 10
3392.2452640000001
 20
-197.34714
 30
0.0
  0
VERTEX
  5
CC8
  8
LAYER01
  6
CONTINUOUS
 62
     7
 10
3390.3183020000001
 20
-192.52973499999999
 30
0.0
  0
VERTEX
  5
CC9
  8
LAYER01
  6
CONTINUOUS
 62
     7
 10
3388.3913400000001
 20
-188.67581100000001
 30
0.0
  0
VERTEX
  5
CCA
  8
LAYER01
  6
CONTINUOUS
 62
     7
 10
3385.5008969999999
 20
-184.82188600000001
 30
0.0
  0
VERTEX
  5
CCB
  8
LAYER01
  6
CONTINUOUS
 62
     7
 10
3381.646972
 20
-181.931443
 30
0.0
  0
VERTEX
  5
CCC
  8
LAYER01
  6
CONTINUOUS
 62
     7
 10
3376.8295670000002
 20
-179.041
 30
0.0
  0
VERTEX
  5
CCD
  8
LAYER01
  6
CONTINUOUS
 62
     7
 10
3372.0121610000001
 20
-178.077519
 30
0.0
  0
VERTEX
  5
CCE
  8
LAYER01
  6
CONTINUOUS
 62
     7
 10
3367.1947560000008
 20
-177.11403799999999
 30
0.0
  0
VERTEX
  5
CCF
  8
LAYER01
  6
CONTINUOUS
 62
     7
 10
3367.1947560000008
 20
-177.11403799999999
 30
0.0
  0
VERTEX
  5
CD0
  8
LAYER01
  6
CONTINUOUS
 62
     7
 10
3362.3773510000001
 20
-178.077519
 30
0.0
  0
VERTEX
  5
CD1
  8
LAYER01
  6
CONTINUOUS
 62
     7
 10
3357.5599450000009
 20
-179.041
 30
0.0
  0
VERTEX
  5
CD2
  8
LAYER01
  6
CONTINUOUS
 62
     7
 10
3352.7425400000002
 20
-181.931443
 30
0.0
  0
VERTEX
  5
CD3
  8
LAYER01
  6
CONTINUOUS
 62
     7
 10
3348.8886149999998
 20
-184.82188600000001
 30
0.0
  0
VERTEX
  5
CD4
  8
LAYER01
  6
CONTINUOUS
 62
     7
 10
3345.9981720000001
 20
-188.67581100000001
 30
0.0
  0
VERTEX
  5
CD5
  8
LAYER01
  6
CONTINUOUS
 62
     7
 10
3344.0712100000001
 20
-192.52973499999999
 30
0.0
  0
VERTEX
  5
CD6
  8
LAYER01
  6
CONTINUOUS
 62
     7
 10
3342.1442480000001
 20
-197.34714
 30
0.0
  0
VERTEX
  5
CD7
  8
LAYER01
  6
CONTINUOUS
 62
     7
 10
3342.1442480000001
 20
-202.164546
 30
0.0
  0
VERTEX
  5
CD8
  8
LAYER01
  6
CONTINUOUS
 62
     7
 10
3342.1442480000001
 20
-202.164546
 30
0.0
  0
VERTEX
  5
CD9
  8
LAYER01
  6
CONTINUOUS
 62
     7
 10
3342.1442480000001
 20
-207.94543200000001
 30
0.0
  0
VERTEX
  5
CDA
  8
LAYER01
  6
CONTINUOUS
 62
     7
 10
3344.0712100000001
 20
-212.76283799999999
 30
0.0
  0
VERTEX
  5
CDB
  8
LAYER01
  6
CONTINUOUS
 62
     7
 10
3345.9981720000001
 20
-216.61676199999999
 30
0.0
  0
VERTEX
  5
CDC
  8
LAYER01
  6
CONTINUOUS
 62
     7
 10
3348.8886149999998
 20
-220.470687
 30
0.0
  0
VERTEX
  5
CDD
  8
LAYER01
  6
CONTINUOUS
 62
     7
 10
3352.7425400000002
 20
-223.36113
 30
0.0
  0
VERTEX
  5
CDE
  8
LAYER01
  6
CONTINUOUS
 62
     7
 10
3357.5599450000009
 20
-226.25157300000001
 30
0.0
  0
VERTEX
  5
CDF
  8
LAYER01
  6
CONTINUOUS
 62
     7
 10
3362.3773510000001
 20
-227.21505400000001
 30
0.0
  0
VERTEX
  5
CE0
  8
LAYER01
  6
CONTINUOUS
 62
     7
 10
3367.1947560000008
 20
-228.17853500000001
 30
0.0
  0
VERTEX
  5
CE1
  8
LAYER01
  6
CONTINUOUS
 62
     7
 10
3367.1947560000008
 20
-228.17853500000001
 30
0.0
  0
SEQEND
  5
CE2
  8
LAYER01
  6
CONTINUOUS
 62
     7
  0
POLYLINE
  5
38D
  8
LAYER01
  6
CONTINUOUS
 62
     7
 66
     1
 10
0.0
 20
0.0
 30
0.0
 70
     1
  0
VERTEX
  5
CE3
  8
LAYER01
  6
CONTINUOUS
 62
     7
 10
3367.1947560000008
 20
-180.967962
 30
0.0
  0
VERTEX
  5
CE4
  8
LAYER01
  6
CONTINUOUS
 62
     7
 10
3367.1947560000008
 20
-180.967962
 30
0.0
  0
VERTEX
  5
CE5
  8
LAYER01
  6
CONTINUOUS
 62
     7
 10
3371.0486799999999
 20
-181.931443
 30
0.0
  0
VERTEX
  5
CE6
  8
LAYER01
  6
CONTINUOUS
 62
     7
 10
3374.9026050000002
 20
-182.894924
 30
0.0
  0
VERTEX
  5
CE7
  8
LAYER01
  6
CONTINUOUS
 62
     7
 10
3378.7565289999998
 20
-184.82188600000001
 30
0.0
  0
VERTEX
  5
CE8
  8
LAYER01
  6
CONTINUOUS
 62
     7
 10
3381.646972
 20
-187.71233000000001
 30
0.0
  0
VERTEX
  5
CE9
  8
LAYER01
  6
CONTINUOUS
 62
     7
 10
3384.5374160000001
 20
-190.60277300000001
 30
0.0
  0
VERTEX
  5
CEA
  8
LAYER01
  6
CONTINUOUS
 62
     7
 10
3386.4643780000001
 20
-194.45669699999999
 30
0.0
  0
VERTEX
  5
CEB
  8
LAYER01
  6
CONTINUOUS
 62
     7
 10
3388.3913400000001
 20
-198.310622
 30
0.0
  0
VERTEX
  5
CEC
  8
LAYER01
  6
CONTINUOUS
 62
     7
 10
3388.3913400000001
 20
-202.164546
 30
0.0
  0
VERTEX
  5
CED
  8
LAYER01
  6
CONTINUOUS
 62
     7
 10
3388.3913400000001
 20
-202.164546
 30
0.0
  0
VERTEX
  5
CEE
  8
LAYER01
  6
CONTINUOUS
 62
     7
 10
3388.3913400000001
 20
-206.98195100000001
 30
0.0
  0
VERTEX
  5
CEF
  8
LAYER01
  6
CONTINUOUS
 62
     7
 10
3386.4643780000001
 20
-210.83587600000001
 30
0.0
  0
VERTEX
  5
CF0
  8
LAYER01
  6
CONTINUOUS
 62
     7
 10
3384.5374160000001
 20
-214.68979999999999
 30
0.0
  0
VERTEX
  5
CF1
  8
LAYER01
  6
CONTINUOUS
 62
     7
 10
3381.646972
 20
-217.580243
 30
0.0
  0
VERTEX
  5
CF2
  8
LAYER01
  6
CONTINUOUS
 62
     7
 10
3378.7565289999998
 20
-220.470687
 30
0.0
  0
VERTEX
  5
CF3
  8
LAYER01
  6
CONTINUOUS
 62
     7
 10
3374.9026050000002
 20
-222.397649
 30
0.0
  0
VERTEX
  5
CF4
  8
LAYER01
  6
CONTINUOUS
 62
     7
 10
3371.0486799999999
 20
-223.36113
 30
0.0
  0
VERTEX
  5
CF5
  8
LAYER01
  6
CONTINUOUS
 62
     7
 10
3367.1947560000008
 20
-223.36113
 30
0.0
  0
VERTEX
  5
CF6
  8
LAYER01
  6
CONTINUOUS
 62
     7
 10
3367.1947560000008
 20
-223.36113
 30
0.0
  0
VERTEX
  5
CF7
  8
LAYER01
  6
CONTINUOUS
 62
     7
 10
3363.3408319999999
 20
-223.36113
 30
0.0
  0
VERTEX
  5
CF8
  8
LAYER01
  6
CONTINUOUS
 62
     7
 10
3358.5234260000002
 20
-222.397649
 30
0.0
  0
VERTEX
  5
CF9
  8
LAYER01
  6
CONTINUOUS
 62
     7
 10
3355.632983
 20
-220.470687
 30
0.0
  0
VERTEX
  5
CFA
  8
LAYER01
  6
CONTINUOUS
 62
     7
 10
3351.779059
 20
-217.580243
 30
0.0
  0
VERTEX
  5
CFB
  8
LAYER01
  6
CONTINUOUS
 62
     7
 10
3349.8520960000001
 20
-214.68979999999999
 30
0.0
  0
VERTEX
  5
CFC
  8
LAYER01
  6
CONTINUOUS
 62
     7
 10
3347.9251340000001
 20
-210.83587600000001
 30
0.0
  0
VERTEX
  5
CFD
  8
LAYER01
  6
CONTINUOUS
 62
     7
 10
3345.9981720000001
 20
-206.98195100000001
 30
0.0
  0
VERTEX
  5
CFE
  8
LAYER01
  6
CONTINUOUS
 62
     7
 10
3345.9981720000001
 20
-202.164546
 30
0.0
  0
VERTEX
  5
CFF
  8
LAYER01
  6
CONTINUOUS
 62
     7
 10
3345.9981720000001
 20
-202.164546
 30
0.0
  0
VERTEX
  5
D00
  8
LAYER01
  6
CONTINUOUS
 62
     7
 10
3345.9981720000001
 20
-198.310622
 30
0.0
  0
VERTEX
  5
D01
  8
LAYER01
  6
CONTINUOUS
 62
     7
 10
3347.9251340000001
 20
-194.45669699999999
 30
0.0
  0
VERTEX
  5
D02
  8
LAYER01
  6
CONTINUOUS
 62
     7
 10
3349.8520960000001
 20
-190.60277300000001
 30
0.0
  0
VERTEX
  5
D03
  8
LAYER01
  6
CONTINUOUS
 62
     7
 10
3351.779059
 20
-187.71233000000001
 30
0.0
  0
VERTEX
  5
D04
  8
LAYER01
  6
CONTINUOUS
 62
     7
 10
3355.632983
 20
-184.82188600000001
 30
0.0
  0
VERTEX
  5
D05
  8
LAYER01
  6
CONTINUOUS
 62
     7
 10
3358.5234260000002
 20
-182.894924
 30
0.0
  0
VERTEX
  5
D06
  8
LAYER01
  6
CONTINUOUS
 62
     7
 10
3363.3408319999999
 20
-181.931443
 30
0.0
  0
VERTEX
  5
D07
  8
LAYER01
  6
CONTINUOUS
 62
     7
 10
3367.1947560000008
 20
-180.967962
 30
0.0
  0
VERTEX
  5
D08
  8
LAYER01
  6
CONTINUOUS
 62
     7
 10
3367.1947560000008
 20
-180.967962
 30
0.0
  0
SEQEND
  5
D09
  8
LAYER01
  6
CONTINUOUS
 62
     7
  0
POLYLINE
  5
3B5
  8
LAYER01
  6
CONTINUOUS
 62
     7
 66
     1
 10
0.0
 20
0.0
 30
0.0
 70
     1
  0
VERTEX
  5
D0A
  8
LAYER01
  6
CONTINUOUS
 62
     7
 10
3371.0486799999999
 20
-204.091508
 30
0.0
  0
VERTEX
  5
D0B
  8
LAYER01
  6
CONTINUOUS
 62
     7
 10
3371.0486799999999
 20
-204.091508
 30
0.0
  0
VERTEX
  5
D0C
  8
LAYER01
  6
CONTINUOUS
 62
     7
 10
3373.939124
 20
-203.128027
 30
0.0
  0
VERTEX
  5
D0D
  8
LAYER01
  6
CONTINUOUS
 62
     7
 10
3376.8295670000002
 20
-202.164546
 30
0.0
  0
VERTEX
  5
D0E
  8
LAYER01
  6
CONTINUOUS
 62
     7
 10
3378.7565289999998
 20
-199.274103
 30
0.0
  0
VERTEX
  5
D0F
  8
LAYER01
  6
CONTINUOUS
 62
     7
 10
3378.7565289999998
 20
-196.38365899999999
 30
0.0
  0
VERTEX
  5
D10
  8
LAYER01
  6
CONTINUOUS
 62
     7
 10
3378.7565289999998
 20
-196.38365899999999
 30
0.0
  0
VERTEX
  5
D11
  8
LAYER01
  6
CONTINUOUS
 62
     7
 10
3378.7565289999998
 20
-192.52973499999999
 30
0.0
  0
VERTEX
  5
D12
  8
LAYER01
  6
CONTINUOUS
 62
     7
 10
3375.866086
 20
-189.63929200000001
 30
0.0
  0
VERTEX
  5
D13
  8
LAYER01
  6
CONTINUOUS
 62
     7
 10
3372.9756430000002
 20
-188.67581100000001
 30
0.0
  0
VERTEX
  5
D14
  8
LAYER01
  6
CONTINUOUS
 62
     7
 10
3369.1217180000008
 20
-188.67581100000001
 30
0.0
  0
VERTEX
  5
D15
  8
LAYER01
  6
CONTINUOUS
 62
     7
 10
3357.5599450000009
 20
-188.67581100000001
 30
0.0
  0
VERTEX
  5
D16
  8
LAYER01
  6
CONTINUOUS
 62
     7
 10
3357.5599450000009
 20
-216.61676199999999
 30
0.0
  0
VERTEX
  5
D17
  8
LAYER01
  6
CONTINUOUS
 62
     7
 10
3361.4138700000012
 20
-216.61676199999999
 30
0.0
  0
VERTEX
  5
D18
  8
LAYER01
  6
CONTINUOUS
 62
     7
 10
3361.4138700000012
 20
-204.091508
 30
0.0
  0
VERTEX
  5
D19
  8
LAYER01
  6
CONTINUOUS
 62
     7
 10
3367.1947560000008
 20
-204.091508
 30
0.0
  0
VERTEX
  5
D1A
  8
LAYER01
  6
CONTINUOUS
 62
     7
 10
3373.939124
 20
-216.61676199999999
 30
0.0
  0
VERTEX
  5
D1B
  8
LAYER01
  6
CONTINUOUS
 62
     7
 10
3378.7565289999998
 20
-216.61676199999999
 30
0.0
  0
VERTEX
  5
D1C
  8
LAYER01
  6
CONTINUOUS
 62
     7
 10
3371.0486799999999
 20
-204.091508
 30
0.0
  0
VERTEX
  5
D1D
  8
LAYER01
  6
CONTINUOUS
 62
     7
 10
3371.0486799999999
 20
-204.091508
 30
0.0
  0
SEQEND
  5
D1E
  8
LAYER01
  6
CONTINUOUS
 62
     7
  0
POLYLINE
  5
3CB
  8
LAYER01
  6
CONTINUOUS
 62
     7
 66
     1
 10
0.0
 20
0.0
 30
0.0
 70
     1
  0
VERTEX
  5
D1F
  8
LAYER01
  6
CONTINUOUS
 62
     7
 10
3368.1582369999992
 20
-192.52973499999999
 30
0.0
  0
VERTEX
  5
D20
  8
LAYER01
  6
CONTINUOUS
 62
     7
 10
3368.1582369999992
 20
-192.52973499999999
 30
0.0
  0
VERTEX
  5
D21
  8
LAYER01
  6
CONTINUOUS
 62
     7
 10
3372.9756430000002
 20
-193.49321599999999
 30
0.0
  0
VERTEX
  5
D22
  8
LAYER01
  6
CONTINUOUS
 62
     7
 10
3374.9026050000002
 20
-194.45669699999999
 30
0.0
  0
VERTEX
  5
D23
  8
LAYER01
  6
CONTINUOUS
 62
     7
 10
3374.9026050000002
 20
-196.38365899999999
 30
0.0
  0
VERTEX
  5
D24
  8
LAYER01
  6
CONTINUOUS
 62
     7
 10
3374.9026050000002
 20
-196.38365899999999
 30
0.0
  0
VERTEX
  5
D25
  8
LAYER01
  6
CONTINUOUS
 62
     7
 10
3373.939124
 20
-198.310622
 30
0.0
  0
VERTEX
  5
D26
  8
LAYER01
  6
CONTINUOUS
 62
     7
 10
3372.0121610000001
 20
-199.274103
 30
0.0
  0
VERTEX
  5
D27
  8
LAYER01
  6
CONTINUOUS
 62
     7
 10
3366.2312750000001
 20
-200.237584
 30
0.0
  0
VERTEX
  5
D28
  8
LAYER01
  6
CONTINUOUS
 62
     7
 10
3361.4138700000012
 20
-200.237584
 30
0.0
  0
VERTEX
  5
D29
  8
LAYER01
  6
CONTINUOUS
 62
     7
 10
3361.4138700000012
 20
-192.52973499999999
 30
0.0
  0
VERTEX
  5
D2A
  8
LAYER01
  6
CONTINUOUS
 62
     7
 10
3368.1582369999992
 20
-192.52973499999999
 30
0.0
  0
VERTEX
  5
D2B
  8
LAYER01
  6
CONTINUOUS
 62
     7
 10
3368.1582369999992
 20
-192.52973499999999
 30
0.0
  0
SEQEND
  5
D2C
  8
LAYER01
  6
CONTINUOUS
 62
     7
  0
ENDBLK
  5
3DA
  8
0
  0
BLOCK
  8
0
  2
VT35608-G12
 70
     0
 10
0.0
 20
0.0
 30
0.0
  3
VT35608-G12
  1

  0
TEXT
  5
3DD
  8
LAYER01
  6
VERDECKT
 62
     1
 10
2376.7908929999999
 20
-683.31338899999992
 30
0.0
 40
10.0
  1
A. Sprenger GmbH
  7
SIMPLEX
  0
TEXT
  5
3DE
  8
LAYER01
  6
VERDECKT
 62
     1
 10
2376.7908929999999
 20
-700.45624699999985
 30
0.0
 40
10.0
  1
Berner Str. 10
  7
SIMPLEX
  0
TEXT
  5
3DF
  8
LAYER01
  6
VERDECKT
 62
     1
 10
2376.7908929999999
 20
-717.59910400000001
 30
0.0
 40
10.0
  1
60437 Frankfurt
  7
SIMPLEX
  0
TEXT
  5
3E0
  8
LAYER01
  6
VERDECKT
 62
     1
 10
2376.7908929999999
 20
-734.74196100000006
 30
0.0
 40
10.0
  1
Tel.: 069 - 507 27 41
  7
SIMPLEX
  0
TEXT
  5
3E1
  8
LAYER01
  6
VERDECKT
 62
     1
 10
2376.7908929999999
 20
-751.88481799999988
 30
0.0
 40
10.0
  1
Fax: 069 - 507 72 91
  7
SIMPLEX
  0
TEXT
  5
3E2
  8
LAYER01
  6
VERDECKT
 62
     1
 10
2376.7908929999999
 20
-769.02767500000004
 30
0.0
 40
10.0
  1
info@varicor.org
  7
SIMPLEX
  0
ENDBLK
  5
3E3
  8
0
  0
BLOCK
  8
0
  2
VT35608-G11
 70
     0
 10
0.0
 20
0.0
 30
0.0
  3
VT35608-G11
  1

  0
TEXT
  5
3E6
  8
LAYER01
  6
CONTINUOUS
 62
     1
 10
3427.609347999999
 20
-918.39357699999994
 30
0.0
 40
10.0
  1
Blatt
  7
SIMPLEX
  0
LINE
  5
3E7
  8
LAYER01
  6
CONTINUOUS
 62
     1
 10
2362.609348
 20
-848.39357699999982
 30
0.0
 11
2962.609348
 21
-848.39357699999982
 31
0.0
  0
LINE
  5
3E8
  8
LAYER01
  6
CONTINUOUS
 62
     1
 10
2362.609348
 20
-873.39357700000005
 30
0.0
 11
2962.609348
 21
-873.39357700000005
 31
0.0
  0
LINE
  5
3E9
  8
LAYER01
  6
CONTINUOUS
 62
     1
 10
2362.609348
 20
-898.39357700000005
 30
0.0
 11
3492.609348
 21
-898.39357700000005
 31
0.0
  0
LINE
  5
3EA
  8
LAYER01
  6
CONTINUOUS
 62
     1
 10
2362.609348
 20
-973.39357700000005
 30
0.0
 11
3492.609348
 21
-973.39357700000005
 31
0.0
  0
LINE
  5
3EB
  8
LAYER01
  6
CONTINUOUS
 62
     1
 10
2362.609348
 20
-773.39357699999994
 30
0.0
 11
3492.609348
 21
-773.39357699999994
 31
0.0
  0
POLYLINE
  5
3EC
  8
LAYER01
  6
CONTINUOUS
 62
     1
 66
     1
 10
0.0
 20
0.0
 30
0.0
 70
     1
  0
VERTEX
  5
D2D
  8
LAYER01
  6
CONTINUOUS
 62
     1
 10
2362.609348
 20
-1003.3935770000001
 30
0.0
  0
VERTEX
  5
D2E
  8
LAYER01
  6
CONTINUOUS
 62
     1
 10
2362.609348
 20
-668.39357699999994
 30
0.0
  0
VERTEX
  5
D2F
  8
LAYER01
  6
CONTINUOUS
 62
     1
 10
3492.609348
 20
-668.39357699999994
 30
0.0
  0
VERTEX
  5
D30
  8
LAYER01
  6
CONTINUOUS
 62
     1
 10
3492.609348
 20
-1003.3935770000001
 30
0.0
  0
SEQEND
  5
D31
  8
LAYER01
  6
CONTINUOUS
 62
     1
  0
LINE
  5
3F2
  8
LAYER01
  6
CONTINUOUS
 62
     1
 10
2362.609348
 20
-798.39357699999994
 30
0.0
 11
2962.609348
 21
-798.39357699999994
 31
0.0
  0
LINE
  5
3F3
  8
LAYER01
  6
CONTINUOUS
 62
     1
 10
2362.609348
 20
-823.39357699999982
 30
0.0
 11
2962.609348
 21
-823.39357699999982
 31
0.0
  0
LINE
  5
3F4
  8
LAYER01
  6
CONTINUOUS
 62
     1
 10
2687.609348
 20
-668.39357699999994
 30
0.0
 11
2687.609348
 21
-1003.3935770000001
 31
0.0
  0
INSERT
  5
3F5
  8
LAYER01
  2
VT35608-G12
 10
0.0
 20
0.0
 30
0.0
  0
LINE
  5
3F6
  8
LAYER01
  6
CONTINUOUS
 62
     1
 10
2362.609348
 20
-948.39357700000005
 30
0.0
 11
2687.609348
 21
-948.39357700000005
 31
0.0
  0
LINE
  5
3F7
  8
LAYER01
  6
CONTINUOUS
 62
     1
 10
2362.609348
 20
-923.39357700000005
 30
0.0
 11
2687.609348
 21
-923.39357700000005
 31
0.0
  0
LINE
  5
3F8
  8
LAYER01
  6
CONTINUOUS
 62
     1
 10
2407.609348
 20
-773.39357699999994
 30
0.0
 11
2407.609348
 21
-1003.3935770000001
 31
0.0
  0
TEXT
  5
3F9
  8
LAYER01
  6
CONTINUOUS
 62
     1
 10
2371.008613
 20
-993.39357699999994
 30
0.0
 40
9.5
  1
Zust
  7
SIMPLEX
  0
LINE
  5
3FA
  8
LAYER01
  6
CONTINUOUS
 62
     1
 10
2565.393963
 20
-1003.3935770000001
 30
0.0
 11
2565.393963
 21
-773.39357699999994
 31
0.0
  0
LINE
  5
3FB
  8
LAYER01
  6
CONTINUOUS
 62
     1
 10
2642.609348
 20
-773.39357699999994
 30
0.0
 11
2642.609348
 21
-1003.3935770000001
 31
0.0
  0
TEXT
  5
3FC
  8
LAYER01
  6
CONTINUOUS
 62
     1
 10
2451.7378899999999
 20
-993.39357699999994
 30
0.0
 40
9.5
  1
Änderung
  7
SIMPLEX
  0
TEXT
  5
3FD
  8
LAYER01
  6
CONTINUOUS
 62
     1
 10
2579.4634919999999
 20
-993.39357699999994
 30
0.0
 40
9.5
  1
Datum
  7
SIMPLEX
  0
TEXT
  5
3FE
  8
LAYER01
  6
CONTINUOUS
 62
     1
 10
2646.373251
 20
-993.39357699999994
 30
0.0
 40
9.5
  1
Name
  7
SIMPLEX
  0
LINE
  5
3FF
  8
LAYER01
  6
CONTINUOUS
 62
     1
 10
3492.609348
 20
-708.39357699999994
 30
0.0
 11
2962.609348
 21
-708.39357699999994
 31
0.0
  0
LINE
  5
400
  8
LAYER01
  6
CONTINUOUS
 62
     1
 10
2752.609348
 20
-873.39357700000005
 30
0.0
 11
2752.609348
 21
-773.39357699999994
 31
0.0
  0
TEXT
  5
401
  8
LAYER01
  6
CONTINUOUS
 62
     1
 10
2697.609348
 20
-818.39357699999994
 30
0.0
 40
10.0
  1
Bearb.
  7
SIMPLEX
  0
TEXT
  5
402
  8
LAYER01
  6
CONTINUOUS
 62
     1
 10
2697.609348
 20
-868.39357699999994
 30
0.0
 40
10.0
  1
Norm
  7
SIMPLEX
  0
TEXT
  5
403
  8
LAYER01
  6
CONTINUOUS
 62
     1
 10
2697.609348
 20
-843.39357699999994
 30
0.0
 40
10.0
  1
Gepr.
  7
SIMPLEX
  0
TEXT
  5
404
  8
LAYER01
  6
CONTINUOUS
 62
     1
 10
2777.609348
 20
-793.39357699999994
 30
0.0
 40
10.0
  1
Datum
  7
SIMPLEX
  0
TEXT
  5
405
  8
LAYER01
  6
CONTINUOUS
 62
     1
 10
2877.609348
 20
-793.39357699999994
 30
0.0
 40
10.0
  1
Name
  7
SIMPLEX
  0
TEXT
  5
406
  8
LAYER01
  6
CONTINUOUS
 62
     1
 10
3467.609348
 20
-968.39357699999994
 30
0.0
 40
10.0
  1
Bl.
  7
SIMPLEX
  0
LINE
  5
407
  8
LAYER01
  6
CONTINUOUS
 62
     1
 10
2962.609348
 20
-1003.3935770000001
 30
0.0
 11
2962.609348
 21
-668.39357699999994
 31
0.0
  0
LINE
  5
408
  8
LAYER01
  6
CONTINUOUS
 62
     1
 10
2847.609348
 20
-898.39357700000005
 30
0.0
 11
2847.609348
 21
-668.39357699999994
 31
0.0
  0
LINE
  5
409
  8
LAYER01
  6
CONTINUOUS
 62
     1
 10
3277.609348
 20
-668.39357699999994
 30
0.0
 11
3277.609348
 21
-708.39357699999994
 31
0.0
  0
TEXT
  5
40A
  8
LAYER01
  6
CONTINUOUS
 62
     1
 10
2973.5033469999998
 20
-693.92357900000002
 30
0.0
 40
10.0
  1
Maßstab
  7
SIMPLEX
  0
LINE
  5
40B
  8
LAYER01
  6
CONTINUOUS
 62
     1
 10
3417.609348
 20
-898.39357700000005
 30
0.0
 11
3417.609348
 21
-973.39357700000005
 31
0.0
  0
LINE
  5
40C
  8
LAYER01
  6
CONTINUOUS
 62
     1
 10
3417.609348
 20
-948.39357700000005
 30
0.0
 11
3492.609348
 21
-948.39357700000005
 31
0.0
  0
ENDBLK
  5
40D
  8
0
  0
BLOCK
  8
0
  2
VT35608-G13
 70
     0
 10
0.0
 20
0.0
 30
0.0
  3
VT35608-G13
  1

  0
LINE
  5
410
  8
LAYER01
  6
CONTINUOUS
 62
     7
 10
2181.0478600000001
 20
483.34852499999988
 30
0.0
 11
2189.1009749999998
 21
491.40163999999999
 31
0.0
  0
LINE
  5
411
  8
LAYER01
  6
CONTINUOUS
 62
     7
 10
2187.9060979999999
 20
467.75612199999989
 30
0.0
 11
2219.3527210000002
 21
499.20274499999999
 31
0.0
  0
LINE
  5
412
  8
LAYER01
  6
CONTINUOUS
 62
     7
 10
2210.356738
 20
467.75612199999989
 30
0.0
 11
2249.6044659999998
 21
507.00384999999989
 31
0.0
  0
LINE
  5
413
  8
LAYER01
  6
CONTINUOUS
 62
     7
 10
2216.807378
 20
451.75612199999989
 30
0.0
 11
2230.683747
 21
465.63249100000002
 31
0.0
  0
LINE
  5
414
  8
LAYER01
  6
CONTINUOUS
 62
     7
 10
2263.1574959999998
 20
498.1062399999999
 30
0.0
 11
2279.8562109999998
 21
514.80495599999995
 31
0.0
  0
LINE
  5
415
  8
LAYER01
  6
CONTINUOUS
 62
     7
 10
2293.4092420000002
 20
505.90734500000002
 30
0.0
 11
2310.1079570000002
 21
522.60606100000007
 31
0.0
  0
LINE
  5
416
  8
LAYER01
  6
CONTINUOUS
 62
     7
 10
2323.6609870000002
 20
513.70844999999986
 30
0.0
 11
2340.3597020000002
 21
530.40716599999985
 31
0.0
  0
LINE
  5
417
  8
LAYER01
  6
CONTINUOUS
 62
     7
 10
2353.9127319999998
 20
521.50955599999986
 30
0.0
 11
2370.6114480000001
 21
538.20827099999985
 31
0.0
  0
LINE
  5
418
  8
LAYER01
  6
CONTINUOUS
 62
     7
 10
2384.1644780000001
 20
529.31066099999987
 30
0.0
 11
2400.863193000001
 21
546.00937599999986
 31
0.0
  0
LINE
  5
419
  8
LAYER01
  6
CONTINUOUS
 62
     7
 10
2414.4162230000002
 20
537.11176599999999
 30
0.0
 11
2431.114939
 21
553.81048099999998
 31
0.0
  0
LINE
  5
41A
  8
LAYER01
  6
CONTINUOUS
 62
     7
 10
2444.6679690000001
 20
544.912871
 30
0.0
 11
2461.3666840000001
 21
561.61158599999987
 31
0.0
  0
LINE
  5
41B
  8
LAYER01
  6
CONTINUOUS
 62
     7
 10
2474.9197140000001
 20
552.71397599999989
 30
0.0
 11
2491.61843
 21
569.41269199999999
 31
0.0
  0
LINE
  5
41C
  8
LAYER01
  6
CONTINUOUS
 62
     7
 10
2504.0532549999998
 20
559.3968769999999
 30
0.0
 11
2516.0532549999998
 21
571.3968769999999
 31
0.0
  0
ENDBLK
  5
41D
  8
0
  0
BLOCK
  8
0
  2
*D13
 70
     1
 10
0.0
 20
0.0
 30
0.0
  3
*D13
  1

  0
LINE
  5
420
  8
LAYER01
 62
     7
 10
2499.3128630000001
 20
661.76264100000003
 30
0.0
 11
2154.3128630000001
 21
661.76264100000003
 31
0.0
  0
LINE
  5
421
  8
LAYER01
 62
     7
 10
2499.3128630000001
 20
603.50422500000002
 30
0.0
 11
2499.3128630000001
 21
691.76264100000003
 31
0.0
  0
LINE
  5
422
  8
LAYER01
 62
     7
 10
2154.3128630000001
 20
603.50422500000002
 30
0.0
 11
2154.3128630000001
 21
691.76264100000003
 31
0.0
  0
SOLID
  5
423
  8
LAYER01
 62
     7
 10
2443.3128630000001
 20
671.09560099999999
 30
0.0
 11
2499.3128630000001
 21
661.76264100000003
 31
0.0
 12
2443.3128630000001
 22
652.42968099999996
 32
0.0
 13
2443.3128630000001
 23
652.42968099999996
 33
0.0
  0
SOLID
  5
424
  8
LAYER01
 62
     7
 10
2210.3128630000001
 20
671.09560099999999
 30
0.0
 11
2154.3128630000001
 21
661.76264100000003
 31
0.0
 12
2210.3128630000001
 22
652.42968099999996
 32
0.0
 13
2210.3128630000001
 23
652.42968099999996
 33
0.0
  0
TEXT
  5
425
  8
LAYER01
  6
CONTINUOUS
 62
     7
 10
2258.1501659999999
 20
696.76264100000003
 30
0.0
 40
70.0
  1
345
  0
POINT
  5
426
  8
LAYER01
 62
     7
 10
2499.3128630000001
 20
579.50422500000002
 30
0.0
  0
POINT
  5
427
  8
LAYER01
 62
     7
 10
2154.3128630000001
 20
579.50422500000002
 30
0.0
  0
POINT
  5
428
  8
LAYER01
 62
     7
 10
2154.3128630000001
 20
661.76264100000003
 30
0.0
  0
ENDBLK
  5
429
  8
0
  0
BLOCK
  8
0
  2
*D14
 70
     1
 10
0.0
 20
0.0
 30
0.0
  3
*D14
  1

  0
LINE
  5
42C
  8
LAYER01
 62
     7
 10
2524.3128670000001
 20
781.92235999999991
 30
0.0
 11
2129.3128569999999
 21
781.92235999999991
 31
0.0
  0
LINE
  5
42D
  8
LAYER01
 62
     7
 10
2524.3128670000001
 20
603.50422500000002
 30
0.0
 11
2524.3128670000001
 21
811.92235999999991
 31
0.0
  0
LINE
  5
42E
  8
LAYER01
 62
     7
 10
2129.3128569999999
 20
603.50422500000002
 30
0.0
 11
2129.3128569999999
 21
811.92235999999991
 31
0.0
  0
SOLID
  5
42F
  8
LAYER01
 62
     7
 10
2468.3128670000001
 20
791.25531999999987
 30
0.0
 11
2524.3128670000001
 21
781.92235999999991
 31
0.0
 12
2468.3128670000001
 22
772.58939999999996
 32
0.0
 13
2468.3128670000001
 23
772.58939999999996
 33
0.0
  0
SOLID
  5
430
  8
LAYER01
 62
     7
 10
2185.3128569999999
 20
791.25531999999987
 30
0.0
 11
2129.3128569999999
 21
781.92235999999991
 31
0.0
 12
2185.3128569999999
 22
772.58939999999996
 32
0.0
 13
2185.3128569999999
 23
772.58939999999996
 33
0.0
  0
TEXT
  5
431
  8
LAYER01
  6
CONTINUOUS
 62
     7
 10
2258.1501659999999
 20
816.9223599999998
 30
0.0
 40
70.0
  1
395
  0
POINT
  5
432
  8
LAYER01
 62
     7
 10
2524.3128670000001
 20
579.50422500000002
 30
0.0
  0
POINT
  5
433
  8
LAYER01
 62
     7
 10
2129.3128569999999
 20
579.50422500000002
 30
0.0
  0
POINT
  5
434
  8
LAYER01
 62
     7
 10
2129.3128569999999
 20
781.92235999999991
 30
0.0
  0
ENDBLK
  5
435
  8
0
  0
BLOCK
  8
0
  2
*D15
 70
     1
 10
0.0
 20
0.0
 30
0.0
  3
*D15
  1

  0
LINE
  5
438
  8
LAYER01
 62
     7
 10
1929.1710849999999
 20
571.3968769999999
 30
0.0
 11
1929.1710849999999
 21
464.3968769999999
 31
0.0
  0
LINE
  5
439
  8
LAYER01
 62
     7
 10
2105.3128569999999
 20
571.3968769999999
 30
0.0
 11
1899.1710849999999
 21
571.3968769999999
 31
0.0
  0
LINE
  5
43A
  8
LAYER01
 62
     7
 10
2105.3128569999999
 20
464.3968769999999
 30
0.0
 11
1899.1710849999999
 21
464.3968769999999
 31
0.0
  0
SOLID
  5
43B
  8
LAYER01
 62
     7
 10
1921.171405
 20
523.39687699999979
 30
0.0
 11
1929.1710849999999
 21
571.3968769999999
 31
0.0
 12
1937.1707650000001
 22
523.39687699999979
 32
0.0
 13
1937.1707650000001
 23
523.39687699999979
 33
0.0
  0
SOLID
  5
43C
  8
LAYER01
 62
     7
 10
1921.171405
 20
512.3968769999999
 30
0.0
 11
1929.1710849999999
 21
464.3968769999999
 31
0.0
 12
1937.1707650000001
 22
512.3968769999999
 32
0.0
 13
1937.1707650000001
 23
512.3968769999999
 33
0.0
  0
TEXT
  5
43D
  8
LAYER01
  6
CONTINUOUS
 62
     7
 10
1899.1710849999999
 20
472.65557899999988
 30
0.0
 40
60.0
  1
107
 50
90.0
  0
POINT
  5
43E
  8
LAYER01
 62
     7
 10
2129.3128569999999
 20
571.3968769999999
 30
0.0
  0
POINT
  5
43F
  8
LAYER01
 62
     7
 10
2129.3128569999999
 20
464.3968769999999
 30
0.0
  0
POINT
  5
440
  8
LAYER01
 62
     7
 10
1929.1710849999999
 20
464.3968769999999
 30
0.0
  0
ENDBLK
  5
441
  8
0
  0
BLOCK
  8
0
  2
*D16
 70
     1
 10
0.0
 20
0.0
 30
0.0
  3
*D16
  1

  0
LINE
  5
444
  8
LAYER01
 62
     7
 10
2031.4237740000001
 20
571.3968769999999
 30
0.0
 11
2031.4237740000001
 21
667.3968769999999
 31
0.0
  0
LINE
  5
445
  8
LAYER01
 62
     7
 10
2031.4237740000001
 20
491.3968769999999
 30
0.0
 11
2031.4237740000001
 21
395.39687700000002
 31
0.0
  0
LINE
  5
446
  8
LAYER01
 62
     7
 10
2105.3128569999999
 20
571.3968769999999
 30
0.0
 11
2001.4237740000001
 21
571.3968769999999
 31
0.0
  0
LINE
  5
447
  8
LAYER01
 62
     7
 10
2105.3128569999999
 20
491.3968769999999
 30
0.0
 11
2001.4237740000001
 21
491.3968769999999
 31
0.0
  0
SOLID
  5
448
  8
LAYER01
 62
     7
 10
2023.4240940000011
 20
619.39687699999979
 30
0.0
 11
2031.4237740000001
 21
571.3968769999999
 31
0.0
 12
2039.423454
 22
619.39687699999979
 32
0.0
 13
2039.423454
 23
619.39687699999979
 33
0.0
  0
SOLID
  5
449
  8
LAYER01
 62
     7
 10
2023.4240940000011
 20
443.3968769999999
 30
0.0
 11
2031.4237740000001
 21
491.3968769999999
 31
0.0
 12
2039.423454
 22
443.3968769999999
 32
0.0
 13
2039.423454
 23
443.3968769999999
 33
0.0
  0
TEXT
  5
44A
  8
LAYER01
  6
CONTINUOUS
 62
     7
 10
2001.4237740000001
 20
500.98343799999998
 30
0.0
 40
60.0
  1
80
 50
90.0
  0
POINT
  5
44B
  8
LAYER01
 62
     7
 10
2129.3128569999999
 20
571.3968769999999
 30
0.0
  0
POINT
  5
44C
  8
LAYER01
 62
     7
 10
2129.3128569999999
 20
491.3968769999999
 30
0.0
  0
POINT
  5
44D
  8
LAYER01
 62
     7
 10
2031.4237740000001
 20
491.3968769999999
 30
0.0
  0
ENDBLK
  5
44E
  8
0
  0
BLOCK
  8
0
  2
*D17
 70
     1
 10
0.0
 20
0.0
 30
0.0
  3
*D17
  1

  0
LINE
  5
451
  8
LAYER01
 62
     7
 10
1794.5506379999999
 20
571.3968769999999
 30
0.0
 11
1794.5506379999999
 21
451.3968769999999
 31
0.0
  0
LINE
  5
452
  8
LAYER01
 62
     7
 10
2105.3128569999999
 20
571.3968769999999
 30
0.0
 11
1764.5506379999999
 21
571.3968769999999
 31
0.0
  0
LINE
  5
453
  8
LAYER01
 62
     7
 10
2105.3128569999999
 20
451.3968769999999
 30
0.0
 11
1764.5506379999999
 21
451.3968769999999
 31
0.0
  0
SOLID
  5
454
  8
LAYER01
 62
     7
 10
1786.550958
 20
523.39687699999979
 30
0.0
 11
1794.5506379999999
 21
571.3968769999999
 31
0.0
 12
1802.5503180000001
 22
523.39687699999979
 32
0.0
 13
1802.5503180000001
 23
523.39687699999979
 33
0.0
  0
SOLID
  5
455
  8
LAYER01
 62
     7
 10
1786.550958
 20
499.3968769999999
 30
0.0
 11
1794.5506379999999
 21
451.3968769999999
 31
0.0
 12
1802.5503180000001
 22
499.3968769999999
 32
0.0
 13
1802.5503180000001
 23
499.3968769999999
 33
0.0
  0
TEXT
  5
456
  8
LAYER01
  6
CONTINUOUS
 62
     7
 10
1764.5506379999999
 20
466.15557899999999
 30
0.0
 40
60.0
  1
120
 50
90.0
  0
POINT
  5
457
  8
LAYER01
 62
     7
 10
2129.3128569999999
 20
571.3968769999999
 30
0.0
  0
POINT
  5
458
  8
LAYER01
 62
     7
 10
2129.3128569999999
 20
451.3968769999999
 30
0.0
  0
POINT
  5
459
  8
LAYER01
 62
     7
 10
1794.5506379999999
 20
451.3968769999999
 30
0.0
  0
ENDBLK
  5
45A
  8
0
  0
BLOCK
  8
0
  2
VT35608-G19
 70
     0
 10
0.0
 20
0.0
 30
0.0
  3
VT35608-G19
  1

  0
LINE
  5
45D
  8
LAYER01
  6
CONTINUOUS
 62
     7
 10
2129.3128620000002
 20
566.31736899999987
 30
0.0
 11
2134.39237
 21
571.3968769999999
 31
0.0
  0
LINE
  5
45E
  8
LAYER01
  6
CONTINUOUS
 62
     7
 10
2142.7762160000011
 20
557.33008199999995
 30
0.0
 11
2154.5164129999998
 21
569.07027900000003
 31
0.0
  0
LINE
  5
45F
  8
LAYER01
  6
CONTINUOUS
 62
     7
 10
2145.2458230000002
 20
537.34904900000004
 30
0.0
 11
2156.3225710000002
 21
548.42579699999987
 31
0.0
  0
LINE
  5
460
  8
LAYER01
  6
CONTINUOUS
 62
     7
 10
2147.0519810000001
 20
516.704567
 30
0.0
 11
2158.128729
 21
527.78131499999995
 31
0.0
  0
LINE
  5
461
  8
LAYER01
  6
CONTINUOUS
 62
     7
 10
2148.8581389999999
 20
496.0600849999999
 30
0.0
 11
2159.9348869999999
 21
507.13683300000002
 31
0.0
  0
LINE
  5
462
  8
LAYER01
  6
CONTINUOUS
 62
     7
 10
2150.6642969999998
 20
475.41560299999998
 30
0.0
 11
2161.7410460000001
 21
486.49235099999993
 31
0.0
  0
LINE
  5
463
  8
LAYER01
  6
CONTINUOUS
 62
     7
 10
2152.6689430000001
 20
454.96960799999999
 30
0.0
 11
2163.9904569999999
 21
466.29112199999992
 31
0.0
  0
ENDBLK
  5
464
  8
0
  0
ENDSEC
  0
SECTION
  2
ENTITIES
  0
POLYLINE
  5
465
  8
LAYER01
  6
CONTINUOUS
 62
     7
 66
     1
 10
0.0
 20
0.0
 30
0.0
 70
     1
  0
VERTEX
  5
D32
  8
LAYER01
  6
CONTINUOUS
 62
     7
 10
-499.56538799999993
 20
-1003.3935770000001
 30
0.0
  0
VERTEX
  5
D33
  8
LAYER01
  6
CONTINUOUS
 62
     7
 10
-499.56538799999993
 20
1782.752127
 30
0.0
  0
VERTEX
  5
D34
  8
LAYER01
  6
CONTINUOUS
 62
     7
 10
3492.609348
 20
1782.752127
 30
0.0
  0
VERTEX
  5
D35
  8
LAYER01
  6
CONTINUOUS
 62
     7
 10
3492.609348
 20
-1003.3935770000001
 30
0.0
  0
SEQEND
  5
D36
  8
LAYER01
  6
CONTINUOUS
 62
     7
  0
ARC
  5
46B
  8
LAYER01
  6
CONTINUOUS
 62
     7
 10
771.61539500000003
 20
366.39686899999998
 30
0.0
 40
15.0
 50
180.0
 51
270.0
  0
ARC
  5
46C
  8
LAYER01
  6
CONTINUOUS
 62
     7
 10
1391.615395
 20
366.39686899999998
 30
0.0
 40
15.0
 50
270.0
 51
0.0
  0
DIMENSION
  5
46D
  8
LAYER01
 62
     7
  2
*D0
 10
483.98705599999988
 20
351.396863
 30
0.0
 11
423.98705599999988
 21
549.951144
 31
0.0
 53
90.0
 13
745.63120100000003
 23
746.39687400000003
 33
0.0
 14
745.63120100000003
 24
351.396863
 34
0.0
 50
90.0
  0
TEXT
  5
46E
  8
LAYER01
  6
CONTINUOUS
 62
     7
 10
185.68185600000001
 20
-458.1554559999999
 30
0.0
 40
35.0
  1
Unterbauwaschtisch VT-35-60-8
  7
SIMPLEX
  0
LINE
  5
46F
  8
LAYER01
  6
CONTINUOUS
 62
     7
 10
771.61539299999993
 20
351.396863
 30
0.0
 11
1391.6153979999999
 21
351.396863
 31
0.0
  0
LINE
  5
470
  8
LAYER01
  6
CONTINUOUS
 62
     7
 10
794.82548099999985
 20
-45.131366
 30
0.0
 11
1061.969805
 21
-52.112659000000001
 31
0.0
  0
LINE
  5
471
  8
LAYER01
  6
CONTINUOUS
 62
     7
 10
1016.615398
 20
-64.655625999999998
 30
0.0
 11
783.77131299999996
 21
-56.878292000000002
 31
0.0
  0
LINE
  5
472
  8
LAYER01
  6
CONTINUOUS
 62
     7
 10
1376.6344260000001
 20
54.985126999999999
 30
0.0
 11
786.59636499999999
 21
54.985126999999999
 31
0.0
  0
INSERT
  5
473
  8
LAYER01
  2
VT35608-G2
 10
0.0
 20
0.0
 30
0.0
  0
INSERT
  5
474
  8
LAYER01
  2
VT35608-G3
 10
0.0
 20
0.0
 30
0.0
  0
DIMENSION
  5
475
  8
LAYER01
 62
     7
  2
*D3
 10
781.61538299999995
 20
152.514309
 30
0.0
 11
1068.41074
 21
212.514309
 31
0.0
 13
1381.615407
 23
70.851590999999999
 33
0.0
 14
781.61538299999995
 24
70.851590999999999
 34
0.0
  0
LINE
  5
476
  8
LAYER01
  6
CONTINUOUS
 62
     7
 10
778.95725500000003
 20
-52.316861000000003
 30
0.0
 11
771.01874999999995
 21
38.420904999999998
 31
0.0
  0
LINE
  5
477
  8
LAYER01
  6
CONTINUOUS
 62
     7
 10
789.86657300000002
 20
-39.326408000000001
 30
0.0
 11
781.61538299999995
 21
54.985126999999999
 31
0.0
  0
ARC
  5
478
  8
LAYER01
  6
CONTINUOUS
 62
     7
 10
794.95628799999997
 20
-40.133404999999989
 30
0.0
 40
4.9996720000000003
 50
185.03016400000001
 51
268.5007930000001
  0
ARC
  5
479
  8
LAYER01
  6
CONTINUOUS
 62
     7
 10
783.93823799999996
 20
-51.881081000000002
 30
0.0
 40
5.0
 50
185.0
 51
268.08694800000001
  0
LINE
  5
47A
  8
LAYER01
  6
CONTINUOUS
 62
     7
 10
789.86658599999998
 20
-39.326410000000003
 30
0.0
 11
789.97587099999998
 21
-40.571778000000002
 31
0.0
  0
ARC
  5
47B
  8
LAYER01
  6
CONTINUOUS
 62
     7
 10
766.03776500000004
 20
37.985126999999999
 30
0.0
 40
5.0
 50
5.0
 51
90.0
  0
LINE
  5
47C
  8
LAYER01
  6
CONTINUOUS
 62
     7
 10
756.615407
 20
42.985126999999991
 30
0.0
 11
766.03776900000003
 21
42.985126999999991
 31
0.0
  0
LINE
  5
47D
  8
LAYER01
  6
CONTINUOUS
 62
     7
 10
756.615407
 20
42.985126999999991
 30
0.0
 11
756.615407
 21
54.985126999999999
 31
0.0
  0
LINE
  5
47E
  8
LAYER01
  6
CONTINUOUS
 62
     7
 10
756.615407
 20
54.985126999999999
 30
0.0
 11
781.61538299999995
 21
54.985126999999999
 31
0.0
  0
LINE
  5
47F
  8
LAYER01
  6
CONTINUOUS
 62
     7
 10
781.61538299999995
 20
54.985126999999999
 30
0.0
 11
786.59636499999999
 21
54.985126999999999
 31
0.0
  0
LINE
  5
480
  8
LAYER01
  6
CONTINUOUS
 62
     7
 10
1384.2735359999999
 20
-52.316861000000003
 30
0.0
 11
1392.2120399999999
 21
38.420904999999998
 31
0.0
  0
INSERT
  5
481
  8
LAYER01
  2
VT35608-G5
 10
0.0
 20
0.0
 30
0.0
  0
LINE
  5
482
  8
LAYER01
  6
CONTINUOUS
 62
     7
 10
1373.3642170000001
 20
-39.326408000000001
 30
0.0
 11
1381.615407
 21
54.985126999999999
 31
0.0
  0
ARC
  5
483
  8
LAYER01
  6
CONTINUOUS
 62
     7
 10
1368.2745030000001
 20
-40.133404999999989
 30
0.0
 40
4.9996720000000003
 50
271.49920700000001
 51
354.96983599999999
  0
LINE
  5
484
  8
LAYER01
  6
CONTINUOUS
 62
     7
 10
1101.260986
 20
-52.112659000000001
 30
0.0
 11
1368.4053100000001
 21
-45.131366
 31
0.0
  0
LINE
  5
485
  8
LAYER01
  6
CONTINUOUS
 62
     7
 10
1379.4594770000001
 20
-56.878292000000002
 30
0.0
 11
1146.615393
 21
-64.655625999999998
 31
0.0
  0
LINE
  5
486
  8
LAYER01
  6
CONTINUOUS
 62
     7
 10
1061.969805
 20
-64.655625999999998
 30
0.0
 11
1061.969805
 21
-52.112662999999998
 31
0.0
  0
LINE
  5
487
  8
LAYER01
  6
CONTINUOUS
 62
     7
 10
1061.969805
 20
-64.655625999999998
 30
0.0
 11
1016.615398
 21
-64.655625999999998
 31
0.0
  0
POLYLINE
  5
488
  8
LAYER01
  6
CONTINUOUS
 62
     7
 66
     1
 10
0.0
 20
0.0
 30
0.0
  0
VERTEX
  5
D37
  8
LAYER01
  6
CONTINUOUS
 62
     7
 10
1101.0244499999999
 20
-52.133308
 30
0.0
  0
VERTEX
  5
D38
  8
LAYER01
  6
CONTINUOUS
 62
     7
 10
1101.0345090000001
 20
-52.133020000000002
 30
0.0
  0
VERTEX
  5
D39
  8
LAYER01
  6
CONTINUOUS
 62
     7
 10
1101.0445500000001
 20
-52.132682000000003
 30
0.0
  0
VERTEX
  5
D3A
  8
LAYER01
  6
CONTINUOUS
 62
     7
 10
1101.054574
 20
-52.132294000000002
 30
0.0
  0
VERTEX
  5
D3B
  8
LAYER01
  6
CONTINUOUS
 62
     7
 10
1101.064578999999
 20
-52.131856999999997
 30
0.0
  0
VERTEX
  5
D3C
  8
LAYER01
  6
CONTINUOUS
 62
     7
 10
1101.0745669999999
 20
-52.131369999999997
 30
0.0
  0
VERTEX
  5
D3D
  8
LAYER01
  6
CONTINUOUS
 62
     7
 10
1101.084537
 20
-52.130834
 30
0.0
  0
VERTEX
  5
D3E
  8
LAYER01
  6
CONTINUOUS
 62
     7
 10
1101.09449
 20
-52.130247999999987
 30
0.0
  0
VERTEX
  5
D3F
  8
LAYER01
  6
CONTINUOUS
 62
     7
 10
1101.1044240000001
 20
-52.129612000000002
 30
0.0
  0
VERTEX
  5
D40
  8
LAYER01
  6
CONTINUOUS
 62
     7
 10
1101.1143420000001
 20
-52.128925999999993
 30
0.0
  0
VERTEX
  5
D41
  8
LAYER01
  6
CONTINUOUS
 62
     7
 10
1101.124241
 20
-52.128190999999987
 30
0.0
  0
VERTEX
  5
D42
  8
LAYER01
  6
CONTINUOUS
 62
     7
 10
1101.134123
 20
-52.127404999999989
 30
0.0
  0
VERTEX
  5
D43
  8
LAYER01
  6
CONTINUOUS
 62
     7
 10
1101.1439869999999
 20
-52.126570000000001
 30
0.0
  0
VERTEX
  5
D44
  8
LAYER01
  6
CONTINUOUS
 62
     7
 10
1101.1538330000001
 20
-52.125686000000002
 30
0.0
  0
VERTEX
  5
D45
  8
LAYER01
  6
CONTINUOUS
 62
     7
 10
1101.1636619999999
 20
-52.124751000000003
 30
0.0
  0
VERTEX
  5
D46
  8
LAYER01
  6
CONTINUOUS
 62
     7
 10
1101.1734730000001
 20
-52.123767000000001
 30
0.0
  0
VERTEX
  5
D47
  8
LAYER01
  6
CONTINUOUS
 62
     7
 10
1101.1832669999999
 20
-52.122731999999999
 30
0.0
  0
VERTEX
  5
D48
  8
LAYER01
  6
CONTINUOUS
 62
     7
 10
1101.193043
 20
-52.121648
 30
0.0
  0
VERTEX
  5
D49
  8
LAYER01
  6
CONTINUOUS
 62
     7
 10
1101.202802
 20
-52.120514
 30
0.0
  0
VERTEX
  5
D4A
  8
LAYER01
  6
CONTINUOUS
 62
     7
 10
1101.2125430000001
 20
-52.119329999999998
 30
0.0
  0
VERTEX
  5
D4B
  8
LAYER01
  6
CONTINUOUS
 62
     7
 10
1101.222266
 20
-52.118096000000001
 30
0.0
  0
VERTEX
  5
D4C
  8
LAYER01
  6
CONTINUOUS
 62
     7
 10
1101.231972
 20
-52.11681200000001
 30
0.0
  0
VERTEX
  5
D4D
  8
LAYER01
  6
CONTINUOUS
 62
     7
 10
1101.241661
 20
-52.115478000000003
 30
0.0
  0
VERTEX
  5
D4E
  8
LAYER01
  6
CONTINUOUS
 62
     7
 10
1101.251332
 20
-52.114094000000001
 30
0.0
  0
VERTEX
  5
D4F
  8
LAYER01
  6
CONTINUOUS
 62
     7
 10
1101.260986
 20
-52.112659000000001
 30
0.0
  0
SEQEND
  5
D50
  8
LAYER01
  6
CONTINUOUS
 62
     7
  0
POLYLINE
  5
4A3
  8
LAYER01
  6
CONTINUOUS
 62
     7
 66
     1
 10
0.0
 20
0.0
 30
0.0
  0
VERTEX
  5
D51
  8
LAYER01
  6
CONTINUOUS
 62
     7
 10
1069.341991
 20
-52.320160999999999
 30
0.0
  0
VERTEX
  5
D52
  8
LAYER01
  6
CONTINUOUS
 62
     7
 10
1067.944947
 20
-52.283578999999989
 30
0.0
  0
VERTEX
  5
D53
  8
LAYER01
  6
CONTINUOUS
 62
     7
 10
1066.6219140000001
 20
-52.248933999999998
 30
0.0
  0
VERTEX
  5
D54
  8
LAYER01
  6
CONTINUOUS
 62
     7
 10
1065.3800550000001
 20
-52.216411999999998
 30
0.0
  0
VERTEX
  5
D55
  8
LAYER01
  6
CONTINUOUS
 62
     7
 10
1064.2260920000001
 20
-52.186199999999999
 30
0.0
  0
VERTEX
  5
D56
  8
LAYER01
  6
CONTINUOUS
 62
     7
 10
1063.166275
 20
-52.158445999999998
 30
0.0
  0
VERTEX
  5
D57
  8
LAYER01
  6
CONTINUOUS
 62
     7
 10
1062.20634
 20
-52.133308
 30
0.0
  0
SEQEND
  5
D58
  8
LAYER01
  6
CONTINUOUS
 62
     7
  0
POLYLINE
  5
4AC
  8
LAYER01
  6
CONTINUOUS
 62
     7
 66
     1
 10
0.0
 20
0.0
 30
0.0
  0
VERTEX
  5
D59
  8
LAYER01
  6
CONTINUOUS
 62
     7
 10
1069.341991
 20
-52.320162000000003
 30
0.0
  0
VERTEX
  5
D5A
  8
LAYER01
  6
CONTINUOUS
 62
     7
 10
1069.4678899999999
 20
-52.322850000000003
 30
0.0
  0
VERTEX
  5
D5B
  8
LAYER01
  6
CONTINUOUS
 62
     7
 10
1069.5940929999999
 20
-52.324351
 30
0.0
  0
VERTEX
  5
D5C
  8
LAYER01
  6
CONTINUOUS
 62
     7
 10
1069.7206040000001
 20
-52.324696000000003
 30
0.0
  0
VERTEX
  5
D5D
  8
LAYER01
  6
CONTINUOUS
 62
     7
 10
1069.8474229999999
 20
-52.323917000000002
 30
0.0
  0
VERTEX
  5
D5E
  8
LAYER01
  6
CONTINUOUS
 62
     7
 10
1069.9745519999999
 20
-52.322045000000003
 30
0.0
  0
VERTEX
  5
D5F
  8
LAYER01
  6
CONTINUOUS
 62
     7
 10
1070.101993
 20
-52.319113000000002
 30
0.0
  0
VERTEX
  5
D60
  8
LAYER01
  6
CONTINUOUS
 62
     7
 10
1070.229746
 20
-52.315151
 30
0.0
  0
VERTEX
  5
D61
  8
LAYER01
  6
CONTINUOUS
 62
     7
 10
1070.3578130000001
 20
-52.310192999999991
 30
0.0
  0
VERTEX
  5
D62
  8
LAYER01
  6
CONTINUOUS
 62
     7
 10
1070.4861960000001
 20
-52.304270000000002
 30
0.0
  0
VERTEX
  5
D63
  8
LAYER01
  6
CONTINUOUS
 62
     7
 10
1070.6148969999999
 20
-52.297412000000001
 30
0.0
  0
VERTEX
  5
D64
  8
LAYER01
  6
CONTINUOUS
 62
     7
 10
1070.7439159999999
 20
-52.289653000000001
 30
0.0
  0
VERTEX
  5
D65
  8
LAYER01
  6
CONTINUOUS
 62
     7
 10
1070.873255
 20
-52.281024000000002
 30
0.0
  0
VERTEX
  5
D66
  8
LAYER01
  6
CONTINUOUS
 62
     7
 10
1071.002915
 20
-52.27155599999999
 30
0.0
  0
VERTEX
  5
D67
  8
LAYER01
  6
CONTINUOUS
 62
     7
 10
1071.132899
 20
-52.261282000000001
 30
0.0
  0
VERTEX
  5
D68
  8
LAYER01
  6
CONTINUOUS
 62
     7
 10
1071.263207
 20
-52.250233000000001
 30
0.0
  0
VERTEX
  5
D69
  8
LAYER01
  6
CONTINUOUS
 62
     7
 10
1071.39384
 20
-52.238440999999987
 30
0.0
  0
VERTEX
  5
D6A
  8
LAYER01
  6
CONTINUOUS
 62
     7
 10
1071.5248019999999
 20
-52.225937999999999
 30
0.0
  0
VERTEX
  5
D6B
  8
LAYER01
  6
CONTINUOUS
 62
     7
 10
1071.6560919999999
 20
-52.212755000000001
 30
0.0
  0
VERTEX
  5
D6C
  8
LAYER01
  6
CONTINUOUS
 62
     7
 10
1071.7877120000001
 20
-52.198923999999991
 30
0.0
  0
VERTEX
  5
D6D
  8
LAYER01
  6
CONTINUOUS
 62
     7
 10
1071.919664
 20
-52.184477000000001
 30
0.0
  0
VERTEX
  5
D6E
  8
LAYER01
  6
CONTINUOUS
 62
     7
 10
1072.0519489999999
 20
-52.169446000000001
 30
0.0
  0
VERTEX
  5
D6F
  8
LAYER01
  6
CONTINUOUS
 62
     7
 10
1072.184569
 20
-52.153861999999997
 30
0.0
  0
VERTEX
  5
D70
  8
LAYER01
  6
CONTINUOUS
 62
     7
 10
1072.3175249999999
 20
-52.137741999999989
 30
0.0
  0
VERTEX
  5
D71
  8
LAYER01
  6
CONTINUOUS
 62
     7
 10
1072.4508189999999
 20
-52.121098000000003
 30
0.0
  0
VERTEX
  5
D72
  8
LAYER01
  6
CONTINUOUS
 62
     7
 10
1072.5844540000001
 20
-52.103953999999987
 30
0.0
  0
VERTEX
  5
D73
  8
LAYER01
  6
CONTINUOUS
 62
     7
 10
1072.7184319999999
 20
-52.086334000000001
 30
0.0
  0
VERTEX
  5
D74
  8
LAYER01
  6
CONTINUOUS
 62
     7
 10
1072.852754
 20
-52.068263000000002
 30
0.0
  0
VERTEX
  5
D75
  8
LAYER01
  6
CONTINUOUS
 62
     7
 10
1072.9874219999999
 20
-52.049764000000003
 30
0.0
  0
VERTEX
  5
D76
  8
LAYER01
  6
CONTINUOUS
 62
     7
 10
1073.122439
 20
-52.030861999999999
 30
0.0
  0
VERTEX
  5
D77
  8
LAYER01
  6
CONTINUOUS
 62
     7
 10
1073.257807
 20
-52.011580000000002
 30
0.0
  0
VERTEX
  5
D78
  8
LAYER01
  6
CONTINUOUS
 62
     7
 10
1073.3935280000001
 20
-51.991943999999997
 30
0.0
  0
VERTEX
  5
D79
  8
LAYER01
  6
CONTINUOUS
 62
     7
 10
1073.529603
 20
-51.971975999999991
 30
0.0
  0
VERTEX
  5
D7A
  8
LAYER01
  6
CONTINUOUS
 62
     7
 10
1073.666035
 20
-51.951703000000002
 30
0.0
  0
VERTEX
  5
D7B
  8
LAYER01
  6
CONTINUOUS
 62
     7
 10
1073.802854
 20
-51.93114099999999
 30
0.0
  0
VERTEX
  5
D7C
  8
LAYER01
  6
CONTINUOUS
 62
     7
 10
1073.9400760000001
 20
-51.910313000000002
 30
0.0
  0
VERTEX
  5
D7D
  8
LAYER01
  6
CONTINUOUS
 62
     7
 10
1074.077687
 20
-51.889245999999993
 30
0.0
  0
VERTEX
  5
D7E
  8
LAYER01
  6
CONTINUOUS
 62
     7
 10
1074.21567
 20
-51.867967
 30
0.0
  0
VERTEX
  5
D7F
  8
LAYER01
  6
CONTINUOUS
 62
     7
 10
1074.354012
 20
-51.846503000000013
 30
0.0
  0
VERTEX
  5
D80
  8
LAYER01
  6
CONTINUOUS
 62
     7
 10
1074.492696
 20
-51.824883
 30
0.0
  0
VERTEX
  5
D81
  8
LAYER01
  6
CONTINUOUS
 62
     7
 10
1074.631707
 20
-51.803134
 30
0.0
  0
VERTEX
  5
D82
  8
LAYER01
  6
CONTINUOUS
 62
     7
 10
1074.7710300000001
 20
-51.781283000000002
 30
0.0
  0
VERTEX
  5
D83
  8
LAYER01
  6
CONTINUOUS
 62
     7
 10
1074.91065
 20
-51.759357000000001
 30
0.0
  0
VERTEX
  5
D84
  8
LAYER01
  6
CONTINUOUS
 62
     7
 10
1075.0505499999999
 20
-51.737384000000013
 30
0.0
  0
VERTEX
  5
D85
  8
LAYER01
  6
CONTINUOUS
 62
     7
 10
1075.1907169999999
 20
-51.715392000000001
 30
0.0
  0
VERTEX
  5
D86
  8
LAYER01
  6
CONTINUOUS
 62
     7
 10
1075.331081
 20
-51.693416999999997
 30
0.0
  0
VERTEX
  5
D87
  8
LAYER01
  6
CONTINUOUS
 62
     7
 10
1075.471589
 20
-51.671492999999998
 30
0.0
  0
VERTEX
  5
D88
  8
LAYER01
  6
CONTINUOUS
 62
     7
 10
1075.612241
 20
-51.649646000000011
 30
0.0
  0
VERTEX
  5
D89
  8
LAYER01
  6
CONTINUOUS
 62
     7
 10
1075.7530400000001
 20
-51.627903000000011
 30
0.0
  0
VERTEX
  5
D8A
  8
LAYER01
  6
CONTINUOUS
 62
     7
 10
1075.893988
 20
-51.606288999999997
 30
0.0
  0
VERTEX
  5
D8B
  8
LAYER01
  6
CONTINUOUS
 62
     7
 10
1076.0350880000001
 20
-51.584829999999997
 30
0.0
  0
VERTEX
  5
D8C
  8
LAYER01
  6
CONTINUOUS
 62
     7
 10
1076.176342
 20
-51.563552000000001
 30
0.0
  0
VERTEX
  5
D8D
  8
LAYER01
  6
CONTINUOUS
 62
     7
 10
1076.317753
 20
-51.542479999999991
 30
0.0
  0
VERTEX
  5
D8E
  8
LAYER01
  6
CONTINUOUS
 62
     7
 10
1076.459321
 20
-51.521641000000002
 30
0.0
  0
VERTEX
  5
D8F
  8
LAYER01
  6
CONTINUOUS
 62
     7
 10
1076.6010510000001
 20
-51.501061
 30
0.0
  0
VERTEX
  5
D90
  8
LAYER01
  6
CONTINUOUS
 62
     7
 10
1076.742943
 20
-51.480764000000001
 30
0.0
  0
VERTEX
  5
D91
  8
LAYER01
  6
CONTINUOUS
 62
     7
 10
1076.885
 20
-51.460777999999998
 30
0.0
  0
VERTEX
  5
D92
  8
LAYER01
  6
CONTINUOUS
 62
     7
 10
1077.0272259999999
 20
-51.441127000000002
 30
0.0
  0
VERTEX
  5
D93
  8
LAYER01
  6
CONTINUOUS
 62
     7
 10
1077.1696199999999
 20
-51.421838999999999
 30
0.0
  0
VERTEX
  5
D94
  8
LAYER01
  6
CONTINUOUS
 62
     7
 10
1077.312187
 20
-51.402937999999999
 30
0.0
  0
VERTEX
  5
D95
  8
LAYER01
  6
CONTINUOUS
 62
     7
 10
1077.454929
 20
-51.384450000000001
 30
0.0
  0
VERTEX
  5
D96
  8
LAYER01
  6
CONTINUOUS
 62
     7
 10
1077.597847
 20
-51.36640100000001
 30
0.0
  0
VERTEX
  5
D97
  8
LAYER01
  6
CONTINUOUS
 62
     7
 10
1077.7409439999999
 20
-51.348818000000001
 30
0.0
  0
VERTEX
  5
D98
  8
LAYER01
  6
CONTINUOUS
 62
     7
 10
1077.8842219999999
 20
-51.331726000000003
 30
0.0
  0
VERTEX
  5
D99
  8
LAYER01
  6
CONTINUOUS
 62
     7
 10
1078.027683
 20
-51.315150000000003
 30
0.0
  0
VERTEX
  5
D9A
  8
LAYER01
  6
CONTINUOUS
 62
     7
 10
1078.1713299999999
 20
-51.299117000000003
 30
0.0
  0
VERTEX
  5
D9B
  8
LAYER01
  6
CONTINUOUS
 62
     7
 10
1078.315165
 20
-51.283653000000001
 30
0.0
  0
VERTEX
  5
D9C
  8
LAYER01
  6
CONTINUOUS
 62
     7
 10
1078.459192
 20
-51.268796000000002
 30
0.0
  0
VERTEX
  5
D9D
  8
LAYER01
  6
CONTINUOUS
 62
     7
 10
1078.603413
 20
-51.254579999999997
 30
0.0
  0
VERTEX
  5
D9E
  8
LAYER01
  6
CONTINUOUS
 62
     7
 10
1078.747832
 20
-51.241023999999989
 30
0.0
  0
VERTEX
  5
D9F
  8
LAYER01
  6
CONTINUOUS
 62
     7
 10
1078.8924509999999
 20
-51.228147
 30
0.0
  0
VERTEX
  5
DA0
  8
LAYER01
  6
CONTINUOUS
 62
     7
 10
1079.03727
 20
-51.215966000000002
 30
0.0
  0
VERTEX
  5
DA1
  8
LAYER01
  6
CONTINUOUS
 62
     7
 10
1079.182294
 20
-51.204500000000003
 30
0.0
  0
VERTEX
  5
DA2
  8
LAYER01
  6
CONTINUOUS
 62
     7
 10
1079.3275229999999
 20
-51.193767999999999
 30
0.0
  0
VERTEX
  5
DA3
  8
LAYER01
  6
CONTINUOUS
 62
     7
 10
1079.4729600000001
 20
-51.183788
 30
0.0
  0
VERTEX
  5
DA4
  8
LAYER01
  6
CONTINUOUS
 62
     7
 10
1079.6186070000001
 20
-51.174579000000001
 30
0.0
  0
VERTEX
  5
DA5
  8
LAYER01
  6
CONTINUOUS
 62
     7
 10
1079.764467
 20
-51.166158000000003
 30
0.0
  0
VERTEX
  5
DA6
  8
LAYER01
  6
CONTINUOUS
 62
     7
 10
1079.9105400000001
 20
-51.158543999999992
 30
0.0
  0
VERTEX
  5
DA7
  8
LAYER01
  6
CONTINUOUS
 62
     7
 10
1080.05683
 20
-51.151755999999999
 30
0.0
  0
VERTEX
  5
DA8
  8
LAYER01
  6
CONTINUOUS
 62
     7
 10
1080.2033389999999
 20
-51.145813000000011
 30
0.0
  0
VERTEX
  5
DA9
  8
LAYER01
  6
CONTINUOUS
 62
     7
 10
1080.350068
 20
-51.140731000000002
 30
0.0
  0
VERTEX
  5
DAA
  8
LAYER01
  6
CONTINUOUS
 62
     7
 10
1080.4970209999999
 20
-51.136530999999998
 30
0.0
  0
VERTEX
  5
DAB
  8
LAYER01
  6
CONTINUOUS
 62
     7
 10
1080.644198
 20
-51.133229999999998
 30
0.0
  0
VERTEX
  5
DAC
  8
LAYER01
  6
CONTINUOUS
 62
     7
 10
1080.7916029999999
 20
-51.130846999999989
 30
0.0
  0
VERTEX
  5
DAD
  8
LAYER01
  6
CONTINUOUS
 62
     7
 10
1080.9392359999999
 20
-51.129401000000001
 30
0.0
  0
VERTEX
  5
DAE
  8
LAYER01
  6
CONTINUOUS
 62
     7
 10
1081.087102
 20
-51.128909
 30
0.0
  0
VERTEX
  5
DAF
  8
LAYER01
  6
CONTINUOUS
 62
     7
 10
1081.2352000000001
 20
-51.129390000000001
 30
0.0
  0
VERTEX
  5
DB0
  8
LAYER01
  6
CONTINUOUS
 62
     7
 10
1081.3835349999999
 20
-51.130862
 30
0.0
  0
VERTEX
  5
DB1
  8
LAYER01
  6
CONTINUOUS
 62
     7
 10
1081.532107
 20
-51.133344999999998
 30
0.0
  0
SEQEND
  5
DB2
  8
LAYER01
  6
CONTINUOUS
 62
     7
  0
POLYLINE
  5
507
  8
LAYER01
  6
CONTINUOUS
 62
     7
 66
     1
 10
0.0
 20
0.0
 30
0.0
  0
VERTEX
  5
DB3
  8
LAYER01
  6
CONTINUOUS
 62
     7
 10
1081.532107
 20
-51.133344999999998
 30
0.0
  0
VERTEX
  5
DB4
  8
LAYER01
  6
CONTINUOUS
 62
     7
 10
1081.539047
 20
-51.133479000000001
 30
0.0
  0
VERTEX
  5
DB5
  8
LAYER01
  6
CONTINUOUS
 62
     7
 10
1081.5459860000001
 20
-51.133600999999999
 30
0.0
  0
VERTEX
  5
DB6
  8
LAYER01
  6
CONTINUOUS
 62
     7
 10
1081.5529260000001
 20
-51.133712000000003
 30
0.0
  0
VERTEX
  5
DB7
  8
LAYER01
  6
CONTINUOUS
 62
     7
 10
1081.5598669999999
 20
-51.133811000000001
 30
0.0
  0
VERTEX
  5
DB8
  8
LAYER01
  6
CONTINUOUS
 62
     7
 10
1081.5668069999999
 20
-51.133898000000002
 30
0.0
  0
VERTEX
  5
DB9
  8
LAYER01
  6
CONTINUOUS
 62
     7
 10
1081.573748
 20
-51.133974000000002
 30
0.0
  0
VERTEX
  5
DBA
  8
LAYER01
  6
CONTINUOUS
 62
     7
 10
1081.5806889999999
 20
-51.134037999999997
 30
0.0
  0
VERTEX
  5
DBB
  8
LAYER01
  6
CONTINUOUS
 62
     7
 10
1081.58763
 20
-51.13409
 30
0.0
  0
VERTEX
  5
DBC
  8
LAYER01
  6
CONTINUOUS
 62
     7
 10
1081.5945710000001
 20
-51.134130999999989
 30
0.0
  0
VERTEX
  5
DBD
  8
LAYER01
  6
CONTINUOUS
 62
     7
 10
1081.601512
 20
-51.134159999999987
 30
0.0
  0
VERTEX
  5
DBE
  8
LAYER01
  6
CONTINUOUS
 62
     7
 10
1081.6084539999999
 20
-51.134177000000001
 30
0.0
  0
VERTEX
  5
DBF
  8
LAYER01
  6
CONTINUOUS
 62
     7
 10
1081.615395
 20
-51.134183
 30
0.0
  0
VERTEX
  5
DC0
  8
LAYER01
  6
CONTINUOUS
 62
     7
 10
1081.622337
 20
-51.134177000000001
 30
0.0
  0
VERTEX
  5
DC1
  8
LAYER01
  6
CONTINUOUS
 62
     7
 10
1081.6292780000001
 20
-51.134159999999987
 30
0.0
  0
VERTEX
  5
DC2
  8
LAYER01
  6
CONTINUOUS
 62
     7
 10
1081.636219
 20
-51.134130999999989
 30
0.0
  0
VERTEX
  5
DC3
  8
LAYER01
  6
CONTINUOUS
 62
     7
 10
1081.6431600000001
 20
-51.13409
 30
0.0
  0
VERTEX
  5
DC4
  8
LAYER01
  6
CONTINUOUS
 62
     7
 10
1081.6501020000001
 20
-51.134037999999997
 30
0.0
  0
VERTEX
  5
DC5
  8
LAYER01
  6
CONTINUOUS
 62
     7
 10
1081.657042
 20
-51.133974000000002
 30
0.0
  0
VERTEX
  5
DC6
  8
LAYER01
  6
CONTINUOUS
 62
     7
 10
1081.6639829999999
 20
-51.133898000000002
 30
0.0
  0
VERTEX
  5
DC7
  8
LAYER01
  6
CONTINUOUS
 62
     7
 10
1081.670924
 20
-51.133811000000001
 30
0.0
  0
VERTEX
  5
DC8
  8
LAYER01
  6
CONTINUOUS
 62
     7
 10
1081.677864
 20
-51.133712000000003
 30
0.0
  0
VERTEX
  5
DC9
  8
LAYER01
  6
CONTINUOUS
 62
     7
 10
1081.684804
 20
-51.133600999999999
 30
0.0
  0
VERTEX
  5
DCA
  8
LAYER01
  6
CONTINUOUS
 62
     7
 10
1081.691744
 20
-51.133479000000001
 30
0.0
  0
VERTEX
  5
DCB
  8
LAYER01
  6
CONTINUOUS
 62
     7
 10
1081.6986830000001
 20
-51.133344999999998
 30
0.0
  0
SEQEND
  5
DCC
  8
LAYER01
  6
CONTINUOUS
 62
     7
  0
POLYLINE
  5
522
  8
LAYER01
  6
CONTINUOUS
 62
     7
 66
     1
 10
0.0
 20
0.0
 30
0.0
  0
VERTEX
  5
DCD
  8
LAYER01
  6
CONTINUOUS
 62
     7
 10
1081.6986830000001
 20
-51.133344999999998
 30
0.0
  0
VERTEX
  5
DCE
  8
LAYER01
  6
CONTINUOUS
 62
     7
 10
1081.880116
 20
-51.130450000000003
 30
0.0
  0
VERTEX
  5
DCF
  8
LAYER01
  6
CONTINUOUS
 62
     7
 10
1082.0612149999999
 20
-51.129057000000003
 30
0.0
  0
VERTEX
  5
DD0
  8
LAYER01
  6
CONTINUOUS
 62
     7
 10
1082.2419850000001
 20
-51.129131000000001
 30
0.0
  0
VERTEX
  5
DD1
  8
LAYER01
  6
CONTINUOUS
 62
     7
 10
1082.4224280000001
 20
-51.130639000000002
 30
0.0
  0
VERTEX
  5
DD2
  8
LAYER01
  6
CONTINUOUS
 62
     7
 10
1082.6025480000001
 20
-51.133549000000002
 30
0.0
  0
VERTEX
  5
DD3
  8
LAYER01
  6
CONTINUOUS
 62
     7
 10
1082.7823490000001
 20
-51.137825999999997
 30
0.0
  0
VERTEX
  5
DD4
  8
LAYER01
  6
CONTINUOUS
 62
     7
 10
1082.9618350000001
 20
-51.143438000000003
 30
0.0
  0
VERTEX
  5
DD5
  8
LAYER01
  6
CONTINUOUS
 62
     7
 10
1083.1410089999999
 20
-51.150352000000012
 30
0.0
  0
VERTEX
  5
DD6
  8
LAYER01
  6
CONTINUOUS
 62
     7
 10
1083.3198749999999
 20
-51.158532999999998
 30
0.0
  0
VERTEX
  5
DD7
  8
LAYER01
  6
CONTINUOUS
 62
     7
 10
1083.4984360000001
 20
-51.16794999999999
 30
0.0
  0
VERTEX
  5
DD8
  8
LAYER01
  6
CONTINUOUS
 62
     7
 10
1083.676696
 20
-51.178567000000001
 30
0.0
  0
VERTEX
  5
DD9
  8
LAYER01
  6
CONTINUOUS
 62
     7
 10
1083.8546590000001
 20
-51.190353000000002
 30
0.0
  0
VERTEX
  5
DDA
  8
LAYER01
  6
CONTINUOUS
 62
     7
 10
1084.032328
 20
-51.203272999999989
 30
0.0
  0
VERTEX
  5
DDB
  8
LAYER01
  6
CONTINUOUS
 62
     7
 10
1084.209707
 20
-51.217295999999997
 30
0.0
  0
VERTEX
  5
DDC
  8
LAYER01
  6
CONTINUOUS
 62
     7
 10
1084.3867990000001
 20
-51.232385999999998
 30
0.0
  0
VERTEX
  5
DDD
  8
LAYER01
  6
CONTINUOUS
 62
     7
 10
1084.5636079999999
 20
-51.248511000000001
 30
0.0
  0
VERTEX
  5
DDE
  8
LAYER01
  6
CONTINUOUS
 62
     7
 10
1084.740139
 20
-51.265638000000003
 30
0.0
  0
VERTEX
  5
DDF
  8
LAYER01
  6
CONTINUOUS
 62
     7
 10
1084.916393
 20
-51.283734000000003
 30
0.0
  0
VERTEX
  5
DE0
  8
LAYER01
  6
CONTINUOUS
 62
     7
 10
1085.0923969999999
 20
-51.302743999999997
 30
0.0
  0
VERTEX
  5
DE1
  8
LAYER01
  6
CONTINUOUS
 62
     7
 10
1085.2681709999999
 20
-51.322603999999991
 30
0.0
  0
VERTEX
  5
DE2
  8
LAYER01
  6
CONTINUOUS
 62
     7
 10
1085.443712
 20
-51.343265000000002
 30
0.0
  0
VERTEX
  5
DE3
  8
LAYER01
  6
CONTINUOUS
 62
     7
 10
1085.619017
 20
-51.36468
 30
0.0
  0
VERTEX
  5
DE4
  8
LAYER01
  6
CONTINUOUS
 62
     7
 10
1085.7940819999999
 20
-51.386800000000001
 30
0.0
  0
VERTEX
  5
DE5
  8
LAYER01
  6
CONTINUOUS
 62
     7
 10
1085.9689040000001
 20
-51.409576000000001
 30
0.0
  0
VERTEX
  5
DE6
  8
LAYER01
  6
CONTINUOUS
 62
     7
 10
1086.14348
 20
-51.432959999999987
 30
0.0
  0
VERTEX
  5
DE7
  8
LAYER01
  6
CONTINUOUS
 62
     7
 10
1086.3178069999999
 20
-51.456902999999997
 30
0.0
  0
VERTEX
  5
DE8
  8
LAYER01
  6
CONTINUOUS
 62
     7
 10
1086.491882
 20
-51.481355999999991
 30
0.0
  0
VERTEX
  5
DE9
  8
LAYER01
  6
CONTINUOUS
 62
     7
 10
1086.6657009999999
 20
-51.506271999999989
 30
0.0
  0
VERTEX
  5
DEA
  8
LAYER01
  6
CONTINUOUS
 62
     7
 10
1086.8392610000001
 20
-51.531601999999999
 30
0.0
  0
VERTEX
  5
DEB
  8
LAYER01
  6
CONTINUOUS
 62
     7
 10
1087.012559
 20
-51.557296999999998
 30
0.0
  0
VERTEX
  5
DEC
  8
LAYER01
  6
CONTINUOUS
 62
     7
 10
1087.185592
 20
-51.583309
 30
0.0
  0
VERTEX
  5
DED
  8
LAYER01
  6
CONTINUOUS
 62
     7
 10
1087.358356
 20
-51.609589999999997
 30
0.0
  0
VERTEX
  5
DEE
  8
LAYER01
  6
CONTINUOUS
 62
     7
 10
1087.5308480000001
 20
-51.63609000000001
 30
0.0
  0
VERTEX
  5
DEF
  8
LAYER01
  6
CONTINUOUS
 62
     7
 10
1087.7030649999999
 20
-51.662762000000001
 30
0.0
  0
VERTEX
  5
DF0
  8
LAYER01
  6
CONTINUOUS
 62
     7
 10
1087.875004
 20
-51.689556000000003
 30
0.0
  0
VERTEX
  5
DF1
  8
LAYER01
  6
CONTINUOUS
 62
     7
 10
1088.046662
 20
-51.716425000000001
 30
0.0
  0
VERTEX
  5
DF2
  8
LAYER01
  6
CONTINUOUS
 62
     7
 10
1088.2178960000001
 20
-51.743296000000001
 30
0.0
  0
VERTEX
  5
DF3
  8
LAYER01
  6
CONTINUOUS
 62
     7
 10
1088.388573
 20
-51.770100999999997
 30
0.0
  0
VERTEX
  5
DF4
  8
LAYER01
  6
CONTINUOUS
 62
     7
 10
1088.5586949999999
 20
-51.796795000000003
 30
0.0
  0
VERTEX
  5
DF5
  8
LAYER01
  6
CONTINUOUS
 62
     7
 10
1088.728267
 20
-51.823335
 30
0.0
  0
VERTEX
  5
DF6
  8
LAYER01
  6
CONTINUOUS
 62
     7
 10
1088.897293
 20
-51.849676000000002
 30
0.0
  0
VERTEX
  5
DF7
  8
LAYER01
  6
CONTINUOUS
 62
     7
 10
1089.065779
 20
-51.875774
 30
0.0
  0
VERTEX
  5
DF8
  8
LAYER01
  6
CONTINUOUS
 62
     7
 10
1089.233729
 20
-51.90158499999999
 30
0.0
  0
VERTEX
  5
DF9
  8
LAYER01
  6
CONTINUOUS
 62
     7
 10
1089.4011459999999
 20
-51.927064999999992
 30
0.0
  0
VERTEX
  5
DFA
  8
LAYER01
  6
CONTINUOUS
 62
     7
 10
1089.5680359999999
 20
-51.952170000000002
 30
0.0
  0
VERTEX
  5
DFB
  8
LAYER01
  6
CONTINUOUS
 62
     7
 10
1089.7344029999999
 20
-51.976855
 30
0.0
  0
VERTEX
  5
DFC
  8
LAYER01
  6
CONTINUOUS
 62
     7
 10
1089.900251
 20
-52.001078
 30
0.0
  0
VERTEX
  5
DFD
  8
LAYER01
  6
CONTINUOUS
 62
     7
 10
1090.0655850000001
 20
-52.024793000000003
 30
0.0
  0
VERTEX
  5
DFE
  8
LAYER01
  6
CONTINUOUS
 62
     7
 10
1090.230409
 20
-52.047955999999999
 30
0.0
  0
VERTEX
  5
DFF
  8
LAYER01
  6
CONTINUOUS
 62
     7
 10
1090.394728
 20
-52.070523999999999
 30
0.0
  0
VERTEX
  5
E00
  8
LAYER01
  6
CONTINUOUS
 62
     7
 10
1090.5585470000001
 20
-52.092452999999999
 30
0.0
  0
VERTEX
  5
E01
  8
LAYER01
  6
CONTINUOUS
 62
     7
 10
1090.7218680000001
 20
-52.113697999999992
 30
0.0
  0
VERTEX
  5
E02
  8
LAYER01
  6
CONTINUOUS
 62
     7
 10
1090.8846980000001
 20
-52.134214999999998
 30
0.0
  0
VERTEX
  5
E03
  8
LAYER01
  6
CONTINUOUS
 62
     7
 10
1091.047041
 20
-52.153959999999998
 30
0.0
  0
VERTEX
  5
E04
  8
LAYER01
  6
CONTINUOUS
 62
     7
 10
1091.208899
 20
-52.172908
 30
0.0
  0
VERTEX
  5
E05
  8
LAYER01
  6
CONTINUOUS
 62
     7
 10
1091.370273
 20
-52.191023999999999
 30
0.0
  0
VERTEX
  5
E06
  8
LAYER01
  6
CONTINUOUS
 62
     7
 10
1091.531168
 20
-52.20825
 30
0.0
  0
VERTEX
  5
E07
  8
LAYER01
  6
CONTINUOUS
 62
     7
 10
1091.6915839999999
 20
-52.224527999999999
 30
0.0
  0
VERTEX
  5
E08
  8
LAYER01
  6
CONTINUOUS
 62
     7
 10
1091.851525
 20
-52.239798
 30
0.0
  0
VERTEX
  5
E09
  8
LAYER01
  6
CONTINUOUS
 62
     7
 10
1092.0109950000001
 20
-52.254003999999988
 30
0.0
  0
VERTEX
  5
E0A
  8
LAYER01
  6
CONTINUOUS
 62
     7
 10
1092.1699940000001
 20
-52.267085999999999
 30
0.0
  0
VERTEX
  5
E0B
  8
LAYER01
  6
CONTINUOUS
 62
     7
 10
1092.328528
 20
-52.278987000000001
 30
0.0
  0
VERTEX
  5
E0C
  8
LAYER01
  6
CONTINUOUS
 62
     7
 10
1092.4865970000001
 20
-52.289646999999988
 30
0.0
  0
VERTEX
  5
E0D
  8
LAYER01
  6
CONTINUOUS
 62
     7
 10
1092.6442050000001
 20
-52.299008999999998
 30
0.0
  0
VERTEX
  5
E0E
  8
LAYER01
  6
CONTINUOUS
 62
     7
 10
1092.8013550000001
 20
-52.307015
 30
0.0
  0
VERTEX
  5
E0F
  8
LAYER01
  6
CONTINUOUS
 62
     7
 10
1092.9580490000001
 20
-52.313605000000003
 30
0.0
  0
VERTEX
  5
E10
  8
LAYER01
  6
CONTINUOUS
 62
     7
 10
1093.11429
 20
-52.318720999999996
 30
0.0
  0
VERTEX
  5
E11
  8
LAYER01
  6
CONTINUOUS
 62
     7
 10
1093.2700809999999
 20
-52.322305999999998
 30
0.0
  0
VERTEX
  5
E12
  8
LAYER01
  6
CONTINUOUS
 62
     7
 10
1093.425424
 20
-52.324300999999998
 30
0.0
  0
VERTEX
  5
E13
  8
LAYER01
  6
CONTINUOUS
 62
     7
 10
1093.580324
 20
-52.324647999999989
 30
0.0
  0
VERTEX
  5
E14
  8
LAYER01
  6
CONTINUOUS
 62
     7
 10
1093.7347810000001
 20
-52.323287000000001
 30
0.0
  0
VERTEX
  5
E15
  8
LAYER01
  6
CONTINUOUS
 62
     7
 10
1093.8887990000001
 20
-52.320162000000003
 30
0.0
  0
SEQEND
  5
E16
  8
LAYER01
  6
CONTINUOUS
 62
     7
  0
POLYLINE
  5
56D
  8
LAYER01
  6
CONTINUOUS
 62
     7
 66
     1
 10
0.0
 20
0.0
 30
0.0
  0
VERTEX
  5
E17
  8
LAYER01
  6
CONTINUOUS
 62
     7
 10
1093.8887990000001
 20
-52.320160999999999
 30
0.0
  0
VERTEX
  5
E18
  8
LAYER01
  6
CONTINUOUS
 62
     7
 10
1095.2858430000001
 20
-52.283578999999989
 30
0.0
  0
VERTEX
  5
E19
  8
LAYER01
  6
CONTINUOUS
 62
     7
 10
1096.6088769999999
 20
-52.248933999999998
 30
0.0
  0
VERTEX
  5
E1A
  8
LAYER01
  6
CONTINUOUS
 62
     7
 10
1097.8507360000001
 20
-52.216411999999998
 30
0.0
  0
VERTEX
  5
E1B
  8
LAYER01
  6
CONTINUOUS
 62
     7
 10
1099.004698
 20
-52.186199999999999
 30
0.0
  0
VERTEX
  5
E1C
  8
LAYER01
  6
CONTINUOUS
 62
     7
 10
1100.064515
 20
-52.158445999999998
 30
0.0
  0
VERTEX
  5
E1D
  8
LAYER01
  6
CONTINUOUS
 62
     7
 10
1101.0244499999999
 20
-52.133308
 30
0.0
  0
SEQEND
  5
E1E
  8
LAYER01
  6
CONTINUOUS
 62
     7
  0
LINE
  5
576
  8
LAYER01
  6
CONTINUOUS
 62
     7
 10
1101.260986
 20
-52.112662999999998
 30
0.0
 11
1101.260986
 21
-64.655625999999998
 31
0.0
  0
LINE
  5
577
  8
LAYER01
  6
CONTINUOUS
 62
     7
 10
1061.969805
 20
-64.655625999999998
 30
0.0
 11
1101.260986
 21
-64.655625999999998
 31
0.0
  0
LINE
  5
578
  8
LAYER01
  6
CONTINUOUS
 62
     7
 10
1146.615393
 20
-64.655625999999998
 30
0.0
 11
1101.260986
 21
-64.655625999999998
 31
0.0
  0
ARC
  5
579
  8
LAYER01
  6
CONTINUOUS
 62
     7
 10
1379.2925519999999
 20
-51.881081000000002
 30
0.0
 40
5.0
 50
271.91305199999999
 51
355.0
  0
LINE
  5
57A
  8
LAYER01
  6
CONTINUOUS
 62
     7
 10
1373.254919
 20
-40.571778000000002
 30
0.0
 11
1373.3642050000001
 21
-39.326410000000003
 31
0.0
  0
ARC
  5
57B
  8
LAYER01
  6
CONTINUOUS
 62
     7
 10
1397.193025
 20
37.985126999999999
 30
0.0
 40
5.0
 50
90.0
 51
175.0
  0
LINE
  5
57C
  8
LAYER01
  6
CONTINUOUS
 62
     7
 10
1397.193021
 20
42.985126999999991
 30
0.0
 11
1406.6153830000001
 21
42.985126999999991
 31
0.0
  0
LINE
  5
57D
  8
LAYER01
  6
CONTINUOUS
 62
     7
 10
1406.6153830000001
 20
54.985126999999999
 30
0.0
 11
1406.6153830000001
 21
42.985126999999991
 31
0.0
  0
LINE
  5
57E
  8
LAYER01
  6
CONTINUOUS
 62
     7
 10
1381.615407
 20
54.985126999999999
 30
0.0
 11
1406.6153830000001
 21
54.985126999999999
 31
0.0
  0
LINE
  5
57F
  8
LAYER01
  6
CONTINUOUS
 62
     7
 10
1376.6344260000001
 20
54.985126999999999
 30
0.0
 11
1381.615407
 21
54.985126999999999
 31
0.0
  0
DIMENSION
  5
580
  8
LAYER01
 62
     7
  2
*D5
 10
756.615407
 20
1010.798015
 30
0.0
 11
1068.41074
 21
1070.7980150000001
 31
0.0
 13
1406.6153830000001
 23
763.04210499999988
 33
0.0
 14
756.615407
 24
763.04210499999988
 34
0.0
  0
LINE
  5
581
  8
LAYER01
  6
CONTINUOUS
 62
     7
 10
786.21090099999992
 20
376.39686899999998
 30
0.0
 11
1377.0198889999999
 21
376.39686899999998
 31
0.0
  0
LINE
  5
582
  8
LAYER01
  6
CONTINUOUS
 62
     7
 10
796.88052000000005
 20
694.38298499999996
 30
0.0
 11
1366.3502699999999
 21
694.38298499999996
 31
0.0
  0
LINE
  5
583
  8
LAYER01
  6
CONTINUOUS
 62
     7
 10
1391.6153979999999
 20
746.39687400000003
 30
0.0
 11
771.61539299999993
 21
746.39687400000003
 31
0.0
  0
LINE
  5
584
  8
LAYER01
  6
CONTINUOUS
 62
     7
 10
1376.6344260000001
 20
721.39686799999993
 30
0.0
 11
786.59636499999999
 21
721.39686799999993
 31
0.0
  0
LINE
  5
585
  8
LAYER01
  6
CONTINUOUS
 62
     7
 10
794.95627400000001
 20
713.03694399999995
 30
0.0
 11
1081.615395
 21
712.38022000000001
 31
0.0
  0
LINE
  5
586
  8
LAYER01
  6
CONTINUOUS
 62
     7
 10
1081.615395
 20
695.34460200000001
 30
0.0
 11
794.95627400000001
 21
694.99849299999994
 31
0.0
  0
DIMENSION
  5
587
  8
LAYER01
 62
     7
  2
*D6
 10
781.61538299999995
 20
884.91640399999994
 30
0.0
 11
1068.41074
 21
944.91640399999994
 31
0.0
 13
1381.615407
 23
763.04210499999988
 33
0.0
 14
781.61538299999995
 24
763.04210499999988
 34
0.0
  0
LINE
  5
588
  8
LAYER01
 62
     7
 10
786.43537300000003
 20
376.39686899999998
 30
0.0
 11
852.53523900000005
 21
430.32137599999999
 31
0.0
  0
LINE
  5
589
  8
LAYER01
 62
     7
 10
852.53523900000005
 20
430.32137599999999
 30
0.0
 11
889.44044799999995
 21
430.32137599999999
 31
0.0
  0
SOLID
  5
58A
  8
LAYER01
 62
     7
 10
828.68550100000004
 20
400.540637
 30
0.0
 11
786.43537300000003
 21
376.39686899999998
 31
0.0
 12
818.57177300000001
 22
412.93789600000002
 32
0.0
 13
818.57177300000001
 23
412.93789600000002
 33
0.0
  0
TEXT
  5
58B
  8
LAYER01
  6
CONTINUOUS
 62
     7
 10
919.44044800000006
 20
400.32137599999987
 30
0.0
 40
60.0
  1
R5
  0
LINE
  5
58C
  8
LAYER01
  6
CONTINUOUS
 62
     7
 10
756.615407
 20
731.39687399999991
 30
0.0
 11
756.615407
 21
366.39686399999999
 31
0.0
  0
LINE
  5
58D
  8
LAYER01
  6
CONTINUOUS
 62
     7
 10
781.61538299999995
 20
716.41590199999985
 30
0.0
 11
781.61538299999995
 21
394.73067700000001
 31
0.0
  0
POLYLINE
  5
58E
  8
LAYER01
  6
CONTINUOUS
 62
     7
 66
     1
 10
0.0
 20
0.0
 30
0.0
  0
VERTEX
  5
E1F
  8
LAYER01
  6
CONTINUOUS
 62
     7
 10
781.61539500000003
 20
394.73067600000002
 30
0.0
  0
VERTEX
  5
E20
  8
LAYER01
  6
CONTINUOUS
 62
     7
 10
781.70176900000001
 20
391.074161
 30
0.0
  0
VERTEX
  5
E21
  8
LAYER01
  6
CONTINUOUS
 62
     7
 10
781.95791599999995
 20
387.60165799999999
 30
0.0
  0
VERTEX
  5
E22
  8
LAYER01
  6
CONTINUOUS
 62
     7
 10
782.37502099999995
 20
384.43268399999999
 30
0.0
  0
VERTEX
  5
E23
  8
LAYER01
  6
CONTINUOUS
 62
     7
 10
782.93872799999997
 20
381.67630700000001
 30
0.0
  0
VERTEX
  5
E24
  8
LAYER01
  6
CONTINUOUS
 62
     7
 10
783.629636
 20
379.42739699999998
 30
0.0
  0
VERTEX
  5
E25
  8
LAYER01
  6
CONTINUOUS
 62
     7
 10
784.42396399999996
 20
377.76335499999999
 30
0.0
  0
VERTEX
  5
E26
  8
LAYER01
  6
CONTINUOUS
 62
     7
 10
785.29437399999995
 20
376.74145499999997
 30
0.0
  0
VERTEX
  5
E27
  8
LAYER01
  6
CONTINUOUS
 62
     7
 10
786.21090800000002
 20
376.39686899999998
 30
0.0
  0
SEQEND
  5
E28
  8
LAYER01
  6
CONTINUOUS
 62
     7
  0
POLYLINE
  5
599
  8
LAYER01
  6
CONTINUOUS
 62
     7
 66
     1
 10
0.0
 20
0.0
 30
0.0
  0
VERTEX
  5
E29
  8
LAYER01
  6
CONTINUOUS
 62
     7
 10
793.30429900000001
 20
690.806916
 30
0.0
  0
VERTEX
  5
E2A
  8
LAYER01
  6
CONTINUOUS
 62
     7
 10
793.37064799999996
 20
690.86837100000002
 30
0.0
  0
VERTEX
  5
E2B
  8
LAYER01
  6
CONTINUOUS
 62
     7
 10
793.43706399999996
 20
690.92977199999984
 30
0.0
  0
VERTEX
  5
E2C
  8
LAYER01
  6
CONTINUOUS
 62
     7
 10
793.50353799999993
 20
690.99112600000001
 30
0.0
  0
VERTEX
  5
E2D
  8
LAYER01
  6
CONTINUOUS
 62
     7
 10
793.57006100000001
 20
691.05244000000005
 30
0.0
  0
VERTEX
  5
E2E
  8
LAYER01
  6
CONTINUOUS
 62
     7
 10
793.63662499999987
 20
691.11372300000005
 30
0.0
  0
VERTEX
  5
E2F
  8
LAYER01
  6
CONTINUOUS
 62
     7
 10
793.70321999999987
 20
691.17498199999989
 30
0.0
  0
VERTEX
  5
E30
  8
LAYER01
  6
CONTINUOUS
 62
     7
 10
793.76983899999993
 20
691.23622499999999
 30
0.0
  0
VERTEX
  5
E31
  8
LAYER01
  6
CONTINUOUS
 62
     7
 10
793.83647199999996
 20
691.29746
 30
0.0
  0
VERTEX
  5
E32
  8
LAYER01
  6
CONTINUOUS
 62
     7
 10
793.90311100000008
 20
691.35869500000001
 30
0.0
  0
VERTEX
  5
E33
  8
LAYER01
  6
CONTINUOUS
 62
     7
 10
793.96974599999987
 20
691.419937
 30
0.0
  0
VERTEX
  5
E34
  8
LAYER01
  6
CONTINUOUS
 62
     7
 10
794.03637000000003
 20
691.48119499999996
 30
0.0
  0
VERTEX
  5
E35
  8
LAYER01
  6
CONTINUOUS
 62
     7
 10
794.10297400000002
 20
691.54247499999985
 30
0.0
  0
VERTEX
  5
E36
  8
LAYER01
  6
CONTINUOUS
 62
     7
 10
794.16954799999996
 20
691.60378700000001
 30
0.0
  0
VERTEX
  5
E37
  8
LAYER01
  6
CONTINUOUS
 62
     7
 10
794.236085
 20
691.66513699999985
 30
0.0
  0
VERTEX
  5
E38
  8
LAYER01
  6
CONTINUOUS
 62
     7
 10
794.30257500000005
 20
691.72653400000002
 30
0.0
  0
VERTEX
  5
E39
  8
LAYER01
  6
CONTINUOUS
 62
     7
 10
794.36900900000001
 20
691.78798399999994
 30
0.0
  0
VERTEX
  5
E3A
  8
LAYER01
  6
CONTINUOUS
 62
     7
 10
794.43538000000001
 20
691.84949699999993
 30
0.0
  0
VERTEX
  5
E3B
  8
LAYER01
  6
CONTINUOUS
 62
     7
 10
794.50167699999986
 20
691.91107999999986
 30
0.0
  0
VERTEX
  5
E3C
  8
LAYER01
  6
CONTINUOUS
 62
     7
 10
794.56789400000002
 20
691.97274100000004
 30
0.0
  0
VERTEX
  5
E3D
  8
LAYER01
  6
CONTINUOUS
 62
     7
 10
794.63401999999985
 20
692.03448700000001
 30
0.0
  0
VERTEX
  5
E3E
  8
LAYER01
  6
CONTINUOUS
 62
     7
 10
794.70004699999993
 20
692.09632599999986
 30
0.0
  0
VERTEX
  5
E3F
  8
LAYER01
  6
CONTINUOUS
 62
     7
 10
794.76596600000005
 20
692.15826600000003
 30
0.0
  0
VERTEX
  5
E40
  8
LAYER01
  6
CONTINUOUS
 62
     7
 10
794.83176900000001
 20
692.22031600000003
 30
0.0
  0
VERTEX
  5
E41
  8
LAYER01
  6
CONTINUOUS
 62
     7
 10
794.89744699999994
 20
692.28248199999996
 30
0.0
  0
VERTEX
  5
E42
  8
LAYER01
  6
CONTINUOUS
 62
     7
 10
794.96299099999987
 20
692.34477199999992
 30
0.0
  0
VERTEX
  5
E43
  8
LAYER01
  6
CONTINUOUS
 62
     7
 10
795.02839299999994
 20
692.407195
 30
0.0
  0
VERTEX
  5
E44
  8
LAYER01
  6
CONTINUOUS
 62
     7
 10
795.09364299999993
 20
692.46975700000007
 30
0.0
  0
VERTEX
  5
E45
  8
LAYER01
  6
CONTINUOUS
 62
     7
 10
795.15873399999987
 20
692.53246799999999
 30
0.0
  0
VERTEX
  5
E46
  8
LAYER01
  6
CONTINUOUS
 62
     7
 10
795.22365600000001
 20
692.59533600000009
 30
0.0
  0
VERTEX
  5
E47
  8
LAYER01
  6
CONTINUOUS
 62
     7
 10
795.28840300000002
 20
692.65837099999999
 30
0.0
  0
VERTEX
  5
E48
  8
LAYER01
  6
CONTINUOUS
 62
     7
 10
795.35296500000015
 20
692.7215809999999
 30
0.0
  0
VERTEX
  5
E49
  8
LAYER01
  6
CONTINUOUS
 62
     7
 10
795.41733299999987
 20
692.78497500000003
 30
0.0
  0
VERTEX
  5
E4A
  8
LAYER01
  6
CONTINUOUS
 62
     7
 10
795.48149899999999
 20
692.84856100000002
 30
0.0
  0
VERTEX
  5
E4B
  8
LAYER01
  6
CONTINUOUS
 62
     7
 10
795.54545299999995
 20
692.91234699999995
 30
0.0
  0
VERTEX
  5
E4C
  8
LAYER01
  6
CONTINUOUS
 62
     7
 10
795.60918800000002
 20
692.97634299999993
 30
0.0
  0
VERTEX
  5
E4D
  8
LAYER01
  6
CONTINUOUS
 62
     7
 10
795.67269400000009
 20
693.04055499999993
 30
0.0
  0
VERTEX
  5
E4E
  8
LAYER01
  6
CONTINUOUS
 62
     7
 10
795.73596199999997
 20
693.10499299999992
 30
0.0
  0
VERTEX
  5
E4F
  8
LAYER01
  6
CONTINUOUS
 62
     7
 10
795.79898300000002
 20
693.16966500000001
 30
0.0
  0
VERTEX
  5
E50
  8
LAYER01
  6
CONTINUOUS
 62
     7
 10
795.86175000000003
 20
693.23457900000005
 30
0.0
  0
VERTEX
  5
E51
  8
LAYER01
  6
CONTINUOUS
 62
     7
 10
795.92425199999991
 20
693.29974400000003
 30
0.0
  0
VERTEX
  5
E52
  8
LAYER01
  6
CONTINUOUS
 62
     7
 10
795.98648099999991
 20
693.36516799999993
 30
0.0
  0
VERTEX
  5
E53
  8
LAYER01
  6
CONTINUOUS
 62
     7
 10
796.04842900000006
 20
693.43085899999994
 30
0.0
  0
VERTEX
  5
E54
  8
LAYER01
  6
CONTINUOUS
 62
     7
 10
796.110097
 20
693.49684000000002
 30
0.0
  0
VERTEX
  5
E55
  8
LAYER01
  6
CONTINUOUS
 62
     7
 10
796.17148299999997
 20
693.56312700000001
 30
0.0
  0
VERTEX
  5
E56
  8
LAYER01
  6
CONTINUOUS
 62
     7
 10
796.23257299999989
 20
693.62972200000002
 30
0.0
  0
VERTEX
  5
E57
  8
LAYER01
  6
CONTINUOUS
 62
     7
 10
796.29334900000003
 20
693.69662699999992
 30
0.0
  0
VERTEX
  5
E58
  8
LAYER01
  6
CONTINUOUS
 62
     7
 10
796.35379799999998
 20
693.76384299999995
 30
0.0
  0
VERTEX
  5
E59
  8
LAYER01
  6
CONTINUOUS
 62
     7
 10
796.413903
 20
693.83136999999999
 30
0.0
  0
VERTEX
  5
E5A
  8
LAYER01
  6
CONTINUOUS
 62
     7
 10
796.47364800000003
 20
693.89921200000003
 30
0.0
  0
VERTEX
  5
E5B
  8
LAYER01
  6
CONTINUOUS
 62
     7
 10
796.53301900000008
 20
693.96736799999985
 30
0.0
  0
VERTEX
  5
E5C
  8
LAYER01
  6
CONTINUOUS
 62
     7
 10
796.59199999999987
 20
694.03584000000001
 30
0.0
  0
VERTEX
  5
E5D
  8
LAYER01
  6
CONTINUOUS
 62
     7
 10
796.650576
 20
694.10462900000005
 30
0.0
  0
VERTEX
  5
E5E
  8
LAYER01
  6
CONTINUOUS
 62
     7
 10
796.70872999999995
 20
694.17373799999984
 30
0.0
  0
VERTEX
  5
E5F
  8
LAYER01
  6
CONTINUOUS
 62
     7
 10
796.76644799999997
 20
694.24316699999986
 30
0.0
  0
VERTEX
  5
E60
  8
LAYER01
  6
CONTINUOUS
 62
     7
 10
796.823714
 20
694.31291699999986
 30
0.0
  0
VERTEX
  5
E61
  8
LAYER01
  6
CONTINUOUS
 62
     7
 10
796.88051299999995
 20
694.38298999999995
 30
0.0
  0
SEQEND
  5
E62
  8
LAYER01
  6
CONTINUOUS
 62
     7
  0
ARC
  5
5D4
  8
LAYER01
  6
CONTINUOUS
 62
     7
 10
795.00047900000004
 20
708.01178700000003
 30
0.0
 40
5.0253519999999989
 50
90.504011000000006
 51
179.49616
  0
POLYLINE
  5
5D5
  8
LAYER01
  6
CONTINUOUS
 62
     7
 66
     1
 10
0.0
 20
0.0
 30
0.0
  0
VERTEX
  5
E63
  8
LAYER01
  6
CONTINUOUS
 62
     7
 10
786.59636899999998
 20
721.39686900000004
 30
0.0
  0
VERTEX
  5
E64
  8
LAYER01
  6
CONTINUOUS
 62
     7
 10
785.62261899999999
 20
721.30135599999994
 30
0.0
  0
VERTEX
  5
E65
  8
LAYER01
  6
CONTINUOUS
 62
     7
 10
784.68738199999996
 20
721.01845199999991
 30
0.0
  0
VERTEX
  5
E66
  8
LAYER01
  6
CONTINUOUS
 62
     7
 10
783.82625099999996
 20
720.55892400000005
 30
0.0
  0
VERTEX
  5
E67
  8
LAYER01
  6
CONTINUOUS
 62
     7
 10
783.072001
 20
719.94026299999985
 30
0.0
  0
VERTEX
  5
E68
  8
LAYER01
  6
CONTINUOUS
 62
     7
 10
782.45334000000003
 20
719.186013
 30
0.0
  0
VERTEX
  5
E69
  8
LAYER01
  6
CONTINUOUS
 62
     7
 10
781.99381200000005
 20
718.324882
 30
0.0
  0
VERTEX
  5
E6A
  8
LAYER01
  6
CONTINUOUS
 62
     7
 10
781.71090800000002
 20
717.38964499999986
 30
0.0
  0
VERTEX
  5
E6B
  8
LAYER01
  6
CONTINUOUS
 62
     7
 10
781.61539500000003
 20
716.41589499999998
 30
0.0
  0
SEQEND
  5
E6C
  8
LAYER01
  6
CONTINUOUS
 62
     7
  0
LINE
  5
5E0
  8
LAYER01
  6
CONTINUOUS
 62
     7
 10
789.97532200000001
 20
699.99318300000004
 30
0.0
 11
789.97532200000001
 21
708.05597799999987
 31
0.0
  0
POLYLINE
  5
5E1
  8
LAYER01
  6
CONTINUOUS
 62
     7
 66
     1
 10
0.0
 20
0.0
 30
0.0
  0
VERTEX
  5
E6D
  8
LAYER01
  6
CONTINUOUS
 62
     7
 10
794.11116900000002
 20
694.55308200000002
 30
0.0
  0
VERTEX
  5
E6E
  8
LAYER01
  6
CONTINUOUS
 62
     7
 10
794.18512599999985
 20
694.54909000000009
 30
0.0
  0
VERTEX
  5
E6F
  8
LAYER01
  6
CONTINUOUS
 62
     7
 10
794.25916600000005
 20
694.54508499999997
 30
0.0
  0
VERTEX
  5
E70
  8
LAYER01
  6
CONTINUOUS
 62
     7
 10
794.33325599999989
 20
694.541065
 30
0.0
  0
VERTEX
  5
E71
  8
LAYER01
  6
CONTINUOUS
 62
     7
 10
794.40735999999993
 20
694.53703099999996
 30
0.0
  0
VERTEX
  5
E72
  8
LAYER01
  6
CONTINUOUS
 62
     7
 10
794.48144599999989
 20
694.53298199999995
 30
0.0
  0
VERTEX
  5
E73
  8
LAYER01
  6
CONTINUOUS
 62
     7
 10
794.55547899999999
 20
694.52891900000009
 30
0.0
  0
VERTEX
  5
E74
  8
LAYER01
  6
CONTINUOUS
 62
     7
 10
794.62942499999997
 20
694.52484200000004
 30
0.0
  0
VERTEX
  5
E75
  8
LAYER01
  6
CONTINUOUS
 62
     7
 10
794.70325000000003
 20
694.52075000000002
 30
0.0
  0
VERTEX
  5
E76
  8
LAYER01
  6
CONTINUOUS
 62
     7
 10
794.77691900000002
 20
694.51664400000004
 30
0.0
  0
VERTEX
  5
E77
  8
LAYER01
  6
CONTINUOUS
 62
     7
 10
794.85040000000004
 20
694.5125230000001
 30
0.0
  0
VERTEX
  5
E78
  8
LAYER01
  6
CONTINUOUS
 62
     7
 10
794.92365599999994
 20
694.50838699999986
 30
0.0
  0
VERTEX
  5
E79
  8
LAYER01
  6
CONTINUOUS
 62
     7
 10
794.99665500000003
 20
694.50423699999999
 30
0.0
  0
VERTEX
  5
E7A
  8
LAYER01
  6
CONTINUOUS
 62
     7
 10
795.06936299999995
 20
694.50007300000004
 30
0.0
  0
VERTEX
  5
E7B
  8
LAYER01
  6
CONTINUOUS
 62
     7
 10
795.14174400000002
 20
694.49589300000002
 30
0.0
  0
VERTEX
  5
E7C
  8
LAYER01
  6
CONTINUOUS
 62
     7
 10
795.21376599999985
 20
694.49169900000004
 30
0.0
  0
VERTEX
  5
E7D
  8
LAYER01
  6
CONTINUOUS
 62
     7
 10
795.28539399999988
 20
694.48749000000009
 30
0.0
  0
VERTEX
  5
E7E
  8
LAYER01
  6
CONTINUOUS
 62
     7
 10
795.35659399999997
 20
694.48326600000007
 30
0.0
  0
VERTEX
  5
E7F
  8
LAYER01
  6
CONTINUOUS
 62
     7
 10
795.42733099999987
 20
694.47902799999986
 30
0.0
  0
VERTEX
  5
E80
  8
LAYER01
  6
CONTINUOUS
 62
     7
 10
795.49757299999999
 20
694.47477400000002
 30
0.0
  0
VERTEX
  5
E81
  8
LAYER01
  6
CONTINUOUS
 62
     7
 10
795.56728299999997
 20
694.470506
 30
0.0
  0
VERTEX
  5
E82
  8
LAYER01
  6
CONTINUOUS
 62
     7
 10
795.63643999999999
 20
694.46622200000002
 30
0.0
  0
VERTEX
  5
E83
  8
LAYER01
  6
CONTINUOUS
 62
     7
 10
795.70505800000001
 20
694.46192499999995
 30
0.0
  0
VERTEX
  5
E84
  8
LAYER01
  6
CONTINUOUS
 62
     7
 10
795.77316699999994
 20
694.45761300000004
 30
0.0
  0
VERTEX
  5
E85
  8
LAYER01
  6
CONTINUOUS
 62
     7
 10
795.84079599999995
 20
694.45329000000004
 30
0.0
  0
VERTEX
  5
E86
  8
LAYER01
  6
CONTINUOUS
 62
     7
 10
795.90797099999997
 20
694.44895399999984
 30
0.0
  0
VERTEX
  5
E87
  8
LAYER01
  6
CONTINUOUS
 62
     7
 10
795.97472199999993
 20
694.44460700000002
 30
0.0
  0
VERTEX
  5
E88
  8
LAYER01
  6
CONTINUOUS
 62
     7
 10
796.04107699999997
 20
694.44024899999988
 30
0.0
  0
VERTEX
  5
E89
  8
LAYER01
  6
CONTINUOUS
 62
     7
 10
796.10706500000003
 20
694.43588199999988
 30
0.0
  0
VERTEX
  5
E8A
  8
LAYER01
  6
CONTINUOUS
 62
     7
 10
796.17271200000005
 20
694.43150500000002
 30
0.0
  0
VERTEX
  5
E8B
  8
LAYER01
  6
CONTINUOUS
 62
     7
 10
796.23804900000005
 20
694.42712099999994
 30
0.0
  0
VERTEX
  5
E8C
  8
LAYER01
  6
CONTINUOUS
 62
     7
 10
796.30310199999985
 20
694.42272799999989
 30
0.0
  0
VERTEX
  5
E8D
  8
LAYER01
  6
CONTINUOUS
 62
     7
 10
796.36790099999985
 20
694.41832899999986
 30
0.0
  0
VERTEX
  5
E8E
  8
LAYER01
  6
CONTINUOUS
 62
     7
 10
796.43247400000007
 20
694.41392499999995
 30
0.0
  0
VERTEX
  5
E8F
  8
LAYER01
  6
CONTINUOUS
 62
     7
 10
796.496848
 20
694.40951399999994
 30
0.0
  0
VERTEX
  5
E90
  8
LAYER01
  6
CONTINUOUS
 62
     7
 10
796.56105300000002
 20
694.40509999999995
 30
0.0
  0
VERTEX
  5
E91
  8
LAYER01
  6
CONTINUOUS
 62
     7
 10
796.62511600000005
 20
694.40068099999985
 30
0.0
  0
VERTEX
  5
E92
  8
LAYER01
  6
CONTINUOUS
 62
     7
 10
796.68906600000003
 20
694.39625999999987
 30
0.0
  0
VERTEX
  5
E93
  8
LAYER01
  6
CONTINUOUS
 62
     7
 10
796.75293099999988
 20
694.39183600000001
 30
0.0
  0
VERTEX
  5
E94
  8
LAYER01
  6
CONTINUOUS
 62
     7
 10
796.81673999999987
 20
694.38741100000004
 30
0.0
  0
VERTEX
  5
E95
  8
LAYER01
  6
CONTINUOUS
 62
     7
 10
796.88052000000005
 20
694.38298499999996
 30
0.0
  0
SEQEND
  5
E96
  8
LAYER01
  6
CONTINUOUS
 62
     7
  0
ARC
  5
60C
  8
LAYER01
  6
CONTINUOUS
 62
     7
 10
794.98678199999995
 20
700.00988700000005
 30
0.0
 40
5.0114879999999991
 50
180.190978
 51
269.65120200000001
  0
DIMENSION
  5
60D
  8
LAYER01
 62
     7
  2
*D7
 10
617.46541400000001
 20
721.39686799999993
 30
0.0
 11
557.4654139999999
 21
549.951144
 31
0.0
 53
90.0
 13
745.63120100000003
 23
376.39686899999998
 33
0.0
 14
745.63120100000003
 24
721.39686799999993
 34
0.0
 50
90.0
  0
ARC
  5
60E
  8
LAYER01
  6
CONTINUOUS
 62
     7
 10
771.61539500000003
 20
731.39686900000004
 30
0.0
 40
15.0
 50
90.0
 51
180.0
  0
LINE
  5
60F
  8
LAYER01
  6
CONTINUOUS
 62
     7
 10
1406.6153830000001
 20
366.39686399999999
 30
0.0
 11
1406.6153830000001
 21
731.39687399999991
 31
0.0
  0
LINE
  5
610
  8
LAYER01
  6
CONTINUOUS
 62
     7
 10
1381.615407
 20
394.73067700000001
 30
0.0
 11
1381.615407
 21
716.41590199999985
 31
0.0
  0
LINE
  5
611
  8
LAYER01
  6
CONTINUOUS
 62
     7
 10
1081.615395
 20
712.38022000000001
 30
0.0
 11
1368.2745170000001
 21
713.03694399999995
 31
0.0
  0
LINE
  5
612
  8
LAYER01
  6
CONTINUOUS
 62
     7
 10
1368.2745170000001
 20
694.99849299999994
 30
0.0
 11
1081.615395
 21
695.34460200000001
 31
0.0
  0
ARC
  5
613
  8
LAYER01
  6
CONTINUOUS
 62
     7
 10
1081.963258
 20
695.46895300000006
 30
0.0
 40
0.369421
 50
183.932061
 51
199.67045899999999
  0
POLYLINE
  5
614
  8
LAYER01
  6
CONTINUOUS
 62
     7
 66
     1
 10
0.0
 20
0.0
 30
0.0
  0
VERTEX
  5
E97
  8
LAYER01
  6
CONTINUOUS
 62
     7
 10
1059.9056129999999
 20
695.57058499999994
 30
0.0
  0
VERTEX
  5
E98
  8
LAYER01
  6
CONTINUOUS
 62
     7
 10
1059.916279
 20
695.60101599999985
 30
0.0
  0
VERTEX
  5
E99
  8
LAYER01
  6
CONTINUOUS
 62
     7
 10
1059.927516
 20
695.63294299999995
 30
0.0
  0
VERTEX
  5
E9A
  8
LAYER01
  6
CONTINUOUS
 62
     7
 10
1059.9393319999999
 20
695.66636100000005
 30
0.0
  0
VERTEX
  5
E9B
  8
LAYER01
  6
CONTINUOUS
 62
     7
 10
1059.951732
 20
695.70125999999993
 30
0.0
  0
VERTEX
  5
E9C
  8
LAYER01
  6
CONTINUOUS
 62
     7
 10
1059.9647239999999
 20
695.73763399999984
 30
0.0
  0
VERTEX
  5
E9D
  8
LAYER01
  6
CONTINUOUS
 62
     7
 10
1059.9783159999999
 20
695.77547600000003
 30
0.0
  0
VERTEX
  5
E9E
  8
LAYER01
  6
CONTINUOUS
 62
     7
 10
1059.9925149999999
 20
695.81477800000005
 30
0.0
  0
VERTEX
  5
E9F
  8
LAYER01
  6
CONTINUOUS
 62
     7
 10
1060.0073279999999
 20
695.85553099999993
 30
0.0
  0
VERTEX
  5
EA0
  8
LAYER01
  6
CONTINUOUS
 62
     7
 10
1060.0227620000001
 20
695.89773000000002
 30
0.0
  0
VERTEX
  5
EA1
  8
LAYER01
  6
CONTINUOUS
 62
     7
 10
1060.038824
 20
695.94136600000002
 30
0.0
  0
VERTEX
  5
EA2
  8
LAYER01
  6
CONTINUOUS
 62
     7
 10
1060.0555220000001
 20
695.98643300000003
 30
0.0
  0
VERTEX
  5
EA3
  8
LAYER01
  6
CONTINUOUS
 62
     7
 10
1060.072862
 20
696.03292199999999
 30
0.0
  0
VERTEX
  5
EA4
  8
LAYER01
  6
CONTINUOUS
 62
     7
 10
1060.090852
 20
696.080826
 30
0.0
  0
VERTEX
  5
EA5
  8
LAYER01
  6
CONTINUOUS
 62
     7
 10
1060.1095
 20
696.13013699999999
 30
0.0
  0
VERTEX
  5
EA6
  8
LAYER01
  6
CONTINUOUS
 62
     7
 10
1060.128811
 20
696.18084899999997
 30
0.0
  0
VERTEX
  5
EA7
  8
LAYER01
  6
CONTINUOUS
 62
     7
 10
1060.148794
 20
696.23295399999995
 30
0.0
  0
VERTEX
  5
EA8
  8
LAYER01
  6
CONTINUOUS
 62
     7
 10
1060.1694560000001
 20
696.28644299999985
 30
0.0
  0
VERTEX
  5
EA9
  8
LAYER01
  6
CONTINUOUS
 62
     7
 10
1060.190803
 20
696.34131100000002
 30
0.0
  0
VERTEX
  5
EAA
  8
LAYER01
  6
CONTINUOUS
 62
     7
 10
1060.2127840000001
 20
696.39738899999998
 30
0.0
  0
VERTEX
  5
EAB
  8
LAYER01
  6
CONTINUOUS
 62
     7
 10
1060.2353450000001
 20
696.45450800000003
 30
0.0
  0
VERTEX
  5
EAC
  8
LAYER01
  6
CONTINUOUS
 62
     7
 10
1060.2584939999999
 20
696.51265499999988
 30
0.0
  0
VERTEX
  5
EAD
  8
LAYER01
  6
CONTINUOUS
 62
     7
 10
1060.282236
 20
696.57182
 30
0.0
  0
VERTEX
  5
EAE
  8
LAYER01
  6
CONTINUOUS
 62
     7
 10
1060.3065770000001
 20
696.63199099999997
 30
0.0
  0
VERTEX
  5
EAF
  8
LAYER01
  6
CONTINUOUS
 62
     7
 10
1060.3315250000001
 20
696.69315700000004
 30
0.0
  0
VERTEX
  5
EB0
  8
LAYER01
  6
CONTINUOUS
 62
     7
 10
1060.357084
 20
696.7553059999999
 30
0.0
  0
VERTEX
  5
EB1
  8
LAYER01
  6
CONTINUOUS
 62
     7
 10
1060.3832620000001
 20
696.81842699999993
 30
0.0
  0
VERTEX
  5
EB2
  8
LAYER01
  6
CONTINUOUS
 62
     7
 10
1060.410065
 20
696.88250900000003
 30
0.0
  0
VERTEX
  5
EB3
  8
LAYER01
  6
CONTINUOUS
 62
     7
 10
1060.437498
 20
696.94754
 30
0.0
  0
VERTEX
  5
EB4
  8
LAYER01
  6
CONTINUOUS
 62
     7
 10
1060.465569
 20
697.013509
 30
0.0
  0
VERTEX
  5
EB5
  8
LAYER01
  6
CONTINUOUS
 62
     7
 10
1060.4942840000001
 20
697.08040499999993
 30
0.0
  0
VERTEX
  5
EB6
  8
LAYER01
  6
CONTINUOUS
 62
     7
 10
1060.5236480000001
 20
697.14821500000005
 30
0.0
  0
VERTEX
  5
EB7
  8
LAYER01
  6
CONTINUOUS
 62
     7
 10
1060.553668
 20
697.21692900000005
 30
0.0
  0
VERTEX
  5
EB8
  8
LAYER01
  6
CONTINUOUS
 62
     7
 10
1060.584351
 20
697.28653600000007
 30
0.0
  0
VERTEX
  5
EB9
  8
LAYER01
  6
CONTINUOUS
 62
     7
 10
1060.6157020000001
 20
697.35702299999991
 30
0.0
  0
VERTEX
  5
EBA
  8
LAYER01
  6
CONTINUOUS
 62
     7
 10
1060.647729
 20
697.42837999999995
 30
0.0
  0
VERTEX
  5
EBB
  8
LAYER01
  6
CONTINUOUS
 62
     7
 10
1060.6804360000001
 20
697.50059599999986
 30
0.0
  0
VERTEX
  5
EBC
  8
LAYER01
  6
CONTINUOUS
 62
     7
 10
1060.7137479999999
 20
697.57347199999992
 30
0.0
  0
VERTEX
  5
EBD
  8
LAYER01
  6
CONTINUOUS
 62
     7
 10
1060.747584
 20
697.64681699999994
 30
0.0
  0
VERTEX
  5
EBE
  8
LAYER01
  6
CONTINUOUS
 62
     7
 10
1060.7819480000001
 20
697.72062199999993
 30
0.0
  0
VERTEX
  5
EBF
  8
LAYER01
  6
CONTINUOUS
 62
     7
 10
1060.8168459999999
 20
697.79488099999992
 30
0.0
  0
VERTEX
  5
EC0
  8
LAYER01
  6
CONTINUOUS
 62
     7
 10
1060.8522800000001
 20
697.86958700000002
 30
0.0
  0
VERTEX
  5
EC1
  8
LAYER01
  6
CONTINUOUS
 62
     7
 10
1060.888256
 20
697.94473300000004
 30
0.0
  0
VERTEX
  5
EC2
  8
LAYER01
  6
CONTINUOUS
 62
     7
 10
1060.9247769999999
 20
698.02030999999988
 30
0.0
  0
VERTEX
  5
EC3
  8
LAYER01
  6
CONTINUOUS
 62
     7
 10
1060.9618479999999
 20
698.09631300000001
 30
0.0
  0
VERTEX
  5
EC4
  8
LAYER01
  6
CONTINUOUS
 62
     7
 10
1060.999472
 20
698.17273499999988
 30
0.0
  0
VERTEX
  5
EC5
  8
LAYER01
  6
CONTINUOUS
 62
     7
 10
1061.037654
 20
698.24956799999995
 30
0.0
  0
VERTEX
  5
EC6
  8
LAYER01
  6
CONTINUOUS
 62
     7
 10
1061.0763979999999
 20
698.32680400000004
 30
0.0
  0
VERTEX
  5
EC7
  8
LAYER01
  6
CONTINUOUS
 62
     7
 10
1061.1157089999999
 20
698.40443800000003
 30
0.0
  0
VERTEX
  5
EC8
  8
LAYER01
  6
CONTINUOUS
 62
     7
 10
1061.155589
 20
698.48246200000006
 30
0.0
  0
VERTEX
  5
EC9
  8
LAYER01
  6
CONTINUOUS
 62
     7
 10
1061.196044
 20
698.56086799999991
 30
0.0
  0
VERTEX
  5
ECA
  8
LAYER01
  6
CONTINUOUS
 62
     7
 10
1061.2370780000001
 20
698.63965099999984
 30
0.0
  0
VERTEX
  5
ECB
  8
LAYER01
  6
CONTINUOUS
 62
     7
 10
1061.278695
 20
698.71880199999987
 30
0.0
  0
VERTEX
  5
ECC
  8
LAYER01
  6
CONTINUOUS
 62
     7
 10
1061.3208979999999
 20
698.79831499999989
 30
0.0
  0
VERTEX
  5
ECD
  8
LAYER01
  6
CONTINUOUS
 62
     7
 10
1061.3636919999999
 20
698.87818200000004
 30
0.0
  0
VERTEX
  5
ECE
  8
LAYER01
  6
CONTINUOUS
 62
     7
 10
1061.406988
 20
698.95822399999986
 30
0.0
  0
VERTEX
  5
ECF
  8
LAYER01
  6
CONTINUOUS
 62
     7
 10
1061.4506940000001
 20
699.03826399999991
 30
0.0
  0
VERTEX
  5
ED0
  8
LAYER01
  6
CONTINUOUS
 62
     7
 10
1061.494811
 20
699.11829899999987
 30
0.0
  0
VERTEX
  5
ED1
  8
LAYER01
  6
CONTINUOUS
 62
     7
 10
1061.5393389999999
 20
699.19832499999995
 30
0.0
  0
VERTEX
  5
ED2
  8
LAYER01
  6
CONTINUOUS
 62
     7
 10
1061.5842789999999
 20
699.27833999999996
 30
0.0
  0
VERTEX
  5
ED3
  8
LAYER01
  6
CONTINUOUS
 62
     7
 10
1061.6296319999999
 20
699.35834
 30
0.0
  0
VERTEX
  5
ED4
  8
LAYER01
  6
CONTINUOUS
 62
     7
 10
1061.6753980000001
 20
699.43832199999986
 30
0.0
  0
VERTEX
  5
ED5
  8
LAYER01
  6
CONTINUOUS
 62
     7
 10
1061.721579
 20
699.518282
 30
0.0
  0
VERTEX
  5
ED6
  8
LAYER01
  6
CONTINUOUS
 62
     7
 10
1061.7681749999999
 20
699.59821900000009
 30
0.0
  0
VERTEX
  5
ED7
  8
LAYER01
  6
CONTINUOUS
 62
     7
 10
1061.8151869999999
 20
699.67812800000002
 30
0.0
  0
VERTEX
  5
ED8
  8
LAYER01
  6
CONTINUOUS
 62
     7
 10
1061.862615
 20
699.7580059999998
 30
0.0
  0
VERTEX
  5
ED9
  8
LAYER01
  6
CONTINUOUS
 62
     7
 10
1061.9104609999999
 20
699.83785
 30
0.0
  0
VERTEX
  5
EDA
  8
LAYER01
  6
CONTINUOUS
 62
     7
 10
1061.958725
 20
699.91765700000008
 30
0.0
  0
VERTEX
  5
EDB
  8
LAYER01
  6
CONTINUOUS
 62
     7
 10
1062.0074070000001
 20
699.99742400000002
 30
0.0
  0
VERTEX
  5
EDC
  8
LAYER01
  6
CONTINUOUS
 62
     7
 10
1062.056509
 20
700.07714699999997
 30
0.0
  0
VERTEX
  5
EDD
  8
LAYER01
  6
CONTINUOUS
 62
     7
 10
1062.1060319999999
 20
700.15682300000003
 30
0.0
  0
VERTEX
  5
EDE
  8
LAYER01
  6
CONTINUOUS
 62
     7
 10
1062.1559749999999
 20
700.23644999999988
 30
0.0
  0
VERTEX
  5
EDF
  8
LAYER01
  6
CONTINUOUS
 62
     7
 10
1062.2063410000001
 20
700.31602399999986
 30
0.0
  0
SEQEND
  5
EE0
  8
LAYER01
  6
CONTINUOUS
 62
     7
  0
LINE
  5
65F
  8
LAYER01
  6
CONTINUOUS
 62
     7
 10
1059.9056129999999
 20
695.57058499999994
 30
0.0
 11
1081.594707
 21
695.44361399999991
 31
0.0
  0
ARC
  5
660
  8
LAYER01
  6
CONTINUOUS
 62
     7
 10
1081.2675320000001
 20
695.46895300000006
 30
0.0
 40
0.369421
 50
340.32954100000001
 51
356.06793900000002
  0
LINE
  5
661
  8
LAYER01
  6
CONTINUOUS
 62
     7
 10
1081.6360830000001
 20
695.44361399999991
 30
0.0
 11
1103.3251769999999
 21
695.57058499999994
 31
0.0
  0
POLYLINE
  5
662
  8
LAYER01
  6
CONTINUOUS
 62
     7
 66
     1
 10
0.0
 20
0.0
 30
0.0
  0
VERTEX
  5
EE1
  8
LAYER01
  6
CONTINUOUS
 62
     7
 10
1101.0244499999999
 20
700.31602399999986
 30
0.0
  0
VERTEX
  5
EE2
  8
LAYER01
  6
CONTINUOUS
 62
     7
 10
1101.054752
 20
700.268235
 30
0.0
  0
VERTEX
  5
EE3
  8
LAYER01
  6
CONTINUOUS
 62
     7
 10
1101.0848940000001
 20
700.22044000000005
 30
0.0
  0
VERTEX
  5
EE4
  8
LAYER01
  6
CONTINUOUS
 62
     7
 10
1101.1148740000001
 20
700.17264199999988
 30
0.0
  0
VERTEX
  5
EE5
  8
LAYER01
  6
CONTINUOUS
 62
     7
 10
1101.1446940000001
 20
700.12483899999995
 30
0.0
  0
VERTEX
  5
EE6
  8
LAYER01
  6
CONTINUOUS
 62
     7
 10
1101.1743530000001
 20
700.07703300000003
 30
0.0
  0
VERTEX
  5
EE7
  8
LAYER01
  6
CONTINUOUS
 62
     7
 10
1101.203853
 20
700.029224
 30
0.0
  0
VERTEX
  5
EE8
  8
LAYER01
  6
CONTINUOUS
 62
     7
 10
1101.233193
 20
699.98141299999986
 30
0.0
  0
VERTEX
  5
EE9
  8
LAYER01
  6
CONTINUOUS
 62
     7
 10
1101.2623739999999
 20
699.93359999999996
 30
0.0
  0
VERTEX
  5
EEA
  8
LAYER01
  6
CONTINUOUS
 62
     7
 10
1101.2913960000001
 20
699.88578700000005
 30
0.0
  0
VERTEX
  5
EEB
  8
LAYER01
  6
CONTINUOUS
 62
     7
 10
1101.32026
 20
699.83797300000003
 30
0.0
  0
VERTEX
  5
EEC
  8
LAYER01
  6
CONTINUOUS
 62
     7
 10
1101.3489649999999
 20
699.79015900000002
 30
0.0
  0
VERTEX
  5
EED
  8
LAYER01
  6
CONTINUOUS
 62
     7
 10
1101.3775129999999
 20
699.742345
 30
0.0
  0
VERTEX
  5
EEE
  8
LAYER01
  6
CONTINUOUS
 62
     7
 10
1101.4059030000001
 20
699.69453299999986
 30
0.0
  0
VERTEX
  5
EEF
  8
LAYER01
  6
CONTINUOUS
 62
     7
 10
1101.4341360000001
 20
699.64672299999995
 30
0.0
  0
VERTEX
  5
EF0
  8
LAYER01
  6
CONTINUOUS
 62
     7
 10
1101.462213
 20
699.59891500000003
 30
0.0
  0
VERTEX
  5
EF1
  8
LAYER01
  6
CONTINUOUS
 62
     7
 10
1101.490133
 20
699.55110999999988
 30
0.0
  0
VERTEX
  5
EF2
  8
LAYER01
  6
CONTINUOUS
 62
     7
 10
1101.5178969999999
 20
699.50330799999995
 30
0.0
  0
VERTEX
  5
EF3
  8
LAYER01
  6
CONTINUOUS
 62
     7
 10
1101.545505
 20
699.455511
 30
0.0
  0
VERTEX
  5
EF4
  8
LAYER01
  6
CONTINUOUS
 62
     7
 10
1101.572958
 20
699.40771799999993
 30
0.0
  0
VERTEX
  5
EF5
  8
LAYER01
  6
CONTINUOUS
 62
     7
 10
1101.6002559999999
 20
699.35993099999985
 30
0.0
  0
VERTEX
  5
EF6
  8
LAYER01
  6
CONTINUOUS
 62
     7
 10
1101.6274000000001
 20
699.31214899999998
 30
0.0
  0
VERTEX
  5
EF7
  8
LAYER01
  6
CONTINUOUS
 62
     7
 10
1101.654389
 20
699.26437399999998
 30
0.0
  0
VERTEX
  5
EF8
  8
LAYER01
  6
CONTINUOUS
 62
     7
 10
1101.6812239999999
 20
699.21660499999984
 30
0.0
  0
VERTEX
  5
EF9
  8
LAYER01
  6
CONTINUOUS
 62
     7
 10
1101.7079060000001
 20
699.16884500000003
 30
0.0
  0
VERTEX
  5
EFA
  8
LAYER01
  6
CONTINUOUS
 62
     7
 10
1101.734434
 20
699.12109199999998
 30
0.0
  0
VERTEX
  5
EFB
  8
LAYER01
  6
CONTINUOUS
 62
     7
 10
1101.7608090000001
 20
699.07334800000001
 30
0.0
  0
VERTEX
  5
EFC
  8
LAYER01
  6
CONTINUOUS
 62
     7
 10
1101.787032
 20
699.02561300000002
 30
0.0
  0
VERTEX
  5
EFD
  8
LAYER01
  6
CONTINUOUS
 62
     7
 10
1101.813103
 20
698.97788800000001
 30
0.0
  0
VERTEX
  5
EFE
  8
LAYER01
  6
CONTINUOUS
 62
     7
 10
1101.8390220000001
 20
698.93017300000008
 30
0.0
  0
VERTEX
  5
EFF
  8
LAYER01
  6
CONTINUOUS
 62
     7
 10
1101.864789
 20
698.88247000000001
 30
0.0
  0
VERTEX
  5
F00
  8
LAYER01
  6
CONTINUOUS
 62
     7
 10
1101.8904110000001
 20
698.83476299999995
 30
0.0
  0
VERTEX
  5
F01
  8
LAYER01
  6
CONTINUOUS
 62
     7
 10
1101.9158890000001
 20
698.78705300000001
 30
0.0
  0
VERTEX
  5
F02
  8
LAYER01
  6
CONTINUOUS
 62
     7
 10
1101.9412139999999
 20
698.73935599999993
 30
0.0
  0
VERTEX
  5
F03
  8
LAYER01
  6
CONTINUOUS
 62
     7
 10
1101.9663800000001
 20
698.69168899999988
 30
0.0
  0
VERTEX
  5
F04
  8
LAYER01
  6
CONTINUOUS
 62
     7
 10
1101.9913790000001
 20
698.64407099999994
 30
0.0
  0
VERTEX
  5
F05
  8
LAYER01
  6
CONTINUOUS
 62
     7
 10
1102.016202
 20
698.59651899999994
 30
0.0
  0
VERTEX
  5
F06
  8
LAYER01
  6
CONTINUOUS
 62
     7
 10
1102.040843
 20
698.54905099999985
 30
0.0
  0
VERTEX
  5
F07
  8
LAYER01
  6
CONTINUOUS
 62
     7
 10
1102.065294
 20
698.50168399999995
 30
0.0
  0
VERTEX
  5
F08
  8
LAYER01
  6
CONTINUOUS
 62
     7
 10
1102.089547
 20
698.45443599999999
 30
0.0
  0
VERTEX
  5
F09
  8
LAYER01
  6
CONTINUOUS
 62
     7
 10
1102.113595
 20
698.40732400000002
 30
0.0
  0
VERTEX
  5
F0A
  8
LAYER01
  6
CONTINUOUS
 62
     7
 10
1102.1374290000001
 20
698.36036599999989
 30
0.0
  0
VERTEX
  5
F0B
  8
LAYER01
  6
CONTINUOUS
 62
     7
 10
1102.1610430000001
 20
698.313579
 30
0.0
  0
VERTEX
  5
F0C
  8
LAYER01
  6
CONTINUOUS
 62
     7
 10
1102.184428
 20
698.26698199999987
 30
0.0
  0
VERTEX
  5
F0D
  8
LAYER01
  6
CONTINUOUS
 62
     7
 10
1102.2075769999999
 20
698.22059200000001
 30
0.0
  0
VERTEX
  5
F0E
  8
LAYER01
  6
CONTINUOUS
 62
     7
 10
1102.230483
 20
698.17442599999993
 30
0.0
  0
VERTEX
  5
F0F
  8
LAYER01
  6
CONTINUOUS
 62
     7
 10
1102.2531530000001
 20
698.12847499999998
 30
0.0
  0
VERTEX
  5
F10
  8
LAYER01
  6
CONTINUOUS
 62
     7
 10
1102.2755999999999
 20
698.082719
 30
0.0
  0
VERTEX
  5
F11
  8
LAYER01
  6
CONTINUOUS
 62
     7
 10
1102.297826
 20
698.03715899999986
 30
0.0
  0
VERTEX
  5
F12
  8
LAYER01
  6
CONTINUOUS
 62
     7
 10
1102.319833
 20
697.99179800000002
 30
0.0
  0
VERTEX
  5
F13
  8
LAYER01
  6
CONTINUOUS
 62
     7
 10
1102.3416199999999
 20
697.9466359999999
 30
0.0
  0
VERTEX
  5
F14
  8
LAYER01
  6
CONTINUOUS
 62
     7
 10
1102.3631909999999
 20
697.90167499999995
 30
0.0
  0
VERTEX
  5
F15
  8
LAYER01
  6
CONTINUOUS
 62
     7
 10
1102.3845449999999
 20
697.85691699999995
 30
0.0
  0
VERTEX
  5
F16
  8
LAYER01
  6
CONTINUOUS
 62
     7
 10
1102.4056840000001
 20
697.81236299999989
 30
0.0
  0
VERTEX
  5
F17
  8
LAYER01
  6
CONTINUOUS
 62
     7
 10
1102.4266090000001
 20
697.76801399999999
 30
0.0
  0
VERTEX
  5
F18
  8
LAYER01
  6
CONTINUOUS
 62
     7
 10
1102.447322
 20
697.72387300000003
 30
0.0
  0
VERTEX
  5
F19
  8
LAYER01
  6
CONTINUOUS
 62
     7
 10
1102.4678240000001
 20
697.67993999999987
 30
0.0
  0
VERTEX
  5
F1A
  8
LAYER01
  6
CONTINUOUS
 62
     7
 10
1102.488116
 20
697.63621799999987
 30
0.0
  0
VERTEX
  5
F1B
  8
LAYER01
  6
CONTINUOUS
 62
     7
 10
1102.5082
 20
697.59270700000002
 30
0.0
  0
VERTEX
  5
F1C
  8
LAYER01
  6
CONTINUOUS
 62
     7
 10
1102.5280760000001
 20
697.54940999999985
 30
0.0
  0
VERTEX
  5
F1D
  8
LAYER01
  6
CONTINUOUS
 62
     7
 10
1102.5477450000001
 20
697.50632699999994
 30
0.0
  0
VERTEX
  5
F1E
  8
LAYER01
  6
CONTINUOUS
 62
     7
 10
1102.567213
 20
697.46345300000007
 30
0.0
  0
VERTEX
  5
F1F
  8
LAYER01
  6
CONTINUOUS
 62
     7
 10
1102.586483
 20
697.42078400000003
 30
0.0
  0
VERTEX
  5
F20
  8
LAYER01
  6
CONTINUOUS
 62
     7
 10
1102.605552
 20
697.37832800000001
 30
0.0
  0
VERTEX
  5
F21
  8
LAYER01
  6
CONTINUOUS
 62
     7
 10
1102.6244220000001
 20
697.33608800000002
 30
0.0
  0
VERTEX
  5
F22
  8
LAYER01
  6
CONTINUOUS
 62
     7
 10
1102.6430909999999
 20
697.29407300000003
 30
0.0
  0
VERTEX
  5
F23
  8
LAYER01
  6
CONTINUOUS
 62
     7
 10
1102.661558
 20
697.25228800000002
 30
0.0
  0
VERTEX
  5
F24
  8
LAYER01
  6
CONTINUOUS
 62
     7
 10
1102.6798229999999
 20
697.21073799999988
 30
0.0
  0
VERTEX
  5
F25
  8
LAYER01
  6
CONTINUOUS
 62
     7
 10
1102.697885
 20
697.16943099999992
 30
0.0
  0
VERTEX
  5
F26
  8
LAYER01
  6
CONTINUOUS
 62
     7
 10
1102.7157440000001
 20
697.12837200000001
 30
0.0
  0
VERTEX
  5
F27
  8
LAYER01
  6
CONTINUOUS
 62
     7
 10
1102.7333980000001
 20
697.08756700000004
 30
0.0
  0
VERTEX
  5
F28
  8
LAYER01
  6
CONTINUOUS
 62
     7
 10
1102.750847
 20
697.04702199999997
 30
0.0
  0
VERTEX
  5
F29
  8
LAYER01
  6
CONTINUOUS
 62
     7
 10
1102.76809
 20
697.00674400000003
 30
0.0
  0
VERTEX
  5
F2A
  8
LAYER01
  6
CONTINUOUS
 62
     7
 10
1102.7851270000001
 20
696.96673899999985
 30
0.0
  0
VERTEX
  5
F2B
  8
LAYER01
  6
CONTINUOUS
 62
     7
 10
1102.801956
 20
696.92701199999999
 30
0.0
  0
VERTEX
  5
F2C
  8
LAYER01
  6
CONTINUOUS
 62
     7
 10
1102.8185779999999
 20
696.88756999999987
 30
0.0
  0
VERTEX
  5
F2D
  8
LAYER01
  6
CONTINUOUS
 62
     7
 10
1102.834965
 20
696.84848299999999
 30
0.0
  0
VERTEX
  5
F2E
  8
LAYER01
  6
CONTINUOUS
 62
     7
 10
1102.8510920000001
 20
696.80981799999995
 30
0.0
  0
VERTEX
  5
F2F
  8
LAYER01
  6
CONTINUOUS
 62
     7
 10
1102.8669620000001
 20
696.77157399999999
 30
0.0
  0
VERTEX
  5
F30
  8
LAYER01
  6
CONTINUOUS
 62
     7
 10
1102.882578
 20
696.73375299999998
 30
0.0
  0
VERTEX
  5
F31
  8
LAYER01
  6
CONTINUOUS
 62
     7
 10
1102.8979420000001
 20
696.69635599999992
 30
0.0
  0
VERTEX
  5
F32
  8
LAYER01
  6
CONTINUOUS
 62
     7
 10
1102.9130560000001
 20
696.65938200000005
 30
0.0
  0
VERTEX
  5
F33
  8
LAYER01
  6
CONTINUOUS
 62
     7
 10
1102.9279220000001
 20
696.6228329999999
 30
0.0
  0
VERTEX
  5
F34
  8
LAYER01
  6
CONTINUOUS
 62
     7
 10
1102.9425429999999
 20
696.58670900000004
 30
0.0
  0
VERTEX
  5
F35
  8
LAYER01
  6
CONTINUOUS
 62
     7
 10
1102.9569220000001
 20
696.55101100000002
 30
0.0
  0
VERTEX
  5
F36
  8
LAYER01
  6
CONTINUOUS
 62
     7
 10
1102.9710600000001
 20
696.51573899999994
 30
0.0
  0
VERTEX
  5
F37
  8
LAYER01
  6
CONTINUOUS
 62
     7
 10
1102.9849610000001
 20
696.48089500000003
 30
0.0
  0
VERTEX
  5
F38
  8
LAYER01
  6
CONTINUOUS
 62
     7
 10
1102.9986260000001
 20
696.44647800000007
 30
0.0
  0
VERTEX
  5
F39
  8
LAYER01
  6
CONTINUOUS
 62
     7
 10
1103.012058
 20
696.41249000000005
 30
0.0
  0
VERTEX
  5
F3A
  8
LAYER01
  6
CONTINUOUS
 62
     7
 10
1103.0252599999999
 20
696.37893099999997
 30
0.0
  0
VERTEX
  5
F3B
  8
LAYER01
  6
CONTINUOUS
 62
     7
 10
1103.0382340000001
 20
696.34580099999994
 30
0.0
  0
VERTEX
  5
F3C
  8
LAYER01
  6
CONTINUOUS
 62
     7
 10
1103.0509810000001
 20
696.31310299999996
 30
0.0
  0
VERTEX
  5
F3D
  8
LAYER01
  6
CONTINUOUS
 62
     7
 10
1103.063504
 20
696.28083600000002
 30
0.0
  0
VERTEX
  5
F3E
  8
LAYER01
  6
CONTINUOUS
 62
     7
 10
1103.075803
 20
696.24900500000001
 30
0.0
  0
VERTEX
  5
F3F
  8
LAYER01
  6
CONTINUOUS
 62
     7
 10
1103.08788
 20
696.21761200000003
 30
0.0
  0
VERTEX
  5
F40
  8
LAYER01
  6
CONTINUOUS
 62
     7
 10
1103.0997359999999
 20
696.18665999999985
 30
0.0
  0
VERTEX
  5
F41
  8
LAYER01
  6
CONTINUOUS
 62
     7
 10
1103.1113720000001
 20
696.15615199999991
 30
0.0
  0
VERTEX
  5
F42
  8
LAYER01
  6
CONTINUOUS
 62
     7
 10
1103.1227879999999
 20
696.12608999999998
 30
0.0
  0
VERTEX
  5
F43
  8
LAYER01
  6
CONTINUOUS
 62
     7
 10
1103.133988
 20
696.09647699999994
 30
0.0
  0
VERTEX
  5
F44
  8
LAYER01
  6
CONTINUOUS
 62
     7
 10
1103.1449700000001
 20
696.06731499999989
 30
0.0
  0
VERTEX
  5
F45
  8
LAYER01
  6
CONTINUOUS
 62
     7
 10
1103.155737
 20
696.03860899999995
 30
0.0
  0
VERTEX
  5
F46
  8
LAYER01
  6
CONTINUOUS
 62
     7
 10
1103.1662899999999
 20
696.01035899999999
 30
0.0
  0
VERTEX
  5
F47
  8
LAYER01
  6
CONTINUOUS
 62
     7
 10
1103.1766299999999
 20
695.98257000000001
 30
0.0
  0
VERTEX
  5
F48
  8
LAYER01
  6
CONTINUOUS
 62
     7
 10
1103.1867580000001
 20
695.955243
 30
0.0
  0
VERTEX
  5
F49
  8
LAYER01
  6
CONTINUOUS
 62
     7
 10
1103.1966749999999
 20
695.92838200000006
 30
0.0
  0
VERTEX
  5
F4A
  8
LAYER01
  6
CONTINUOUS
 62
     7
 10
1103.2063820000001
 20
695.90198899999984
 30
0.0
  0
VERTEX
  5
F4B
  8
LAYER01
  6
CONTINUOUS
 62
     7
 10
1103.2158730000001
 20
695.87609099999986
 30
0.0
  0
VERTEX
  5
F4C
  8
LAYER01
  6
CONTINUOUS
 62
     7
 10
1103.225138
 20
695.85071600000003
 30
0.0
  0
VERTEX
  5
F4D
  8
LAYER01
  6
CONTINUOUS
 62
     7
 10
1103.2341779999999
 20
695.82586700000002
 30
0.0
  0
VERTEX
  5
F4E
  8
LAYER01
  6
CONTINUOUS
 62
     7
 10
1103.2429930000001
 20
695.80155100000002
 30
0.0
  0
VERTEX
  5
F4F
  8
LAYER01
  6
CONTINUOUS
 62
     7
 10
1103.251583
 20
695.77777200000003
 30
0.0
  0
VERTEX
  5
F50
  8
LAYER01
  6
CONTINUOUS
 62
     7
 10
1103.259949
 20
695.75453499999992
 30
0.0
  0
VERTEX
  5
F51
  8
LAYER01
  6
CONTINUOUS
 62
     7
 10
1103.2680909999999
 20
695.73184400000002
 30
0.0
  0
VERTEX
  5
F52
  8
LAYER01
  6
CONTINUOUS
 62
     7
 10
1103.2760089999999
 20
695.70970599999987
 30
0.0
  0
VERTEX
  5
F53
  8
LAYER01
  6
CONTINUOUS
 62
     7
 10
1103.2837030000001
 20
695.68812300000002
 30
0.0
  0
VERTEX
  5
F54
  8
LAYER01
  6
CONTINUOUS
 62
     7
 10
1103.2911730000001
 20
695.66710199999989
 30
0.0
  0
VERTEX
  5
F55
  8
LAYER01
  6
CONTINUOUS
 62
     7
 10
1103.2984200000001
 20
695.64664700000003
 30
0.0
  0
VERTEX
  5
F56
  8
LAYER01
  6
CONTINUOUS
 62
     7
 10
1103.3054440000001
 20
695.62676299999998
 30
0.0
  0
VERTEX
  5
F57
  8
LAYER01
  6
CONTINUOUS
 62
     7
 10
1103.312244
 20
695.60745499999985
 30
0.0
  0
VERTEX
  5
F58
  8
LAYER01
  6
CONTINUOUS
 62
     7
 10
1103.318822
 20
695.58872699999995
 30
0.0
  0
VERTEX
  5
F59
  8
LAYER01
  6
CONTINUOUS
 62
     7
 10
1103.3251769999999
 20
695.57058499999994
 30
0.0
  0
SEQEND
  5
F5A
  8
LAYER01
  6
CONTINUOUS
 62
     7
  0
POLYLINE
  5
6DD
  8
LAYER01
  6
CONTINUOUS
 62
     7
 66
     1
 10
0.0
 20
0.0
 30
0.0
  0
VERTEX
  5
F5B
  8
LAYER01
  6
CONTINUOUS
 62
     7
 10
1069.341991
 20
707.42706699999985
 30
0.0
  0
VERTEX
  5
F5C
  8
LAYER01
  6
CONTINUOUS
 62
     7
 10
1069.4678899999999
 20
707.505942
 30
0.0
  0
VERTEX
  5
F5D
  8
LAYER01
  6
CONTINUOUS
 62
     7
 10
1069.5940929999999
 20
707.58388600000001
 30
0.0
  0
VERTEX
  5
F5E
  8
LAYER01
  6
CONTINUOUS
 62
     7
 10
1069.7206040000001
 20
707.66090199999985
 30
0.0
  0
VERTEX
  5
F5F
  8
LAYER01
  6
CONTINUOUS
 62
     7
 10
1069.8474229999999
 20
707.73699499999987
 30
0.0
  0
VERTEX
  5
F60
  8
LAYER01
  6
CONTINUOUS
 62
     7
 10
1069.9745519999999
 20
707.81216799999993
 30
0.0
  0
VERTEX
  5
F61
  8
LAYER01
  6
CONTINUOUS
 62
     7
 10
1070.101993
 20
707.88642500000003
 30
0.0
  0
VERTEX
  5
F62
  8
LAYER01
  6
CONTINUOUS
 62
     7
 10
1070.229746
 20
707.95977000000005
 30
0.0
  0
VERTEX
  5
F63
  8
LAYER01
  6
CONTINUOUS
 62
     7
 10
1070.3578130000001
 20
708.03220599999997
 30
0.0
  0
VERTEX
  5
F64
  8
LAYER01
  6
CONTINUOUS
 62
     7
 10
1070.4861960000001
 20
708.10373800000002
 30
0.0
  0
VERTEX
  5
F65
  8
LAYER01
  6
CONTINUOUS
 62
     7
 10
1070.6148969999999
 20
708.17436999999995
 30
0.0
  0
VERTEX
  5
F66
  8
LAYER01
  6
CONTINUOUS
 62
     7
 10
1070.7439159999999
 20
708.24410399999988
 30
0.0
  0
VERTEX
  5
F67
  8
LAYER01
  6
CONTINUOUS
 62
     7
 10
1070.873255
 20
708.31294600000001
 30
0.0
  0
VERTEX
  5
F68
  8
LAYER01
  6
CONTINUOUS
 62
     7
 10
1071.002915
 20
708.380898
 30
0.0
  0
VERTEX
  5
F69
  8
LAYER01
  6
CONTINUOUS
 62
     7
 10
1071.132899
 20
708.44796599999995
 30
0.0
  0
VERTEX
  5
F6A
  8
LAYER01
  6
CONTINUOUS
 62
     7
 10
1071.263207
 20
708.51415099999986
 30
0.0
  0
VERTEX
  5
F6B
  8
LAYER01
  6
CONTINUOUS
 62
     7
 10
1071.39384
 20
708.57945899999993
 30
0.0
  0
VERTEX
  5
F6C
  8
LAYER01
  6
CONTINUOUS
 62
     7
 10
1071.5248019999999
 20
708.64389400000005
 30
0.0
  0
VERTEX
  5
F6D
  8
LAYER01
  6
CONTINUOUS
 62
     7
 10
1071.6560919999999
 20
708.70745799999986
 30
0.0
  0
VERTEX
  5
F6E
  8
LAYER01
  6
CONTINUOUS
 62
     7
 10
1071.7877120000001
 20
708.77015599999993
 30
0.0
  0
VERTEX
  5
F6F
  8
LAYER01
  6
CONTINUOUS
 62
     7
 10
1071.919664
 20
708.8319919999999
 30
0.0
  0
VERTEX
  5
F70
  8
LAYER01
  6
CONTINUOUS
 62
     7
 10
1072.0519489999999
 20
708.89296999999999
 30
0.0
  0
VERTEX
  5
F71
  8
LAYER01
  6
CONTINUOUS
 62
     7
 10
1072.184569
 20
708.95309299999985
 30
0.0
  0
VERTEX
  5
F72
  8
LAYER01
  6
CONTINUOUS
 62
     7
 10
1072.3175249999999
 20
709.01236100000006
 30
0.0
  0
VERTEX
  5
F73
  8
LAYER01
  6
CONTINUOUS
 62
     7
 10
1072.4508189999999
 20
709.07077300000003
 30
0.0
  0
VERTEX
  5
F74
  8
LAYER01
  6
CONTINUOUS
 62
     7
 10
1072.5844540000001
 20
709.12832899999989
 30
0.0
  0
VERTEX
  5
F75
  8
LAYER01
  6
CONTINUOUS
 62
     7
 10
1072.7184319999999
 20
709.18502999999987
 30
0.0
  0
VERTEX
  5
F76
  8
LAYER01
  6
CONTINUOUS
 62
     7
 10
1072.852754
 20
709.24087699999995
 30
0.0
  0
VERTEX
  5
F77
  8
LAYER01
  6
CONTINUOUS
 62
     7
 10
1072.9874219999999
 20
709.29587199999992
 30
0.0
  0
VERTEX
  5
F78
  8
LAYER01
  6
CONTINUOUS
 62
     7
 10
1073.122439
 20
709.35001299999988
 30
0.0
  0
VERTEX
  5
F79
  8
LAYER01
  6
CONTINUOUS
 62
     7
 10
1073.257807
 20
709.40330400000005
 30
0.0
  0
VERTEX
  5
F7A
  8
LAYER01
  6
CONTINUOUS
 62
     7
 10
1073.3935280000001
 20
709.45574399999998
 30
0.0
  0
VERTEX
  5
F7B
  8
LAYER01
  6
CONTINUOUS
 62
     7
 10
1073.529603
 20
709.5073339999999
 30
0.0
  0
VERTEX
  5
F7C
  8
LAYER01
  6
CONTINUOUS
 62
     7
 10
1073.666035
 20
709.55807500000003
 30
0.0
  0
VERTEX
  5
F7D
  8
LAYER01
  6
CONTINUOUS
 62
     7
 10
1073.802854
 20
709.60797600000001
 30
0.0
  0
VERTEX
  5
F7E
  8
LAYER01
  6
CONTINUOUS
 62
     7
 10
1073.9400760000001
 20
709.65704000000005
 30
0.0
  0
VERTEX
  5
F7F
  8
LAYER01
  6
CONTINUOUS
 62
     7
 10
1074.077687
 20
709.70525999999995
 30
0.0
  0
VERTEX
  5
F80
  8
LAYER01
  6
CONTINUOUS
 62
     7
 10
1074.21567
 20
709.75263199999995
 30
0.0
  0
VERTEX
  5
F81
  8
LAYER01
  6
CONTINUOUS
 62
     7
 10
1074.354012
 20
709.79914900000006
 30
0.0
  0
VERTEX
  5
F82
  8
LAYER01
  6
CONTINUOUS
 62
     7
 10
1074.492696
 20
709.84480499999995
 30
0.0
  0
VERTEX
  5
F83
  8
LAYER01
  6
CONTINUOUS
 62
     7
 10
1074.631707
 20
709.88959399999999
 30
0.0
  0
VERTEX
  5
F84
  8
LAYER01
  6
CONTINUOUS
 62
     7
 10
1074.7710300000001
 20
709.93350999999996
 30
0.0
  0
VERTEX
  5
F85
  8
LAYER01
  6
CONTINUOUS
 62
     7
 10
1074.91065
 20
709.97654699999998
 30
0.0
  0
VERTEX
  5
F86
  8
LAYER01
  6
CONTINUOUS
 62
     7
 10
1075.0505499999999
 20
710.01869899999997
 30
0.0
  0
VERTEX
  5
F87
  8
LAYER01
  6
CONTINUOUS
 62
     7
 10
1075.1907169999999
 20
710.05995999999993
 30
0.0
  0
VERTEX
  5
F88
  8
LAYER01
  6
CONTINUOUS
 62
     7
 10
1075.331081
 20
710.10031399999991
 30
0.0
  0
VERTEX
  5
F89
  8
LAYER01
  6
CONTINUOUS
 62
     7
 10
1075.471589
 20
710.13975099999993
 30
0.0
  0
VERTEX
  5
F8A
  8
LAYER01
  6
CONTINUOUS
 62
     7
 10
1075.612241
 20
710.17827199999999
 30
0.0
  0
VERTEX
  5
F8B
  8
LAYER01
  6
CONTINUOUS
 62
     7
 10
1075.7530400000001
 20
710.21587699999986
 30
0.0
  0
VERTEX
  5
F8C
  8
LAYER01
  6
CONTINUOUS
 62
     7
 10
1075.893988
 20
710.252568
 30
0.0
  0
VERTEX
  5
F8D
  8
LAYER01
  6
CONTINUOUS
 62
     7
 10
1076.0350880000001
 20
710.28834600000005
 30
0.0
  0
VERTEX
  5
F8E
  8
LAYER01
  6
CONTINUOUS
 62
     7
 10
1076.176342
 20
710.32321200000001
 30
0.0
  0
VERTEX
  5
F8F
  8
LAYER01
  6
CONTINUOUS
 62
     7
 10
1076.317753
 20
710.357167
 30
0.0
  0
VERTEX
  5
F90
  8
LAYER01
  6
CONTINUOUS
 62
     7
 10
1076.459321
 20
710.39021200000002
 30
0.0
  0
VERTEX
  5
F91
  8
LAYER01
  6
CONTINUOUS
 62
     7
 10
1076.6010510000001
 20
710.42234800000006
 30
0.0
  0
VERTEX
  5
F92
  8
LAYER01
  6
CONTINUOUS
 62
     7
 10
1076.742943
 20
710.453577
 30
0.0
  0
VERTEX
  5
F93
  8
LAYER01
  6
CONTINUOUS
 62
     7
 10
1076.885
 20
710.48389800000007
 30
0.0
  0
VERTEX
  5
F94
  8
LAYER01
  6
CONTINUOUS
 62
     7
 10
1077.0272259999999
 20
710.51331500000003
 30
0.0
  0
VERTEX
  5
F95
  8
LAYER01
  6
CONTINUOUS
 62
     7
 10
1077.1696199999999
 20
710.54182700000001
 30
0.0
  0
VERTEX
  5
F96
  8
LAYER01
  6
CONTINUOUS
 62
     7
 10
1077.312187
 20
710.569435
 30
0.0
  0
VERTEX
  5
F97
  8
LAYER01
  6
CONTINUOUS
 62
     7
 10
1077.454929
 20
710.59614199999987
 30
0.0
  0
VERTEX
  5
F98
  8
LAYER01
  6
CONTINUOUS
 62
     7
 10
1077.597847
 20
710.62194699999998
 30
0.0
  0
VERTEX
  5
F99
  8
LAYER01
  6
CONTINUOUS
 62
     7
 10
1077.7409439999999
 20
710.64685199999985
 30
0.0
  0
VERTEX
  5
F9A
  8
LAYER01
  6
CONTINUOUS
 62
     7
 10
1077.8842219999999
 20
710.67085799999995
 30
0.0
  0
VERTEX
  5
F9B
  8
LAYER01
  6
CONTINUOUS
 62
     7
 10
1078.027683
 20
710.69396600000005
 30
0.0
  0
VERTEX
  5
F9C
  8
LAYER01
  6
CONTINUOUS
 62
     7
 10
1078.1713299999999
 20
710.71617800000001
 30
0.0
  0
VERTEX
  5
F9D
  8
LAYER01
  6
CONTINUOUS
 62
     7
 10
1078.315165
 20
710.73749399999997
 30
0.0
  0
VERTEX
  5
F9E
  8
LAYER01
  6
CONTINUOUS
 62
     7
 10
1078.459192
 20
710.75791399999991
 30
0.0
  0
VERTEX
  5
F9F
  8
LAYER01
  6
CONTINUOUS
 62
     7
 10
1078.603413
 20
710.77743699999985
 30
0.0
  0
VERTEX
  5
FA0
  8
LAYER01
  6
CONTINUOUS
 62
     7
 10
1078.747832
 20
710.79606000000001
 30
0.0
  0
VERTEX
  5
FA1
  8
LAYER01
  6
CONTINUOUS
 62
     7
 10
1078.8924509999999
 20
710.81378099999995
 30
0.0
  0
VERTEX
  5
FA2
  8
LAYER01
  6
CONTINUOUS
 62
     7
 10
1079.03727
 20
710.83059600000001
 30
0.0
  0
VERTEX
  5
FA3
  8
LAYER01
  6
CONTINUOUS
 62
     7
 10
1079.182294
 20
710.84650399999987
 30
0.0
  0
VERTEX
  5
FA4
  8
LAYER01
  6
CONTINUOUS
 62
     7
 10
1079.3275229999999
 20
710.86149999999998
 30
0.0
  0
VERTEX
  5
FA5
  8
LAYER01
  6
CONTINUOUS
 62
     7
 10
1079.4729600000001
 20
710.875584
 30
0.0
  0
VERTEX
  5
FA6
  8
LAYER01
  6
CONTINUOUS
 62
     7
 10
1079.6186070000001
 20
710.88875099999996
 30
0.0
  0
VERTEX
  5
FA7
  8
LAYER01
  6
CONTINUOUS
 62
     7
 10
1079.764467
 20
710.90099899999996
 30
0.0
  0
VERTEX
  5
FA8
  8
LAYER01
  6
CONTINUOUS
 62
     7
 10
1079.9105400000001
 20
710.912327
 30
0.0
  0
VERTEX
  5
FA9
  8
LAYER01
  6
CONTINUOUS
 62
     7
 10
1080.05683
 20
710.92273
 30
0.0
  0
VERTEX
  5
FAA
  8
LAYER01
  6
CONTINUOUS
 62
     7
 10
1080.2033389999999
 20
710.93220599999995
 30
0.0
  0
VERTEX
  5
FAB
  8
LAYER01
  6
CONTINUOUS
 62
     7
 10
1080.350068
 20
710.94075299999986
 30
0.0
  0
VERTEX
  5
FAC
  8
LAYER01
  6
CONTINUOUS
 62
     7
 10
1080.4970209999999
 20
710.94836799999985
 30
0.0
  0
VERTEX
  5
FAD
  8
LAYER01
  6
CONTINUOUS
 62
     7
 10
1080.644198
 20
710.95504800000003
 30
0.0
  0
VERTEX
  5
FAE
  8
LAYER01
  6
CONTINUOUS
 62
     7
 10
1080.7916029999999
 20
710.96079000000009
 30
0.0
  0
VERTEX
  5
FAF
  8
LAYER01
  6
CONTINUOUS
 62
     7
 10
1080.9392359999999
 20
710.96559200000002
 30
0.0
  0
VERTEX
  5
FB0
  8
LAYER01
  6
CONTINUOUS
 62
     7
 10
1081.087102
 20
710.96945199999993
 30
0.0
  0
VERTEX
  5
FB1
  8
LAYER01
  6
CONTINUOUS
 62
     7
 10
1081.2352000000001
 20
710.97236599999997
 30
0.0
  0
VERTEX
  5
FB2
  8
LAYER01
  6
CONTINUOUS
 62
     7
 10
1081.3835349999999
 20
710.97433099999989
 30
0.0
  0
VERTEX
  5
FB3
  8
LAYER01
  6
CONTINUOUS
 62
     7
 10
1081.532107
 20
710.97534599999994
 30
0.0
  0
SEQEND
  5
FB4
  8
LAYER01
  6
CONTINUOUS
 62
     7
  0
POLYLINE
  5
738
  8
LAYER01
  6
CONTINUOUS
 62
     7
 66
     1
 10
0.0
 20
0.0
 30
0.0
  0
VERTEX
  5
FB5
  8
LAYER01
  6
CONTINUOUS
 62
     7
 10
1081.6986830000001
 20
710.97534599999994
 30
0.0
  0
VERTEX
  5
FB6
  8
LAYER01
  6
CONTINUOUS
 62
     7
 10
1081.880116
 20
710.97397799999987
 30
0.0
  0
VERTEX
  5
FB7
  8
LAYER01
  6
CONTINUOUS
 62
     7
 10
1082.0612149999999
 20
710.97119199999986
 30
0.0
  0
VERTEX
  5
FB8
  8
LAYER01
  6
CONTINUOUS
 62
     7
 10
1082.2419850000001
 20
710.96699100000001
 30
0.0
  0
VERTEX
  5
FB9
  8
LAYER01
  6
CONTINUOUS
 62
     7
 10
1082.4224280000001
 20
710.96138199999996
 30
0.0
  0
VERTEX
  5
FBA
  8
LAYER01
  6
CONTINUOUS
 62
     7
 10
1082.6025480000001
 20
710.95436799999993
 30
0.0
  0
VERTEX
  5
FBB
  8
LAYER01
  6
CONTINUOUS
 62
     7
 10
1082.7823490000001
 20
710.94595300000003
 30
0.0
  0
VERTEX
  5
FBC
  8
LAYER01
  6
CONTINUOUS
 62
     7
 10
1082.9618350000001
 20
710.9361429999999
 30
0.0
  0
VERTEX
  5
FBD
  8
LAYER01
  6
CONTINUOUS
 62
     7
 10
1083.1410089999999
 20
710.92494099999999
 30
0.0
  0
VERTEX
  5
FBE
  8
LAYER01
  6
CONTINUOUS
 62
     7
 10
1083.3198749999999
 20
710.91235199999994
 30
0.0
  0
VERTEX
  5
FBF
  8
LAYER01
  6
CONTINUOUS
 62
     7
 10
1083.4984360000001
 20
710.89838099999986
 30
0.0
  0
VERTEX
  5
FC0
  8
LAYER01
  6
CONTINUOUS
 62
     7
 10
1083.676696
 20
710.88303199999996
 30
0.0
  0
VERTEX
  5
FC1
  8
LAYER01
  6
CONTINUOUS
 62
     7
 10
1083.8546590000001
 20
710.866309
 30
0.0
  0
VERTEX
  5
FC2
  8
LAYER01
  6
CONTINUOUS
 62
     7
 10
1084.032328
 20
710.84821799999997
 30
0.0
  0
VERTEX
  5
FC3
  8
LAYER01
  6
CONTINUOUS
 62
     7
 10
1084.209707
 20
710.82876199999987
 30
0.0
  0
VERTEX
  5
FC4
  8
LAYER01
  6
CONTINUOUS
 62
     7
 10
1084.3867990000001
 20
710.8079459999999
 30
0.0
  0
VERTEX
  5
FC5
  8
LAYER01
  6
CONTINUOUS
 62
     7
 10
1084.5636079999999
 20
710.78577399999995
 30
0.0
  0
VERTEX
  5
FC6
  8
LAYER01
  6
CONTINUOUS
 62
     7
 10
1084.740139
 20
710.76225199999988
 30
0.0
  0
VERTEX
  5
FC7
  8
LAYER01
  6
CONTINUOUS
 62
     7
 10
1084.916393
 20
710.73738200000003
 30
0.0
  0
VERTEX
  5
FC8
  8
LAYER01
  6
CONTINUOUS
 62
     7
 10
1085.0923969999999
 20
710.71116399999994
 30
0.0
  0
VERTEX
  5
FC9
  8
LAYER01
  6
CONTINUOUS
 62
     7
 10
1085.2681709999999
 20
710.68359099999998
 30
0.0
  0
VERTEX
  5
FCA
  8
LAYER01
  6
CONTINUOUS
 62
     7
 10
1085.443712
 20
710.65466300000003
 30
0.0
  0
VERTEX
  5
FCB
  8
LAYER01
  6
CONTINUOUS
 62
     7
 10
1085.619017
 20
710.62438099999986
 30
0.0
  0
VERTEX
  5
FCC
  8
LAYER01
  6
CONTINUOUS
 62
     7
 10
1085.7940819999999
 20
710.59274299999993
 30
0.0
  0
VERTEX
  5
FCD
  8
LAYER01
  6
CONTINUOUS
 62
     7
 10
1085.9689040000001
 20
710.55975000000001
 30
0.0
  0
VERTEX
  5
FCE
  8
LAYER01
  6
CONTINUOUS
 62
     7
 10
1086.14348
 20
710.52540099999999
 30
0.0
  0
VERTEX
  5
FCF
  8
LAYER01
  6
CONTINUOUS
 62
     7
 10
1086.3178069999999
 20
710.48969699999986
 30
0.0
  0
VERTEX
  5
FD0
  8
LAYER01
  6
CONTINUOUS
 62
     7
 10
1086.491882
 20
710.45263599999998
 30
0.0
  0
VERTEX
  5
FD1
  8
LAYER01
  6
CONTINUOUS
 62
     7
 10
1086.6657009999999
 20
710.41422
 30
0.0
  0
VERTEX
  5
FD2
  8
LAYER01
  6
CONTINUOUS
 62
     7
 10
1086.8392610000001
 20
710.37444699999992
 30
0.0
  0
VERTEX
  5
FD3
  8
LAYER01
  6
CONTINUOUS
 62
     7
 10
1087.012559
 20
710.33331799999985
 30
0.0
  0
VERTEX
  5
FD4
  8
LAYER01
  6
CONTINUOUS
 62
     7
 10
1087.185592
 20
710.29083099999991
 30
0.0
  0
VERTEX
  5
FD5
  8
LAYER01
  6
CONTINUOUS
 62
     7
 10
1087.358356
 20
710.24698799999999
 30
0.0
  0
VERTEX
  5
FD6
  8
LAYER01
  6
CONTINUOUS
 62
     7
 10
1087.5308480000001
 20
710.20178799999996
 30
0.0
  0
VERTEX
  5
FD7
  8
LAYER01
  6
CONTINUOUS
 62
     7
 10
1087.7030649999999
 20
710.15523099999984
 30
0.0
  0
VERTEX
  5
FD8
  8
LAYER01
  6
CONTINUOUS
 62
     7
 10
1087.875004
 20
710.10731500000009
 30
0.0
  0
VERTEX
  5
FD9
  8
LAYER01
  6
CONTINUOUS
 62
     7
 10
1088.046662
 20
710.05804299999988
 30
0.0
  0
VERTEX
  5
FDA
  8
LAYER01
  6
CONTINUOUS
 62
     7
 10
1088.2178960000001
 20
710.00745499999994
 30
0.0
  0
VERTEX
  5
FDB
  8
LAYER01
  6
CONTINUOUS
 62
     7
 10
1088.388573
 20
709.9555979999999
 30
0.0
  0
VERTEX
  5
FDC
  8
LAYER01
  6
CONTINUOUS
 62
     7
 10
1088.5586949999999
 20
709.902469
 30
0.0
  0
VERTEX
  5
FDD
  8
LAYER01
  6
CONTINUOUS
 62
     7
 10
1088.728267
 20
709.84806800000001
 30
0.0
  0
VERTEX
  5
FDE
  8
LAYER01
  6
CONTINUOUS
 62
     7
 10
1088.897293
 20
709.79239500000006
 30
0.0
  0
VERTEX
  5
FDF
  8
LAYER01
  6
CONTINUOUS
 62
     7
 10
1089.065779
 20
709.73545000000001
 30
0.0
  0
VERTEX
  5
FE0
  8
LAYER01
  6
CONTINUOUS
 62
     7
 10
1089.233729
 20
709.677233
 30
0.0
  0
VERTEX
  5
FE1
  8
LAYER01
  6
CONTINUOUS
 62
     7
 10
1089.4011459999999
 20
709.61774200000002
 30
0.0
  0
VERTEX
  5
FE2
  8
LAYER01
  6
CONTINUOUS
 62
     7
 10
1089.5680359999999
 20
709.55697699999985
 30
0.0
  0
VERTEX
  5
FE3
  8
LAYER01
  6
CONTINUOUS
 62
     7
 10
1089.7344029999999
 20
709.49493899999993
 30
0.0
  0
VERTEX
  5
FE4
  8
LAYER01
  6
CONTINUOUS
 62
     7
 10
1089.900251
 20
709.43162599999994
 30
0.0
  0
VERTEX
  5
FE5
  8
LAYER01
  6
CONTINUOUS
 62
     7
 10
1090.0655850000001
 20
709.36703899999986
 30
0.0
  0
VERTEX
  5
FE6
  8
LAYER01
  6
CONTINUOUS
 62
     7
 10
1090.230409
 20
709.30117699999994
 30
0.0
  0
VERTEX
  5
FE7
  8
LAYER01
  6
CONTINUOUS
 62
     7
 10
1090.394728
 20
709.23403899999994
 30
0.0
  0
VERTEX
  5
FE8
  8
LAYER01
  6
CONTINUOUS
 62
     7
 10
1090.5585470000001
 20
709.16562499999986
 30
0.0
  0
VERTEX
  5
FE9
  8
LAYER01
  6
CONTINUOUS
 62
     7
 10
1090.7218680000001
 20
709.09593499999994
 30
0.0
  0
VERTEX
  5
FEA
  8
LAYER01
  6
CONTINUOUS
 62
     7
 10
1090.8846980000001
 20
709.02496799999994
 30
0.0
  0
VERTEX
  5
FEB
  8
LAYER01
  6
CONTINUOUS
 62
     7
 10
1091.047041
 20
708.95272399999988
 30
0.0
  0
VERTEX
  5
FEC
  8
LAYER01
  6
CONTINUOUS
 62
     7
 10
1091.208899
 20
708.87920299999996
 30
0.0
  0
VERTEX
  5
FED
  8
LAYER01
  6
CONTINUOUS
 62
     7
 10
1091.370273
 20
708.80440099999987
 30
0.0
  0
VERTEX
  5
FEE
  8
LAYER01
  6
CONTINUOUS
 62
     7
 10
1091.531168
 20
708.72830899999985
 30
0.0
  0
VERTEX
  5
FEF
  8
LAYER01
  6
CONTINUOUS
 62
     7
 10
1091.6915839999999
 20
708.65092000000004
 30
0.0
  0
VERTEX
  5
FF0
  8
LAYER01
  6
CONTINUOUS
 62
     7
 10
1091.851525
 20
708.57222599999989
 30
0.0
  0
VERTEX
  5
FF1
  8
LAYER01
  6
CONTINUOUS
 62
     7
 10
1092.0109950000001
 20
708.49222099999997
 30
0.0
  0
VERTEX
  5
FF2
  8
LAYER01
  6
CONTINUOUS
 62
     7
 10
1092.1699940000001
 20
708.41089599999998
 30
0.0
  0
VERTEX
  5
FF3
  8
LAYER01
  6
CONTINUOUS
 62
     7
 10
1092.328528
 20
708.32824400000004
 30
0.0
  0
VERTEX
  5
FF4
  8
LAYER01
  6
CONTINUOUS
 62
     7
 10
1092.4865970000001
 20
708.24425699999995
 30
0.0
  0
VERTEX
  5
FF5
  8
LAYER01
  6
CONTINUOUS
 62
     7
 10
1092.6442050000001
 20
708.15892800000006
 30
0.0
  0
VERTEX
  5
FF6
  8
LAYER01
  6
CONTINUOUS
 62
     7
 10
1092.8013550000001
 20
708.07224900000006
 30
0.0
  0
VERTEX
  5
FF7
  8
LAYER01
  6
CONTINUOUS
 62
     7
 10
1092.9580490000001
 20
707.98421299999995
 30
0.0
  0
VERTEX
  5
FF8
  8
LAYER01
  6
CONTINUOUS
 62
     7
 10
1093.11429
 20
707.89481199999989
 30
0.0
  0
VERTEX
  5
FF9
  8
LAYER01
  6
CONTINUOUS
 62
     7
 10
1093.2700809999999
 20
707.80403799999999
 30
0.0
  0
VERTEX
  5
FFA
  8
LAYER01
  6
CONTINUOUS
 62
     7
 10
1093.425424
 20
707.71188399999994
 30
0.0
  0
VERTEX
  5
FFB
  8
LAYER01
  6
CONTINUOUS
 62
     7
 10
1093.580324
 20
707.61834299999998
 30
0.0
  0
VERTEX
  5
FFC
  8
LAYER01
  6
CONTINUOUS
 62
     7
 10
1093.7347810000001
 20
707.52340599999991
 30
0.0
  0
VERTEX
  5
FFD
  8
LAYER01
  6
CONTINUOUS
 62
     7
 10
1093.8887990000001
 20
707.42706699999985
 30
0.0
  0
SEQEND
  5
FFE
  8
LAYER01
  6
CONTINUOUS
 62
     7
  0
ARC
  5
783
  8
LAYER01
  6
CONTINUOUS
 62
     7
 10
1081.615395
 20
687.97549700000002
 30
0.0
 40
23.0
 50
32.448726000000001
 51
57.749205000000011
  0
ARC
  5
784
  8
LAYER01
  6
CONTINUOUS
 62
     7
 10
1081.615395
 20
687.97549700000002
 30
0.0
 40
23.0
 50
122.250795
 51
147.55127400000001
  0
ARC
  5
785
  8
LAYER01
  6
CONTINUOUS
 62
     7
 10
1081.615395
 20
700.33930099999986
 30
0.0
 40
4.8957300000000004
 50
269.75788
 51
270.24212
  0
POLYLINE
  5
786
  8
LAYER01
  6
CONTINUOUS
 62
     7
 66
     1
 10
0.0
 20
0.0
 30
0.0
  0
VERTEX
  5
FFF
  8
LAYER01
  6
CONTINUOUS
 62
     7
 10
1081.532107
 20
710.97534599999994
 30
0.0
  0
VERTEX
  5
1000
  8
LAYER01
  6
CONTINUOUS
 62
     7
 10
1081.539047
 20
710.97536999999988
 30
0.0
  0
VERTEX
  5
1001
  8
LAYER01
  6
CONTINUOUS
 62
     7
 10
1081.5459860000001
 20
710.97539199999994
 30
0.0
  0
VERTEX
  5
1002
  8
LAYER01
  6
CONTINUOUS
 62
     7
 10
1081.5529260000001
 20
710.97541199999989
 30
0.0
  0
VERTEX
  5
1003
  8
LAYER01
  6
CONTINUOUS
 62
     7
 10
1081.5598669999999
 20
710.97542999999985
 30
0.0
  0
VERTEX
  5
1004
  8
LAYER01
  6
CONTINUOUS
 62
     7
 10
1081.5668069999999
 20
710.97544600000003
 30
0.0
  0
VERTEX
  5
1005
  8
LAYER01
  6
CONTINUOUS
 62
     7
 10
1081.573748
 20
710.975459
 30
0.0
  0
VERTEX
  5
1006
  8
LAYER01
  6
CONTINUOUS
 62
     7
 10
1081.5806889999999
 20
710.97547099999986
 30
0.0
  0
VERTEX
  5
1007
  8
LAYER01
  6
CONTINUOUS
 62
     7
 10
1081.58763
 20
710.97547999999995
 30
0.0
  0
VERTEX
  5
1008
  8
LAYER01
  6
CONTINUOUS
 62
     7
 10
1081.5945710000001
 20
710.97548800000004
 30
0.0
  0
VERTEX
  5
1009
  8
LAYER01
  6
CONTINUOUS
 62
     7
 10
1081.601512
 20
710.97549299999991
 30
0.0
  0
VERTEX
  5
100A
  8
LAYER01
  6
CONTINUOUS
 62
     7
 10
1081.6084539999999
 20
710.97549600000002
 30
0.0
  0
VERTEX
  5
100B
  8
LAYER01
  6
CONTINUOUS
 62
     7
 10
1081.615395
 20
710.97549700000002
 30
0.0
  0
VERTEX
  5
100C
  8
LAYER01
  6
CONTINUOUS
 62
     7
 10
1081.622337
 20
710.97549600000002
 30
0.0
  0
VERTEX
  5
100D
  8
LAYER01
  6
CONTINUOUS
 62
     7
 10
1081.6292780000001
 20
710.97549299999991
 30
0.0
  0
VERTEX
  5
100E
  8
LAYER01
  6
CONTINUOUS
 62
     7
 10
1081.636219
 20
710.97548800000004
 30
0.0
  0
VERTEX
  5
100F
  8
LAYER01
  6
CONTINUOUS
 62
     7
 10
1081.6431600000001
 20
710.97547999999995
 30
0.0
  0
VERTEX
  5
1010
  8
LAYER01
  6
CONTINUOUS
 62
     7
 10
1081.6501020000001
 20
710.97547099999986
 30
0.0
  0
VERTEX
  5
1011
  8
LAYER01
  6
CONTINUOUS
 62
     7
 10
1081.657042
 20
710.975459
 30
0.0
  0
VERTEX
  5
1012
  8
LAYER01
  6
CONTINUOUS
 62
     7
 10
1081.6639829999999
 20
710.97544600000003
 30
0.0
  0
VERTEX
  5
1013
  8
LAYER01
  6
CONTINUOUS
 62
     7
 10
1081.670924
 20
710.97542999999985
 30
0.0
  0
VERTEX
  5
1014
  8
LAYER01
  6
CONTINUOUS
 62
     7
 10
1081.677864
 20
710.97541199999989
 30
0.0
  0
VERTEX
  5
1015
  8
LAYER01
  6
CONTINUOUS
 62
     7
 10
1081.684804
 20
710.97539199999994
 30
0.0
  0
VERTEX
  5
1016
  8
LAYER01
  6
CONTINUOUS
 62
     7
 10
1081.691744
 20
710.97536999999988
 30
0.0
  0
VERTEX
  5
1017
  8
LAYER01
  6
CONTINUOUS
 62
     7
 10
1081.6986830000001
 20
710.97534599999994
 30
0.0
  0
SEQEND
  5
1018
  8
LAYER01
  6
CONTINUOUS
 62
     7
  0
POLYLINE
  5
7A1
  8
LAYER01
  6
CONTINUOUS
 62
     7
 66
     1
 10
0.0
 20
0.0
 30
0.0
  0
VERTEX
  5
1019
  8
LAYER01
  6
CONTINUOUS
 62
     7
 10
1369.9264909999999
 20
690.806916
 30
0.0
  0
VERTEX
  5
101A
  8
LAYER01
  6
CONTINUOUS
 62
     7
 10
1369.860142
 20
690.86837100000002
 30
0.0
  0
VERTEX
  5
101B
  8
LAYER01
  6
CONTINUOUS
 62
     7
 10
1369.7937260000001
 20
690.92977199999984
 30
0.0
  0
VERTEX
  5
101C
  8
LAYER01
  6
CONTINUOUS
 62
     7
 10
1369.727253
 20
690.99112600000001
 30
0.0
  0
VERTEX
  5
101D
  8
LAYER01
  6
CONTINUOUS
 62
     7
 10
1369.6607289999999
 20
691.05244000000005
 30
0.0
  0
VERTEX
  5
101E
  8
LAYER01
  6
CONTINUOUS
 62
     7
 10
1369.5941660000001
 20
691.11372300000005
 30
0.0
  0
VERTEX
  5
101F
  8
LAYER01
  6
CONTINUOUS
 62
     7
 10
1369.52757
 20
691.17498199999989
 30
0.0
  0
VERTEX
  5
1020
  8
LAYER01
  6
CONTINUOUS
 62
     7
 10
1369.4609519999999
 20
691.23622499999999
 30
0.0
  0
VERTEX
  5
1021
  8
LAYER01
  6
CONTINUOUS
 62
     7
 10
1369.394319
 20
691.29746
 30
0.0
  0
VERTEX
  5
1022
  8
LAYER01
  6
CONTINUOUS
 62
     7
 10
1369.3276800000001
 20
691.35869500000001
 30
0.0
  0
VERTEX
  5
1023
  8
LAYER01
  6
CONTINUOUS
 62
     7
 10
1369.2610440000001
 20
691.419937
 30
0.0
  0
VERTEX
  5
1024
  8
LAYER01
  6
CONTINUOUS
 62
     7
 10
1369.19442
 20
691.48119499999996
 30
0.0
  0
VERTEX
  5
1025
  8
LAYER01
  6
CONTINUOUS
 62
     7
 10
1369.1278170000001
 20
691.54247499999985
 30
0.0
  0
VERTEX
  5
1026
  8
LAYER01
  6
CONTINUOUS
 62
     7
 10
1369.061242
 20
691.60378700000001
 30
0.0
  0
VERTEX
  5
1027
  8
LAYER01
  6
CONTINUOUS
 62
     7
 10
1368.994706
 20
691.66513699999985
 30
0.0
  0
VERTEX
  5
1028
  8
LAYER01
  6
CONTINUOUS
 62
     7
 10
1368.928216
 20
691.72653400000002
 30
0.0
  0
VERTEX
  5
1029
  8
LAYER01
  6
CONTINUOUS
 62
     7
 10
1368.8617810000001
 20
691.78798399999994
 30
0.0
  0
VERTEX
  5
102A
  8
LAYER01
  6
CONTINUOUS
 62
     7
 10
1368.7954110000001
 20
691.84949699999993
 30
0.0
  0
VERTEX
  5
102B
  8
LAYER01
  6
CONTINUOUS
 62
     7
 10
1368.7291130000001
 20
691.91107999999986
 30
0.0
  0
VERTEX
  5
102C
  8
LAYER01
  6
CONTINUOUS
 62
     7
 10
1368.6628969999999
 20
691.97274100000004
 30
0.0
  0
VERTEX
  5
102D
  8
LAYER01
  6
CONTINUOUS
 62
     7
 10
1368.596771
 20
692.03448700000001
 30
0.0
  0
VERTEX
  5
102E
  8
LAYER01
  6
CONTINUOUS
 62
     7
 10
1368.5307439999999
 20
692.09632599999986
 30
0.0
  0
VERTEX
  5
102F
  8
LAYER01
  6
CONTINUOUS
 62
     7
 10
1368.4648239999999
 20
692.15826600000003
 30
0.0
  0
VERTEX
  5
1030
  8
LAYER01
  6
CONTINUOUS
 62
     7
 10
1368.3990209999999
 20
692.22031600000003
 30
0.0
  0
VERTEX
  5
1031
  8
LAYER01
  6
CONTINUOUS
 62
     7
 10
1368.333343
 20
692.28248199999996
 30
0.0
  0
VERTEX
  5
1032
  8
LAYER01
  6
CONTINUOUS
 62
     7
 10
1368.267799
 20
692.34477199999992
 30
0.0
  0
VERTEX
  5
1033
  8
LAYER01
  6
CONTINUOUS
 62
     7
 10
1368.2023979999999
 20
692.407195
 30
0.0
  0
VERTEX
  5
1034
  8
LAYER01
  6
CONTINUOUS
 62
     7
 10
1368.1371469999999
 20
692.46975700000007
 30
0.0
  0
VERTEX
  5
1035
  8
LAYER01
  6
CONTINUOUS
 62
     7
 10
1368.0720570000001
 20
692.53246799999999
 30
0.0
  0
VERTEX
  5
1036
  8
LAYER01
  6
CONTINUOUS
 62
     7
 10
1368.007134
 20
692.59533600000009
 30
0.0
  0
VERTEX
  5
1037
  8
LAYER01
  6
CONTINUOUS
 62
     7
 10
1367.9423879999999
 20
692.65837099999999
 30
0.0
  0
VERTEX
  5
1038
  8
LAYER01
  6
CONTINUOUS
 62
     7
 10
1367.8778259999999
 20
692.7215809999999
 30
0.0
  0
VERTEX
  5
1039
  8
LAYER01
  6
CONTINUOUS
 62
     7
 10
1367.8134580000001
 20
692.78497500000003
 30
0.0
  0
VERTEX
  5
103A
  8
LAYER01
  6
CONTINUOUS
 62
     7
 10
1367.749292
 20
692.84856100000002
 30
0.0
  0
VERTEX
  5
103B
  8
LAYER01
  6
CONTINUOUS
 62
     7
 10
1367.6853369999999
 20
692.91234699999995
 30
0.0
  0
VERTEX
  5
103C
  8
LAYER01
  6
CONTINUOUS
 62
     7
 10
1367.6216030000001
 20
692.97634299999993
 30
0.0
  0
VERTEX
  5
103D
  8
LAYER01
  6
CONTINUOUS
 62
     7
 10
1367.5580970000001
 20
693.04055499999993
 30
0.0
  0
VERTEX
  5
103E
  8
LAYER01
  6
CONTINUOUS
 62
     7
 10
1367.494829
 20
693.10499299999992
 30
0.0
  0
VERTEX
  5
103F
  8
LAYER01
  6
CONTINUOUS
 62
     7
 10
1367.4318069999999
 20
693.16966500000001
 30
0.0
  0
VERTEX
  5
1040
  8
LAYER01
  6
CONTINUOUS
 62
     7
 10
1367.3690409999999
 20
693.23457900000005
 30
0.0
  0
VERTEX
  5
1041
  8
LAYER01
  6
CONTINUOUS
 62
     7
 10
1367.3065389999999
 20
693.29974400000003
 30
0.0
  0
VERTEX
  5
1042
  8
LAYER01
  6
CONTINUOUS
 62
     7
 10
1367.2443089999999
 20
693.36516799999993
 30
0.0
  0
VERTEX
  5
1043
  8
LAYER01
  6
CONTINUOUS
 62
     7
 10
1367.182362
 20
693.43085899999994
 30
0.0
  0
VERTEX
  5
1044
  8
LAYER01
  6
CONTINUOUS
 62
     7
 10
1367.1206930000001
 20
693.49684000000002
 30
0.0
  0
VERTEX
  5
1045
  8
LAYER01
  6
CONTINUOUS
 62
     7
 10
1367.059307
 20
693.56312700000001
 30
0.0
  0
VERTEX
  5
1046
  8
LAYER01
  6
CONTINUOUS
 62
     7
 10
1366.998218
 20
693.62972200000002
 30
0.0
  0
VERTEX
  5
1047
  8
LAYER01
  6
CONTINUOUS
 62
     7
 10
1366.937441
 20
693.69662699999992
 30
0.0
  0
VERTEX
  5
1048
  8
LAYER01
  6
CONTINUOUS
 62
     7
 10
1366.8769930000001
 20
693.76384299999995
 30
0.0
  0
VERTEX
  5
1049
  8
LAYER01
  6
CONTINUOUS
 62
     7
 10
1366.8168880000001
 20
693.83136999999999
 30
0.0
  0
VERTEX
  5
104A
  8
LAYER01
  6
CONTINUOUS
 62
     7
 10
1366.7571419999999
 20
693.89921200000003
 30
0.0
  0
VERTEX
  5
104B
  8
LAYER01
  6
CONTINUOUS
 62
     7
 10
1366.6977710000001
 20
693.96736799999985
 30
0.0
  0
VERTEX
  5
104C
  8
LAYER01
  6
CONTINUOUS
 62
     7
 10
1366.63879
 20
694.03584000000001
 30
0.0
  0
VERTEX
  5
104D
  8
LAYER01
  6
CONTINUOUS
 62
     7
 10
1366.580215
 20
694.10462900000005
 30
0.0
  0
VERTEX
  5
104E
  8
LAYER01
  6
CONTINUOUS
 62
     7
 10
1366.52206
 20
694.17373799999984
 30
0.0
  0
VERTEX
  5
104F
  8
LAYER01
  6
CONTINUOUS
 62
     7
 10
1366.464342
 20
694.24316699999986
 30
0.0
  0
VERTEX
  5
1050
  8
LAYER01
  6
CONTINUOUS
 62
     7
 10
1366.407076
 20
694.31291699999986
 30
0.0
  0
VERTEX
  5
1051
  8
LAYER01
  6
CONTINUOUS
 62
     7
 10
1366.3502779999999
 20
694.38298999999995
 30
0.0
  0
SEQEND
  5
1052
  8
LAYER01
  6
CONTINUOUS
 62
     7
  0
POLYLINE
  5
7DC
  8
LAYER01
  6
CONTINUOUS
 62
     7
 66
     1
 10
0.0
 20
0.0
 30
0.0
  0
VERTEX
  5
1053
  8
LAYER01
  6
CONTINUOUS
 62
     7
 10
1381.615395
 20
716.41589499999998
 30
0.0
  0
VERTEX
  5
1054
  8
LAYER01
  6
CONTINUOUS
 62
     7
 10
1381.5198820000001
 20
717.38964499999986
 30
0.0
  0
VERTEX
  5
1055
  8
LAYER01
  6
CONTINUOUS
 62
     7
 10
1381.2369779999999
 20
718.324882
 30
0.0
  0
VERTEX
  5
1056
  8
LAYER01
  6
CONTINUOUS
 62
     7
 10
1380.7774509999999
 20
719.186013
 30
0.0
  0
VERTEX
  5
1057
  8
LAYER01
  6
CONTINUOUS
 62
     7
 10
1380.1587890000001
 20
719.94026299999985
 30
0.0
  0
VERTEX
  5
1058
  8
LAYER01
  6
CONTINUOUS
 62
     7
 10
1379.40454
 20
720.55892400000005
 30
0.0
  0
VERTEX
  5
1059
  8
LAYER01
  6
CONTINUOUS
 62
     7
 10
1378.5434090000001
 20
721.01845199999991
 30
0.0
  0
VERTEX
  5
105A
  8
LAYER01
  6
CONTINUOUS
 62
     7
 10
1377.6081710000001
 20
721.30135599999994
 30
0.0
  0
VERTEX
  5
105B
  8
LAYER01
  6
CONTINUOUS
 62
     7
 10
1376.6344220000001
 20
721.39686900000004
 30
0.0
  0
SEQEND
  5
105C
  8
LAYER01
  6
CONTINUOUS
 62
     7
  0
LINE
  5
7E7
  8
LAYER01
  6
CONTINUOUS
 62
     7
 10
1373.2554680000001
 20
708.05597799999987
 30
0.0
 11
1373.2554680000001
 21
699.99318300000004
 31
0.0
  0
ARC
  5
7E8
  8
LAYER01
  6
CONTINUOUS
 62
     7
 10
1368.2303010000001
 20
708.01177800000005
 30
0.0
 40
5.0253610000000002
 50
0.5039470000000001
 51
89.495881000000011
  0
POLYLINE
  5
7E9
  8
LAYER01
  6
CONTINUOUS
 62
     7
 66
     1
 10
0.0
 20
0.0
 30
0.0
  0
VERTEX
  5
105D
  8
LAYER01
  6
CONTINUOUS
 62
     7
 10
1369.1196210000001
 20
694.55308200000002
 30
0.0
  0
VERTEX
  5
105E
  8
LAYER01
  6
CONTINUOUS
 62
     7
 10
1369.045664
 20
694.54909000000009
 30
0.0
  0
VERTEX
  5
105F
  8
LAYER01
  6
CONTINUOUS
 62
     7
 10
1368.971624
 20
694.54508499999997
 30
0.0
  0
VERTEX
  5
1060
  8
LAYER01
  6
CONTINUOUS
 62
     7
 10
1368.8975350000001
 20
694.541065
 30
0.0
  0
VERTEX
  5
1061
  8
LAYER01
  6
CONTINUOUS
 62
     7
 10
1368.8234299999999
 20
694.53703099999996
 30
0.0
  0
VERTEX
  5
1062
  8
LAYER01
  6
CONTINUOUS
 62
     7
 10
1368.7493440000001
 20
694.53298199999995
 30
0.0
  0
VERTEX
  5
1063
  8
LAYER01
  6
CONTINUOUS
 62
     7
 10
1368.675311
 20
694.52891900000009
 30
0.0
  0
VERTEX
  5
1064
  8
LAYER01
  6
CONTINUOUS
 62
     7
 10
1368.601365
 20
694.52484200000004
 30
0.0
  0
VERTEX
  5
1065
  8
LAYER01
  6
CONTINUOUS
 62
     7
 10
1368.5275409999999
 20
694.52075000000002
 30
0.0
  0
VERTEX
  5
1066
  8
LAYER01
  6
CONTINUOUS
 62
     7
 10
1368.4538709999999
 20
694.51664400000004
 30
0.0
  0
VERTEX
  5
1067
  8
LAYER01
  6
CONTINUOUS
 62
     7
 10
1368.3803909999999
 20
694.5125230000001
 30
0.0
  0
VERTEX
  5
1068
  8
LAYER01
  6
CONTINUOUS
 62
     7
 10
1368.3071339999999
 20
694.50838699999986
 30
0.0
  0
VERTEX
  5
1069
  8
LAYER01
  6
CONTINUOUS
 62
     7
 10
1368.2341349999999
 20
694.50423699999999
 30
0.0
  0
VERTEX
  5
106A
  8
LAYER01
  6
CONTINUOUS
 62
     7
 10
1368.1614279999999
 20
694.50007300000004
 30
0.0
  0
VERTEX
  5
106B
  8
LAYER01
  6
CONTINUOUS
 62
     7
 10
1368.0890460000001
 20
694.49589300000002
 30
0.0
  0
VERTEX
  5
106C
  8
LAYER01
  6
CONTINUOUS
 62
     7
 10
1368.017024
 20
694.49169900000004
 30
0.0
  0
VERTEX
  5
106D
  8
LAYER01
  6
CONTINUOUS
 62
     7
 10
1367.9453960000001
 20
694.48749000000009
 30
0.0
  0
VERTEX
  5
106E
  8
LAYER01
  6
CONTINUOUS
 62
     7
 10
1367.8741970000001
 20
694.48326600000007
 30
0.0
  0
VERTEX
  5
106F
  8
LAYER01
  6
CONTINUOUS
 62
     7
 10
1367.803459
 20
694.47902799999986
 30
0.0
  0
VERTEX
  5
1070
  8
LAYER01
  6
CONTINUOUS
 62
     7
 10
1367.7332180000001
 20
694.47477400000002
 30
0.0
  0
VERTEX
  5
1071
  8
LAYER01
  6
CONTINUOUS
 62
     7
 10
1367.663507
 20
694.470506
 30
0.0
  0
VERTEX
  5
1072
  8
LAYER01
  6
CONTINUOUS
 62
     7
 10
1367.594351
 20
694.46622200000002
 30
0.0
  0
VERTEX
  5
1073
  8
LAYER01
  6
CONTINUOUS
 62
     7
 10
1367.5257320000001
 20
694.46192499999995
 30
0.0
  0
VERTEX
  5
1074
  8
LAYER01
  6
CONTINUOUS
 62
     7
 10
1367.457623
 20
694.45761300000004
 30
0.0
  0
VERTEX
  5
1075
  8
LAYER01
  6
CONTINUOUS
 62
     7
 10
1367.389995
 20
694.45329000000004
 30
0.0
  0
VERTEX
  5
1076
  8
LAYER01
  6
CONTINUOUS
 62
     7
 10
1367.322819
 20
694.44895399999984
 30
0.0
  0
VERTEX
  5
1077
  8
LAYER01
  6
CONTINUOUS
 62
     7
 10
1367.2560679999999
 20
694.44460700000002
 30
0.0
  0
VERTEX
  5
1078
  8
LAYER01
  6
CONTINUOUS
 62
     7
 10
1367.189713
 20
694.44024899999988
 30
0.0
  0
VERTEX
  5
1079
  8
LAYER01
  6
CONTINUOUS
 62
     7
 10
1367.123726
 20
694.43588199999988
 30
0.0
  0
VERTEX
  5
107A
  8
LAYER01
  6
CONTINUOUS
 62
     7
 10
1367.058078
 20
694.43150500000002
 30
0.0
  0
VERTEX
  5
107B
  8
LAYER01
  6
CONTINUOUS
 62
     7
 10
1366.9927419999999
 20
694.42712099999994
 30
0.0
  0
VERTEX
  5
107C
  8
LAYER01
  6
CONTINUOUS
 62
     7
 10
1366.927688
 20
694.42272799999989
 30
0.0
  0
VERTEX
  5
107D
  8
LAYER01
  6
CONTINUOUS
 62
     7
 10
1366.862889
 20
694.41832899999986
 30
0.0
  0
VERTEX
  5
107E
  8
LAYER01
  6
CONTINUOUS
 62
     7
 10
1366.798317
 20
694.41392499999995
 30
0.0
  0
VERTEX
  5
107F
  8
LAYER01
  6
CONTINUOUS
 62
     7
 10
1366.7339420000001
 20
694.40951399999994
 30
0.0
  0
VERTEX
  5
1080
  8
LAYER01
  6
CONTINUOUS
 62
     7
 10
1366.6697380000001
 20
694.40509999999995
 30
0.0
  0
VERTEX
  5
1081
  8
LAYER01
  6
CONTINUOUS
 62
     7
 10
1366.6056739999999
 20
694.40068099999985
 30
0.0
  0
VERTEX
  5
1082
  8
LAYER01
  6
CONTINUOUS
 62
     7
 10
1366.5417239999999
 20
694.39625999999987
 30
0.0
  0
VERTEX
  5
1083
  8
LAYER01
  6
CONTINUOUS
 62
     7
 10
1366.4778590000001
 20
694.39183600000001
 30
0.0
  0
VERTEX
  5
1084
  8
LAYER01
  6
CONTINUOUS
 62
     7
 10
1366.4140500000001
 20
694.38741100000004
 30
0.0
  0
VERTEX
  5
1085
  8
LAYER01
  6
CONTINUOUS
 62
     7
 10
1366.3502699999999
 20
694.38298499999996
 30
0.0
  0
SEQEND
  5
1086
  8
LAYER01
  6
CONTINUOUS
 62
     7
  0
ARC
  5
814
  8
LAYER01
  6
CONTINUOUS
 62
     7
 10
1368.2445600000001
 20
700.00933799999996
 30
0.0
 40
5.010934999999999
 50
270.34253699999999
 51
359.81528300000002
  0
POLYLINE
  5
815
  8
LAYER01
  6
CONTINUOUS
 62
     7
 66
     1
 10
0.0
 20
0.0
 30
0.0
  0
VERTEX
  5
1087
  8
LAYER01
  6
CONTINUOUS
 62
     7
 10
1377.0198820000001
 20
376.39686899999998
 30
0.0
  0
VERTEX
  5
1088
  8
LAYER01
  6
CONTINUOUS
 62
     7
 10
1377.936416
 20
376.74145499999997
 30
0.0
  0
VERTEX
  5
1089
  8
LAYER01
  6
CONTINUOUS
 62
     7
 10
1378.806826
 20
377.76335499999999
 30
0.0
  0
VERTEX
  5
108A
  8
LAYER01
  6
CONTINUOUS
 62
     7
 10
1379.6011550000001
 20
379.42739699999998
 30
0.0
  0
VERTEX
  5
108B
  8
LAYER01
  6
CONTINUOUS
 62
     7
 10
1380.292062
 20
381.67630700000001
 30
0.0
  0
VERTEX
  5
108C
  8
LAYER01
  6
CONTINUOUS
 62
     7
 10
1380.855769
 20
384.43268399999999
 30
0.0
  0
VERTEX
  5
108D
  8
LAYER01
  6
CONTINUOUS
 62
     7
 10
1381.2728750000001
 20
387.60165799999999
 30
0.0
  0
VERTEX
  5
108E
  8
LAYER01
  6
CONTINUOUS
 62
     7
 10
1381.5290219999999
 20
391.074161
 30
0.0
  0
VERTEX
  5
108F
  8
LAYER01
  6
CONTINUOUS
 62
     7
 10
1381.615395
 20
394.73067600000002
 30
0.0
  0
SEQEND
  5
1090
  8
LAYER01
  6
CONTINUOUS
 62
     7
  0
ARC
  5
820
  8
LAYER01
  6
CONTINUOUS
 62
     7
 10
1391.615395
 20
731.39686900000004
 30
0.0
 40
15.0
 50
0.0
 51
90.0
  0
DIMENSION
  5
821
  8
LAYER01
 62
     7
  2
*D8
 10
2210.7342319999998
 20
347.41529500000001
 30
0.0
 11
2323.3590819999999
 21
392.41518600000001
 31
0.0
 13
2164.7342279999998
 23
451.756124
 33
0.0
 14
2210.7342319999998
 24
451.756124
 34
0.0
  0
INSERT
  5
822
  8
LAYER01
  2
VT35608-G10
 10
0.0
 20
0.0
 30
0.0
  0
INSERT
  5
823
  8
LAYER01
  2
VT35608-G11
 10
0.0
 20
0.0
 30
0.0
  0
TEXT
  5
824
  8
LAYER01
  6
STRICHPUNKTIERT
 62
     7
 10
2322.1918315455719
 20
-521.97535767679938
 30
0.0
 40
39.285955799999989
  1
http://www.mineralwerkstoff.de
  0
TEXT
  5
825
  8
LAYER01
  6
VERDECKT
 62
     1
 10
2993.0782810000001
 20
-758.874233
 30
0.0
 40
25.0
  1
A. Sprenger GmbH
  7
SIMPLEX
  0
TEXT
  5
826
  8
LAYER01
  6
CONTINUOUS
 62
     7
 10
2984.9681249999999
 20
-604.05256399999985
 30
0.0
 40
7.5
  1
Diese Zeichnung ist geistiges Eigentum der A. Sprenger GmbH
  7
SIMPLEX
  0
TEXT
  5
827
  8
LAYER01
  6
CONTINUOUS
 62
     7
 10
2984.9681249999999
 20
-616.90970700000003
 30
0.0
 40
7.5
  1
und urheberrechtlich geschützt. Ohne unsere Zustimmung darf 
  7
SIMPLEX
  0
TEXT
  5
828
  8
LAYER01
  6
CONTINUOUS
 62
     7
 10
2984.9681249999999
 20
-629.76684999999998
 30
0.0
 40
7.5
  1
sie in keiner Form verwendet oder Dritten zugänglich gemacht
  7
SIMPLEX
  0
TEXT
  5
829
  8
LAYER01
  6
CONTINUOUS
 62
     7
 10
2984.9681249999999
 20
-642.62399299999993
 30
0.0
 40
7.5
  1
werden. (§106 Urheberrecht)
  7
SIMPLEX
  0
TEXT
  5
82A
  8
LAYER01
  6
VERDECKT
 62
     1
 10
2993.0782810000001
 20
-857.05711699999995
 30
0.0
 40
35.0
  1
VT-35-60-8
  7
SIMPLEX
  0
TEXT
  5
82B
  8
LAYER01
  6
VERDECKT
 62
     1
 10
2857.5693740000002
 20
-816.795568
 30
0.0
 40
10.0
  1
b.s.
  7
SIMPLEX
  0
TEXT
  5
82C
  8
LAYER01
  6
VERDECKT
 62
     1
 10
2761.4122179999999
 20
-816.75903099999994
 30
0.0
 40
10.0
  1
16.1.2023
  7
SIMPLEX
  0
TEXT
  5
82D
  8
LAYER01
  6
VERDECKT
 62
     1
 10
3059.0220089999998
 20
-694.39592100000004
 30
0.0
 40
10.0
  1
1 : 10 (DIN A3)
  7
SIMPLEX
  0
TEXT
  5
82E
  8
LAYER01
  6
VERDECKT
 62
     1
 10
3316.750603
 20
-694.39592100000004
 30
0.0
 40
10.0
  1
VT35608.skd
  7
SIMPLEX
  0
LINE
  5
82F
  8
LAYER01
  6
CONTINUOUS
 62
     7
 10
2499.3128609999999
 20
571.3968769999999
 30
0.0
 11
2181.3267460000002
 21
489.39687499999991
 31
0.0
  0
LINE
  5
830
  8
LAYER01
  6
CONTINUOUS
 62
     7
 10
2500.2209830000002
 20
559.23848799999996
 30
0.0
 11
2239.1017660000002
 21
491.90292199999988
 31
0.0
  0
LINE
  5
831
  8
LAYER01
  6
CONTINUOUS
 62
     7
 10
2480.9790539999999
 20
571.3968769999999
 30
0.0
 11
2159.2938290000002
 21
571.3968769999999
 31
0.0
  0
INSERT
  5
832
  8
LAYER01
  2
VT35608-G13
 10
0.0
 20
0.0
 30
0.0
  0
DIMENSION
  5
833
  8
LAYER01
 62
     7
  2
*D13
 10
2154.3128630000001
 20
661.76264100000003
 30
0.0
 11
2314.4004110000001
 21
731.76264100000003
 31
0.0
 13
2499.3128630000001
 23
579.50422500000002
 33
0.0
 14
2154.3128630000001
 24
579.50422500000002
 34
0.0
  0
DIMENSION
  5
834
  8
LAYER01
 62
     7
  2
*D14
 10
2129.3128569999999
 20
781.92235999999991
 30
0.0
 11
2314.4004100000011
 21
851.92236000000003
 31
0.0
 13
2524.3128670000001
 23
579.50422500000002
 33
0.0
 14
2129.3128569999999
 24
579.50422500000002
 34
0.0
  0
DIMENSION
  5
835
  8
LAYER01
 62
     7
  2
*D15
 10
1929.1710849999999
 20
464.3968769999999
 30
0.0
 11
1869.1710849999999
 21
519.53078400000004
 31
0.0
 53
90.0
 13
2129.3128569999999
 23
571.3968769999999
 33
0.0
 14
2129.3128569999999
 24
464.3968769999999
 34
0.0
 50
90.0
  0
DIMENSION
  5
836
  8
LAYER01
 62
     7
  2
*D16
 10
2031.4237740000001
 20
491.3968769999999
 30
0.0
 11
1971.423773999999
 21
532.23357399999986
 31
0.0
 53
90.0
 13
2129.3128569999999
 23
571.3968769999999
 33
0.0
 14
2129.3128569999999
 24
491.3968769999999
 34
0.0
 50
90.0
  0
DIMENSION
  5
837
  8
LAYER01
 62
     7
  2
*D17
 10
1794.5506379999999
 20
451.3968769999999
 30
0.0
 11
1734.5506379999999
 21
513.03078400000004
 31
0.0
 53
90.0
 13
2129.3128569999999
 23
571.3968769999999
 33
0.0
 14
2129.3128569999999
 24
451.3968769999999
 34
0.0
 50
90.0
  0
LINE
  5
838
  8
LAYER01
  6
CONTINUOUS
 62
     7
 10
2164.7342279999998
 20
465.27756499999998
 30
0.0
 11
2164.7342279999998
 21
451.756124
 31
0.0
  0
POLYLINE
  5
839
  8
LAYER01
  6
CONTINUOUS
 62
     7
 66
     1
 10
0.0
 20
0.0
 30
0.0
  0
VERTEX
  5
1091
  8
LAYER01
  6
CONTINUOUS
 62
     7
 10
2164.734234
 20
465.27756699999992
 30
0.0
  0
VERTEX
  5
1092
  8
LAYER01
  6
CONTINUOUS
 62
     7
 10
2164.734234
 20
465.27756799999992
 30
0.0
  0
VERTEX
  5
1093
  8
LAYER01
  6
CONTINUOUS
 62
     7
 10
2164.7342349999999
 20
465.27757300000002
 30
0.0
  0
VERTEX
  5
1094
  8
LAYER01
  6
CONTINUOUS
 62
     7
 10
2164.7342359999998
 20
465.27757999999989
 30
0.0
  0
VERTEX
  5
1095
  8
LAYER01
  6
CONTINUOUS
 62
     7
 10
2164.734238
 20
465.27758999999998
 30
0.0
  0
VERTEX
  5
1096
  8
LAYER01
  6
CONTINUOUS
 62
     7
 10
2164.7342400000002
 20
465.277603
 30
0.0
  0
VERTEX
  5
1097
  8
LAYER01
  6
CONTINUOUS
 62
     7
 10
2164.7342429999999
 20
465.2776189999999
 30
0.0
  0
VERTEX
  5
1098
  8
LAYER01
  6
CONTINUOUS
 62
     7
 10
2164.7342469999999
 20
465.27763799999991
 30
0.0
  0
VERTEX
  5
1099
  8
LAYER01
  6
CONTINUOUS
 62
     7
 10
2164.73425
 20
465.27766000000003
 30
0.0
  0
VERTEX
  5
109A
  8
LAYER01
  6
CONTINUOUS
 62
     7
 10
2164.7342549999998
 20
465.27768499999991
 30
0.0
  0
VERTEX
  5
109B
  8
LAYER01
  6
CONTINUOUS
 62
     7
 10
2164.7342600000002
 20
465.27771200000001
 30
0.0
  0
VERTEX
  5
109C
  8
LAYER01
  6
CONTINUOUS
 62
     7
 10
2164.7342650000001
 20
465.27774299999987
 30
0.0
  0
VERTEX
  5
109D
  8
LAYER01
  6
CONTINUOUS
 62
     7
 10
2164.7342709999998
 20
465.2777759999999
 30
0.0
  0
VERTEX
  5
109E
  8
LAYER01
  6
CONTINUOUS
 62
     7
 10
2164.7342779999999
 20
465.27781299999992
 30
0.0
  0
VERTEX
  5
109F
  8
LAYER01
  6
CONTINUOUS
 62
     7
 10
2164.734285
 20
465.27785199999988
 30
0.0
  0
VERTEX
  5
10A0
  8
LAYER01
  6
CONTINUOUS
 62
     7
 10
2164.734293
 20
465.27789400000012
 30
0.0
  0
VERTEX
  5
10A1
  8
LAYER01
  6
CONTINUOUS
 62
     7
 10
2164.734301
 20
465.27793899999989
 30
0.0
  0
VERTEX
  5
10A2
  8
LAYER01
  6
CONTINUOUS
 62
     7
 10
2164.7343089999999
 20
465.27798699999988
 30
0.0
  0
VERTEX
  5
10A3
  8
LAYER01
  6
CONTINUOUS
 62
     7
 10
2164.7343190000001
 20
465.27803799999998
 30
0.0
  0
VERTEX
  5
10A4
  8
LAYER01
  6
CONTINUOUS
 62
     7
 10
2164.734328
 20
465.27809200000002
 30
0.0
  0
VERTEX
  5
10A5
  8
LAYER01
  6
CONTINUOUS
 62
     7
 10
2164.7343380000002
 20
465.27814899999998
 30
0.0
  0
VERTEX
  5
10A6
  8
LAYER01
  6
CONTINUOUS
 62
     7
 10
2164.7343489999998
 20
465.278209
 30
0.0
  0
VERTEX
  5
10A7
  8
LAYER01
  6
CONTINUOUS
 62
     7
 10
2164.7343599999999
 20
465.27827100000002
 30
0.0
  0
VERTEX
  5
10A8
  8
LAYER01
  6
CONTINUOUS
 62
     7
 10
2164.7343719999999
 20
465.27833700000002
 30
0.0
  0
VERTEX
  5
10A9
  8
LAYER01
  6
CONTINUOUS
 62
     7
 10
2164.7343850000002
 20
465.27840500000002
 30
0.0
  0
SEQEND
  5
10AA
  8
LAYER01
  6
CONTINUOUS
 62
     7
  0
POLYLINE
  5
854
  8
LAYER01
  6
CONTINUOUS
 62
     7
 66
     1
 10
0.0
 20
0.0
 30
0.0
  0
VERTEX
  5
10AB
  8
LAYER01
  6
CONTINUOUS
 62
     7
 10
2164.7343850000002
 20
465.27840500000002
 30
0.0
  0
VERTEX
  5
10AC
  8
LAYER01
  6
CONTINUOUS
 62
     7
 10
2164.7357529999999
 20
465.28129999999999
 30
0.0
  0
VERTEX
  5
10AD
  8
LAYER01
  6
CONTINUOUS
 62
     7
 10
2164.7385389999999
 20
465.28269399999999
 30
0.0
  0
VERTEX
  5
10AE
  8
LAYER01
  6
CONTINUOUS
 62
     7
 10
2164.7427390000012
 20
465.28261999999989
 30
0.0
  0
VERTEX
  5
10AF
  8
LAYER01
  6
CONTINUOUS
 62
     7
 10
2164.748349
 20
465.28111100000001
 30
0.0
  0
VERTEX
  5
10B0
  8
LAYER01
  6
CONTINUOUS
 62
     7
 10
2164.7553630000002
 20
465.27820100000002
 30
0.0
  0
VERTEX
  5
10B1
  8
LAYER01
  6
CONTINUOUS
 62
     7
 10
2164.763778
 20
465.27392400000002
 30
0.0
  0
VERTEX
  5
10B2
  8
LAYER01
  6
CONTINUOUS
 62
     7
 10
2164.773588
 20
465.26831199999998
 30
0.0
  0
VERTEX
  5
10B3
  8
LAYER01
  6
CONTINUOUS
 62
     7
 10
2164.7847900000002
 20
465.26139799999999
 30
0.0
  0
VERTEX
  5
10B4
  8
LAYER01
  6
CONTINUOUS
 62
     7
 10
2164.7973790000001
 20
465.25321699999989
 30
0.0
  0
VERTEX
  5
10B5
  8
LAYER01
  6
CONTINUOUS
 62
     7
 10
2164.8113499999999
 20
465.24380100000002
 30
0.0
  0
VERTEX
  5
10B6
  8
LAYER01
  6
CONTINUOUS
 62
     7
 10
2164.8266990000002
 20
465.233183
 30
0.0
  0
VERTEX
  5
10B7
  8
LAYER01
  6
CONTINUOUS
 62
     7
 10
2164.843421
 20
465.22139700000002
 30
0.0
  0
VERTEX
  5
10B8
  8
LAYER01
  6
CONTINUOUS
 62
     7
 10
2164.8615129999998
 20
465.20847700000002
 30
0.0
  0
VERTEX
  5
10B9
  8
LAYER01
  6
CONTINUOUS
 62
     7
 10
2164.8809689999998
 20
465.194455
 30
0.0
  0
VERTEX
  5
10BA
  8
LAYER01
  6
CONTINUOUS
 62
     7
 10
2164.901785
 20
465.17936400000002
 30
0.0
  0
VERTEX
  5
10BB
  8
LAYER01
  6
CONTINUOUS
 62
     7
 10
2164.923957
 20
465.16323899999992
 30
0.0
  0
VERTEX
  5
10BC
  8
LAYER01
  6
CONTINUOUS
 62
     7
 10
2164.9474789999999
 20
465.14611200000002
 30
0.0
  0
VERTEX
  5
10BD
  8
LAYER01
  6
CONTINUOUS
 62
     7
 10
2164.9723490000001
 20
465.12801599999989
 30
0.0
  0
VERTEX
  5
10BE
  8
LAYER01
  6
CONTINUOUS
 62
     7
 10
2164.9985670000001
 20
465.10900700000002
 30
0.0
  0
VERTEX
  5
10BF
  8
LAYER01
  6
CONTINUOUS
 62
     7
 10
2165.0261399999999
 20
465.08914699999991
 30
0.0
  0
VERTEX
  5
10C0
  8
LAYER01
  6
CONTINUOUS
 62
     7
 10
2165.0550680000001
 20
465.0684849999999
 30
0.0
  0
VERTEX
  5
10C1
  8
LAYER01
  6
CONTINUOUS
 62
     7
 10
2165.0853499999998
 20
465.04707000000002
 30
0.0
  0
VERTEX
  5
10C2
  8
LAYER01
  6
CONTINUOUS
 62
     7
 10
2165.1169880000002
 20
465.02494999999999
 30
0.0
  0
VERTEX
  5
10C3
  8
LAYER01
  6
CONTINUOUS
 62
     7
 10
2165.149981
 20
465.00217400000002
 30
0.0
  0
VERTEX
  5
10C4
  8
LAYER01
  6
CONTINUOUS
 62
     7
 10
2165.18433
 20
464.97879099999989
 30
0.0
  0
VERTEX
  5
10C5
  8
LAYER01
  6
CONTINUOUS
 62
     7
 10
2165.2200339999999
 20
464.95484799999991
 30
0.0
  0
VERTEX
  5
10C6
  8
LAYER01
  6
CONTINUOUS
 62
     7
 10
2165.2570940000001
 20
464.93039399999998
 30
0.0
  0
VERTEX
  5
10C7
  8
LAYER01
  6
CONTINUOUS
 62
     7
 10
2165.2955109999998
 20
464.90547800000002
 30
0.0
  0
VERTEX
  5
10C8
  8
LAYER01
  6
CONTINUOUS
 62
     7
 10
2165.3352839999998
 20
464.88014800000002
 30
0.0
  0
VERTEX
  5
10C9
  8
LAYER01
  6
CONTINUOUS
 62
     7
 10
2165.376413
 20
464.85445299999998
 30
0.0
  0
VERTEX
  5
10CA
  8
LAYER01
  6
CONTINUOUS
 62
     7
 10
2165.4188989999998
 20
464.828441
 30
0.0
  0
VERTEX
  5
10CB
  8
LAYER01
  6
CONTINUOUS
 62
     7
 10
2165.4627420000002
 20
464.8021599999999
 30
0.0
  0
VERTEX
  5
10CC
  8
LAYER01
  6
CONTINUOUS
 62
     7
 10
2165.5079430000001
 20
464.77566000000002
 30
0.0
  0
VERTEX
  5
10CD
  8
LAYER01
  6
CONTINUOUS
 62
     7
 10
2165.5545000000002
 20
464.748988
 30
0.0
  0
VERTEX
  5
10CE
  8
LAYER01
  6
CONTINUOUS
 62
     7
 10
2165.6024149999998
 20
464.722194
 30
0.0
  0
VERTEX
  5
10CF
  8
LAYER01
  6
CONTINUOUS
 62
     7
 10
2165.6516879999999
 20
464.69532500000003
 30
0.0
  0
VERTEX
  5
10D0
  8
LAYER01
  6
CONTINUOUS
 62
     7
 10
2165.702275000001
 20
464.66845399999988
 30
0.0
  0
VERTEX
  5
10D1
  8
LAYER01
  6
CONTINUOUS
 62
     7
 10
2165.7541329999999
 20
464.64164899999997
 30
0.0
  0
VERTEX
  5
10D2
  8
LAYER01
  6
CONTINUOUS
 62
     7
 10
2165.8072619999998
 20
464.61495500000001
 30
0.0
  0
VERTEX
  5
10D3
  8
LAYER01
  6
CONTINUOUS
 62
     7
 10
2165.8616630000001
 20
464.588415
 30
0.0
  0
VERTEX
  5
10D4
  8
LAYER01
  6
CONTINUOUS
 62
     7
 10
2165.917336
 20
464.562074
 30
0.0
  0
VERTEX
  5
10D5
  8
LAYER01
  6
CONTINUOUS
 62
     7
 10
2165.9742799999999
 20
464.53597599999989
 30
0.0
  0
VERTEX
  5
10D6
  8
LAYER01
  6
CONTINUOUS
 62
     7
 10
2166.032498
 20
464.51016499999992
 30
0.0
  0
VERTEX
  5
10D7
  8
LAYER01
  6
CONTINUOUS
 62
     7
 10
2166.091989
 20
464.4846849999999
 30
0.0
  0
VERTEX
  5
10D8
  8
LAYER01
  6
CONTINUOUS
 62
     7
 10
2166.1527529999998
 20
464.4595799999999
 30
0.0
  0
VERTEX
  5
10D9
  8
LAYER01
  6
CONTINUOUS
 62
     7
 10
2166.2147920000002
 20
464.43489499999998
 30
0.0
  0
VERTEX
  5
10DA
  8
LAYER01
  6
CONTINUOUS
 62
     7
 10
2166.278104
 20
464.41067199999992
 30
0.0
  0
VERTEX
  5
10DB
  8
LAYER01
  6
CONTINUOUS
 62
     7
 10
2166.3426920000002
 20
464.386957
 30
0.0
  0
VERTEX
  5
10DC
  8
LAYER01
  6
CONTINUOUS
 62
     7
 10
2166.4085540000001
 20
464.36379399999998
 30
0.0
  0
VERTEX
  5
10DD
  8
LAYER01
  6
CONTINUOUS
 62
     7
 10
2166.475692
 20
464.34122599999989
 30
0.0
  0
VERTEX
  5
10DE
  8
LAYER01
  6
CONTINUOUS
 62
     7
 10
2166.5441059999998
 20
464.31929699999989
 30
0.0
  0
VERTEX
  5
10DF
  8
LAYER01
  6
CONTINUOUS
 62
     7
 10
2166.6137960000001
 20
464.29805199999993
 30
0.0
  0
VERTEX
  5
10E0
  8
LAYER01
  6
CONTINUOUS
 62
     7
 10
2166.6847630000002
 20
464.27753499999989
 30
0.0
  0
VERTEX
  5
10E1
  8
LAYER01
  6
CONTINUOUS
 62
     7
 10
2166.7570070000011
 20
464.25779
 30
0.0
  0
VERTEX
  5
10E2
  8
LAYER01
  6
CONTINUOUS
 62
     7
 10
2166.830528
 20
464.23884199999992
 30
0.0
  0
VERTEX
  5
10E3
  8
LAYER01
  6
CONTINUOUS
 62
     7
 10
2166.90533
 20
464.2207259999999
 30
0.0
  0
VERTEX
  5
10E4
  8
LAYER01
  6
CONTINUOUS
 62
     7
 10
2166.9814219999998
 20
464.20349999999991
 30
0.0
  0
VERTEX
  5
10E5
  8
LAYER01
  6
CONTINUOUS
 62
     7
 10
2167.0588109999999
 20
464.18722300000002
 30
0.0
  0
VERTEX
  5
10E6
  8
LAYER01
  6
CONTINUOUS
 62
     7
 10
2167.1375039999998
 20
464.17195199999992
 30
0.0
  0
VERTEX
  5
10E7
  8
LAYER01
  6
CONTINUOUS
 62
     7
 10
2167.2175099999999
 20
464.15774599999992
 30
0.0
  0
VERTEX
  5
10E8
  8
LAYER01
  6
CONTINUOUS
 62
     7
 10
2167.2988350000001
 20
464.14466399999992
 30
0.0
  0
VERTEX
  5
10E9
  8
LAYER01
  6
CONTINUOUS
 62
     7
 10
2167.3814870000001
 20
464.13276300000001
 30
0.0
  0
VERTEX
  5
10EA
  8
LAYER01
  6
CONTINUOUS
 62
     7
 10
2167.4654740000001
 20
464.12210299999998
 30
0.0
  0
VERTEX
  5
10EB
  8
LAYER01
  6
CONTINUOUS
 62
     7
 10
2167.5508030000001
 20
464.11274100000003
 30
0.0
  0
VERTEX
  5
10EC
  8
LAYER01
  6
CONTINUOUS
 62
     7
 10
2167.6374820000001
 20
464.10473500000001
 30
0.0
  0
VERTEX
  5
10ED
  8
LAYER01
  6
CONTINUOUS
 62
     7
 10
2167.7255180000011
 20
464.09814499999999
 30
0.0
  0
VERTEX
  5
10EE
  8
LAYER01
  6
CONTINUOUS
 62
     7
 10
2167.8149189999999
 20
464.093029
 30
0.0
  0
VERTEX
  5
10EF
  8
LAYER01
  6
CONTINUOUS
 62
     7
 10
2167.9056930000002
 20
464.08944400000001
 30
0.0
  0
VERTEX
  5
10F0
  8
LAYER01
  6
CONTINUOUS
 62
     7
 10
2167.9978470000001
 20
464.08744899999999
 30
0.0
  0
VERTEX
  5
10F1
  8
LAYER01
  6
CONTINUOUS
 62
     7
 10
2168.0913879999998
 20
464.0871019999999
 30
0.0
  0
VERTEX
  5
10F2
  8
LAYER01
  6
CONTINUOUS
 62
     7
 10
2168.1863250000001
 20
464.08846299999999
 30
0.0
  0
VERTEX
  5
10F3
  8
LAYER01
  6
CONTINUOUS
 62
     7
 10
2168.2826639999998
 20
464.091588
 30
0.0
  0
SEQEND
  5
10F4
  8
LAYER01
  6
CONTINUOUS
 62
     7
  0
POLYLINE
  5
89F
  8
LAYER01
  6
CONTINUOUS
 62
     7
 66
     1
 10
0.0
 20
0.0
 30
0.0
  0
VERTEX
  5
10F5
  8
LAYER01
  6
CONTINUOUS
 62
     7
 10
2175.3937070000002
 20
464.27844199999993
 30
0.0
  0
VERTEX
  5
10F6
  8
LAYER01
  6
CONTINUOUS
 62
     7
 10
2171.4427110000001
 20
464.19533499999989
 30
0.0
  0
VERTEX
  5
10F7
  8
LAYER01
  6
CONTINUOUS
 62
     7
 10
2168.2826639999998
 20
464.091588
 30
0.0
  0
SEQEND
  5
10F8
  8
LAYER01
  6
CONTINUOUS
 62
     7
  0
POLYLINE
  5
8A4
  8
LAYER01
  6
CONTINUOUS
 62
     7
 66
     1
 10
0.0
 20
0.0
 30
0.0
  0
VERTEX
  5
10F9
  8
LAYER01
  6
CONTINUOUS
 62
     7
 10
2175.3937070000002
 20
464.27844199999993
 30
0.0
  0
VERTEX
  5
10FA
  8
LAYER01
  6
CONTINUOUS
 62
     7
 10
2175.4414959999999
 20
464.27945899999997
 30
0.0
  0
VERTEX
  5
10FB
  8
LAYER01
  6
CONTINUOUS
 62
     7
 10
2175.48929
 20
464.28092199999998
 30
0.0
  0
VERTEX
  5
10FC
  8
LAYER01
  6
CONTINUOUS
 62
     7
 10
2175.5370889999999
 20
464.28283099999987
 30
0.0
  0
VERTEX
  5
10FD
  8
LAYER01
  6
CONTINUOUS
 62
     7
 10
2175.5848919999999
 20
464.28518800000001
 30
0.0
  0
VERTEX
  5
10FE
  8
LAYER01
  6
CONTINUOUS
 62
     7
 10
2175.6326979999999
 20
464.28799700000002
 30
0.0
  0
VERTEX
  5
10FF
  8
LAYER01
  6
CONTINUOUS
 62
     7
 10
2175.680507
 20
464.29125699999997
 30
0.0
  0
VERTEX
  5
1100
  8
LAYER01
  6
CONTINUOUS
 62
     7
 10
2175.7283179999999
 20
464.29497300000003
 30
0.0
  0
VERTEX
  5
1101
  8
LAYER01
  6
CONTINUOUS
 62
     7
 10
2175.7761300000002
 20
464.29914400000013
 30
0.0
  0
VERTEX
  5
1102
  8
LAYER01
  6
CONTINUOUS
 62
     7
 10
2175.8239440000011
 20
464.30377299999998
 30
0.0
  0
VERTEX
  5
1103
  8
LAYER01
  6
CONTINUOUS
 62
     7
 10
2175.8717580000002
 20
464.30886199999998
 30
0.0
  0
VERTEX
  5
1104
  8
LAYER01
  6
CONTINUOUS
 62
     7
 10
2175.9195719999998
 20
464.314413
 30
0.0
  0
VERTEX
  5
1105
  8
LAYER01
  6
CONTINUOUS
 62
     7
 10
2175.9673859999998
 20
464.32042799999999
 30
0.0
  0
VERTEX
  5
1106
  8
LAYER01
  6
CONTINUOUS
 62
     7
 10
2176.0151980000001
 20
464.326908
 30
0.0
  0
VERTEX
  5
1107
  8
LAYER01
  6
CONTINUOUS
 62
     7
 10
2176.0630079999992
 20
464.33385600000003
 30
0.0
  0
VERTEX
  5
1108
  8
LAYER01
  6
CONTINUOUS
 62
     7
 10
2176.1108159999999
 20
464.341273
 30
0.0
  0
VERTEX
  5
1109
  8
LAYER01
  6
CONTINUOUS
 62
     7
 10
2176.158621
 20
464.34916099999998
 30
0.0
  0
VERTEX
  5
110A
  8
LAYER01
  6
CONTINUOUS
 62
     7
 10
2176.2064220000002
 20
464.35752300000001
 30
0.0
  0
VERTEX
  5
110B
  8
LAYER01
  6
CONTINUOUS
 62
     7
 10
2176.2542199999998
 20
464.36635899999999
 30
0.0
  0
VERTEX
  5
110C
  8
LAYER01
  6
CONTINUOUS
 62
     7
 10
2176.302013
 20
464.37567199999989
 30
0.0
  0
VERTEX
  5
110D
  8
LAYER01
  6
CONTINUOUS
 62
     7
 10
2176.3498
 20
464.3854639999999
 30
0.0
  0
VERTEX
  5
110E
  8
LAYER01
  6
CONTINUOUS
 62
     7
 10
2176.3975820000001
 20
464.39573699999988
 30
0.0
  0
VERTEX
  5
110F
  8
LAYER01
  6
CONTINUOUS
 62
     7
 10
2176.4453570000001
 20
464.4064919999999
 30
0.0
  0
VERTEX
  5
1110
  8
LAYER01
  6
CONTINUOUS
 62
     7
 10
2176.493125
 20
464.41773099999989
 30
0.0
  0
VERTEX
  5
1111
  8
LAYER01
  6
CONTINUOUS
 62
     7
 10
2176.5408859999998
 20
464.42945700000001
 30
0.0
  0
VERTEX
  5
1112
  8
LAYER01
  6
CONTINUOUS
 62
     7
 10
2176.5886390000001
 20
464.44167099999987
 30
0.0
  0
VERTEX
  5
1113
  8
LAYER01
  6
CONTINUOUS
 62
     7
 10
2176.636383
 20
464.45437399999997
 30
0.0
  0
VERTEX
  5
1114
  8
LAYER01
  6
CONTINUOUS
 62
     7
 10
2176.6841180000001
 20
464.46757000000002
 30
0.0
  0
VERTEX
  5
1115
  8
LAYER01
  6
CONTINUOUS
 62
     7
 10
2176.731843
 20
464.48125899999991
 30
0.0
  0
VERTEX
  5
1116
  8
LAYER01
  6
CONTINUOUS
 62
     7
 10
2176.7795580000002
 20
464.49544400000002
 30
0.0
  0
VERTEX
  5
1117
  8
LAYER01
  6
CONTINUOUS
 62
     7
 10
2176.8272609999999
 20
464.5101269999999
 30
0.0
  0
VERTEX
  5
1118
  8
LAYER01
  6
CONTINUOUS
 62
     7
 10
2176.8749670000002
 20
464.52532400000001
 30
0.0
  0
VERTEX
  5
1119
  8
LAYER01
  6
CONTINUOUS
 62
     7
 10
2176.9226779999999
 20
464.54104699999988
 30
0.0
  0
VERTEX
  5
111A
  8
LAYER01
  6
CONTINUOUS
 62
     7
 10
2176.9703749999999
 20
464.55729200000002
 30
0.0
  0
VERTEX
  5
111B
  8
LAYER01
  6
CONTINUOUS
 62
     7
 10
2177.0180409999998
 20
464.57405599999998
 30
0.0
  0
VERTEX
  5
111C
  8
LAYER01
  6
CONTINUOUS
 62
     7
 10
2177.0656589999999
 20
464.59133200000002
 30
0.0
  0
VERTEX
  5
111D
  8
LAYER01
  6
CONTINUOUS
 62
     7
 10
2177.1132109999999
 20
464.60911700000003
 30
0.0
  0
VERTEX
  5
111E
  8
LAYER01
  6
CONTINUOUS
 62
     7
 10
2177.16068
 20
464.62740700000001
 30
0.0
  0
VERTEX
  5
111F
  8
LAYER01
  6
CONTINUOUS
 62
     7
 10
2177.2080470000001
 20
464.64619699999992
 30
0.0
  0
VERTEX
  5
1120
  8
LAYER01
  6
CONTINUOUS
 62
     7
 10
2177.2552949999999
 20
464.66548200000011
 30
0.0
  0
VERTEX
  5
1121
  8
LAYER01
  6
CONTINUOUS
 62
     7
 10
2177.3024070000001
 20
464.68525799999998
 30
0.0
  0
VERTEX
  5
1122
  8
LAYER01
  6
CONTINUOUS
 62
     7
 10
2177.349365
 20
464.70552199999992
 30
0.0
  0
VERTEX
  5
1123
  8
LAYER01
  6
CONTINUOUS
 62
     7
 10
2177.3961509999999
 20
464.72626699999989
 30
0.0
  0
VERTEX
  5
1124
  8
LAYER01
  6
CONTINUOUS
 62
     7
 10
2177.4427489999998
 20
464.74749100000002
 30
0.0
  0
VERTEX
  5
1125
  8
LAYER01
  6
CONTINUOUS
 62
     7
 10
2177.4891389999998
 20
464.76918699999999
 30
0.0
  0
VERTEX
  5
1126
  8
LAYER01
  6
CONTINUOUS
 62
     7
 10
2177.5353049999999
 20
464.79135300000002
 30
0.0
  0
VERTEX
  5
1127
  8
LAYER01
  6
CONTINUOUS
 62
     7
 10
2177.5812559999999
 20
464.81398899999999
 30
0.0
  0
VERTEX
  5
1128
  8
LAYER01
  6
CONTINUOUS
 62
     7
 10
2177.6270119999999
 20
464.8371009999999
 30
0.0
  0
VERTEX
  5
1129
  8
LAYER01
  6
CONTINUOUS
 62
     7
 10
2177.6725710000001
 20
464.86068899999992
 30
0.0
  0
VERTEX
  5
112A
  8
LAYER01
  6
CONTINUOUS
 62
     7
 10
2177.7179329999999
 20
464.88475499999998
 30
0.0
  0
VERTEX
  5
112B
  8
LAYER01
  6
CONTINUOUS
 62
     7
 10
2177.7630949999998
 20
464.90929999999992
 30
0.0
  0
VERTEX
  5
112C
  8
LAYER01
  6
CONTINUOUS
 62
     7
 10
2177.8080559999999
 20
464.93432699999988
 30
0.0
  0
VERTEX
  5
112D
  8
LAYER01
  6
CONTINUOUS
 62
     7
 10
2177.8528139999999
 20
464.959836
 30
0.0
  0
VERTEX
  5
112E
  8
LAYER01
  6
CONTINUOUS
 62
     7
 10
2177.8973679999999
 20
464.98582999999991
 30
0.0
  0
VERTEX
  5
112F
  8
LAYER01
  6
CONTINUOUS
 62
     7
 10
2177.9417170000002
 20
465.01230900000002
 30
0.0
  0
VERTEX
  5
1130
  8
LAYER01
  6
CONTINUOUS
 62
     7
 10
2177.985858
 20
465.03927499999992
 30
0.0
  0
VERTEX
  5
1131
  8
LAYER01
  6
CONTINUOUS
 62
     7
 10
2178.0297909999999
 20
465.06673000000001
 30
0.0
  0
VERTEX
  5
1132
  8
LAYER01
  6
CONTINUOUS
 62
     7
 10
2178.0735129999998
 20
465.094675
 30
0.0
  0
VERTEX
  5
1133
  8
LAYER01
  6
CONTINUOUS
 62
     7
 10
2178.1170240000001
 20
465.12311199999999
 30
0.0
  0
VERTEX
  5
1134
  8
LAYER01
  6
CONTINUOUS
 62
     7
 10
2178.1603209999998
 20
465.15204099999988
 30
0.0
  0
VERTEX
  5
1135
  8
LAYER01
  6
CONTINUOUS
 62
     7
 10
2178.2034039999999
 20
465.181466
 30
0.0
  0
VERTEX
  5
1136
  8
LAYER01
  6
CONTINUOUS
 62
     7
 10
2178.2462780000001
 20
465.21139299999987
 30
0.0
  0
VERTEX
  5
1137
  8
LAYER01
  6
CONTINUOUS
 62
     7
 10
2178.2889460000001
 20
465.24183199999999
 30
0.0
  0
VERTEX
  5
1138
  8
LAYER01
  6
CONTINUOUS
 62
     7
 10
2178.3314030000001
 20
465.27278299999989
 30
0.0
  0
VERTEX
  5
1139
  8
LAYER01
  6
CONTINUOUS
 62
     7
 10
2178.373642
 20
465.30424699999992
 30
0.0
  0
VERTEX
  5
113A
  8
LAYER01
  6
CONTINUOUS
 62
     7
 10
2178.4156579999999
 20
465.3362239999999
 30
0.0
  0
VERTEX
  5
113B
  8
LAYER01
  6
CONTINUOUS
 62
     7
 10
2178.4574429999998
 20
465.3687139999999
 30
0.0
  0
VERTEX
  5
113C
  8
LAYER01
  6
CONTINUOUS
 62
     7
 10
2178.4989930000002
 20
465.40171900000001
 30
0.0
  0
VERTEX
  5
113D
  8
LAYER01
  6
CONTINUOUS
 62
     7
 10
2178.5403000000001
 20
465.43523899999991
 30
0.0
  0
VERTEX
  5
113E
  8
LAYER01
  6
CONTINUOUS
 62
     7
 10
2178.5813589999998
 20
465.46927399999998
 30
0.0
  0
VERTEX
  5
113F
  8
LAYER01
  6
CONTINUOUS
 62
     7
 10
2178.6221639999999
 20
465.50382500000001
 30
0.0
  0
VERTEX
  5
1140
  8
LAYER01
  6
CONTINUOUS
 62
     7
 10
2178.6627090000011
 20
465.53889299999992
 30
0.0
  0
VERTEX
  5
1141
  8
LAYER01
  6
CONTINUOUS
 62
     7
 10
2178.7029870000001
 20
465.574478
 30
0.0
  0
VERTEX
  5
1142
  8
LAYER01
  6
CONTINUOUS
 62
     7
 10
2178.742992
 20
465.61058099999991
 30
0.0
  0
VERTEX
  5
1143
  8
LAYER01
  6
CONTINUOUS
 62
     7
 10
2178.7827189999998
 20
465.64720099999988
 30
0.0
  0
VERTEX
  5
1144
  8
LAYER01
  6
CONTINUOUS
 62
     7
 10
2178.8221600000011
 20
465.68434100000002
 30
0.0
  0
VERTEX
  5
1145
  8
LAYER01
  6
CONTINUOUS
 62
     7
 10
2178.8612469999998
 20
465.72193600000003
 30
0.0
  0
VERTEX
  5
1146
  8
LAYER01
  6
CONTINUOUS
 62
     7
 10
2178.8999130000002
 20
465.75992300000001
 30
0.0
  0
VERTEX
  5
1147
  8
LAYER01
  6
CONTINUOUS
 62
     7
 10
2178.938157
 20
465.79830099999992
 30
0.0
  0
VERTEX
  5
1148
  8
LAYER01
  6
CONTINUOUS
 62
     7
 10
2178.9759779999999
 20
465.83707099999992
 30
0.0
  0
VERTEX
  5
1149
  8
LAYER01
  6
CONTINUOUS
 62
     7
 10
2179.013375
 20
465.8762309999999
 30
0.0
  0
VERTEX
  5
114A
  8
LAYER01
  6
CONTINUOUS
 62
     7
 10
2179.0503490000001
 20
465.91578199999998
 30
0.0
  0
VERTEX
  5
114B
  8
LAYER01
  6
CONTINUOUS
 62
     7
 10
2179.086898
 20
465.95572399999998
 30
0.0
  0
VERTEX
  5
114C
  8
LAYER01
  6
CONTINUOUS
 62
     7
 10
2179.1230220000002
 20
465.99605600000001
 30
0.0
  0
VERTEX
  5
114D
  8
LAYER01
  6
CONTINUOUS
 62
     7
 10
2179.1587199999999
 20
466.03677800000003
 30
0.0
  0
VERTEX
  5
114E
  8
LAYER01
  6
CONTINUOUS
 62
     7
 10
2179.193992
 20
466.07789000000002
 30
0.0
  0
VERTEX
  5
114F
  8
LAYER01
  6
CONTINUOUS
 62
     7
 10
2179.2288359999998
 20
466.11939100000001
 30
0.0
  0
VERTEX
  5
1150
  8
LAYER01
  6
CONTINUOUS
 62
     7
 10
2179.2632530000001
 20
466.16128200000003
 30
0.0
  0
VERTEX
  5
1151
  8
LAYER01
  6
CONTINUOUS
 62
     7
 10
2179.2972410000002
 20
466.20356199999998
 30
0.0
  0
VERTEX
  5
1152
  8
LAYER01
  6
CONTINUOUS
 62
     7
 10
2179.3308000000002
 20
466.24623200000002
 30
0.0
  0
VERTEX
  5
1153
  8
LAYER01
  6
CONTINUOUS
 62
     7
 10
2179.3639290000001
 20
466.28928899999988
 30
0.0
  0
VERTEX
  5
1154
  8
LAYER01
  6
CONTINUOUS
 62
     7
 10
2179.396628
 20
466.33273600000001
 30
0.0
  0
VERTEX
  5
1155
  8
LAYER01
  6
CONTINUOUS
 62
     7
 10
2179.428895
 20
466.3765719999999
 30
0.0
  0
VERTEX
  5
1156
  8
LAYER01
  6
CONTINUOUS
 62
     7
 10
2179.4607249999999
 20
466.42079999999999
 30
0.0
  0
VERTEX
  5
1157
  8
LAYER01
  6
CONTINUOUS
 62
     7
 10
2179.4921180000001
 20
466.46542099999999
 30
0.0
  0
VERTEX
  5
1158
  8
LAYER01
  6
CONTINUOUS
 62
     7
 10
2179.5230700000002
 20
466.51043700000002
 30
0.0
  0
VERTEX
  5
1159
  8
LAYER01
  6
CONTINUOUS
 62
     7
 10
2179.5535789999999
 20
466.55585000000002
 30
0.0
  0
VERTEX
  5
115A
  8
LAYER01
  6
CONTINUOUS
 62
     7
 10
2179.5836410000002
 20
466.60166099999998
 30
0.0
  0
VERTEX
  5
115B
  8
LAYER01
  6
CONTINUOUS
 62
     7
 10
2179.6132539999999
 20
466.64787199999989
 30
0.0
  0
VERTEX
  5
115C
  8
LAYER01
  6
CONTINUOUS
 62
     7
 10
2179.6424160000001
 20
466.69448499999999
 30
0.0
  0
VERTEX
  5
115D
  8
LAYER01
  6
CONTINUOUS
 62
     7
 10
2179.6711220000002
 20
466.74150100000003
 30
0.0
  0
VERTEX
  5
115E
  8
LAYER01
  6
CONTINUOUS
 62
     7
 10
2179.699372
 20
466.78892300000001
 30
0.0
  0
VERTEX
  5
115F
  8
LAYER01
  6
CONTINUOUS
 62
     7
 10
2179.7271609999998
 20
466.83675199999988
 30
0.0
  0
VERTEX
  5
1160
  8
LAYER01
  6
CONTINUOUS
 62
     7
 10
2179.754488
 20
466.88499000000002
 30
0.0
  0
VERTEX
  5
1161
  8
LAYER01
  6
CONTINUOUS
 62
     7
 10
2179.7813489999999
 20
466.93363799999992
 30
0.0
  0
VERTEX
  5
1162
  8
LAYER01
  6
CONTINUOUS
 62
     7
 10
2179.807742
 20
466.98269800000003
 30
0.0
  0
VERTEX
  5
1163
  8
LAYER01
  6
CONTINUOUS
 62
     7
 10
2179.8336399999998
 20
467.03213299999999
 30
0.0
  0
VERTEX
  5
1164
  8
LAYER01
  6
CONTINUOUS
 62
     7
 10
2179.859015
 20
467.0819019999999
 30
0.0
  0
VERTEX
  5
1165
  8
LAYER01
  6
CONTINUOUS
 62
     7
 10
2179.8838639999999
 20
467.13199800000001
 30
0.0
  0
VERTEX
  5
1166
  8
LAYER01
  6
CONTINUOUS
 62
     7
 10
2179.9081799999999
 20
467.182413
 30
0.0
  0
VERTEX
  5
1167
  8
LAYER01
  6
CONTINUOUS
 62
     7
 10
2179.931959
 20
467.23314099999988
 30
0.0
  0
VERTEX
  5
1168
  8
LAYER01
  6
CONTINUOUS
 62
     7
 10
2179.9551959999999
 20
467.28417599999989
 30
0.0
  0
VERTEX
  5
1169
  8
LAYER01
  6
CONTINUOUS
 62
     7
 10
2179.9778860000001
 20
467.335509
 30
0.0
  0
VERTEX
  5
116A
  8
LAYER01
  6
CONTINUOUS
 62
     7
 10
2180.0000249999998
 20
467.38713499999989
 30
0.0
  0
VERTEX
  5
116B
  8
LAYER01
  6
CONTINUOUS
 62
     7
 10
2180.021608
 20
467.43904600000002
 30
0.0
  0
VERTEX
  5
116C
  8
LAYER01
  6
CONTINUOUS
 62
     7
 10
2180.042629
 20
467.4912349999999
 30
0.0
  0
VERTEX
  5
116D
  8
LAYER01
  6
CONTINUOUS
 62
     7
 10
2180.0630839999999
 20
467.5436969999999
 30
0.0
  0
VERTEX
  5
116E
  8
LAYER01
  6
CONTINUOUS
 62
     7
 10
2180.0829680000002
 20
467.59642300000002
 30
0.0
  0
VERTEX
  5
116F
  8
LAYER01
  6
CONTINUOUS
 62
     7
 10
2180.1022760000001
 20
467.649407
 30
0.0
  0
VERTEX
  5
1170
  8
LAYER01
  6
CONTINUOUS
 62
     7
 10
2180.1210040000001
 20
467.70264299999991
 30
0.0
  0
VERTEX
  5
1171
  8
LAYER01
  6
CONTINUOUS
 62
     7
 10
2180.139146
 20
467.75612199999989
 30
0.0
  0
SEQEND
  5
1172
  8
LAYER01
  6
CONTINUOUS
 62
     7
  0
LINE
  5
91F
  8
LAYER01
  6
CONTINUOUS
 62
     7
 10
2210.7342319999998
 20
451.756124
 30
0.0
 11
2210.7342319999998
 21
467.75612000000001
 31
0.0
  0
LINE
  5
920
  8
LAYER01
  6
CONTINUOUS
 62
     7
 10
2164.7342279999998
 20
451.756124
 30
0.0
 11
2210.7342319999998
 21
451.756124
 31
0.0
  0
LINE
  5
921
  8
LAYER01
  6
CONTINUOUS
 62
     7
 10
2235.45955
 20
488.10086899999999
 30
0.0
 11
2227.7342370000001
 21
451.756124
 31
0.0
  0
ARC
  5
922
  8
LAYER01
  6
CONTINUOUS
 62
     7
 10
2168.3104819999999
 20
468.77191199999987
 30
0.0
 40
5.0
 50
185.0
 51
224.336332
  0
ARC
  5
923
  8
LAYER01
  6
CONTINUOUS
 62
     7
 10
2138.735232
 20
554.3968769999999
 30
0.0
 40
5.0
 50
5.0
 51
90.0
  0
LINE
  5
924
  8
LAYER01
  6
CONTINUOUS
 62
     7
 10
2138.7352329999999
 20
559.3968769999999
 30
0.0
 11
2129.3128569999999
 21
559.3968769999999
 31
0.0
  0
LINE
  5
925
  8
LAYER01
  6
CONTINUOUS
 62
     7
 10
2129.3128569999999
 20
571.3968769999999
 30
0.0
 11
2129.3128569999999
 21
559.3968769999999
 31
0.0
  0
LINE
  5
926
  8
LAYER01
  6
CONTINUOUS
 62
     7
 10
2154.3128630000001
 20
571.3968769999999
 30
0.0
 11
2129.3128569999999
 21
571.3968769999999
 31
0.0
  0
LINE
  5
927
  8
LAYER01
  6
CONTINUOUS
 62
     7
 10
2154.3128630000001
 20
571.3968769999999
 30
0.0
 11
2163.3295109999999
 21
468.33613200000002
 31
0.0
  0
LINE
  5
928
  8
LAYER01
  6
CONTINUOUS
 62
     7
 10
2143.7161999999998
 20
554.83265499999993
 30
0.0
 11
2152.3349119999998
 21
456.32034299999992
 31
0.0
  0
ARC
  5
929
  8
LAYER01
  6
CONTINUOUS
 62
     7
 10
2157.3158899999999
 20
456.75612199999989
 30
0.0
 40
5.0
 50
185.0
 51
270.0
  0
LINE
  5
92A
  8
LAYER01
  6
CONTINUOUS
 62
     7
 10
2157.3158939999998
 20
451.756124
 30
0.0
 11
2164.7342279999998
 21
451.756124
 31
0.0
  0
ARC
  5
92B
  8
LAYER01
  6
CONTINUOUS
 62
     7
 10
2240.3502859999999
 20
487.061308
 30
0.0
 40
5.0
 50
104.45999999999999
 51
168.0
  0
LINE
  5
92C
  8
LAYER01
  6
CONTINUOUS
 62
     7
 10
2180.2661549999998
 20
467.75612000000001
 30
0.0
 11
2210.7342319999998
 21
467.75612000000001
 31
0.0
  0
ARC
  5
92D
  8
LAYER01
  6
CONTINUOUS
 62
     7
 10
2175.3704299999999
 20
468.77191199999987
 30
0.0
 40
5.0
 50
348.27831499999991
 51
357.36000000000001
  0
LINE
  5
92E
  8
LAYER01
  6
CONTINUOUS
 62
     7
 10
2180.3651289999998
 20
468.54161199999999
 30
0.0
 11
2181.3267460000002
 21
489.39687499999991
 31
0.0
  0
LINE
  5
92F
  8
LAYER01
  6
CONTINUOUS
 62
     7
 10
2210.7342319999998
 20
451.756124
 30
0.0
 11
2227.7342370000001
 21
451.756124
 31
0.0
  0
ARC
  5
930
  8
LAYER01
  6
CONTINUOUS
 62
     7
 10
2168.307695
 20
468.77175599999998
 30
0.0
 40
4.9972079999999997
 50
185.001012
 51
224.35164900000001
  0
ARC
  5
931
  8
LAYER01
  6
CONTINUOUS
 62
     7
 10
2175.3727159999999
 20
468.77196199999997
 30
0.0
 40
4.9977239999999989
 50
348.27227900000003
 51
357.35824200000002
  0
LINE
  5
932
  8
LAYER01
  6
CONTINUOUS
 62
     7
 10
2180.2661109999999
 20
467.75612000000001
 30
0.0
 11
2180.2661549999998
 21
467.75612000000001
 31
0.0
  0
LINE
  5
933
  8
LAYER01
  6
CONTINUOUS
 62
     7
 10
2180.2661109999999
 20
467.75612000000001
 30
0.0
 11
2180.1391530000001
 21
467.75612000000001
 31
0.0
  0
LINE
  5
934
  8
LAYER01
  6
CONTINUOUS
 62
     7
 10
2154.3128630000001
 20
571.3968769999999
 30
0.0
 11
2159.2938290000002
 21
571.3968769999999
 31
0.0
  0
INSERT
  5
935
  8
LAYER01
  2
VT35608-G19
 10
0.0
 20
0.0
 30
0.0
  0
LINE
  5
936
  8
LAYER01
  6
CONTINUOUS
 62
     7
 10
2524.3128670000001
 20
571.3968769999999
 30
0.0
 11
2499.3128609999999
 21
571.3968769999999
 31
0.0
  0
LINE
  5
937
  8
LAYER01
  6
CONTINUOUS
 62
     7
 10
2524.3128670000001
 20
559.3968769999999
 30
0.0
 11
2524.3128670000001
 21
571.3968769999999
 31
0.0
  0
LINE
  5
938
  8
LAYER01
  6
CONTINUOUS
 62
     7
 10
2524.3128670000001
 20
559.3968769999999
 30
0.0
 11
2501.4695069999998
 21
559.3968769999999
 31
0.0
  0
ARC
  5
939
  8
LAYER01
  6
CONTINUOUS
 62
     7
 10
2501.469505
 20
554.3968769999999
 30
0.0
 40
5.0
 50
90.0
 51
104.45999999999999
  0
LINE
  5
93A
  8
LAYER01
  6
CONTINUOUS
 62
     7
 10
2480.9790539999999
 20
571.3968769999999
 30
0.0
 11
2499.3128609999999
 21
571.3968769999999
 31
0.0
  0
ENDSEC
  0
EOF
