  0
SECTION
  2
HEADER
  9
$ACADVER
  1
AC1014
  9
$ACADMAINTVER
 70
     9
  9
$DWGCODEPAGE
  3
ANSI_1252
  9
$INSBASE
 10
0.0
 20
0.0
 30
0.0
  9
$EXTMIN
 10
-297.5
 20
-297.4989356373636
 30
0.0
  9
$EXTMAX
 10
1234.78283662745
 20
471.2308461702556
 30
0.0
  9
$LIMMIN
 10
0.0
 20
0.0
  9
$LIMMAX
 10
420.0
 20
297.0
  9
$ORTHOMODE
 70
     1
  9
$REGENMODE
 70
     1
  9
$FILLMODE
 70
     1
  9
$QTEXTMODE
 70
     0
  9
$MIRRTEXT
 70
     1
  9
$DRAGMODE
 70
     2
  9
$LTSCALE
 40
1.0
  9
$OSMODE
 70
   167
  9
$ATTMODE
 70
     1
  9
$TEXTSIZE
 40
2.5
  9
$TRACEWID
 40
1.0
  9
$TEXTSTYLE
  7
STANDARD
  9
$CLAYER
  8
0
  9
$CELTYPE
  6
BYLAYER
  9
$CECOLOR
 62
   256
  9
$CELTSCALE
 40
1.0
  9
$DELOBJ
 70
     1
  9
$DISPSILH
 70
     0
  9
$DIMSCALE
 40
1.0
  9
$DIMASZ
 40
25.0
  9
$DIMEXO
 40
5.0
  9
$DIMDLI
 40
3.75
  9
$DIMRND
 40
0.0
  9
$DIMDLE
 40
0.0
  9
$DIMEXE
 40
1.25
  9
$DIMTP
 40
0.0
  9
$DIMTM
 40
0.0
  9
$DIMTXT
 40
25.0
  9
$DIMCEN
 40
2.5
  9
$DIMTSZ
 40
0.0
  9
$DIMTOL
 70
     0
  9
$DIMLIM
 70
     0
  9
$DIMTIH
 70
     0
  9
$DIMTOH
 70
     0
  9
$DIMSE1
 70
     0
  9
$DIMSE2
 70
     0
  9
$DIMTAD
 70
     1
  9
$DIMZIN
 70
     8
  9
$DIMBLK
  1

  9
$DIMASO
 70
     1
  9
$DIMSHO
 70
     1
  9
$DIMPOST
  1

  9
$DIMAPOST
  1

  9
$DIMALT
 70
     0
  9
$DIMALTD
 70
     3
  9
$DIMALTF
 40
0.03937007874016
  9
$DIMLFAC
 40
1.0
  9
$DIMTOFL
 70
     1
  9
$DIMTVP
 40
0.0
  9
$DIMTIX
 70
     0
  9
$DIMSOXD
 70
     0
  9
$DIMSAH
 70
     0
  9
$DIMBLK1
  1

  9
$DIMBLK2
  1

  9
$DIMSTYLE
  2
STANDART
  9
$DIMCLRD
 70
     0
  9
$DIMCLRE
 70
     0
  9
$DIMCLRT
 70
     0
  9
$DIMTFAC
 40
1.0
  9
$DIMGAP
 40
5.0
  9
$DIMJUST
 70
     0
  9
$DIMSD1
 70
     0
  9
$DIMSD2
 70
     0
  9
$DIMTOLJ
 70
     0
  9
$DIMTZIN
 70
     8
  9
$DIMALTZ
 70
     0
  9
$DIMALTTZ
 70
     0
  9
$DIMFIT
 70
     3
  9
$DIMUPT
 70
     0
  9
$DIMUNIT
 70
     2
  9
$DIMDEC
 70
     2
  9
$DIMTDEC
 70
     2
  9
$DIMALTU
 70
     2
  9
$DIMALTTD
 70
     3
  9
$DIMTXSTY
  7
STANDARD
  9
$DIMAUNIT
 70
     0
  9
$LUNITS
 70
     2
  9
$LUPREC
 70
     3
  9
$SKETCHINC
 40
1.0
  9
$FILLETRAD
 40
1.0
  9
$AUNITS
 70
     0
  9
$AUPREC
 70
     3
  9
$MENU
  1
.
  9
$ELEVATION
 40
0.0
  9
$PELEVATION
 40
0.0
  9
$THICKNESS
 40
0.0
  9
$LIMCHECK
 70
     0
  9
$BLIPMODE
 70
     0
  9
$CHAMFERA
 40
10.0
  9
$CHAMFERB
 40
10.0
  9
$CHAMFERC
 40
20.0
  9
$CHAMFERD
 40
0.0
  9
$SKPOLY
 70
     0
  9
$TDCREATE
 40
2453671.631321793
  9
$TDUPDATE
 40
2453672.539965845
  9
$TDINDWG
 40
0.0954928009
  9
$TDUSRTIMER
 40
0.0954928009
  9
$USRTIMER
 70
     1
  9
$ANGBASE
 50
0.0
  9
$ANGDIR
 70
     0
  9
$PDMODE
 70
     0
  9
$PDSIZE
 40
0.0
  9
$PLINEWID
 40
0.0
  9
$COORDS
 70
     0
  9
$SPLFRAME
 70
     0
  9
$SPLINETYPE
 70
     6
  9
$SPLINESEGS
 70
     8
  9
$ATTDIA
 70
     0
  9
$ATTREQ
 70
     0
  9
$HANDLING
 70
 22529
  9
$HANDSEED
  5
651
  9
$SURFTAB1
 70
     6
  9
$SURFTAB2
 70
     6
  9
$SURFTYPE
 70
     6
  9
$SURFU
 70
     6
  9
$SURFV
 70
     6
  9
$UCSNAME
  2

  9
$UCSORG
 10
0.0
 20
0.0
 30
0.0
  9
$UCSXDIR
 10
1.0
 20
0.0
 30
0.0
  9
$UCSYDIR
 10
0.0
 20
1.0
 30
0.0
  9
$PUCSNAME
  2

  9
$PUCSORG
 10
0.0
 20
0.0
 30
0.0
  9
$PUCSXDIR
 10
1.0
 20
0.0
 30
0.0
  9
$PUCSYDIR
 10
0.0
 20
1.0
 30
0.0
  9
$USERI1
 70
     0
  9
$USERI2
 70
     0
  9
$USERI3
 70
     0
  9
$USERI4
 70
     0
  9
$USERI5
 70
     0
  9
$USERR1
 40
0.0
  9
$USERR2
 40
0.0
  9
$USERR3
 40
0.0
  9
$USERR4
 40
0.0
  9
$USERR5
 40
0.0
  9
$WORLDVIEW
 70
     1
  9
$SHADEDGE
 70
     3
  9
$SHADEDIF
 70
    70
  9
$TILEMODE
 70
     1
  9
$MAXACTVP
 70
    64
  9
$PINSBASE
 10
0.0
 20
0.0
 30
0.0
  9
$PLIMCHECK
 70
     0
  9
$PEXTMIN
 10
0.0
 20
0.0
 30
0.0
  9
$PEXTMAX
 10
0.0
 20
0.0
 30
0.0
  9
$PLIMMIN
 10
0.0
 20
0.0
  9
$PLIMMAX
 10
12.0
 20
9.0
  9
$UNITMODE
 70
     0
  9
$VISRETAIN
 70
     1
  9
$PLINEGEN
 70
     0
  9
$PSLTSCALE
 70
     1
  9
$TREEDEPTH
 70
  3020
  9
$PICKSTYLE
 70
     0
  9
$CMLSTYLE
  2
STANDARD
  9
$CMLJUST
 70
     0
  9
$CMLSCALE
 40
20.0
  9
$PROXYGRAPHICS
 70
     1
  9
$MEASUREMENT
 70
     1
  0
ENDSEC
  0
SECTION
  2
CLASSES
  0
CLASS
  1
ACDBDICTIONARYWDFLT
  2
AcDbDictionaryWithDefault
  3
AutoCAD 2000
 90
        0
280
     0
281
     0
  0
CLASS
  1
ACDBPLACEHOLDER
  2
AcDbPlaceHolder
  3
AutoCAD 2000
 90
        0
280
     0
281
     0
  0
CLASS
  1
LAYOUT
  2
AcDbLayout
  3
AutoCAD 2000
 90
        0
280
     0
281
     0
  0
CLASS
  1
DICTIONARYVAR
  2
AcDbDictionaryVar
  3
AutoCAD 2000
 90
        0
280
     0
281
     0
  0
CLASS
  1
RASTERVARIABLES
  2
AcDbRasterVariables
  3
ISM
 90
        0
280
     0
281
     0
  0
CLASS
  1
IMAGEDEF
  2
AcDbRasterImageDef
  3
ISM
 90
        0
280
     0
281
     0
  0
CLASS
  1
IMAGEDEF_REACTOR
  2
AcDbRasterImageDefReactor
  3
ISM
 90
        1
280
     0
281
     0
  0
CLASS
  1
IMAGE
  2
AcDbRasterImage
  3
ISM
 90
      127
280
     0
281
     1
  0
CLASS
  1
DIMASSOC
  2
AcDbDimAssoc
  3
"AcDbDimAssoc|Product Desc:     AcDim ARX App For Dimension|Company:          Autodesk, Inc.|WEB Address:      www.autodesk.com"
 90
        0
280
     0
281
     0
  0
CLASS
  1
LONG_TRANSACTION
  2
AcDbLongTransaction
  3
AutoCAD 2000
 90
        0
280
     0
281
     0
  0
CLASS
  1
LWPOLYLINE
  2
AcDbPolyline
  3
AutoCAD 2000
 90
        0
280
     0
281
     1
  0
CLASS
  1
HATCH
  2
AcDbHatch
  3
AutoCAD 2000
 90
        0
280
     0
281
     1
  0
CLASS
  1
XRECORD
  2
AcDbXrecord
  3
AutoCAD 2000
 90
        0
280
     0
281
     0
  0
ENDSEC
  0
SECTION
  2
TABLES
  0
TABLE
  2
VPORT
  5
8
330
0
100
AcDbSymbolTable
 70
     2
  0
VPORT
  5
629
330
8
100
AcDbSymbolTableRecord
100
AcDbViewportTableRecord
  2
*ACTIVE
 70
     0
 10
0.0
 20
0.0
 11
1.0
 21
1.0
 12
468.6504927205189
 22
98.22289480971768
 13
0.0
 23
0.0
 14
10.0
 24
10.0
 15
10.0
 25
10.0
 16
0.0
 26
0.0
 36
1.0
 17
0.0
 27
0.0
 37
0.0
 40
923.1424171367685
 41
1.668032786885246
 42
50.0
 43
0.0
 44
0.0
 50
0.0
 51
0.0
 71
     0
 72
   100
 73
     1
 74
     3
 75
     0
 76
     0
 77
     0
 78
     0
  0
ENDTAB
  0
TABLE
  2
LTYPE
  5
5
330
0
100
AcDbSymbolTable
 70
     2
  0
LTYPE
  5
14
330
5
100
AcDbSymbolTableRecord
100
AcDbLinetypeTableRecord
  2
BYBLOCK
 70
     0
  3

 72
    65
 73
     0
 40
0.0
  0
LTYPE
  5
15
330
5
100
AcDbSymbolTableRecord
100
AcDbLinetypeTableRecord
  2
BYLAYER
 70
     0
  3

 72
    65
 73
     0
 40
0.0
  0
LTYPE
  5
16
330
5
100
AcDbSymbolTableRecord
100
AcDbLinetypeTableRecord
  2
CONTINUOUS
 70
     0
  3
Solid line
 72
    65
 73
     0
 40
0.0
  0
LTYPE
  5
4CA
330
5
100
AcDbSymbolTableRecord
100
AcDbLinetypeTableRecord
  2
STRICHPUNKT
 70
     0
  3
Strichpunkt __ . __ . __ . __ . __ . __ . __ . 
 72
    65
 73
     4
 40
25.4
 49
12.7
 74
     0
 49
-6.349999999999999
 74
     0
 49
0.0
 74
     0
 49
-6.349999999999999
 74
     0
  0
ENDTAB
  0
TABLE
  2
LAYER
  5
2
102
{ACAD_XDICTIONARY
360
156
102
}
330
0
100
AcDbSymbolTable
 70
     2
  0
LAYER
  5
10
330
2
100
AcDbSymbolTableRecord
100
AcDbLayerTableRecord
  2
0
 70
     0
 62
     7
  6
CONTINUOUS
  0
LAYER
  5
5B2
330
2
100
AcDbSymbolTableRecord
100
AcDbLayerTableRecord
  2
DEFPOINTS
 70
     0
 62
     7
  6
CONTINUOUS
  0
ENDTAB
  0
TABLE
  2
STYLE
  5
3
330
0
100
AcDbSymbolTable
 70
     1
  0
STYLE
  5
11
330
3
100
AcDbSymbolTableRecord
100
AcDbTextStyleTableRecord
  2
STANDARD
 70
     0
 40
0.0
 41
1.0
 50
0.0
 71
     0
 42
2.5
  3
romans.shx
  4

  0
ENDTAB
  0
TABLE
  2
VIEW
  5
6
330
0
100
AcDbSymbolTable
 70
     0
  0
ENDTAB
  0
TABLE
  2
UCS
  5
7
330
0
100
AcDbSymbolTable
 70
     0
  0
ENDTAB
  0
TABLE
  2
APPID
  5
9
330
0
100
AcDbSymbolTable
 70
     3
  0
APPID
  5
12
330
9
100
AcDbSymbolTableRecord
100
AcDbRegAppTableRecord
  2
ACAD
 70
     0
  0
APPID
  5
7B
330
9
100
AcDbSymbolTableRecord
100
AcDbRegAppTableRecord
  2
ODA
 70
     0
  0
APPID
  5
155
330
9
100
AcDbSymbolTableRecord
100
AcDbRegAppTableRecord
  2
PIT-CUP
 70
     0
  0
ENDTAB
  0
TABLE
  2
DIMSTYLE
  5
A
330
0
100
AcDbSymbolTable
 70
     1
  0
DIMSTYLE
105
27
102
{ACAD_REACTORS
330
1C8
330
1F5
330
20D
330
248
330
33F
330
372
102
}
330
A
100
AcDbSymbolTableRecord
100
AcDbDimStyleTableRecord
  2
STANDART
 70
     0
  3

  4

  5

  6

  7

 40
1.0
 41
25.0
 42
5.0
 43
3.75
 44
1.25
 45
0.0
 46
0.0
 47
0.0
 48
0.0
140
25.0
141
2.5
142
0.0
143
0.03937007874016
144
1.0
145
0.0
146
1.0
147
5.0
 71
     0
 72
     0
 73
     0
 74
     0
 75
     0
 76
     0
 77
     1
 78
     8
170
     0
171
     3
172
     1
173
     0
174
     0
175
     0
176
     0
177
     0
178
     0
270
     2
271
     2
272
     2
273
     2
274
     3
340
11
275
     0
280
     0
281
     0
282
     0
283
     0
284
     8
285
     0
286
     0
287
     3
288
     0
  0
ENDTAB
  0
TABLE
  2
BLOCK_RECORD
  5
1
330
0
100
AcDbSymbolTable
 70
     7
  0
BLOCK_RECORD
  5
1F
102
{ACAD_XDICTIONARY
360
64B
102
}
330
1
100
AcDbSymbolTableRecord
100
AcDbBlockTableRecord
  2
*MODEL_SPACE
  0
BLOCK_RECORD
  5
50
102
{ACAD_XDICTIONARY
360
64D
102
}
330
1
100
AcDbSymbolTableRecord
100
AcDbBlockTableRecord
  2
*PAPER_SPACE
  0
BLOCK_RECORD
  5
1CA
330
1
100
AcDbSymbolTableRecord
100
AcDbBlockTableRecord
  2
*D1
  0
BLOCK_RECORD
  5
1F6
330
1
100
AcDbSymbolTableRecord
100
AcDbBlockTableRecord
  2
*D2
  0
BLOCK_RECORD
  5
20E
330
1
100
AcDbSymbolTableRecord
100
AcDbBlockTableRecord
  2
*D3
  0
BLOCK_RECORD
  5
249
330
1
100
AcDbSymbolTableRecord
100
AcDbBlockTableRecord
  2
*D4
  0
BLOCK_RECORD
  5
340
330
1
100
AcDbSymbolTableRecord
100
AcDbBlockTableRecord
  2
*D5
  0
BLOCK_RECORD
  5
373
330
1
100
AcDbSymbolTableRecord
100
AcDbBlockTableRecord
  2
*D6
  0
ENDTAB
  0
ENDSEC
  0
SECTION
  2
BLOCKS
  0
BLOCK
  5
20
330
1F
100
AcDbEntity
  8
0
100
AcDbBlockBegin
  2
*MODEL_SPACE
 70
     0
 10
0.0
 20
0.0
 30
0.0
  3
*MODEL_SPACE
  1

  0
ENDBLK
  5
21
330
1F
100
AcDbEntity
  8
0
100
AcDbBlockEnd
  0
BLOCK
  5
52
330
50
100
AcDbEntity
 67
     1
  8
0
100
AcDbBlockBegin
  2
*PAPER_SPACE
 70
     0
 10
0.0
 20
0.0
 30
0.0
  3
*PAPER_SPACE
  1

  0
ENDBLK
  5
53
330
50
100
AcDbEntity
 67
     1
  8
0
100
AcDbBlockEnd
  0
BLOCK
  5
57E
330
1CA
100
AcDbEntity
  8
0
100
AcDbBlockBegin
  2
*D1
 70
     1
 10
0.0
 20
0.0
 30
0.0
  3
*D1
  1
*D2
  0
LINE
  5
57F
330
1CA
100
AcDbEntity
  8
0
 62
     0
100
AcDbLine
 10
-297.5
 20
327.498935637366
 30
0.0
 11
-297.5
 21
442.4808461702555
 31
0.0
  0
LINE
  5
580
330
1CA
100
AcDbEntity
  8
0
 62
     0
100
AcDbLine
 10
297.5
 20
327.498935637366
 30
0.0
 11
297.5
 21
442.4808461702555
 31
0.0
  0
LINE
  5
581
330
1CA
100
AcDbEntity
  8
0
 62
     0
100
AcDbLine
 10
-272.5
 20
441.2308461702555
 30
0.0
 11
272.5
 21
441.2308461702555
 31
0.0
  0
SOLID
  5
582
330
1CA
100
AcDbEntity
  8
0
 62
     0
100
AcDbTrace
 10
-272.5
 20
445.3975128369222
 30
0.0
 11
-272.5
 21
437.0641795035888
 31
0.0
 12
-297.5
 22
441.2308461702555
 32
0.0
 13
-297.5
 23
441.2308461702555
 33
0.0
  0
SOLID
  5
583
330
1CA
100
AcDbEntity
  8
0
 62
     0
100
AcDbTrace
 10
272.5
 20
445.3975128369222
 30
0.0
 11
272.5
 21
437.0641795035888
 31
0.0
 12
297.5
 22
441.2308461702555
 32
0.0
 13
297.5
 23
441.2308461702555
 33
0.0
  0
MTEXT
  5
584
330
1CA
100
AcDbEntity
  8
0
 62
     0
100
AcDbMText
 10
0.0000000000000011
 20
458.7308461702555
 30
0.0
 40
25.0
 41
0.0
 71
     5
 72
     1
  1
595
1001
ACAD
1000
MTEXTBEGIN
1070
    73
1070
     1
1070
    44
1040
1.0
1070
    74
1070
     0
1000
MTEXTEND
  0
ENDBLK
  5
585
330
1CA
100
AcDbEntity
  8
0
100
AcDbBlockEnd
  0
BLOCK
  5
586
330
1F6
100
AcDbEntity
  8
0
100
AcDbBlockBegin
  2
*D2
 70
     1
 10
0.0
 20
0.0
 30
0.0
  3
*D2
  1
*D3
  0
LINE
  5
587
330
1F6
100
AcDbEntity
  8
0
 62
     0
100
AcDbLine
 10
-260.0
 20
327.498935637366
 30
0.0
 11
-260.0
 21
372.4808461702555
 31
0.0
  0
LINE
  5
588
330
1F6
100
AcDbEntity
  8
0
 62
     0
100
AcDbLine
 10
260.0
 20
327.498935637366
 30
0.0
 11
260.0
 21
372.4808461702555
 31
0.0
  0
LINE
  5
589
330
1F6
100
AcDbEntity
  8
0
 62
     0
100
AcDbLine
 10
-235.0
 20
371.2308461702555
 30
0.0
 11
235.0
 21
371.2308461702555
 31
0.0
  0
SOLID
  5
58A
330
1F6
100
AcDbEntity
  8
0
 62
     0
100
AcDbTrace
 10
-235.0
 20
375.3975128369222
 30
0.0
 11
-235.0
 21
367.0641795035888
 31
0.0
 12
-260.0
 22
371.2308461702555
 32
0.0
 13
-260.0
 23
371.2308461702555
 33
0.0
  0
SOLID
  5
58B
330
1F6
100
AcDbEntity
  8
0
 62
     0
100
AcDbTrace
 10
235.0
 20
375.3975128369222
 30
0.0
 11
235.0
 21
367.0641795035888
 31
0.0
 12
260.0
 22
371.2308461702555
 32
0.0
 13
260.0
 23
371.2308461702555
 33
0.0
  0
MTEXT
  5
58C
330
1F6
100
AcDbEntity
  8
0
 62
     0
100
AcDbMText
 10
0.0000000000000011
 20
388.7308461702555
 30
0.0
 40
25.0
 41
0.0
 71
     5
 72
     1
  1
520
1001
ACAD
1000
MTEXTBEGIN
1070
    73
1070
     1
1070
    44
1040
1.0
1070
    74
1070
     0
1000
MTEXTEND
  0
ENDBLK
  5
58D
330
1F6
100
AcDbEntity
  8
0
100
AcDbBlockEnd
  0
BLOCK
  5
58E
330
20E
100
AcDbEntity
  8
0
100
AcDbBlockBegin
  2
*D3
 70
     1
 10
0.0
 20
0.0
 30
0.0
  3
*D3
  1
*D4
  0
LINE
  5
616
330
20E
100
AcDbEntity
  8
0
 62
     0
100
AcDbLine
 10
495.6161699607832
 20
239.1393292276466
 30
0.0
 11
495.6161699607832
 21
356.5570709777003
 31
0.0
  0
LINE
  5
617
330
20E
100
AcDbEntity
  8
0
 62
     0
100
AcDbLine
 10
1090.616169960784
 20
239.1393292276466
 30
0.0
 11
1090.616169960784
 21
356.5570709777003
 31
0.0
  0
LINE
  5
618
330
20E
100
AcDbEntity
  8
0
 62
     0
100
AcDbLine
 10
520.6161699607832
 20
355.3070709777003
 30
0.0
 11
1065.616169960784
 21
355.3070709777003
 31
0.0
  0
SOLID
  5
619
330
20E
100
AcDbEntity
  8
0
 62
     0
100
AcDbTrace
 10
520.6161699607832
 20
359.473737644367
 30
0.0
 11
520.6161699607832
 21
351.1404043110337
 31
0.0
 12
495.6161699607832
 22
355.3070709777003
 32
0.0
 13
495.6161699607832
 23
355.3070709777003
 33
0.0
  0
SOLID
  5
61A
330
20E
100
AcDbEntity
  8
0
 62
     0
100
AcDbTrace
 10
1065.616169960784
 20
359.473737644367
 30
0.0
 11
1065.616169960784
 21
351.1404043110337
 31
0.0
 12
1090.616169960784
 22
355.3070709777003
 32
0.0
 13
1090.616169960784
 23
355.3070709777003
 33
0.0
  0
MTEXT
  5
61B
330
20E
100
AcDbEntity
  8
0
 62
     0
100
AcDbMText
 10
793.1161699607837
 20
372.8070709777004
 30
0.0
 40
25.0
 41
0.0
 71
     5
 72
     1
  1
595
1001
ACAD
1000
MTEXTBEGIN
1070
    73
1070
     1
1070
    44
1040
1.0
1070
    74
1070
     0
1000
MTEXTEND
  0
POINT
  5
61C
330
20E
100
AcDbEntity
  8
DEFPOINTS
 62
     0
100
AcDbPoint
 10
495.6161699607832
 20
234.1393292276467
 30
0.0
  0
POINT
  5
61D
330
20E
100
AcDbEntity
  8
DEFPOINTS
 62
     0
100
AcDbPoint
 10
1090.616169960784
 20
234.1393292276467
 30
0.0
  0
POINT
  5
61E
330
20E
100
AcDbEntity
  8
DEFPOINTS
 62
     0
100
AcDbPoint
 10
1090.616169960784
 20
355.3070709777003
 30
0.0
  0
ENDBLK
  5
595
330
20E
100
AcDbEntity
  8
0
100
AcDbBlockEnd
  0
BLOCK
  5
596
330
249
100
AcDbEntity
  8
0
100
AcDbBlockBegin
  2
*D4
 70
     1
 10
0.0
 20
0.0
 30
0.0
  3
*D4
  1
*D5
  0
LINE
  5
60D
330
249
100
AcDbEntity
  8
0
 62
     0
100
AcDbLine
 10
531.0165354006662
 20
239.1393292276466
 30
0.0
 11
531.0165354006662
 21
280.3893292276471
 31
0.0
  0
LINE
  5
60E
330
249
100
AcDbEntity
  8
0
 62
     0
100
AcDbLine
 10
1051.016535400667
 20
239.1393292276466
 30
0.0
 11
1051.016535400667
 21
280.3893292276471
 31
0.0
  0
LINE
  5
60F
330
249
100
AcDbEntity
  8
0
 62
     0
100
AcDbLine
 10
556.0165354006662
 20
279.1393292276471
 30
0.0
 11
1026.016535400666
 21
279.1393292276471
 31
0.0
  0
SOLID
  5
610
330
249
100
AcDbEntity
  8
0
 62
     0
100
AcDbTrace
 10
556.0165354006662
 20
283.3059958943138
 30
0.0
 11
556.0165354006662
 21
274.9726625609805
 31
0.0
 12
531.0165354006662
 22
279.1393292276471
 32
0.0
 13
531.0165354006662
 23
279.1393292276471
 33
0.0
  0
SOLID
  5
611
330
249
100
AcDbEntity
  8
0
 62
     0
100
AcDbTrace
 10
1026.016535400666
 20
283.3059958943138
 30
0.0
 11
1026.016535400666
 21
274.9726625609805
 31
0.0
 12
1051.016535400667
 22
279.1393292276471
 32
0.0
 13
1051.016535400667
 23
279.1393292276471
 33
0.0
  0
MTEXT
  5
612
330
249
100
AcDbEntity
  8
0
 62
     0
100
AcDbMText
 10
791.0165354006665
 20
296.6393292276471
 30
0.0
 40
25.0
 41
0.0
 71
     5
 72
     1
  1
520
1001
ACAD
1000
MTEXTBEGIN
1070
    73
1070
     1
1070
    44
1040
1.0
1070
    74
1070
     0
1000
MTEXTEND
  0
POINT
  5
613
330
249
100
AcDbEntity
  8
DEFPOINTS
 62
     0
100
AcDbPoint
 10
531.0165354006662
 20
234.1393292276467
 30
0.0
  0
POINT
  5
614
330
249
100
AcDbEntity
  8
DEFPOINTS
 62
     0
100
AcDbPoint
 10
1051.016535400667
 20
234.1393292276467
 30
0.0
  0
POINT
  5
615
330
249
100
AcDbEntity
  8
DEFPOINTS
 62
     0
100
AcDbPoint
 10
1051.016535400667
 20
279.1393292276471
 30
0.0
  0
ENDBLK
  5
59D
330
249
100
AcDbEntity
  8
0
100
AcDbBlockEnd
  0
BLOCK
  5
59E
330
340
100
AcDbEntity
  8
0
100
AcDbBlockBegin
  2
*D5
 70
     1
 10
0.0
 20
0.0
 30
0.0
  3
*D5
  1
*D6
  0
LINE
  5
604
330
340
100
AcDbEntity
  8
0
 62
     0
100
AcDbLine
 10
1120.61510559815
 20
209.1393292276463
 30
0.0
 11
1161.866169960784
 21
209.1393292276463
 31
0.0
  0
LINE
  5
605
330
340
100
AcDbEntity
  8
0
 62
     0
100
AcDbLine
 10
1120.61510559815
 20
89.13932922764628
 30
0.0
 11
1161.866169960784
 21
89.13932922764628
 31
0.0
  0
LINE
  5
606
330
340
100
AcDbEntity
  8
0
 62
     0
100
AcDbLine
 10
1160.616169960784
 20
184.1393292276463
 30
0.0
 11
1160.616169960784
 21
114.1393292276462
 31
0.0
  0
SOLID
  5
607
330
340
100
AcDbEntity
  8
0
 62
     0
100
AcDbTrace
 10
1156.449503294117
 20
184.1393292276463
 30
0.0
 11
1164.782836627451
 21
184.1393292276463
 31
0.0
 12
1160.616169960784
 22
209.1393292276463
 32
0.0
 13
1160.616169960784
 23
209.1393292276463
 33
0.0
  0
SOLID
  5
608
330
340
100
AcDbEntity
  8
0
 62
     0
100
AcDbTrace
 10
1156.449503294117
 20
114.1393292276462
 30
0.0
 11
1164.782836627451
 21
114.1393292276462
 31
0.0
 12
1160.616169960784
 22
89.13932922764628
 32
0.0
 13
1160.616169960784
 23
89.13932922764628
 33
0.0
  0
MTEXT
  5
609
330
340
100
AcDbEntity
  8
0
 62
     0
100
AcDbMText
 10
1143.116169960784
 20
149.1393292276465
 30
0.0
 40
25.0
 41
0.0
 71
     5
 72
     1
  1
120
 11
0.0000000000000001
 21
1.0
 31
0.0
1001
ACAD
1000
MTEXTBEGIN
1070
    73
1070
     1
1070
    44
1040
1.0
1070
    74
1070
     0
1000
MTEXTEND
  0
POINT
  5
60A
330
340
100
AcDbEntity
  8
DEFPOINTS
 62
     0
100
AcDbPoint
 10
1115.61510559815
 20
209.1393292276463
 30
0.0
  0
POINT
  5
60B
330
340
100
AcDbEntity
  8
DEFPOINTS
 62
     0
100
AcDbPoint
 10
1115.61510559815
 20
89.1393292276463
 30
0.0
  0
POINT
  5
60C
330
340
100
AcDbEntity
  8
DEFPOINTS
 62
     0
100
AcDbPoint
 10
1160.616169960784
 20
89.13932922764628
 30
0.0
  0
ENDBLK
  5
5A5
330
340
100
AcDbEntity
  8
0
100
AcDbBlockEnd
  0
BLOCK
  5
5A6
330
373
100
AcDbEntity
  8
0
100
AcDbBlockBegin
  2
*D6
 70
     1
 10
0.0
 20
0.0
 30
0.0
  3
*D6
  1
*D7
  0
LINE
  5
5FB
330
373
100
AcDbEntity
  8
0
 62
     0
100
AcDbLine
 10
1120.61510559815
 20
209.1393292276463
 30
0.0
 11
1231.866169960784
 21
209.1393292276463
 31
0.0
  0
LINE
  5
5FC
330
373
100
AcDbEntity
  8
0
 62
     0
100
AcDbLine
 10
865.207137470124
 20
2.139329227646468
 30
0.0
 11
1231.866169960784
 21
2.139329227646365
 31
0.0
  0
LINE
  5
5FD
330
373
100
AcDbEntity
  8
0
 62
     0
100
AcDbLine
 10
1230.616169960784
 20
184.1393292276463
 30
0.0
 11
1230.616169960784
 21
27.13932922764636
 31
0.0
  0
SOLID
  5
5FE
330
373
100
AcDbEntity
  8
0
 62
     0
100
AcDbTrace
 10
1226.449503294117
 20
184.1393292276463
 30
0.0
 11
1234.78283662745
 21
184.1393292276463
 31
0.0
 12
1230.616169960784
 22
209.1393292276463
 32
0.0
 13
1230.616169960784
 23
209.1393292276463
 33
0.0
  0
SOLID
  5
5FF
330
373
100
AcDbEntity
  8
0
 62
     0
100
AcDbTrace
 10
1226.449503294117
 20
27.13932922764636
 30
0.0
 11
1234.78283662745
 21
27.13932922764636
 31
0.0
 12
1230.616169960784
 22
2.139329227646365
 32
0.0
 13
1230.616169960784
 23
2.139329227646365
 33
0.0
  0
MTEXT
  5
600
330
373
100
AcDbEntity
  8
0
 62
     0
100
AcDbMText
 10
1213.116169960784
 20
105.6393292276465
 30
0.0
 40
25.0
 41
0.0
 71
     5
 72
     1
  1
207
 11
0.0000000000000001
 21
1.0
 31
0.0
1001
ACAD
1000
MTEXTBEGIN
1070
    73
1070
     1
1070
    44
1040
1.0
1070
    74
1070
     0
1000
MTEXTEND
  0
POINT
  5
601
330
373
100
AcDbEntity
  8
DEFPOINTS
 62
     0
100
AcDbPoint
 10
1115.61510559815
 20
209.1393292276463
 30
0.0
  0
POINT
  5
602
330
373
100
AcDbEntity
  8
DEFPOINTS
 62
     0
100
AcDbPoint
 10
860.2071374701241
 20
2.13932922764647
 30
0.0
  0
POINT
  5
603
330
373
100
AcDbEntity
  8
DEFPOINTS
 62
     0
100
AcDbPoint
 10
1230.616169960784
 20
2.139329227646365
 30
0.0
  0
ENDBLK
  5
5AD
330
373
100
AcDbEntity
  8
0
100
AcDbBlockEnd
  0
ENDSEC
  0
SECTION
  2
ENTITIES
  0
LINE
  5
91
330
1F
100
AcDbEntity
  8
0
100
AcDbLine
 10
615.2669828556268
 20
176.870009073286
 30
0.0
 11
633.9858346208729
 21
176.870009073286
 31
0.0
  0
LINE
  5
92
330
1F
100
AcDbEntity
  8
0
100
AcDbLine
 10
636.119766650655
 20
174.7360770435038
 30
0.0
 11
636.119766650655
 21
171.0465085640131
 31
0.0
  0
LINE
  5
93
330
1F
100
AcDbEntity
  8
0
100
AcDbLine
 10
627.9947246774764
 20
168.912576534231
 30
0.0
 11
647.2460882539366
 21
168.9125765342298
 31
0.0
  0
LINE
  5
94
330
1F
100
AcDbEntity
  8
0
100
AcDbLine
 10
649.3800202837189
 20
171.046508564012
 30
0.0
 11
649.3800202837189
 21
198.7062358635593
 31
0.0
  0
LINE
  5
96
330
1F
100
AcDbEntity
  8
0
100
AcDbLine
 10
533.1161699607835
 20
209.1393292276475
 30
0.0
 11
533.1161699607835
 21
200.8401678933426
 31
0.0
  0
LINE
  5
97
330
1F
100
AcDbEntity
  8
0
100
AcDbLine
 10
533.1161699607835
 20
200.8401678933426
 30
0.0
 11
647.2460882539366
 21
200.8401678933414
 31
0.0
  0
LINE
  5
98
330
1F
100
AcDbEntity
  8
0
100
AcDbLine
 10
587.0982567195198
 20
200.8401678933385
 30
0.0
 11
587.0982567195198
 21
179.9642105164683
 31
0.0
  0
LINE
  5
99
330
1F
100
AcDbEntity
  8
0
100
AcDbLine
 10
613.1330508258446
 20
200.8401678933402
 30
0.0
 11
613.1330508258446
 21
179.0039411030681
 31
0.0
  0
LINE
  5
9C
330
1F
100
AcDbEntity
  8
0
100
AcDbLine
 10
626.6431786072712
 20
113.7737105542424
 30
0.0
 11
762.1140445014582
 21
10.93968965655943
 31
0.0
  0
LINE
  5
A6
330
1F
100
AcDbEntity
  8
0
100
AcDbLine
 10
1052.349320582057
 20
198.2434236706611
 30
0.0
 11
813.8830193395126
 21
37.70093957237091
 31
0.0
  0
LINE
  5
A7
330
1F
100
AcDbEntity
  8
0
100
AcDbLine
 10
813.1161699607838
 20
36.06241861342326
 30
0.0
 11
813.1161699607838
 21
2.139329227646499
 31
0.0
  0
LINE
  5
A8
330
1F
100
AcDbEntity
  8
0
100
AcDbLine
 10
771.1350824937437
 20
38.52073640339781
 30
0.0
 11
814.9202842467177
 21
38.52073640339781
 31
0.0
  0
LINE
  5
A9
330
1F
100
AcDbEntity
  8
0
100
AcDbLine
 10
772.0887564867495
 20
19.37936609625498
 30
0.0
 11
813.1161699607838
 21
19.37936609625498
 31
0.0
  0
LINE
  5
AA
330
1F
100
AcDbEntity
  8
0
100
AcDbLine
 10
771.9420747242796
 20
10.22906555255022
 30
0.0
 11
813.1161699607838
 21
10.22906555255022
 31
0.0
  0
LINE
  5
AC
330
1F
100
AcDbEntity
  8
0
100
AcDbLine
 10
773.1161699607857
 20
35.6287510284429
 30
0.0
 11
773.1161699607833
 21
21.20399827659003
 31
0.0
  0
LINE
  5
AE
330
1F
100
AcDbEntity
  8
0
100
AcDbLine
 10
773.1161699607857
 20
8.323185378457594
 30
0.0
 11
773.1161699607844
 21
2.139329227646499
 31
0.0
  0
LINE
  5
AF
330
1F
100
AcDbEntity
  8
0
100
AcDbLine
 10
761.9287989087747
 20
21.19379895526296
 30
0.0
 11
770.4815984841374
 21
19.12962462365928
 31
0.0
  0
LINE
  5
B0
330
1F
100
AcDbEntity
  8
0
100
AcDbLine
 10
760.2955063258536
 20
23.26817260819487
 30
0.0
 11
760.2955063258536
 21
28.10534650648415
 31
0.0
  0
LINE
  5
B1
330
1F
100
AcDbEntity
  8
0
100
AcDbLine
 10
759.5291109788478
 20
29.74348854214244
 30
0.0
 11
633.7898266224474
 21
126.9315839257222
 31
0.0
  0
LINE
  5
B2
330
1F
100
AcDbEntity
  8
0
100
AcDbLine
 10
633.0234312754416
 20
155.2852865920424
 30
0.0
 11
633.0234312754416
 21
128.5697259613805
 31
0.0
  0
LINE
  5
B3
330
1F
100
AcDbEntity
  8
0
100
AcDbLine
 10
635.1573633052237
 20
157.4192186218233
 30
0.0
 11
647.2460882539366
 21
157.4192186218233
 31
0.0
  0
LINE
  5
B4
330
1F
100
AcDbEntity
  8
0
100
AcDbLine
 10
649.3800202837189
 20
155.2852865920424
 30
0.0
 11
649.3800202837189
 21
134.5375729410729
 31
0.0
  0
LINE
  5
B5
330
1F
100
AcDbEntity
  8
0
100
AcDbLine
 10
650.1367323387049
 20
132.9075634169434
 30
0.0
 11
772.3594579057984
 21
37.25876055257109
 31
0.0
  0
LINE
  5
B6
330
1F
100
AcDbEntity
  8
0
100
AcDbLine
 10
755.1005013407286
 20
50.76523839028666
 30
0.0
 11
833.2884436104386
 21
50.76523839028666
 31
0.0
  0
LINE
  5
BE
330
1F
100
AcDbEntity
  8
0
100
AcDbLine
 10
1053.116169960784
 20
207.0053971978605
 30
0.0
 11
1053.116169960784
 21
199.8819446296099
 31
0.0
  0
ARC
  5
BF
330
1F
100
AcDbEntity
  8
0
100
AcDbCircle
 10
1050.982237931002
 20
199.8819446296099
 30
0.0
 40
2.133932029781802
100
AcDbArc
 50
309.8395744856501
 51
0.0
  0
ARC
  5
C4
330
1F
100
AcDbEntity
  8
0
100
AcDbCircle
 10
815.250101990567
 20
36.06241861342326
 30
0.0
 40
2.133932029781802
100
AcDbArc
 50
129.8395744856503
 51
180.0
  0
LINE
  5
CE
330
1F
100
AcDbEntity
  8
0
100
AcDbLine
 10
763.4655905716645
 20
10.45711740823856
 30
0.0
 11
770.9822379310022
 21
10.45711740823856
 31
0.0
  0
ARC
  5
CF
330
1F
100
AcDbEntity
  8
0
100
AcDbCircle
 10
770.9822379310022
 20
8.323185378457594
 30
0.0
 40
2.133932029781802
100
AcDbArc
 50
0.0
 51
90.0
  0
ARC
  5
D0
330
1F
100
AcDbEntity
  8
0
100
AcDbCircle
 10
763.4655905716645
 20
12.59104943802197
 30
0.0
 40
2.133932029781802
100
AcDbArc
 50
230.7015842755964
 51
269.999999999994
  0
ARC
  5
D1
330
1F
100
AcDbEntity
  8
0
100
AcDbCircle
 10
762.4294383556371
 20
23.26817260819487
 30
0.0
 40
2.133932029781802
100
AcDbArc
 50
180.0
 51
256.4314300846741
  0
ARC
  5
D2
330
1F
100
AcDbEntity
  8
0
100
AcDbCircle
 10
770.9822379309998
 20
21.20399827659003
 30
0.0
 40
2.133932029781802
100
AcDbArc
 50
256.4314300846667
 51
0.0
  0
ARC
  5
D3
330
1F
100
AcDbEntity
  8
0
100
AcDbCircle
 10
770.9822379310022
 20
35.6287510284429
 30
0.0
 40
2.133932029781802
100
AcDbArc
 50
359.9999999999955
 51
49.80502175934861
  0
ARC
  5
D4
330
1F
100
AcDbEntity
  8
0
100
AcDbCircle
 10
758.1615742960727
 20
28.10534650648415
 30
0.0
 40
2.133932029781802
100
AcDbArc
 50
0.0
 51
50.14454710315973
  0
ARC
  5
D9
330
1F
100
AcDbEntity
  8
0
100
AcDbCircle
 10
1055.250101990567
 20
207.0053971978605
 30
0.0
 40
2.133932029781802
100
AcDbArc
 50
90.0
 51
180.0
  0
ARC
  5
DA
330
1F
100
AcDbEntity
  8
0
100
AcDbCircle
 10
651.5139523135011
 20
134.5375729410729
 30
0.0
 40
2.133932029781802
100
AcDbArc
 50
180.0
 51
229.8050217593481
  0
ARC
  5
DB
330
1F
100
AcDbEntity
  8
0
100
AcDbCircle
 10
647.2460882539366
 20
155.2852865920424
 30
0.0
 40
2.133932029781802
100
AcDbArc
 50
0.0
 51
90.0
  0
ARC
  5
DC
330
1F
100
AcDbEntity
  8
0
100
AcDbCircle
 10
635.1573633052237
 20
155.2852865920424
 30
0.0
 40
2.133932029781802
100
AcDbArc
 50
90.0
 51
180.0
  0
ARC
  5
DD
330
1F
100
AcDbEntity
  8
0
100
AcDbCircle
 10
638.2536986804373
 20
171.0465085640131
 30
0.0
 40
2.133932029781802
100
AcDbArc
 50
180.0000000000087
 51
270.0
  0
ARC
  5
DE
330
1F
100
AcDbEntity
  8
0
100
AcDbCircle
 10
647.2460882539366
 20
171.046508564012
 30
0.0
 40
2.133932029781802
100
AcDbArc
 50
269.9999999999938
 51
0.0
  0
ARC
  5
DF
330
1F
100
AcDbEntity
  8
0
100
AcDbCircle
 10
633.9858346208729
 20
174.7360770435038
 30
0.0
 40
2.133932029781802
100
AcDbArc
 50
0.000000000011908
 51
90.0
  0
ARC
  5
E0
330
1F
100
AcDbEntity
  8
0
100
AcDbCircle
 10
647.2460882539366
 20
198.7062358635593
 30
0.0
 40
2.133932029781802
100
AcDbArc
 50
0.0
 51
90.0
  0
ARC
  5
E2
330
1F
100
AcDbEntity
  8
0
100
AcDbCircle
 10
615.2669828556268
 20
179.0039411030681
 30
0.0
 40
2.133932029781802
100
AcDbArc
 50
180.0
 51
270.0
  0
LINE
  5
E4
330
1F
100
AcDbEntity
  8
0
100
AcDbLine
 10
625.8607926476953
 20
166.7786445044476
 30
0.0
 11
625.8607926476965
 21
115.4250703357062
 31
0.0
  0
ARC
  5
E5
330
1F
100
AcDbEntity
  8
0
100
AcDbCircle
 10
627.9947246774774
 20
115.4250703357062
 30
0.0
 40
2.133932029781802
100
AcDbArc
 50
180.0000000000011
 51
230.701584275596
  0
ARC
  5
E6
330
1F
100
AcDbEntity
  8
0
100
AcDbCircle
 10
635.1573633052237
 20
128.5697259613805
 30
0.0
 40
2.133932029781802
100
AcDbArc
 50
180.0
 51
230.1445471031598
  0
ARC
  5
E7
330
1F
100
AcDbEntity
  8
0
100
AcDbCircle
 10
627.9947246774764
 20
166.7786445044476
 30
0.0
 40
2.133932029781802
100
AcDbArc
 50
89.9999999999966
 51
180.0000000000011
  0
CIRCLE
  5
10D
330
1F
100
AcDbEntity
  8
0
100
AcDbCircle
 10
0.0
 20
0.0000000000002842
 30
0.0
 40
260.0
  0
DIMENSION
  5
1C8
330
1F
100
AcDbEntity
  8
0
100
AcDbDimension
  2
*D1
 10
297.5
 20
441.2308461702555
 30
0.0
 11
0.0000000000000011
 21
458.7308461702555
 31
0.0
 70
    32
  3
STANDART
100
AcDbAlignedDimension
 13
-297.5
 23
322.498935637366
 33
0.0
 14
297.5
 24
322.498935637366
 34
0.0
100
AcDbRotatedDimension
  0
DIMENSION
  5
1F5
330
1F
100
AcDbEntity
  8
0
100
AcDbDimension
  2
*D2
 10
260.0
 20
371.2308461702555
 30
0.0
 11
0.0000000000000011
 21
388.7308461702555
 31
0.0
 70
    32
  3
STANDART
100
AcDbAlignedDimension
 13
-260.0
 23
322.498935637366
 33
0.0
 14
260.0
 24
322.498935637366
 34
0.0
100
AcDbRotatedDimension
  0
DIMENSION
  5
20D
330
1F
100
AcDbEntity
  8
0
100
AcDbDimension
  2
*D3
 10
1090.616169960784
 20
355.3070709777003
 30
0.0
 11
793.1161699607837
 21
372.8070709777004
 31
0.0
 70
    32
  3
STANDART
100
AcDbAlignedDimension
 13
495.6161699607832
 23
234.1393292276467
 33
0.0
 14
1090.616169960784
 24
234.1393292276467
 34
0.0
100
AcDbRotatedDimension
  0
DIMENSION
  5
248
330
1F
100
AcDbEntity
  8
0
100
AcDbDimension
  2
*D4
 10
1051.016535400667
 20
279.1393292276471
 30
0.0
 11
791.0165354006665
 21
296.6393292276471
 31
0.0
 70
    32
  3
STANDART
100
AcDbAlignedDimension
 13
531.0165354006662
 23
234.1393292276467
 33
0.0
 14
1051.016535400667
 24
234.1393292276467
 34
0.0
100
AcDbRotatedDimension
  0
DIMENSION
  5
33F
330
1F
100
AcDbEntity
  8
0
100
AcDbDimension
  2
*D5
 10
1160.616169960784
 20
89.13932922764628
 30
0.0
 11
1143.116169960784
 21
149.1393292276465
 31
0.0
 70
    32
  3
STANDART
100
AcDbAlignedDimension
 13
1115.61510559815
 23
209.1393292276463
 33
0.0
 14
1115.61510559815
 24
89.1393292276463
 34
0.0
 50
90.0
100
AcDbRotatedDimension
  0
DIMENSION
  5
372
330
1F
100
AcDbEntity
  8
0
100
AcDbDimension
  2
*D6
 10
1230.616169960784
 20
2.139329227646365
 30
0.0
 11
1213.116169960784
 21
105.6393292276465
 31
0.0
 70
    32
  3
STANDART
100
AcDbAlignedDimension
 13
1115.61510559815
 23
209.1393292276463
 33
0.0
 14
860.2071374701241
 24
2.13932922764647
 34
0.0
 50
90.0
100
AcDbRotatedDimension
  0
CIRCLE
  5
4C4
330
1F
100
AcDbEntity
  8
0
100
AcDbCircle
 10
4.044050558279195
 20
200.3468294749856
 30
0.0
 40
13.0
  0
CIRCLE
  5
4C5
330
1F
100
AcDbEntity
  8
0
100
AcDbCircle
 10
-0.0000000000000568
 20
0.0000000000003126
 30
0.0
 40
30.0
  0
CIRCLE
  5
4C6
330
1F
100
AcDbEntity
  8
0
100
AcDbCircle
 10
0.0
 20
0.0
 30
0.0
 40
20.0
  0
LINE
  5
4D7
330
1F
100
AcDbEntity
  8
0
  6
STRICHPUNKT
100
AcDbLine
 10
793.1161699607837
 20
60.76523839028666
 30
0.0
 11
793.1161699607837
 21
-7.234761609713331
 31
0.0
  0
LINE
  5
4E2
330
1F
100
AcDbEntity
  8
0
100
AcDbLine
 10
-297.5
 20
-297.4989356373636
 30
0.0
 11
297.5
 21
-297.4989356373636
 31
0.0
  0
LINE
  5
4E3
330
1F
100
AcDbEntity
  8
0
100
AcDbLine
 10
297.5
 20
-297.4989356373636
 30
0.0
 11
297.5
 21
297.498935637366
 31
0.0
  0
LINE
  5
4E4
330
1F
100
AcDbEntity
  8
0
100
AcDbLine
 10
297.5
 20
297.498935637366
 30
0.0
 11
-297.5
 21
297.4989356373661
 31
0.0
  0
LINE
  5
4E5
330
1F
100
AcDbEntity
  8
0
100
AcDbLine
 10
-297.5
 20
297.4989356373661
 30
0.0
 11
-297.5
 21
-297.4989356373636
 31
0.0
  0
LINE
  5
4E6
330
1F
100
AcDbEntity
  8
0
100
AcDbLine
 10
-216.7415188157263
 20
143.6074998788441
 30
0.0
 11
216.7415188157267
 21
143.6074998788434
 31
0.0
  0
LINE
  5
4E7
330
1F
100
AcDbEntity
  8
0
  6
STRICHPUNKT
100
AcDbLine
 10
0.0
 20
-40.0
 30
0.0
 11
0.0000000000000142
 21
40.0
 31
0.0
  0
LINE
  5
4E8
330
1F
100
AcDbEntity
  8
0
  6
STRICHPUNKT
100
AcDbLine
 10
-40.00000000000006
 20
0.0000000000003126
 30
0.0
 11
39.99999999999994
 21
0.0000000000003126
 31
0.0
  0
LINE
  5
4E9
330
1F
100
AcDbEntity
  8
0
100
AcDbLine
 10
613.1330508258446
 20
179.9642105164701
 30
0.0
 11
516.5086843424155
 21
179.9642105164701
 31
0.0
  0
ARC
  5
4EA
330
1F
100
AcDbEntity
  8
0
100
AcDbCircle
 10
516.5086843424155
 20
178.9642105164701
 30
0.0
 40
1.0
100
AcDbArc
 50
90.0
 51
180.0
  0
LINE
  5
4EB
330
1F
100
AcDbEntity
  8
0
100
AcDbLine
 10
515.5086843424156
 20
178.9642105164701
 30
0.0
 11
515.5086843424156
 21
60.60912422671416
 31
0.0
  0
LINE
  5
4EC
330
1F
100
AcDbEntity
  8
0
100
AcDbLine
 10
515.5086843424156
 20
60.60912422671416
 30
0.0
 11
495.6161699607842
 21
60.60912422671399
 31
0.0
  0
LINE
  5
4ED
330
1F
100
AcDbEntity
  8
0
100
AcDbLine
 10
495.6161699607842
 20
60.60912422671399
 30
0.0
 11
495.6161699607842
 21
199.1393292276487
 31
0.0
  0
ARC
  5
4EE
330
1F
100
AcDbEntity
  8
0
100
AcDbCircle
 10
505.6161699607843
 20
199.1393292276488
 30
0.0
 40
10.00000000000005
100
AcDbArc
 50
90.0
 51
180.0000000000004
  0
LINE
  5
4EF
330
1F
100
AcDbEntity
  8
0
100
AcDbLine
 10
505.6161699607843
 20
209.1393292276487
 30
0.0
 11
1080.616169960784
 21
209.1393292276487
 31
0.0
  0
ARC
  5
4F0
330
1F
100
AcDbEntity
  8
0
100
AcDbCircle
 10
1080.616169960784
 20
199.1393292276488
 30
0.0
 40
10.0
100
AcDbArc
 50
0.0
 51
90.0
  0
LINE
  5
4F1
330
1F
100
AcDbEntity
  8
0
100
AcDbLine
 10
1090.616169960784
 20
199.1393292276488
 30
0.0
 11
1090.616169960784
 21
90.13932922765766
 31
0.0
  0
ARC
  5
4F2
330
1F
100
AcDbEntity
  8
0
100
AcDbCircle
 10
1089.616169960784
 20
90.13932922765766
 30
0.0
 40
0.9999999999997726
100
AcDbArc
 50
270.0000000000781
 51
0.0
  0
LINE
  5
4F3
330
1F
100
AcDbEntity
  8
0
100
AcDbLine
 10
1089.616169960785
 20
89.13932922765766
 30
0.0
 11
1074.376133092181
 21
89.13932922763494
 31
0.0
  0
ARC
  5
4F4
330
1F
100
AcDbEntity
  8
0
100
AcDbCircle
 10
1074.376133092179
 20
90.13932922763499
 30
0.0
 40
1.000000000000049
100
AcDbArc
 50
180.0000000000028
 51
270.0000000000781
  0
LINE
  5
4F5
330
1F
100
AcDbEntity
  8
0
100
AcDbLine
 10
1073.376133092179
 20
90.13932922763494
 30
0.0
 11
1073.376133092179
 21
189.130262706352
 31
0.0
  0
ARC
  5
4F6
330
1F
100
AcDbEntity
  8
0
100
AcDbCircle
 10
1072.376133092179
 20
189.130262706352
 30
0.0
 40
1.0
100
AcDbArc
 50
0.0
 51
90.00000000005213
  0
LINE
  5
4F7
330
1F
100
AcDbEntity
  8
0
100
AcDbLine
 10
1072.376133092178
 20
190.130262706352
 30
0.0
 11
1066.858937621961
 21
190.1302627063471
 31
0.0
  0
ARC
  5
4F8
330
1F
100
AcDbEntity
  8
0
100
AcDbCircle
 10
1066.858937621962
 20
189.130262706347
 30
0.0
 40
1.00000000000017
100
AcDbArc
 50
90.00000000005213
 51
124.2285232335914
  0
LINE
  5
4F9
330
1F
100
AcDbEntity
  8
0
100
AcDbLine
 10
1066.296442572936
 20
189.9570633593596
 30
0.0
 11
825.9304806844934
 21
26.42953949510701
 31
0.0
  0
ARC
  5
4FA
330
1F
100
AcDbEntity
  8
0
100
AcDbCircle
 10
826.4929757335188
 20
25.60273884209451
 30
0.0
 40
0.9999999999999984
100
AcDbArc
 50
124.2285232335915
 51
180.0
  0
LINE
  5
4FB
330
1F
100
AcDbEntity
  8
0
100
AcDbLine
 10
825.4929757335188
 20
25.60273884209451
 30
0.0
 11
825.4929757335188
 21
3.139329227646499
 31
0.0
  0
ARC
  5
4FC
330
1F
100
AcDbEntity
  8
0
100
AcDbCircle
 10
824.4929757335189
 20
3.139329227646499
 30
0.0
 40
1.0
100
AcDbArc
 50
270.0
 51
0.0000000000004071
  0
LINE
  5
4FD
330
1F
100
AcDbEntity
  8
0
100
AcDbLine
 10
824.4929757335189
 20
2.139329227646499
 30
0.0
 11
758.9150941056101
 21
2.139329227646499
 31
0.0
  0
ARC
  5
4FE
330
1F
100
AcDbEntity
  8
0
100
AcDbCircle
 10
758.9150941056101
 20
3.139329227646555
 30
0.0
 40
1.000000000000042
100
AcDbArc
 50
232.0498543270736
 51
270.0
  0
LINE
  5
4FF
330
1F
100
AcDbEntity
  8
0
100
AcDbLine
 10
758.3001185288745
 20
2.350783071724862
 30
0.0
 11
618.8490853740951
 21
111.1065976765047
 31
0.0
  0
ARC
  5
500
330
1F
100
AcDbEntity
  8
0
100
AcDbCircle
 10
619.4640609508306
 20
111.8951438324263
 30
0.0
 40
0.9999999999999957
100
AcDbArc
 50
179.9999999999991
 51
232.0498543270712
  0
LINE
  5
501
330
1F
100
AcDbEntity
  8
0
100
AcDbLine
 10
618.4640609508306
 20
111.8951438324264
 30
0.0
 11
618.4640609508294
 21
176.870009073286
 31
0.0
  0
ENDSEC
  0
SECTION
  2
OBJECTS
  0
DICTIONARY
  5
C
330
0
100
AcDbDictionary
  3
ACAD_GROUP
350
D
  3
ACAD_IMAGE_DICT
350
6C
  3
ACAD_IMAGE_VARS
350
6D
  3
ACAD_LAYOUT
350
1A
  3
ACAD_MLINESTYLE
350
17
  3
ACAD_PLOTSETTINGS
350
19
  3
ACAD_PLOTSTYLENAME
350
E
  3
ACDBHEADERROUNDTRIPXREC
350
62A
  3
ACDBVARIABLEDICTIONARY
350
5E
  0
DICTIONARY
  5
156
330
2
100
AcDbDictionary
280
     1
  3
ACAD_LAYERFILTERS
360
502
  3
ACAD_LAYERSTATES
360
157
  0
DICTIONARY
  5
64B
330
1F
100
AcDbDictionary
280
     1
  3
ACAD_LAYOUTSELFREF
360
64C
  0
DICTIONARY
  5
64D
330
50
100
AcDbDictionary
280
     1
  3
ACAD_LAYOUTSELFREF
360
64E
  0
DICTIONARY
  5
D
102
{ACAD_REACTORS
330
C
102
}
330
C
100
AcDbDictionary
  0
DICTIONARY
  5
6C
102
{ACAD_REACTORS
330
C
102
}
330
C
100
AcDbDictionary
  0
RASTERVARIABLES
  5
6D
102
{ACAD_REACTORS
330
C
102
}
330
C
100
AcDbRasterVariables
 90
        0
 70
     1
 71
     1
 72
     1
  0
DICTIONARY
  5
1A
102
{ACAD_REACTORS
330
C
102
}
330
C
100
AcDbDictionary
  0
DICTIONARY
  5
17
102
{ACAD_REACTORS
330
C
102
}
330
C
100
AcDbDictionary
  3
STANDARD
350
18
  0
DICTIONARY
  5
19
102
{ACAD_REACTORS
330
C
102
}
330
C
100
AcDbDictionary
  0
ACDBDICTIONARYWDFLT
  5
E
102
{ACAD_REACTORS
330
C
102
}
330
C
100
AcDbDictionary
281
     1
  3
Normal
350
F
100
AcDbDictionaryWithDefault
340
F
  0
DICTIONARY
  5
62A
102
{ACAD_REACTORS
330
C
102
}
330
C
100
AcDbDictionary
  3
CEPSNTYPE
350
634
  3
DIMSTYLEDATA
350
638
  3
FINGERPRINTGUID
350
635
  3
HYPERLINKBASE
350
62D
  3
INSUNITS
350
633
  3
LAYOUTDICT
350
62F
  3
LWETCUNION
350
632
  3
PLOTSETDICT
350
630
  3
PLOTSTYLNAMDICT
350
631
  3
PSVPSCALE
350
637
  3
PUCSBASE
350
63B
  3
PUCSORGBACK
350
641
  3
PUCSORGBOTTOM
350
63D
  3
PUCSORGFRONT
350
640
  3
PUCSORGLEFT
350
63E
  3
PUCSORGRIGHT
350
63F
  3
PUCSORGTOP
350
63C
  3
PUCSORTHOREF
350
639
  3
PUCSORTHOVIEW
350
63A
  3
STYLESHEET
350
62E
  3
TSTACKALIGN
350
62B
  3
TSTACKSIZE
350
62C
  3
UCSBASE
350
644
  3
UCSORGBACK
350
64A
  3
UCSORGBOTTOM
350
646
  3
UCSORGFRONT
350
649
  3
UCSORGLEFT
350
647
  3
UCSORGRIGHT
350
648
  3
UCSORGTOP
350
645
  3
UCSORTHOREF
350
642
  3
UCSORTHOVIEW
350
643
  3
VERSIONGUID
350
636
  0
DICTIONARY
  5
5E
102
{ACAD_REACTORS
330
C
102
}
330
C
100
AcDbDictionary
  3
DIMASSOC
350
5F
  3
HIDETEXT
350
63
  0
DICTIONARY
  5
502
102
{ACAD_REACTORS
330
156
102
}
330
156
100
AcDbDictionary
280
     1
  0
DICTIONARY
  5
157
102
{ACAD_REACTORS
330
156
102
}
330
156
100
AcDbDictionary
  0
XRECORD
  5
64C
102
{ACAD_REACTORS
330
64B
102
}
330
64B
100
AcDbXrecord
340
1F
  0
XRECORD
  5
64E
102
{ACAD_REACTORS
330
64D
102
}
330
64D
100
AcDbXrecord
340
50
  0
MLINESTYLE
  5
18
102
{ACAD_REACTORS
330
17
102
}
330
17
100
AcDbMlineStyle
  2
STANDARD
 70
     0
  3

 62
   256
 51
90.0
 52
90.0
 71
     2
 49
0.5
 62
   256
  6
BYLAYER
 49
-0.5
 62
   256
  6
BYLAYER
  0
ACDBPLACEHOLDER
  5
F
102
{ACAD_REACTORS
330
E
102
}
330
E
100
AcDbPlaceHolder
280
     0
  0
XRECORD
  5
634
102
{ACAD_REACTORS
330
62A
102
}
330
62A
100
AcDbXrecord
 90
        0
  0
XRECORD
  5
638
102
{ACAD_REACTORS
330
62A
102
}
330
62A
100
AcDbXrecord
1000
DSTYLE
1002
{
1070
   278
 70
    44
1002
}
  0
XRECORD
  5
635
102
{ACAD_REACTORS
330
62A
102
}
330
62A
100
AcDbXrecord
  1
{FDEAD578-A652-11D2-9A35-0060089B3A3F}
  0
XRECORD
  5
62D
102
{ACAD_REACTORS
330
62A
102
}
330
62A
100
AcDbXrecord
  1

  0
XRECORD
  5
633
102
{ACAD_REACTORS
330
62A
102
}
330
62A
100
AcDbXrecord
 90
        4
  0
XRECORD
  5
62F
102
{ACAD_REACTORS
330
62A
102
}
330
62A
100
AcDbXrecord
340
1A
  0
XRECORD
  5
632
102
{ACAD_REACTORS
330
62A
102
}
330
62A
100
AcDbXrecord
 90
    10781
  0
XRECORD
  5
630
102
{ACAD_REACTORS
330
62A
102
}
330
62A
100
AcDbXrecord
340
19
  0
XRECORD
  5
631
102
{ACAD_REACTORS
330
62A
102
}
330
62A
100
AcDbXrecord
340
E
  0
XRECORD
  5
637
102
{ACAD_REACTORS
330
62A
102
}
330
62A
100
AcDbXrecord
 40
0.0
  0
XRECORD
  5
63B
102
{ACAD_REACTORS
330
62A
102
}
330
62A
100
AcDbXrecord
340
0
  0
XRECORD
  5
641
102
{ACAD_REACTORS
330
62A
102
}
330
62A
100
AcDbXrecord
 10
0.0
 20
0.0
 30
0.0
  0
XRECORD
  5
63D
102
{ACAD_REACTORS
330
62A
102
}
330
62A
100
AcDbXrecord
 10
0.0
 20
0.0
 30
0.0
  0
XRECORD
  5
640
102
{ACAD_REACTORS
330
62A
102
}
330
62A
100
AcDbXrecord
 10
0.0
 20
0.0
 30
0.0
  0
XRECORD
  5
63E
102
{ACAD_REACTORS
330
62A
102
}
330
62A
100
AcDbXrecord
 10
0.0
 20
0.0
 30
0.0
  0
XRECORD
  5
63F
102
{ACAD_REACTORS
330
62A
102
}
330
62A
100
AcDbXrecord
 10
0.0
 20
0.0
 30
0.0
  0
XRECORD
  5
63C
102
{ACAD_REACTORS
330
62A
102
}
330
62A
100
AcDbXrecord
 10
0.0
 20
0.0
 30
0.0
  0
XRECORD
  5
639
102
{ACAD_REACTORS
330
62A
102
}
330
62A
100
AcDbXrecord
340
0
  0
XRECORD
  5
63A
102
{ACAD_REACTORS
330
62A
102
}
330
62A
100
AcDbXrecord
 70
     0
  0
XRECORD
  5
62E
102
{ACAD_REACTORS
330
62A
102
}
330
62A
100
AcDbXrecord
  1
TP-mono-duenn.ctb
  0
XRECORD
  5
62B
102
{ACAD_REACTORS
330
62A
102
}
330
62A
100
AcDbXrecord
 90
        1
  0
XRECORD
  5
62C
102
{ACAD_REACTORS
330
62A
102
}
330
62A
100
AcDbXrecord
 90
       70
  0
XRECORD
  5
644
102
{ACAD_REACTORS
330
62A
102
}
330
62A
100
AcDbXrecord
340
0
  0
XRECORD
  5
64A
102
{ACAD_REACTORS
330
62A
102
}
330
62A
100
AcDbXrecord
 10
0.0
 20
0.0
 30
0.0
  0
XRECORD
  5
646
102
{ACAD_REACTORS
330
62A
102
}
330
62A
100
AcDbXrecord
 10
0.0
 20
0.0
 30
0.0
  0
XRECORD
  5
649
102
{ACAD_REACTORS
330
62A
102
}
330
62A
100
AcDbXrecord
 10
0.0
 20
0.0
 30
0.0
  0
XRECORD
  5
647
102
{ACAD_REACTORS
330
62A
102
}
330
62A
100
AcDbXrecord
 10
0.0
 20
0.0
 30
0.0
  0
XRECORD
  5
648
102
{ACAD_REACTORS
330
62A
102
}
330
62A
100
AcDbXrecord
 10
0.0
 20
0.0
 30
0.0
  0
XRECORD
  5
645
102
{ACAD_REACTORS
330
62A
102
}
330
62A
100
AcDbXrecord
 10
0.0
 20
0.0
 30
0.0
  0
XRECORD
  5
642
102
{ACAD_REACTORS
330
62A
102
}
330
62A
100
AcDbXrecord
340
0
  0
XRECORD
  5
643
102
{ACAD_REACTORS
330
62A
102
}
330
62A
100
AcDbXrecord
 70
     0
  0
XRECORD
  5
636
102
{ACAD_REACTORS
330
62A
102
}
330
62A
100
AcDbXrecord
  1
{A6010AD6-D747-4E8C-9080-8C9F73A19CF4}
  0
DICTIONARYVAR
  5
5F
102
{ACAD_REACTORS
330
5E
102
}
330
5E
100
DictionaryVariables
280
     0
  1
2
  0
DICTIONARYVAR
  5
63
102
{ACAD_REACTORS
330
5E
102
}
330
5E
100
DictionaryVariables
280
     0
  1
1
  0
ENDSEC
  0
EOF
