  0
SECTION
  2
HEADER
  9
$ACADVER
  1
AC1015
  9
$ACADMAINTVER
 70
    13
  9
$DWGCODEPAGE
  3
ANSI_1252
  9
$INSBASE
 10
0.0
 20
0.0
 30
0.0
  9
$EXTMIN
 10
1896.94279577353
 20
-320.413526104161
 30
-28.7529727820371
  9
$EXTMAX
 10
3003.421415822127
 20
1488.983227178023
 30
0.0033385870583516
  9
$LIMMIN
 10
1711.234538020701
 20
-531.6157259759815
  9
$LIMMAX
 10
3240.585647917727
 20
2071.119692892064
  9
$ORTHOMODE
 70
     1
  9
$REGENMODE
 70
     1
  9
$FILLMODE
 70
     1
  9
$QTEXTMODE
 70
     0
  9
$MIRRTEXT
 70
     1
  9
$LTSCALE
 40
2.0
  9
$ATTMODE
 70
     1
  9
$TEXTSIZE
 40
0.2
  9
$TRACEWID
 40
0.05
  9
$TEXTSTYLE
  7
Standard
  9
$CLAYER
  8
KERA4
  9
$CELTYPE
  6
ByLayer
  9
$CECOLOR
 62
   256
  9
$CELTSCALE
 40
1.0
  9
$DISPSILH
 70
     0
  9
$DIMSCALE
 40
1.0
  9
$DIMASZ
 40
40.0
  9
$DIMEXO
 40
20.0
  9
$DIMDLI
 40
30.0
  9
$DIMRND
 40
0.0
  9
$DIMDLE
 40
0.0
  9
$DIMEXE
 40
15.0
  9
$DIMTP
 40
0.0
  9
$DIMTM
 40
0.0
  9
$DIMTXT
 40
45.0
  9
$DIMCEN
 40
4.0
  9
$DIMTSZ
 40
0.0
  9
$DIMTOL
 70
     0
  9
$DIMLIM
 70
     0
  9
$DIMTIH
 70
     1
  9
$DIMTOH
 70
     1
  9
$DIMSE1
 70
     0
  9
$DIMSE2
 70
     0
  9
$DIMTAD
 70
     0
  9
$DIMZIN
 70
     9
  9
$DIMBLK
  1

  9
$DIMASO
 70
     1
  9
$DIMSHO
 70
     1
  9
$DIMPOST
  1

  9
$DIMAPOST
  1

  9
$DIMALT
 70
     0
  9
$DIMALTD
 70
     2
  9
$DIMALTF
 40
25.4
  9
$DIMLFAC
 40
1.0
  9
$DIMTOFL
 70
     0
  9
$DIMTVP
 40
0.0
  9
$DIMTIX
 70
     0
  9
$DIMSOXD
 70
     0
  9
$DIMSAH
 70
     0
  9
$DIMBLK1
  1

  9
$DIMBLK2
  1

  9
$DIMSTYLE
  2
STANDARD
  9
$DIMCLRD
 70
     0
  9
$DIMCLRE
 70
     0
  9
$DIMCLRT
 70
     0
  9
$DIMTFAC
 40
1.0
  9
$DIMGAP
 40
15.0
  9
$DIMJUST
 70
     0
  9
$DIMSD1
 70
     0
  9
$DIMSD2
 70
     0
  9
$DIMTOLJ
 70
     1
  9
$DIMTZIN
 70
     0
  9
$DIMALTZ
 70
     0
  9
$DIMALTTZ
 70
     0
  9
$DIMUPT
 70
     0
  9
$DIMDEC
 70
     0
  9
$DIMTDEC
 70
     0
  9
$DIMALTU
 70
     2
  9
$DIMALTTD
 70
     2
  9
$DIMTXSTY
  7
Standard
  9
$DIMAUNIT
 70
     0
  9
$DIMADEC
 70
     0
  9
$DIMALTRND
 40
0.0
  9
$DIMAZIN
 70
     0
  9
$DIMDSEP
 70
    46
  9
$DIMATFIT
 70
     3
  9
$DIMFRAC
 70
     0
  9
$DIMLDRBLK
  1

  9
$DIMLUNIT
 70
     2
  9
$DIMLWD
 70
    -2
  9
$DIMLWE
 70
    -2
  9
$DIMTMOVE
 70
     0
  9
$LUNITS
 70
     2
  9
$LUPREC
 70
     4
  9
$SKETCHINC
 40
0.1
  9
$FILLETRAD
 40
10.0
  9
$AUNITS
 70
     0
  9
$AUPREC
 70
     0
  9
$MENU
  1
.
  9
$ELEVATION
 40
0.0
  9
$PELEVATION
 40
0.0
  9
$THICKNESS
 40
0.0
  9
$LIMCHECK
 70
     0
  9
$CHAMFERA
 40
0.0
  9
$CHAMFERB
 40
0.0
  9
$CHAMFERC
 40
0.0
  9
$CHAMFERD
 40
0.0
  9
$SKPOLY
 70
     0
  9
$TDCREATE
 40
2453206.537812858
  9
$TDUCREATE
 40
2453206.454479525
  9
$TDUPDATE
 40
2454595.420390729
  9
$TDUUPDATE
 40
2454595.337057396
  9
$TDINDWG
 40
1.2494375000
  9
$TDUSRTIMER
 40
1.2494375000
  9
$USRTIMER
 70
     1
  9
$ANGBASE
 50
0.0
  9
$ANGDIR
 70
     0
  9
$PDMODE
 70
     0
  9
$PDSIZE
 40
0.0
  9
$PLINEWID
 40
0.0
  9
$SPLFRAME
 70
     0
  9
$SPLINETYPE
 70
     6
  9
$SPLINESEGS
 70
     8
  9
$HANDSEED
  5
1E640
  9
$SURFTAB1
 70
     6
  9
$SURFTAB2
 70
     6
  9
$SURFTYPE
 70
     6
  9
$SURFU
 70
     6
  9
$SURFV
 70
     6
  9
$UCSBASE
  2

  9
$UCSNAME
  2

  9
$UCSORG
 10
0.0
 20
0.0
 30
0.0
  9
$UCSXDIR
 10
1.0
 20
0.0
 30
0.0
  9
$UCSYDIR
 10
0.0
 20
1.0
 30
0.0
  9
$UCSORTHOREF
  2

  9
$UCSORTHOVIEW
 70
     1
  9
$UCSORGTOP
 10
0.0
 20
0.0
 30
0.0
  9
$UCSORGBOTTOM
 10
0.0
 20
0.0
 30
0.0
  9
$UCSORGLEFT
 10
0.0
 20
0.0
 30
0.0
  9
$UCSORGRIGHT
 10
0.0
 20
0.0
 30
0.0
  9
$UCSORGFRONT
 10
0.0
 20
0.0
 30
0.0
  9
$UCSORGBACK
 10
0.0
 20
0.0
 30
0.0
  9
$PUCSBASE
  2

  9
$PUCSNAME
  2

  9
$PUCSORG
 10
0.0
 20
0.0
 30
0.0
  9
$PUCSXDIR
 10
1.0
 20
0.0
 30
0.0
  9
$PUCSYDIR
 10
0.0
 20
1.0
 30
0.0
  9
$PUCSORTHOREF
  2

  9
$PUCSORTHOVIEW
 70
     0
  9
$PUCSORGTOP
 10
0.0
 20
0.0
 30
0.0
  9
$PUCSORGBOTTOM
 10
0.0
 20
0.0
 30
0.0
  9
$PUCSORGLEFT
 10
0.0
 20
0.0
 30
0.0
  9
$PUCSORGRIGHT
 10
0.0
 20
0.0
 30
0.0
  9
$PUCSORGFRONT
 10
0.0
 20
0.0
 30
0.0
  9
$PUCSORGBACK
 10
0.0
 20
0.0
 30
0.0
  9
$USERI1
 70
     0
  9
$USERI2
 70
     0
  9
$USERI3
 70
     0
  9
$USERI4
 70
     0
  9
$USERI5
 70
     0
  9
$USERR1
 40
0.0
  9
$USERR2
 40
0.0
  9
$USERR3
 40
0.0
  9
$USERR4
 40
0.0
  9
$USERR5
 40
0.0
  9
$WORLDVIEW
 70
     1
  9
$SHADEDGE
 70
     3
  9
$SHADEDIF
 70
    70
  9
$TILEMODE
 70
     1
  9
$MAXACTVP
 70
    64
  9
$PINSBASE
 10
0.0
 20
0.0
 30
0.0
  9
$PLIMCHECK
 70
     0
  9
$PEXTMIN
 10
1.000000000000000E+20
 20
1.000000000000000E+20
 30
1.000000000000000E+20
  9
$PEXTMAX
 10
-1.000000000000000E+20
 20
-1.000000000000000E+20
 30
-1.000000000000000E+20
  9
$PLIMMIN
 10
0.0
 20
0.0
  9
$PLIMMAX
 10
12.0
 20
9.0
  9
$UNITMODE
 70
     0
  9
$VISRETAIN
 70
     1
  9
$PLINEGEN
 70
     0
  9
$PSLTSCALE
 70
     1
  9
$TREEDEPTH
 70
  3020
  9
$CMLSTYLE
  2
Standard
  9
$CMLJUST
 70
     0
  9
$CMLSCALE
 40
1.0
  9
$PROXYGRAPHICS
 70
     1
  9
$MEASUREMENT
 70
     0
  9
$CELWEIGHT
370
    -1
  9
$ENDCAPS
280
     0
  9
$JOINSTYLE
280
     0
  9
$LWDISPLAY
290
     0
  9
$INSUNITS
 70
     0
  9
$HYPERLINKBASE
  1

  9
$STYLESHEET
  1

  9
$XEDIT
290
     1
  9
$CEPSNTYPE
380
     0
  9
$PSTYLEMODE
290
     1
  9
$FINGERPRINTGUID
  2
{77FBDECF-49F4-4993-9EF0-C4F1C0454A89}
  9
$VERSIONGUID
  2
{2498EAFE-6C3B-44D8-8DDB-A4AE5D773DC0}
  9
$EXTNAMES
290
     1
  9
$PSVPSCALE
 40
0.0
  9
$OLESTARTUP
290
     0
  0
ENDSEC
  0
SECTION
  2
CLASSES
  0
CLASS
  1
ACDBDICTIONARYWDFLT
  2
AcDbDictionaryWithDefault
  3
AutoCAD 2000
 90
        0
280
     0
281
     0
  0
CLASS
  1
ACDBPLACEHOLDER
  2
AcDbPlaceHolder
  3
AutoCAD 2000
 90
        0
280
     0
281
     0
  0
CLASS
  1
LAYOUT
  2
AcDbLayout
  3
AutoCAD 2000
 90
        0
280
     0
281
     0
  0
CLASS
  1
DICTIONARYVAR
  2
AcDbDictionaryVar
  3
AutoCAD 2000
 90
        0
280
     0
281
     0
  0
ENDSEC
  0
SECTION
  2
TABLES
  0
TABLE
  2
VPORT
  5
8
330
0
100
AcDbSymbolTable
 70
     2
  0
VPORT
  5
1E63F
330
8
100
AcDbSymbolTableRecord
100
AcDbViewportTableRecord
  2
*Active
 70
     0
 10
0.0
 20
0.0
 11
1.0
 21
1.0
 12
2450.182105797829
 22
584.284850536931
 13
0.0
 23
0.0
 14
1.0
 24
1.0
 15
50.0
 25
50.0
 16
0.0
 26
0.0
 36
1.0
 17
0.0
 27
0.0
 37
0.0
 40
1822.593089429645
 41
1.401162790697674
 42
50.0
 43
0.0
 44
0.0
 50
0.0
 51
0.0
 71
     0
 72
   100
 73
     1
 74
     0
 75
     0
 76
     1
 77
     0
 78
     0
281
     0
 65
     1
110
0.0
120
0.0
130
0.0
111
1.0
121
0.0
131
0.0
112
0.0
122
1.0
132
0.0
 79
     1
146
0.0
  0
ENDTAB
  0
TABLE
  2
LTYPE
  5
5
330
0
100
AcDbSymbolTable
 70
     3
  0
LTYPE
  5
13
330
5
100
AcDbSymbolTableRecord
100
AcDbLinetypeTableRecord
  2
ByBlock
 70
     0
  3

 72
    65
 73
     0
 40
0.0
  0
LTYPE
  5
14
330
5
100
AcDbSymbolTableRecord
100
AcDbLinetypeTableRecord
  2
ByLayer
 70
     0
  3

 72
    65
 73
     0
 40
0.0
  0
LTYPE
  5
15
330
5
100
AcDbSymbolTableRecord
100
AcDbLinetypeTableRecord
  2
Continuous
 70
     0
  3
Solid line
 72
    65
 73
     0
 40
0.0
  0
LTYPE
  5
295F
330
5
100
AcDbSymbolTableRecord
100
AcDbLinetypeTableRecord
  2
ACAD_ISO10W100
 70
     0
  3
ISO Strichpunktlinie __ . __ . __ . __ . __ . _
 72
    65
 73
     4
 40
18.0
 49
12.0
 74
     0
 49
-3.0
 74
     0
 49
0.0
 74
     0
 49
-3.0
 74
     0
  0
LTYPE
  5
2960
330
5
100
AcDbSymbolTableRecord
100
AcDbLinetypeTableRecord
  2
ACAD_ISO02W100
 70
     0
  3
ISO Strichlinie __ __ __ __ __ __ __ __ __ __ _
 72
    65
 73
     2
 40
15.0
 49
12.0
 74
     0
 49
-3.0
 74
     0
  0
ENDTAB
  0
TABLE
  2
LAYER
  5
2
330
0
100
AcDbSymbolTable
 70
     6
  0
LAYER
  5
10
330
2
100
AcDbSymbolTableRecord
100
AcDbLayerTableRecord
  2
0
 70
     0
 62
     7
  6
Continuous
370
    -3
390
F
  0
LAYER
  5
2961
330
2
100
AcDbSymbolTableRecord
100
AcDbLayerTableRecord
  2
Defpoints
 70
     0
 62
     7
  6
Continuous
290
     0
370
    -3
390
F
  0
LAYER
  5
2962
330
2
100
AcDbSymbolTableRecord
100
AcDbLayerTableRecord
  2
KERA0
 70
     0
 62
     5
  6
Continuous
370
    40
390
F
  0
LAYER
  5
2963
330
2
100
AcDbSymbolTableRecord
100
AcDbLayerTableRecord
  2
KERA2
 70
     0
 62
     7
  6
ACAD_ISO10W100
370
    18
390
F
  0
LAYER
  5
2964
330
2
100
AcDbSymbolTableRecord
100
AcDbLayerTableRecord
  2
KERA4
 70
     0
 62
     1
  6
Continuous
370
    18
390
F
  0
LAYER
  5
2967
330
2
100
AcDbSymbolTableRecord
100
AcDbLayerTableRecord
  2
KERA1
 70
     0
 62
     1
  6
ACAD_ISO02W100
370
    25
390
F
  0
ENDTAB
  0
TABLE
  2
STYLE
  5
3
330
0
100
AcDbSymbolTable
 70
     1
  0
STYLE
  5
11
330
3
100
AcDbSymbolTableRecord
100
AcDbTextStyleTableRecord
  2
Standard
 70
     0
 40
45.0
 41
1.0
 50
0.0
 71
     0
 42
0.2
  3
ARIAL.TTF
  4

1001
ACAD
1000
Arial
1071
       34
  0
ENDTAB
  0
TABLE
  2
VIEW
  5
6
330
0
100
AcDbSymbolTable
 70
     0
  0
ENDTAB
  0
TABLE
  2
UCS
  5
7
330
0
100
AcDbSymbolTable
 70
     0
  0
ENDTAB
  0
TABLE
  2
APPID
  5
9
330
0
100
AcDbSymbolTable
 70
     2
  0
APPID
  5
12
330
9
100
AcDbSymbolTableRecord
100
AcDbRegAppTableRecord
  2
ACAD
 70
     0
  0
APPID
  5
22A9
330
9
100
AcDbSymbolTableRecord
100
AcDbRegAppTableRecord
  2
DCO15
 70
     0
  0
ENDTAB
  0
TABLE
  2
DIMSTYLE
  5
A
330
0
100
AcDbSymbolTable
 70
     1
100
AcDbDimStyleTable
 71
     1
340
10EF3
  0
DIMSTYLE
105
10EF3
102
{ACAD_REACTORS
330
1C757
330
1CFB8
330
1D002
330
1E471
330
1E5FF
102
}
330
A
100
AcDbSymbolTableRecord
100
AcDbDimStyleTableRecord
  2
STANDARD
 70
     0
 41
40.0
 42
20.0
 43
30.0
 44
15.0
 78
     9
140
45.0
141
4.0
147
15.0
271
     0
272
     0
340
11
  0
ENDTAB
  0
TABLE
  2
BLOCK_RECORD
  5
1
330
0
100
AcDbSymbolTable
 70
     6
  0
BLOCK_RECORD
  5
1E
330
1
100
AcDbSymbolTableRecord
100
AcDbBlockTableRecord
  2
*Model_Space
340
21
  0
BLOCK_RECORD
  5
1A
330
1
100
AcDbSymbolTableRecord
100
AcDbBlockTableRecord
  2
*Paper_Space
340
1D
  0
BLOCK_RECORD
  5
1C758
330
1
100
AcDbSymbolTableRecord
100
AcDbBlockTableRecord
  2
*D0
340
0
  0
BLOCK_RECORD
  5
1CFB9
330
1
100
AcDbSymbolTableRecord
100
AcDbBlockTableRecord
  2
*D1
340
0
  0
BLOCK_RECORD
  5
1D003
330
1
100
AcDbSymbolTableRecord
100
AcDbBlockTableRecord
  2
*D2
340
0
  0
BLOCK_RECORD
  5
1D0D4
330
1
100
AcDbSymbolTableRecord
100
AcDbBlockTableRecord
  2
Abdeckplatte klein
340
0
310
2800000020000000200000000100080000000000000400000000000000000000000000000000000000000000000080000080000000808000800000008000800080800000C0C0C000C0DCC000F0CAA6000020400000206000002080000020A0000020C0000020E00000400000004020000040400000406000004080000040A0
310
000040C0000040E00000600000006020000060400000606000006080000060A0000060C0000060E00000800000008020000080400000806000008080000080A0000080C0000080E00000A0000000A0200000A0400000A0600000A0800000A0A00000A0C00000A0E00000C0000000C0200000C0400000C0600000C0800000C0
310
A00000C0C00000C0E00000E0000000E0200000E0400000E0600000E0800000E0A00000E0C00000E0E00040000000400020004000400040006000400080004000A0004000C0004000E00040200000402020004020400040206000402080004020A0004020C0004020E000404000004040200040404000404060004040800040
310
40A0004040C0004040E00040600000406020004060400040606000406080004060A0004060C0004060E00040800000408020004080400040806000408080004080A0004080C0004080E00040A0000040A0200040A0400040A0600040A0800040A0A00040A0C00040A0E00040C0000040C0200040C0400040C0600040C08000
310
40C0A00040C0C00040C0E00040E0000040E0200040E0400040E0600040E0800040E0A00040E0C00040E0E00080000000800020008000400080006000800080008000A0008000C0008000E00080200000802020008020400080206000802080008020A0008020C0008020E00080400000804020008040400080406000804080
310
008040A0008040C0008040E00080600000806020008060400080606000806080008060A0008060C0008060E00080800000808020008080400080806000808080008080A0008080C0008080E00080A0000080A0200080A0400080A0600080A0800080A0A00080A0C00080A0E00080C0000080C0200080C0400080C0600080C0
310
800080C0A00080C0C00080C0E00080E0000080E0200080E0400080E0600080E0800080E0A00080E0C00080E0E000C0000000C0002000C0004000C0006000C0008000C000A000C000C000C000E000C0200000C0202000C0204000C0206000C0208000C020A000C020C000C020E000C0400000C0402000C0404000C0406000C0
310
408000C040A000C040C000C040E000C0600000C0602000C0604000C0606000C0608000C060A000C060C000C060E000C0800000C0802000C0804000C0806000C0808000C080A000C080C000C080E000C0A00000C0A02000C0A04000C0A06000C0A08000C0A0A000C0A0C000C0A0E000C0C00000C0C02000C0C04000C0C06000
310
C0C08000C0C0A000F0FBFF00A4A0A000808080000000FF0000FF000000FFFF00FF000000FF00FF00FFFF0000FFFFFF00FFFFFFFFFFFFFFFFFFFFFFFFFFFFFFFFFFFFFFFFFFFFFFFFFFFFFFFFFFFFFFFFFFFFFFFFFFFFFFFFFFFFFFFFFFFFFFFFFFFFFFFFFFFFFFFFFFFFFFFFFFFFFFFFFFFFFFFFFFFFFFFFFFFFFFFFFFFFFF
310
FFFFFFFFFFFFFFFFFFFFFFFFFFFFFFFFFFFFFFFFFFFFFFFFFFFFFFFFFFFFFFFFFFFFFFFFFFFFFFFFFFFFFFFFFFFFFFFFFFFFFFFFFFFFFFFFFFFFFFFFFFFFFFFFFFFFFFFFFFFFFFFFFFFFFFFFFFFFFFFFFFFFFFFFFFFFFFFFFFFFFFFFFFFFFFFFFFFFFFFFFFFFFFFFFFFFFFFFFFFFFFFFFFFFFFFFFFFFFFFFFFFFFFFFFFFFFF
310
FFFFFFFFFFFFFFFFFFFFFFFFFFFFFFFFFFFFFFFFFFFFFFFFFFFFFFFFFFFFFFFFFFFFFFFFFFFFFFFFFFFFFFFFFFFFFFFFFFFFFFFFFFFFFFFFFFFFFFFFFFFFFFFFFFFFFFFFFFFFFFFFFFFFFFFFFFFFFFFFFFFFFFFFFFFFFFFFFFFFFFFFFFFFFFFFFFFFFFFFFFFFFFFFFFFFFFFFFFFFFFFFFFFFFFFFFFFFFFFFFFFFFFFFFFFFFF
310
FFFFFFFFFFFFFFFFFFFFFFFFFFFFFFFFFFFFFFFFFFFFFFFFFFFFFFFFFFFFFFFFFFFFFFFFFFFFFFFFFFFFFFFFFFFFFFFFFFFFFFFFFFFFFFFFFFFFFFFFFFFFFFFFFFFFFFFFFFFFFFFFFFFFFFFFFFFFFFFFFFFFFFFFFFFF000000FFFFFFFFFFFFFFFFFFFFFFFFFFFFFFFFFFFFFFFF000000FFFFFFFFFFFF00FF00FFFFFFFFFFFF
310
FFFFFFFFFFFFFFFFFFFFFFFFFFFF00FF00FFFFFFFFFFFF00FF00FFFFFFFFFFFFFFFFFFFFFFFFFFFFFFFFFFFFFFFF00FF00FFFFFFFF000000000000000000000000000000000000000000000000000000000000FFFF00FFFFFFFFFFFFFFFFFFFFFFFFFFFFFFFFFFFFFFFFFFFFFFFFFFFFFFFF00FFFF00000000000000000000
310
0000000000000000000000000000000000000000FFFFFFFFFFFFFFFFFFFFFFFFFFFFFFFFFFFFFFFFFFFFFFFFFFFFFFFFFFFFFFFFFFFFFFFFFFFFFFFFFFFFFFFFFFFFFFFFFFFFFFFFFFFFFFFFFFFFFFFFFFFFFFFFFFFFFFFFFFFFFFFFFFFFFFFFFFFFFFFFFFFFFFFFFFFFFFFFFFFFFFFFFFFFFFFFFFFFFFFFFFFFFFFFFFFFFF
310
FFFFFFFFFFFFFFFFFFFFFFFFFFFFFFFFFFFFFFFFFFFFFFFFFFFFFFFFFFFFFFFFFFFFFFFFFFFFFFFFFFFFFFFFFFFFFFFFFFFFFFFFFFFFFFFFFFFFFFFFFFFFFFFFFFFFFFFFFFFFFFFFFFFFFFFFFFFFFFFFFFFFFFFFFFFFFFFFFFFFFFFFFFFFFFFFFFFFFFFFFFFFFFFFFFFFFFFFFFFFFFFFFFFFFFFFFFFFFFFFFFFFFFFFFFFFFF
310
FFFFFFFFFFFFFFFFFFFFFFFFFFFFFFFFFFFFFFFFFFFFFFFFFFFFFFFFFFFFFFFFFFFFFFFFFFFFFFFFFFFFFFFFFFFFFFFFFFFFFFFFFFFFFFFFFFFFFFFFFFFFFFFFFFFFFFFFFFFFFFFFFFFFFFFFFFFFFFFFFFFFFFFFFFFFFFFFFFFFFFFFFFFFFFFFFFFFFFFFFFFFFFFFFFFFFFFFFFFFFFFFFFFFFFFFFFFFFFFFFFFFFFFFFFFFFF
310
FFFFFFFFFFFFFFFFFFFFFFFFFFFFFFFFFFFFFFFFFFFFFFFFFFFFFFFFFFFFFFFFFFFFFFFFFFFFFFFFFFFFFFFFFFFFFFFFFFFFFFFFFFFFFFFF
102
{BLKREFS
331
1D86E
102
}
  0
BLOCK_RECORD
  5
1E472
330
1
100
AcDbSymbolTableRecord
100
AcDbBlockTableRecord
  2
*D4
340
0
  0
BLOCK_RECORD
  5
1E600
330
1
100
AcDbSymbolTableRecord
100
AcDbBlockTableRecord
  2
*D5
340
0
  0
ENDTAB
  0
ENDSEC
  0
SECTION
  2
BLOCKS
  0
BLOCK
  5
1F
330
1E
100
AcDbEntity
  8
0
100
AcDbBlockBegin
  2
*Model_Space
 70
     0
 10
0.0
 20
0.0
 30
0.0
  3
*Model_Space
  1

  0
ENDBLK
  5
20
330
1E
100
AcDbEntity
  8
0
100
AcDbBlockEnd
  0
BLOCK
  5
1B
330
1A
100
AcDbEntity
 67
     1
  8
0
100
AcDbBlockBegin
  2
*Paper_Space
 70
     0
 10
0.0
 20
0.0
 30
0.0
  3
*Paper_Space
  1

  0
ENDBLK
  5
1C
330
1A
100
AcDbEntity
 67
     1
  8
0
100
AcDbBlockEnd
  0
BLOCK
  5
1C763
330
1C758
100
AcDbEntity
  8
0
100
AcDbBlockBegin
  2
*D0
 70
     1
 10
0.0
 20
0.0
 30
0.0
  3
*D0
  1

  0
LINE
  5
1E509
330
1C758
100
AcDbEntity
  8
KERA4
 62
     0
370
    -2
100
AcDbLine
 10
2117.523230799554
 20
503.2454147237728
 30
0.0
 11
2117.523230799554
 21
1045.340505424609
 31
0.0
  0
LINE
  5
1E50A
330
1C758
100
AcDbEntity
  8
KERA4
 62
     0
370
    -2
100
AcDbLine
 10
2544.504585516046
 20
503.245415211815
 30
0.0
 11
2544.504585516046
 21
1045.340505424609
 31
0.0
  0
LINE
  5
1E50B
330
1C758
100
AcDbEntity
  8
KERA4
 62
     0
370
    -2
100
AcDbLine
 10
2157.523230799554
 20
1030.340505424609
 30
0.0
 11
2271.014447744457
 21
1030.340505424609
 31
0.0
  0
LINE
  5
1E50C
330
1C758
100
AcDbEntity
  8
KERA4
 62
     0
370
    -2
100
AcDbLine
 10
2504.504585516047
 20
1030.340505424609
 30
0.0
 11
2402.064925234225
 21
1030.340505424609
 31
0.0
  0
SOLID
  5
1E50D
330
1C758
100
AcDbEntity
  8
KERA4
 62
     0
100
AcDbTrace
 10
2157.523230799554
 20
1037.007172091276
 30
0.0
 11
2157.523230799554
 21
1023.673838757942
 31
0.0
 12
2117.523230799554
 22
1030.340505424609
 32
0.0
 13
2117.523230799554
 23
1030.340505424609
 33
0.0
  0
SOLID
  5
1E50E
330
1C758
100
AcDbEntity
  8
KERA4
 62
     0
100
AcDbTrace
 10
2504.504585516047
 20
1037.007172091276
 30
0.0
 11
2504.504585516047
 21
1023.673838757942
 31
0.0
 12
2544.504585516046
 22
1030.340505424609
 32
0.0
 13
2544.504585516046
 23
1030.340505424609
 33
0.0
  0
MTEXT
  5
1E50F
330
1C758
100
AcDbEntity
  8
KERA4
 62
     0
100
AcDbMText
 10
2336.539686489341
 20
1030.340505424609
 30
0.0
 40
45.0
 41
0.0
 71
     5
 72
     1
  1
\A1;434
 73
     1
 44
1.0
  0
POINT
  5
1E510
330
1C758
100
AcDbEntity
  8
Defpoints
 62
     0
100
AcDbPoint
 10
2117.523230799554
 20
483.2454147237728
 30
0.0
  0
POINT
  5
1E511
330
1C758
100
AcDbEntity
  8
Defpoints
 62
     0
100
AcDbPoint
 10
2544.504585516046
 20
483.245415211815
 30
0.0
  0
POINT
  5
1E512
330
1C758
100
AcDbEntity
  8
Defpoints
 62
     0
100
AcDbPoint
 10
2544.504585516046
 20
1030.340505424609
 30
0.0
  0
ENDBLK
  5
1C764
330
1C758
100
AcDbEntity
  8
0
100
AcDbBlockEnd
  0
BLOCK
  5
1CFC4
330
1CFB9
100
AcDbEntity
  8
0
100
AcDbBlockBegin
  2
*D1
 70
     1
 10
0.0
 20
0.0
 30
0.0
  3
*D1
  1

  0
LINE
  5
1E630
330
1CFB9
100
AcDbEntity
  8
KERA4
 62
     0
370
    -2
100
AcDbLine
 10
2308.145984197912
 20
1248.42840926974
 30
0.0
 11
2308.145984197912
 21
1190.521793281453
 31
0.0
  0
LINE
  5
1E631
330
1CFB9
100
AcDbEntity
  8
KERA4
 62
     0
370
    -2
100
AcDbLine
 10
2353.345090227121
 20
1248.42840926974
 30
0.0
 11
2353.345090227121
 21
1190.521793281453
 31
0.0
  0
LINE
  5
1E632
330
1CFB9
100
AcDbEntity
  8
KERA4
 62
     0
370
    -2
100
AcDbLine
 10
2268.145984197912
 20
1205.521793281453
 30
0.0
 11
2228.145984197912
 21
1205.521793281453
 31
0.0
  0
LINE
  5
1E633
330
1CFB9
100
AcDbEntity
  8
KERA4
 62
     0
370
    -2
100
AcDbLine
 10
2393.345090227121
 20
1205.521793281453
 30
0.0
 11
2433.34509022712
 21
1205.521793281453
 31
0.0
  0
SOLID
  5
1E634
330
1CFB9
100
AcDbEntity
  8
KERA4
 62
     0
100
AcDbTrace
 10
2268.145984197912
 20
1212.188459948119
 30
0.0
 11
2268.145984197912
 21
1198.855126614786
 31
0.0
 12
2308.145984197912
 22
1205.521793281453
 32
0.0
 13
2308.145984197912
 23
1205.521793281453
 33
0.0
  0
SOLID
  5
1E635
330
1CFB9
100
AcDbEntity
  8
KERA4
 62
     0
100
AcDbTrace
 10
2393.345090227121
 20
1212.188459948119
 30
0.0
 11
2393.345090227121
 21
1198.855126614786
 31
0.0
 12
2353.345090227121
 22
1205.521793281453
 32
0.0
 13
2353.345090227121
 23
1205.521793281453
 33
0.0
  0
MTEXT
  5
1E636
330
1CFB9
100
AcDbEntity
  8
KERA4
 62
     0
100
AcDbMText
 10
2481.46582692562
 20
1205.521793281453
 30
0.0
 40
45.0
 41
0.0
 71
     5
 72
     1
  1
\A1;46
 73
     1
 44
1.0
  0
POINT
  5
1E637
330
1CFB9
100
AcDbEntity
  8
Defpoints
 62
     0
100
AcDbPoint
 10
2308.145984197912
 20
1268.42840926974
 30
0.0003017900500879
  0
POINT
  5
1E638
330
1CFB9
100
AcDbEntity
  8
Defpoints
 62
     0
100
AcDbPoint
 10
2353.345090227121
 20
1268.42840926974
 30
0.0003017900500879
  0
POINT
  5
1E639
330
1CFB9
100
AcDbEntity
  8
Defpoints
 62
     0
100
AcDbPoint
 10
2353.345090227121
 20
1205.521793281453
 30
0.0
  0
ENDBLK
  5
1CFC5
330
1CFB9
100
AcDbEntity
  8
0
100
AcDbBlockEnd
  0
BLOCK
  5
1D00E
330
1D003
100
AcDbEntity
  8
0
100
AcDbBlockBegin
  2
*D2
 70
     1
 10
0.0
 20
0.0
 30
0.0
  3
*D2
  1

  0
LINE
  5
1E5F5
330
1D003
100
AcDbEntity
  8
KERA4
 62
     0
370
    -2
100
AcDbLine
 10
2141.222620921081
 20
503.2454147237728
 30
0.0
 11
2141.222620921081
 21
963.6039402955875
 31
0.0
  0
LINE
  5
1E5F6
330
1D003
100
AcDbEntity
  8
KERA4
 62
     0
370
    -2
100
AcDbLine
 10
2520.745537212517
 20
503.245415211815
 30
0.0
 11
2520.745537212517
 21
963.6039402955875
 31
0.0
  0
LINE
  5
1E5F7
330
1D003
100
AcDbEntity
  8
KERA4
 62
     0
370
    -2
100
AcDbLine
 10
2181.222620921081
 20
948.6039402955876
 30
0.0
 11
2266.36436556066
 21
948.6039402955876
 31
0.0
  0
LINE
  5
1E5F8
330
1D003
100
AcDbEntity
  8
KERA4
 62
     0
370
    -2
100
AcDbLine
 10
2480.745537212517
 20
948.6039402955876
 30
0.0
 11
2395.603792572939
 21
948.6039402955876
 31
0.0
  0
SOLID
  5
1E5F9
330
1D003
100
AcDbEntity
  8
KERA4
 62
     0
100
AcDbTrace
 10
2181.222620921081
 20
955.2706069622542
 30
0.0
 11
2181.222620921081
 21
941.937273628921
 31
0.0
 12
2141.222620921081
 22
948.6039402955876
 32
0.0
 13
2141.222620921081
 23
948.6039402955876
 33
0.0
  0
SOLID
  5
1E5FA
330
1D003
100
AcDbEntity
  8
KERA4
 62
     0
100
AcDbTrace
 10
2480.745537212517
 20
955.2706069622542
 30
0.0
 11
2480.745537212517
 21
941.937273628921
 31
0.0
 12
2520.745537212517
 22
948.6039402955876
 32
0.0
 13
2520.745537212517
 23
948.6039402955876
 33
0.0
  0
MTEXT
  5
1E5FB
330
1D003
100
AcDbEntity
  8
KERA4
 62
     0
100
AcDbMText
 10
2330.984079066799
 20
948.6039402955876
 30
0.0
 40
45.0
 41
0.0
 71
     5
 72
     1
  1
\A1;380
 73
     1
 44
1.0
  0
POINT
  5
1E5FC
330
1D003
100
AcDbEntity
  8
Defpoints
 62
     0
100
AcDbPoint
 10
2141.222620921081
 20
483.2454147237728
 30
0.0
  0
POINT
  5
1E5FD
330
1D003
100
AcDbEntity
  8
Defpoints
 62
     0
100
AcDbPoint
 10
2520.745537212517
 20
483.245415211815
 30
0.0
  0
POINT
  5
1E5FE
330
1D003
100
AcDbEntity
  8
Defpoints
 62
     0
100
AcDbPoint
 10
2520.745537212517
 20
948.6039402955876
 30
0.0
  0
ENDBLK
  5
1D00F
330
1D003
100
AcDbEntity
  8
0
100
AcDbBlockEnd
  0
BLOCK
  5
1D16F
330
1D0D4
100
AcDbEntity
  8
0
100
AcDbBlockBegin
  2
Abdeckplatte klein
 70
     0
 10
0.0
 20
0.0
 30
0.0
  3
Abdeckplatte klein
  1

  0
POLYLINE
  5
1D0D5
330
1D0D4
100
AcDbEntity
  8
0
100
AcDb3dPolyline
 66
     1
 10
0.0
 20
0.0
 30
0.0
 70
    12
 75
     6
  0
VERTEX
  5
1D0D6
330
1D0D5
100
AcDbEntity
  8
0
100
AcDbVertex
100
AcDb3dPolylineVertex
 10
3674.360869241454
 20
358.5032745260223
 30
0.0
 70
    48
  0
VERTEX
  5
1D0D7
330
1D0D5
100
AcDbEntity
  8
0
100
AcDbVertex
100
AcDb3dPolylineVertex
 10
3641.027535908122
 20
358.5032745260223
 30
0.0
 70
    48
  0
VERTEX
  5
1D0D8
330
1D0D5
100
AcDbEntity
  8
0
100
AcDbVertex
100
AcDb3dPolylineVertex
 10
3607.694202574788
 20
358.5032745260223
 30
0.0
 70
    48
  0
VERTEX
  5
1D0D9
330
1D0D5
100
AcDbEntity
  8
0
100
AcDbVertex
100
AcDb3dPolylineVertex
 10
3574.360869241454
 20
358.5032745260223
 30
0.0
 70
    48
  0
VERTEX
  5
1D0DA
330
1D0D5
100
AcDbEntity
  8
0
100
AcDbVertex
100
AcDb3dPolylineVertex
 10
3674.360869241454
 20
358.5032745260223
 30
0.0
 70
    40
  0
VERTEX
  5
1D0DB
330
1D0D5
100
AcDbEntity
  8
0
100
AcDbVertex
100
AcDb3dPolylineVertex
 10
3661.860869241454
 20
358.5032745260223
 30
0.0
 70
    40
  0
VERTEX
  5
1D0DC
330
1D0D5
100
AcDbEntity
  8
0
100
AcDbVertex
100
AcDb3dPolylineVertex
 10
3649.360869241454
 20
358.5032745260223
 30
0.0
 70
    40
  0
VERTEX
  5
1D0DD
330
1D0D5
100
AcDbEntity
  8
0
100
AcDbVertex
100
AcDb3dPolylineVertex
 10
3636.860869241454
 20
358.5032745260223
 30
0.0
 70
    40
  0
VERTEX
  5
1D0DE
330
1D0D5
100
AcDbEntity
  8
0
100
AcDbVertex
100
AcDb3dPolylineVertex
 10
3624.360869241455
 20
358.5032745260223
 30
0.0
 70
    40
  0
VERTEX
  5
1D0DF
330
1D0D5
100
AcDbEntity
  8
0
100
AcDbVertex
100
AcDb3dPolylineVertex
 10
3611.860869241454
 20
358.5032745260223
 30
0.0
 70
    40
  0
VERTEX
  5
1D0E0
330
1D0D5
100
AcDbEntity
  8
0
100
AcDbVertex
100
AcDb3dPolylineVertex
 10
3599.360869241454
 20
358.5032745260223
 30
0.0
 70
    40
  0
VERTEX
  5
1D0E1
330
1D0D5
100
AcDbEntity
  8
0
100
AcDbVertex
100
AcDb3dPolylineVertex
 10
3586.860869241454
 20
358.5032745260223
 30
0.0
 70
    40
  0
VERTEX
  5
1D0E2
330
1D0D5
100
AcDbEntity
  8
0
100
AcDbVertex
100
AcDb3dPolylineVertex
 10
3574.360869241454
 20
358.5032745260223
 30
0.0
 70
    40
  0
SEQEND
  5
1D0E3
330
1D0D5
100
AcDbEntity
  8
0
  0
POLYLINE
  5
1D0E4
330
1D0D4
100
AcDbEntity
  8
0
100
AcDb3dPolyline
 66
     1
 10
0.0
 20
0.0
 30
0.0
 70
    12
 75
     6
  0
VERTEX
  5
1D0E5
330
1D0E4
100
AcDbEntity
  8
0
100
AcDbVertex
100
AcDb3dPolylineVertex
 10
3577.360866366353
 20
366.5032792943932
 30
0.0
 70
    48
  0
VERTEX
  5
1D0E6
330
1D0E4
100
AcDbEntity
  8
0
100
AcDbVertex
100
AcDb3dPolylineVertex
 10
3608.694199699685
 20
366.5032792943932
 30
0.0
 70
    48
  0
VERTEX
  5
1D0E7
330
1D0E4
100
AcDbEntity
  8
0
100
AcDbVertex
100
AcDb3dPolylineVertex
 10
3640.027533033018
 20
366.5032792943932
 30
0.0
 70
    48
  0
VERTEX
  5
1D0E8
330
1D0E4
100
AcDbEntity
  8
0
100
AcDbVertex
100
AcDb3dPolylineVertex
 10
3671.360866366352
 20
366.5032792943932
 30
0.0
 70
    48
  0
VERTEX
  5
1D0E9
330
1D0E4
100
AcDbEntity
  8
0
100
AcDbVertex
100
AcDb3dPolylineVertex
 10
3577.360866366353
 20
366.5032792943932
 30
0.0
 70
    40
  0
VERTEX
  5
1D0EA
330
1D0E4
100
AcDbEntity
  8
0
100
AcDbVertex
100
AcDb3dPolylineVertex
 10
3589.110866366353
 20
366.5032792943932
 30
0.0
 70
    40
  0
VERTEX
  5
1D0EB
330
1D0E4
100
AcDbEntity
  8
0
100
AcDbVertex
100
AcDb3dPolylineVertex
 10
3600.860866366353
 20
366.5032792943932
 30
0.0
 70
    40
  0
VERTEX
  5
1D0EC
330
1D0E4
100
AcDbEntity
  8
0
100
AcDbVertex
100
AcDb3dPolylineVertex
 10
3612.610866366352
 20
366.5032792943932
 30
0.0
 70
    40
  0
VERTEX
  5
1D0ED
330
1D0E4
100
AcDbEntity
  8
0
100
AcDbVertex
100
AcDb3dPolylineVertex
 10
3624.360866366352
 20
366.5032792943932
 30
0.0
 70
    40
  0
VERTEX
  5
1D0EE
330
1D0E4
100
AcDbEntity
  8
0
100
AcDbVertex
100
AcDb3dPolylineVertex
 10
3636.110866366353
 20
366.5032792943932
 30
0.0
 70
    40
  0
VERTEX
  5
1D0EF
330
1D0E4
100
AcDbEntity
  8
0
100
AcDbVertex
100
AcDb3dPolylineVertex
 10
3647.860866366352
 20
366.5032792943932
 30
0.0
 70
    40
  0
VERTEX
  5
1D0F0
330
1D0E4
100
AcDbEntity
  8
0
100
AcDbVertex
100
AcDb3dPolylineVertex
 10
3659.610866366353
 20
366.5032792943932
 30
0.0
 70
    40
  0
VERTEX
  5
1D0F1
330
1D0E4
100
AcDbEntity
  8
0
100
AcDbVertex
100
AcDb3dPolylineVertex
 10
3671.360866366352
 20
366.5032792943932
 30
0.0
 70
    40
  0
SEQEND
  5
1D0F2
330
1D0E4
100
AcDbEntity
  8
0
  0
POLYLINE
  5
1D0F3
330
1D0D4
100
AcDbEntity
  8
0
100
AcDb3dPolyline
 66
     1
 10
0.0
 20
0.0
 30
0.0
 70
    12
 75
     6
  0
VERTEX
  5
1D0F4
330
1D0F3
100
AcDbEntity
  8
0
100
AcDbVertex
100
AcDb3dPolylineVertex
 10
3662.74245102475
 20
358.5032745260223
 30
0.0
 70
    48
  0
VERTEX
  5
1D0F5
330
1D0F3
100
AcDbEntity
  8
0
100
AcDbVertex
100
AcDb3dPolylineVertex
 10
3662.74245102475
 20
354.2805614757253
 30
0.0
 70
    48
  0
VERTEX
  5
1D0F6
330
1D0F3
100
AcDbEntity
  8
0
100
AcDbVertex
100
AcDb3dPolylineVertex
 10
3662.74245102475
 20
350.0578484254282
 30
0.0
 70
    48
  0
VERTEX
  5
1D0F7
330
1D0F3
100
AcDbEntity
  8
0
100
AcDbVertex
100
AcDb3dPolylineVertex
 10
3662.74245102475
 20
345.8351353751313
 30
0.0
 70
    48
  0
VERTEX
  5
1D0F8
330
1D0F3
100
AcDbEntity
  8
0
100
AcDbVertex
100
AcDb3dPolylineVertex
 10
3662.74245102475
 20
358.5032745260223
 30
0.0
 70
    40
  0
VERTEX
  5
1D0F9
330
1D0F3
100
AcDbEntity
  8
0
100
AcDbVertex
100
AcDb3dPolylineVertex
 10
3662.74245102475
 20
356.9197571321603
 30
0.0
 70
    40
  0
VERTEX
  5
1D0FA
330
1D0F3
100
AcDbEntity
  8
0
100
AcDbVertex
100
AcDb3dPolylineVertex
 10
3662.74245102475
 20
355.3362397382993
 30
0.0
 70
    40
  0
VERTEX
  5
1D0FB
330
1D0F3
100
AcDbEntity
  8
0
100
AcDbVertex
100
AcDb3dPolylineVertex
 10
3662.74245102475
 20
353.7527223444383
 30
0.0
 70
    40
  0
VERTEX
  5
1D0FC
330
1D0F3
100
AcDbEntity
  8
0
100
AcDbVertex
100
AcDb3dPolylineVertex
 10
3662.74245102475
 20
352.1692049505773
 30
0.0
 70
    40
  0
VERTEX
  5
1D0FD
330
1D0F3
100
AcDbEntity
  8
0
100
AcDbVertex
100
AcDb3dPolylineVertex
 10
3662.74245102475
 20
350.5856875567152
 30
0.0
 70
    40
  0
VERTEX
  5
1D0FE
330
1D0F3
100
AcDbEntity
  8
0
100
AcDbVertex
100
AcDb3dPolylineVertex
 10
3662.74245102475
 20
349.0021701628543
 30
0.0
 70
    40
  0
VERTEX
  5
1D0FF
330
1D0F3
100
AcDbEntity
  8
0
100
AcDbVertex
100
AcDb3dPolylineVertex
 10
3662.74245102475
 20
347.4186527689922
 30
0.0
 70
    40
  0
VERTEX
  5
1D100
330
1D0F3
100
AcDbEntity
  8
0
100
AcDbVertex
100
AcDb3dPolylineVertex
 10
3662.74245102475
 20
345.8351353751313
 30
0.0
 70
    40
  0
SEQEND
  5
1D101
330
1D0F3
100
AcDbEntity
  8
0
  0
POLYLINE
  5
1D102
330
1D0D4
100
AcDbEntity
  8
0
100
AcDb3dPolyline
 66
     1
 10
0.0
 20
0.0
 30
0.0
 70
    12
 75
     6
  0
VERTEX
  5
1D103
330
1D102
100
AcDbEntity
  8
0
100
AcDbVertex
100
AcDb3dPolylineVertex
 10
3668.24245102475
 20
358.5032745260223
 30
0.0
 70
    48
  0
VERTEX
  5
1D104
330
1D102
100
AcDbEntity
  8
0
100
AcDbVertex
100
AcDb3dPolylineVertex
 10
3668.24245102475
 20
354.2805598862682
 30
0.0
 70
    48
  0
VERTEX
  5
1D105
330
1D102
100
AcDbEntity
  8
0
100
AcDbVertex
100
AcDb3dPolylineVertex
 10
3668.24245102475
 20
350.0578452465142
 30
0.0
 70
    48
  0
VERTEX
  5
1D106
330
1D102
100
AcDbEntity
  8
0
100
AcDbVertex
100
AcDb3dPolylineVertex
 10
3668.24245102475
 20
345.8351306067603
 30
0.0
 70
    48
  0
VERTEX
  5
1D107
330
1D102
100
AcDbEntity
  8
0
100
AcDbVertex
100
AcDb3dPolylineVertex
 10
3668.24245102475
 20
358.5032745260223
 30
0.0
 70
    40
  0
VERTEX
  5
1D108
330
1D102
100
AcDbEntity
  8
0
100
AcDbVertex
100
AcDb3dPolylineVertex
 10
3668.24245102475
 20
356.9197565361142
 30
0.0
 70
    40
  0
VERTEX
  5
1D109
330
1D102
100
AcDbEntity
  8
0
100
AcDbVertex
100
AcDb3dPolylineVertex
 10
3668.24245102475
 20
355.3362385462063
 30
0.0
 70
    40
  0
VERTEX
  5
1D10A
330
1D102
100
AcDbEntity
  8
0
100
AcDbVertex
100
AcDb3dPolylineVertex
 10
3668.24245102475
 20
353.7527205562992
 30
0.0
 70
    40
  0
VERTEX
  5
1D10B
330
1D102
100
AcDbEntity
  8
0
100
AcDbVertex
100
AcDb3dPolylineVertex
 10
3668.24245102475
 20
352.1692025663913
 30
0.0
 70
    40
  0
VERTEX
  5
1D10C
330
1D102
100
AcDbEntity
  8
0
100
AcDbVertex
100
AcDb3dPolylineVertex
 10
3668.24245102475
 20
350.5856845764832
 30
0.0
 70
    40
  0
VERTEX
  5
1D10D
330
1D102
100
AcDbEntity
  8
0
100
AcDbVertex
100
AcDb3dPolylineVertex
 10
3668.24245102475
 20
349.0021665865763
 30
0.0
 70
    40
  0
VERTEX
  5
1D10E
330
1D102
100
AcDbEntity
  8
0
100
AcDbVertex
100
AcDb3dPolylineVertex
 10
3668.24245102475
 20
347.4186485966683
 30
0.0
 70
    40
  0
VERTEX
  5
1D10F
330
1D102
100
AcDbEntity
  8
0
100
AcDbVertex
100
AcDb3dPolylineVertex
 10
3668.24245102475
 20
345.8351306067603
 30
0.0
 70
    40
  0
SEQEND
  5
1D110
330
1D102
100
AcDbEntity
  8
0
  0
POLYLINE
  5
1D111
330
1D0D4
100
AcDbEntity
  8
0
100
AcDb3dPolyline
 66
     1
 10
0.0
 20
0.0
 30
0.0
 70
    12
 75
     6
  0
VERTEX
  5
1D112
330
1D111
100
AcDbEntity
  8
0
100
AcDbVertex
100
AcDb3dPolylineVertex
 10
3645.360866366353
 20
366.5032668966272
 30
0.0
 70
    48
  0
VERTEX
  5
1D113
330
1D111
100
AcDbEntity
  8
0
100
AcDbVertex
100
AcDb3dPolylineVertex
 10
3651.400416237557
 20
366.5032668966272
 30
0.0
 70
    48
  0
VERTEX
  5
1D114
330
1D111
100
AcDbEntity
  8
0
100
AcDbVertex
100
AcDb3dPolylineVertex
 10
3657.439966108761
 20
366.5032668966272
 30
0.0
 70
    48
  0
VERTEX
  5
1D115
330
1D111
100
AcDbEntity
  8
0
100
AcDbVertex
100
AcDb3dPolylineVertex
 10
3663.479515979966
 20
366.5032668966272
 30
0.0
 70
    48
  0
VERTEX
  5
1D116
330
1D111
100
AcDbEntity
  8
0
100
AcDbVertex
100
AcDb3dPolylineVertex
 10
3645.360866366353
 20
366.5032668966272
 30
0.0
 70
    40
  0
VERTEX
  5
1D117
330
1D111
100
AcDbEntity
  8
0
100
AcDbVertex
100
AcDb3dPolylineVertex
 10
3647.625697568054
 20
366.5032668966272
 30
0.0
 70
    40
  0
VERTEX
  5
1D118
330
1D111
100
AcDbEntity
  8
0
100
AcDbVertex
100
AcDb3dPolylineVertex
 10
3649.890528769756
 20
366.5032668966272
 30
0.0
 70
    40
  0
VERTEX
  5
1D119
330
1D111
100
AcDbEntity
  8
0
100
AcDbVertex
100
AcDb3dPolylineVertex
 10
3652.155359971458
 20
366.5032668966272
 30
0.0
 70
    40
  0
VERTEX
  5
1D11A
330
1D111
100
AcDbEntity
  8
0
100
AcDbVertex
100
AcDb3dPolylineVertex
 10
3654.420191173159
 20
366.5032668966272
 30
0.0
 70
    40
  0
VERTEX
  5
1D11B
330
1D111
100
AcDbEntity
  8
0
100
AcDbVertex
100
AcDb3dPolylineVertex
 10
3656.685022374861
 20
366.5032668966272
 30
0.0
 70
    40
  0
VERTEX
  5
1D11C
330
1D111
100
AcDbEntity
  8
0
100
AcDbVertex
100
AcDb3dPolylineVertex
 10
3658.949853576562
 20
366.5032668966272
 30
0.0
 70
    40
  0
VERTEX
  5
1D11D
330
1D111
100
AcDbEntity
  8
0
100
AcDbVertex
100
AcDb3dPolylineVertex
 10
3661.214684778264
 20
366.5032668966272
 30
0.0
 70
    40
  0
VERTEX
  5
1D11E
330
1D111
100
AcDbEntity
  8
0
100
AcDbVertex
100
AcDb3dPolylineVertex
 10
3663.479515979966
 20
366.5032668966272
 30
0.0
 70
    40
  0
SEQEND
  5
1D11F
330
1D111
100
AcDbEntity
  8
0
  0
ARC
  5
1D120
330
1D0D4
100
AcDbEntity
  8
0
100
AcDbCircle
 10
3671.360866366352
 20
363.5032792943932
 30
0.0
 40
3.0
100
AcDbArc
 50
0.0
 51
90.0
  0
LINE
  5
1D121
330
1D0D4
100
AcDbEntity
  8
0
100
AcDbLine
 10
3674.360866366352
 20
358.5032745260223
 30
0.0
 11
3674.360866366352
 21
363.5032792943932
 31
0.0
  0
POLYLINE
  5
1D122
330
1D0D4
100
AcDbEntity
  8
0
100
AcDb3dPolyline
 66
     1
 10
0.0
 20
0.0
 30
0.0
 70
    12
 75
     6
  0
VERTEX
  5
1D123
330
1D122
100
AcDbEntity
  8
0
100
AcDbVertex
100
AcDb3dPolylineVertex
 10
3587.760224066886
 20
366.5032588872743
 30
-0.0000000000000711
 70
    48
  0
VERTEX
  5
1D124
330
1D122
100
AcDbEntity
  8
0
100
AcDbVertex
100
AcDb3dPolylineVertex
 10
3587.760224066886
 20
366.5032588872743
 30
-9.560229657688999
 70
    48
  0
VERTEX
  5
1D125
330
1D122
100
AcDbEntity
  8
0
100
AcDbVertex
100
AcDb3dPolylineVertex
 10
3592.318924217483
 20
366.5032588872743
 30
-20.56590538805
 70
    48
  0
VERTEX
  5
1D126
330
1D122
100
AcDbEntity
  8
0
100
AcDbVertex
100
AcDb3dPolylineVertex
 10
3600.588483061489
 20
366.5032588872743
 30
-27.860722425002
 70
    48
  0
VERTEX
  5
1D127
330
1D122
100
AcDbEntity
  8
0
100
AcDbVertex
100
AcDb3dPolylineVertex
 10
3601.7289090447
 20
366.5032588872743
 30
-28.750779351722
 70
    48
  0
VERTEX
  5
1D128
330
1D122
100
AcDbEntity
  8
0
100
AcDbVertex
100
AcDb3dPolylineVertex
 10
3587.760224066886
 20
366.5032588872743
 30
-0.0000000000000711
 70
    40
  0
VERTEX
  5
1D129
330
1D122
100
AcDbEntity
  8
0
100
AcDbVertex
100
AcDb3dPolylineVertex
 10
3588.170232370393
 20
366.5032588872743
 30
-5.359171317752999
 70
    40
  0
VERTEX
  5
1D12A
330
1D122
100
AcDbEntity
  8
0
100
AcDbVertex
100
AcDb3dPolylineVertex
 10
3589.369675289354
 20
366.5032588872743
 30
-10.607595447322
 70
    40
  0
VERTEX
  5
1D12B
330
1D122
100
AcDbEntity
  8
0
100
AcDbVertex
100
AcDb3dPolylineVertex
 10
3591.312679836429
 20
366.5032588872743
 30
-15.634525200524
 70
    40
  0
VERTEX
  5
1D12C
330
1D122
100
AcDbEntity
  8
0
100
AcDbVertex
100
AcDb3dPolylineVertex
 10
3593.953373024275
 20
366.5032588872743
 30
-20.32921338917499
 70
    40
  0
VERTEX
  5
1D12D
330
1D122
100
AcDbEntity
  8
0
100
AcDbVertex
100
AcDb3dPolylineVertex
 10
3597.245881865555
 20
366.5032588872743
 30
-24.580912825093
 70
    40
  0
VERTEX
  5
1D12E
330
1D122
100
AcDbEntity
  8
0
100
AcDbVertex
100
AcDb3dPolylineVertex
 10
3599.857735325686
 20
366.5032588872743
 30
-27.184957557836
 70
    40
  0
VERTEX
  5
1D12F
330
1D122
100
AcDbEntity
  8
0
100
AcDbVertex
100
AcDb3dPolylineVertex
 10
3601.7289090447
 20
366.5032588872743
 30
-28.750779351722
 70
    40
  0
SEQEND
  5
1D130
330
1D122
100
AcDbEntity
  8
0
  0
POLYLINE
  5
1D131
330
1D0D4
100
AcDbEntity
  8
0
100
AcDb3dPolyline
 66
     1
 10
0.0
 20
0.0
 30
0.0
 70
    12
 75
     6
  0
VERTEX
  5
1D132
330
1D131
100
AcDbEntity
  8
0
100
AcDbVertex
100
AcDb3dPolylineVertex
 10
3580.479284583057
 20
358.5032745260223
 30
0.0
 70
    48
  0
VERTEX
  5
1D133
330
1D131
100
AcDbEntity
  8
0
100
AcDbVertex
100
AcDb3dPolylineVertex
 10
3580.479284583057
 20
354.2805598862682
 30
0.0
 70
    48
  0
VERTEX
  5
1D134
330
1D131
100
AcDbEntity
  8
0
100
AcDbVertex
100
AcDb3dPolylineVertex
 10
3580.479284583057
 20
350.0578452465142
 30
0.0
 70
    48
  0
VERTEX
  5
1D135
330
1D131
100
AcDbEntity
  8
0
100
AcDbVertex
100
AcDb3dPolylineVertex
 10
3580.479284583057
 20
345.8351306067603
 30
0.0
 70
    48
  0
VERTEX
  5
1D136
330
1D131
100
AcDbEntity
  8
0
100
AcDbVertex
100
AcDb3dPolylineVertex
 10
3580.479284583057
 20
358.5032745260223
 30
0.0
 70
    40
  0
VERTEX
  5
1D137
330
1D131
100
AcDbEntity
  8
0
100
AcDbVertex
100
AcDb3dPolylineVertex
 10
3580.479284583057
 20
356.9197565361142
 30
0.0
 70
    40
  0
VERTEX
  5
1D138
330
1D131
100
AcDbEntity
  8
0
100
AcDbVertex
100
AcDb3dPolylineVertex
 10
3580.479284583057
 20
355.3362385462063
 30
0.0
 70
    40
  0
VERTEX
  5
1D139
330
1D131
100
AcDbEntity
  8
0
100
AcDbVertex
100
AcDb3dPolylineVertex
 10
3580.479284583057
 20
353.7527205562992
 30
0.0
 70
    40
  0
VERTEX
  5
1D13A
330
1D131
100
AcDbEntity
  8
0
100
AcDbVertex
100
AcDb3dPolylineVertex
 10
3580.479284583057
 20
352.1692025663913
 30
0.0
 70
    40
  0
VERTEX
  5
1D13B
330
1D131
100
AcDbEntity
  8
0
100
AcDbVertex
100
AcDb3dPolylineVertex
 10
3580.479284583057
 20
350.5856845764832
 30
0.0
 70
    40
  0
VERTEX
  5
1D13C
330
1D131
100
AcDbEntity
  8
0
100
AcDbVertex
100
AcDb3dPolylineVertex
 10
3580.479284583057
 20
349.0021665865763
 30
0.0
 70
    40
  0
VERTEX
  5
1D13D
330
1D131
100
AcDbEntity
  8
0
100
AcDbVertex
100
AcDb3dPolylineVertex
 10
3580.479284583057
 20
347.4186485966683
 30
0.0
 70
    40
  0
VERTEX
  5
1D13E
330
1D131
100
AcDbEntity
  8
0
100
AcDbVertex
100
AcDb3dPolylineVertex
 10
3580.479284583057
 20
345.8351306067603
 30
0.0
 70
    40
  0
SEQEND
  5
1D13F
330
1D131
100
AcDbEntity
  8
0
  0
ARC
  5
1D140
330
1D0D4
100
AcDbEntity
  8
0
100
AcDbCircle
 10
3577.360866366353
 20
363.5032792943932
 30
0.0
 40
3.0
100
AcDbArc
 50
90.0
 51
180.0
  0
LINE
  5
1D141
330
1D0D4
100
AcDbEntity
  8
0
100
AcDbLine
 10
3574.360866366353
 20
358.5032745260223
 30
0.0
 11
3574.360866366353
 21
363.5032792943932
 31
0.0
  0
POLYLINE
  5
1D142
330
1D0D4
100
AcDbEntity
  8
0
100
AcDb3dPolyline
 66
     1
 10
0.0
 20
0.0
 30
0.0
 70
    12
 75
     6
  0
VERTEX
  5
1D143
330
1D142
100
AcDbEntity
  8
0
100
AcDbVertex
100
AcDb3dPolylineVertex
 10
3585.979284583057
 20
358.5032745260223
 30
0.0
 70
    48
  0
VERTEX
  5
1D144
330
1D142
100
AcDbEntity
  8
0
100
AcDbVertex
100
AcDb3dPolylineVertex
 10
3585.979284583057
 20
354.2805614757253
 30
0.0
 70
    48
  0
VERTEX
  5
1D145
330
1D142
100
AcDbEntity
  8
0
100
AcDbVertex
100
AcDb3dPolylineVertex
 10
3585.979284583057
 20
350.0578484254282
 30
0.0
 70
    48
  0
VERTEX
  5
1D146
330
1D142
100
AcDbEntity
  8
0
100
AcDbVertex
100
AcDb3dPolylineVertex
 10
3585.979284583057
 20
345.8351353751313
 30
0.0
 70
    48
  0
VERTEX
  5
1D147
330
1D142
100
AcDbEntity
  8
0
100
AcDbVertex
100
AcDb3dPolylineVertex
 10
3585.979284583057
 20
358.5032745260223
 30
0.0
 70
    40
  0
VERTEX
  5
1D148
330
1D142
100
AcDbEntity
  8
0
100
AcDbVertex
100
AcDb3dPolylineVertex
 10
3585.979284583057
 20
356.9197571321603
 30
0.0
 70
    40
  0
VERTEX
  5
1D149
330
1D142
100
AcDbEntity
  8
0
100
AcDbVertex
100
AcDb3dPolylineVertex
 10
3585.979284583057
 20
355.3362397382993
 30
0.0
 70
    40
  0
VERTEX
  5
1D14A
330
1D142
100
AcDbEntity
  8
0
100
AcDbVertex
100
AcDb3dPolylineVertex
 10
3585.979284583057
 20
353.7527223444383
 30
0.0
 70
    40
  0
VERTEX
  5
1D14B
330
1D142
100
AcDbEntity
  8
0
100
AcDbVertex
100
AcDb3dPolylineVertex
 10
3585.979284583057
 20
352.1692049505773
 30
0.0
 70
    40
  0
VERTEX
  5
1D14C
330
1D142
100
AcDbEntity
  8
0
100
AcDbVertex
100
AcDb3dPolylineVertex
 10
3585.979284583057
 20
350.5856875567152
 30
0.0
 70
    40
  0
VERTEX
  5
1D14D
330
1D142
100
AcDbEntity
  8
0
100
AcDbVertex
100
AcDb3dPolylineVertex
 10
3585.979284583057
 20
349.0021701628543
 30
0.0
 70
    40
  0
VERTEX
  5
1D14E
330
1D142
100
AcDbEntity
  8
0
100
AcDbVertex
100
AcDb3dPolylineVertex
 10
3585.979284583057
 20
347.4186527689922
 30
0.0
 70
    40
  0
VERTEX
  5
1D14F
330
1D142
100
AcDbEntity
  8
0
100
AcDbVertex
100
AcDb3dPolylineVertex
 10
3585.979284583057
 20
345.8351353751313
 30
0.0
 70
    40
  0
SEQEND
  5
1D150
330
1D142
100
AcDbEntity
  8
0
  0
POLYLINE
  5
1D151
330
1D0D4
100
AcDbEntity
  8
0
100
AcDb3dPolyline
 66
     1
 10
0.0
 20
0.0
 30
0.0
 70
    12
 75
     6
  0
VERTEX
  5
1D152
330
1D151
100
AcDbEntity
  8
0
100
AcDbVertex
100
AcDb3dPolylineVertex
 10
3580.479302709909
 20
345.8351353751313
 30
0.0
 70
    48
  0
VERTEX
  5
1D153
330
1D151
100
AcDbEntity
  8
0
100
AcDbVertex
100
AcDb3dPolylineVertex
 10
3582.312636043242
 20
345.8351353751313
 30
0.0
 70
    48
  0
VERTEX
  5
1D154
330
1D151
100
AcDbEntity
  8
0
100
AcDbVertex
100
AcDb3dPolylineVertex
 10
3584.145969376576
 20
345.8351353751313
 30
0.0
 70
    48
  0
VERTEX
  5
1D155
330
1D151
100
AcDbEntity
  8
0
100
AcDbVertex
100
AcDb3dPolylineVertex
 10
3585.979302709909
 20
345.8351353751313
 30
0.0
 70
    48
  0
VERTEX
  5
1D156
330
1D151
100
AcDbEntity
  8
0
100
AcDbVertex
100
AcDb3dPolylineVertex
 10
3580.479302709909
 20
345.8351353751313
 30
0.0
 70
    40
  0
VERTEX
  5
1D157
330
1D151
100
AcDbEntity
  8
0
100
AcDbVertex
100
AcDb3dPolylineVertex
 10
3581.166802709909
 20
345.8351353751313
 30
0.0
 70
    40
  0
VERTEX
  5
1D158
330
1D151
100
AcDbEntity
  8
0
100
AcDbVertex
100
AcDb3dPolylineVertex
 10
3581.854302709909
 20
345.8351353751313
 30
0.0
 70
    40
  0
VERTEX
  5
1D159
330
1D151
100
AcDbEntity
  8
0
100
AcDbVertex
100
AcDb3dPolylineVertex
 10
3582.54180270991
 20
345.8351353751313
 30
0.0
 70
    40
  0
VERTEX
  5
1D15A
330
1D151
100
AcDbEntity
  8
0
100
AcDbVertex
100
AcDb3dPolylineVertex
 10
3583.229302709909
 20
345.8351353751313
 30
0.0
 70
    40
  0
VERTEX
  5
1D15B
330
1D151
100
AcDbEntity
  8
0
100
AcDbVertex
100
AcDb3dPolylineVertex
 10
3583.916802709909
 20
345.8351353751313
 30
0.0
 70
    40
  0
VERTEX
  5
1D15C
330
1D151
100
AcDbEntity
  8
0
100
AcDbVertex
100
AcDb3dPolylineVertex
 10
3584.604302709909
 20
345.8351353751313
 30
0.0
 70
    40
  0
VERTEX
  5
1D15D
330
1D151
100
AcDbEntity
  8
0
100
AcDbVertex
100
AcDb3dPolylineVertex
 10
3585.291802709909
 20
345.8351353751313
 30
0.0
 70
    40
  0
VERTEX
  5
1D15E
330
1D151
100
AcDbEntity
  8
0
100
AcDbVertex
100
AcDb3dPolylineVertex
 10
3585.979302709909
 20
345.8351353751313
 30
0.0
 70
    40
  0
SEQEND
  5
1D15F
330
1D151
100
AcDbEntity
  8
0
  0
POLYLINE
  5
1D160
330
1D0D4
100
AcDbEntity
  8
0
100
AcDb3dPolyline
 66
     1
 10
0.0
 20
0.0
 30
0.0
 70
    12
 75
     6
  0
VERTEX
  5
1D161
330
1D160
100
AcDbEntity
  8
0
100
AcDbVertex
100
AcDb3dPolylineVertex
 10
3668.242432897897
 20
345.8351353751313
 30
0.0
 70
    48
  0
VERTEX
  5
1D162
330
1D160
100
AcDbEntity
  8
0
100
AcDbVertex
100
AcDb3dPolylineVertex
 10
3666.409099564565
 20
345.8351353751313
 30
0.0
 70
    48
  0
VERTEX
  5
1D163
330
1D160
100
AcDbEntity
  8
0
100
AcDbVertex
100
AcDb3dPolylineVertex
 10
3664.57576623123
 20
345.8351353751313
 30
0.0
 70
    48
  0
VERTEX
  5
1D164
330
1D160
100
AcDbEntity
  8
0
100
AcDbVertex
100
AcDb3dPolylineVertex
 10
3662.742432897897
 20
345.8351353751313
 30
0.0
 70
    48
  0
VERTEX
  5
1D165
330
1D160
100
AcDbEntity
  8
0
100
AcDbVertex
100
AcDb3dPolylineVertex
 10
3668.242432897897
 20
345.8351353751313
 30
0.0
 70
    40
  0
VERTEX
  5
1D166
330
1D160
100
AcDbEntity
  8
0
100
AcDbVertex
100
AcDb3dPolylineVertex
 10
3667.554932897898
 20
345.8351353751313
 30
0.0
 70
    40
  0
VERTEX
  5
1D167
330
1D160
100
AcDbEntity
  8
0
100
AcDbVertex
100
AcDb3dPolylineVertex
 10
3666.867432897898
 20
345.8351353751313
 30
0.0
 70
    40
  0
VERTEX
  5
1D168
330
1D160
100
AcDbEntity
  8
0
100
AcDbVertex
100
AcDb3dPolylineVertex
 10
3666.179932897898
 20
345.8351353751313
 30
0.0
 70
    40
  0
VERTEX
  5
1D169
330
1D160
100
AcDbEntity
  8
0
100
AcDbVertex
100
AcDb3dPolylineVertex
 10
3665.492432897897
 20
345.8351353751313
 30
0.0
 70
    40
  0
VERTEX
  5
1D16A
330
1D160
100
AcDbEntity
  8
0
100
AcDbVertex
100
AcDb3dPolylineVertex
 10
3664.804932897897
 20
345.8351353751313
 30
0.0
 70
    40
  0
VERTEX
  5
1D16B
330
1D160
100
AcDbEntity
  8
0
100
AcDbVertex
100
AcDb3dPolylineVertex
 10
3664.117432897898
 20
345.8351353751313
 30
0.0
 70
    40
  0
VERTEX
  5
1D16C
330
1D160
100
AcDbEntity
  8
0
100
AcDbVertex
100
AcDb3dPolylineVertex
 10
3663.429932897897
 20
345.8351353751313
 30
0.0
 70
    40
  0
VERTEX
  5
1D16D
330
1D160
100
AcDbEntity
  8
0
100
AcDbVertex
100
AcDb3dPolylineVertex
 10
3662.742432897897
 20
345.8351353751313
 30
0.0
 70
    40
  0
SEQEND
  5
1D16E
330
1D160
100
AcDbEntity
  8
0
  0
ENDBLK
  5
1D170
330
1D0D4
100
AcDbEntity
  8
0
100
AcDbBlockEnd
  0
BLOCK
  5
1E47E
330
1E472
100
AcDbEntity
  8
0
100
AcDbBlockBegin
  2
*D4
 70
     1
 10
0.0
 20
0.0
 30
0.0
  3
*D4
  1

  0
LINE
  5
1E4EB
330
1E472
100
AcDbEntity
  8
KERA4
 62
     0
370
    -2
100
AcDbLine
 10
2564.445534749728
 20
1408.852300009377
 30
0.0
 11
2846.43421417772
 21
1408.852300009377
 31
0.0
  0
LINE
  5
1E4EC
330
1E472
100
AcDbEntity
  8
KERA4
 62
     0
370
    -2
100
AcDbLine
 10
2390.766937793731
 20
1254.428404501369
 30
0.0
 11
2846.43421417772
 21
1254.428404501369
 31
0.0
  0
LINE
  5
1E4ED
330
1E472
100
AcDbEntity
  8
KERA4
 62
     0
370
    -2
100
AcDbLine
 10
2831.43421417772
 20
1448.852300009377
 30
0.0
 11
2831.43421417772
 21
1488.852300009377
 31
0.0
  0
LINE
  5
1E4EE
330
1E472
100
AcDbEntity
  8
KERA4
 62
     0
370
    -2
100
AcDbLine
 10
2831.43421417772
 20
1214.428404501369
 30
0.0
 11
2831.43421417772
 21
1174.428404501368
 31
0.0
  0
SOLID
  5
1E4EF
330
1E472
100
AcDbEntity
  8
KERA4
 62
     0
100
AcDbTrace
 10
2824.767547511053
 20
1448.852300009377
 30
0.0
 11
2838.100880844386
 21
1448.852300009377
 31
0.0
 12
2831.43421417772
 22
1408.852300009377
 32
0.0
 13
2831.43421417772
 23
1408.852300009377
 33
0.0
  0
SOLID
  5
1E4F0
330
1E472
100
AcDbEntity
  8
KERA4
 62
     0
100
AcDbTrace
 10
2824.767547511053
 20
1214.428404501369
 30
0.0
 11
2838.100880844386
 21
1214.428404501369
 31
0.0
 12
2831.43421417772
 22
1254.428404501369
 32
0.0
 13
2831.43421417772
 23
1254.428404501369
 33
0.0
  0
MTEXT
  5
1E4F1
330
1E472
100
AcDbEntity
  8
KERA4
 62
     0
100
AcDbMText
 10
2831.434214177719
 20
1324.28993823177
 30
0.0
 40
45.0
 41
0.0
 71
     5
 72
     1
  1
\A1;150
 73
     1
 44
1.0
  0
POINT
  5
1E4F2
330
1E472
100
AcDbEntity
  8
Defpoints
 62
     0
100
AcDbPoint
 10
2544.445534749728
 20
1408.852300009377
 30
0.0
  0
POINT
  5
1E4F3
330
1E472
100
AcDbEntity
  8
Defpoints
 62
     0
100
AcDbPoint
 10
2370.766937793731
 20
1254.428404501369
 30
0.0
  0
POINT
  5
1E4F4
330
1E472
100
AcDbEntity
  8
Defpoints
 62
     0
100
AcDbPoint
 10
2831.43421417772
 20
1254.428404501369
 30
0.0
  0
ENDBLK
  5
1E47F
330
1E472
100
AcDbEntity
  8
0
100
AcDbBlockEnd
  0
BLOCK
  5
1E60B
330
1E600
100
AcDbEntity
  8
0
100
AcDbBlockBegin
  2
*D5
 70
     1
 10
0.0
 20
0.0
 30
0.0
  3
*D5
  1

  0
LINE
  5
1E617
330
1E600
100
AcDbEntity
  8
KERA4
 62
     0
370
    -2
100
AcDbLine
 10
2280.745537212517
 20
503.2454147237728
 30
0.0
 11
2280.745537212517
 21
792.2684037987628
 31
0.0
  0
LINE
  5
1E618
330
1E600
100
AcDbEntity
  8
KERA4
 62
     0
370
    -2
100
AcDbLine
 10
2380.745537212516
 20
503.2454147237728
 30
0.0
 11
2380.745537212516
 21
792.2684037987628
 31
0.0
  0
LINE
  5
1E619
330
1E600
100
AcDbEntity
  8
KERA4
 62
     0
370
    -2
100
AcDbLine
 10
2240.745537212517
 20
777.2684037987628
 30
0.0
 11
2200.745537212517
 21
777.2684037987628
 31
0.0
  0
LINE
  5
1E61A
330
1E600
100
AcDbEntity
  8
KERA4
 62
     0
370
    -2
100
AcDbLine
 10
2420.745537212516
 20
777.2684037987628
 30
0.0
 11
2460.745537212517
 21
777.2684037987628
 31
0.0
  0
SOLID
  5
1E61B
330
1E600
100
AcDbEntity
  8
KERA4
 62
     0
100
AcDbTrace
 10
2240.745537212517
 20
783.9350704654294
 30
0.0
 11
2240.745537212517
 21
770.6017371320962
 31
0.0
 12
2280.745537212517
 22
777.2684037987628
 32
0.0
 13
2280.745537212517
 23
777.2684037987628
 33
0.0
  0
SOLID
  5
1E61C
330
1E600
100
AcDbEntity
  8
KERA4
 62
     0
100
AcDbTrace
 10
2420.745537212516
 20
783.9350704654294
 30
0.0
 11
2420.745537212516
 21
770.6017371320962
 31
0.0
 12
2380.745537212516
 22
777.2684037987628
 32
0.0
 13
2380.745537212516
 23
777.2684037987628
 33
0.0
  0
MTEXT
  5
1E61D
330
1E600
100
AcDbEntity
  8
KERA4
 62
     0
100
AcDbMText
 10
2330.745537212516
 20
777.2684037987628
 30
0.0
 40
45.0
 41
0.0
 71
     5
 72
     1
  1
\A1;100
 73
     1
 44
1.0
  0
POINT
  5
1E61E
330
1E600
100
AcDbEntity
  8
Defpoints
 62
     0
100
AcDbPoint
 10
2280.745537212517
 20
483.2454147237728
 30
0.0
  0
POINT
  5
1E61F
330
1E600
100
AcDbEntity
  8
Defpoints
 62
     0
100
AcDbPoint
 10
2380.745537212516
 20
483.2454147237728
 30
0.0
  0
POINT
  5
1E620
330
1E600
100
AcDbEntity
  8
Defpoints
 62
     0
100
AcDbPoint
 10
2380.745537212516
 20
777.2684037987628
 30
0.0
  0
ENDBLK
  5
1E60C
330
1E600
100
AcDbEntity
  8
0
100
AcDbBlockEnd
  0
ENDSEC
  0
SECTION
  2
ENTITIES
  0
MTEXT
  5
3441
330
1E
100
AcDbEntity
  8
KERA4
100
AcDbMText
 10
1901.988948390646
 20
-33.71245194653784
 30
0.0
 40
45.0
 41
0.0
 71
     1
 72
     5
  1
Washtop Design - Zeichnung\PUnterbauwaschtisch R \U+2205 380 mm,\PMod.-Nr. VSA_UBS38_WA _T\P08.05.08/Th                                            \P{\Ftxt.shx;        }
 73
     1
 44
1.0
  0
POLYLINE
  5
1C261
330
1E
100
AcDbEntity
  8
KERA0
100
AcDb3dPolyline
 66
     1
 10
0.0
 20
0.0
 30
0.0
 70
    12
 75
     6
  0
VERTEX
  5
1C262
330
1C261
100
AcDbEntity
  8
KERA0
100
AcDbVertex
100
AcDb3dPolylineVertex
 10
2117.045539675305
 20
1408.852300009377
 30
0.0
 70
    48
  0
VERTEX
  5
1E51C
330
1C261
100
AcDbEntity
  8
KERA0
100
AcDbVertex
100
AcDb3dPolylineVertex
 10
2117.045539675305
 20
1408.852300009377
 30
0.0
 70
    40
  0
VERTEX
  5
1E51D
330
1C261
100
AcDbEntity
  8
KERA0
100
AcDbVertex
100
AcDb3dPolylineVertex
 10
2143.758039367456
 20
1408.852300009377
 30
0.0
 70
    40
  0
VERTEX
  5
1E51E
330
1C261
100
AcDbEntity
  8
KERA0
100
AcDbVertex
100
AcDb3dPolylineVertex
 10
2170.470539059607
 20
1408.852300009377
 30
0.0
 70
    40
  0
VERTEX
  5
1E51F
330
1C261
100
AcDbEntity
  8
KERA0
100
AcDbVertex
100
AcDb3dPolylineVertex
 10
2197.183038751759
 20
1408.852300009377
 30
0.0
 70
    40
  0
VERTEX
  5
1E520
330
1C261
100
AcDbEntity
  8
KERA0
100
AcDbVertex
100
AcDb3dPolylineVertex
 10
2223.89553844391
 20
1408.852300009377
 30
0.0
 70
    40
  0
VERTEX
  5
1E521
330
1C261
100
AcDbEntity
  8
KERA0
100
AcDbVertex
100
AcDb3dPolylineVertex
 10
2250.608038136062
 20
1408.852300009377
 30
0.0
 70
    40
  0
VERTEX
  5
1E522
330
1C261
100
AcDbEntity
  8
KERA0
100
AcDbVertex
100
AcDb3dPolylineVertex
 10
2277.320537828214
 20
1408.852300009377
 30
0.0
 70
    40
  0
VERTEX
  5
1E523
330
1C261
100
AcDbEntity
  8
KERA0
100
AcDbVertex
100
AcDb3dPolylineVertex
 10
2304.033037520366
 20
1408.852300009377
 30
0.0
 70
    40
  0
VERTEX
  5
1E524
330
1C261
100
AcDbEntity
  8
KERA0
100
AcDbVertex
100
AcDb3dPolylineVertex
 10
2330.745537212517
 20
1408.852300009377
 30
0.0
 70
    40
  0
VERTEX
  5
1C263
330
1C261
100
AcDbEntity
  8
KERA0
100
AcDbVertex
100
AcDb3dPolylineVertex
 10
2188.278872187708
 20
1408.852300009377
 30
0.0
 70
    48
  0
VERTEX
  5
1C264
330
1C261
100
AcDbEntity
  8
KERA0
100
AcDbVertex
100
AcDb3dPolylineVertex
 10
2259.512204700112
 20
1408.852300009377
 30
0.0
 70
    48
  0
VERTEX
  5
1C265
330
1C261
100
AcDbEntity
  8
KERA0
100
AcDbVertex
100
AcDb3dPolylineVertex
 10
2330.745537212516
 20
1408.852300009377
 30
0.0
 70
    48
  0
SEQEND
  5
1C26F
330
1C261
100
AcDbEntity
  8
KERA0
  0
POLYLINE
  5
1C270
330
1E
100
AcDbEntity
  8
KERA0
100
AcDb3dPolyline
 66
     1
 10
0.0
 20
0.0
 30
0.0
 70
    12
 75
     6
  0
VERTEX
  5
1C271
330
1C270
100
AcDbEntity
  8
KERA0
100
AcDbVertex
100
AcDb3dPolylineVertex
 10
2258.07801967388
 20
1287.814590433599
 30
-0.0049427267150164
 70
    48
  0
VERTEX
  5
1D9D0
330
1C270
100
AcDbEntity
  8
KERA0
100
AcDbVertex
100
AcDb3dPolylineVertex
 10
2258.07801967388
 20
1287.814590433599
 30
-0.0049427267150164
 70
    40
  0
VERTEX
  5
1D9D1
330
1C270
100
AcDbEntity
  8
KERA0
100
AcDbVertex
100
AcDb3dPolylineVertex
 10
2249.276055637771
 20
1289.070267944335
 30
-0.0033112407485364
 70
    40
  0
VERTEX
  5
1D9D2
330
1C270
100
AcDbEntity
  8
KERA0
100
AcDbVertex
100
AcDb3dPolylineVertex
 10
2239.083788894043
 20
1290.107570871749
 30
-0.0020852128328975
 70
    40
  0
VERTEX
  5
1D9D3
330
1C270
100
AcDbEntity
  8
KERA0
100
AcDbVertex
100
AcDb3dPolylineVertex
 10
2227.699834115213
 20
1290.957695584886
 30
-0.0012067203894083
 70
    40
  0
VERTEX
  5
1D9D4
330
1C270
100
AcDbEntity
  8
KERA0
100
AcDbVertex
100
AcDb3dPolylineVertex
 10
2215.322805973797
 20
1291.651838452792
 30
-0.0006178408393771
 70
    40
  0
VERTEX
  5
1D9D5
330
1C270
100
AcDbEntity
  8
KERA0
100
AcDbVertex
100
AcDb3dPolylineVertex
 10
2202.151319142314
 20
1292.221195844514
 30
-0.0002606516041122
 70
    40
  0
VERTEX
  5
1D9D6
330
1C270
100
AcDbEntity
  8
KERA0
100
AcDbVertex
100
AcDb3dPolylineVertex
 10
2188.38398829328
 20
1292.696964129097
 30
-0.0000772301049221
 70
    40
  0
VERTEX
  5
1D9D7
330
1C270
100
AcDbEntity
  8
KERA0
100
AcDbVertex
100
AcDb3dPolylineVertex
 10
2174.219428099211
 20
1293.110339675588
 30
-0.0000096537631153
 70
    40
  0
VERTEX
  5
1D9D8
330
1C270
100
AcDbEntity
  8
KERA0
100
AcDbVertex
100
AcDb3dPolylineVertex
 10
2159.856253232625
 20
1293.492518853033
 30
0.0
 70
    40
  0
VERTEX
  5
1C272
330
1C270
100
AcDbEntity
  8
KERA0
100
AcDbVertex
100
AcDb3dPolylineVertex
 10
2236.636398896652
 20
1291.481960012478
 30
0.0
 70
    48
  0
VERTEX
  5
1C273
330
1C270
100
AcDbEntity
  8
KERA0
100
AcDbVertex
100
AcDb3dPolylineVertex
 10
2198.24632606464
 20
1292.487239432756
 30
0.0
 70
    48
  0
VERTEX
  5
1C274
330
1C270
100
AcDbEntity
  8
KERA0
100
AcDbVertex
100
AcDb3dPolylineVertex
 10
2159.856253232626
 20
1293.492518853034
 30
0.0
 70
    48
  0
SEQEND
  5
1C27E
330
1C270
100
AcDbEntity
  8
KERA0
  0
POLYLINE
  5
1C28E
330
1E
100
AcDbEntity
  8
KERA0
100
AcDb3dPolyline
 66
     1
 10
0.0
 20
0.0
 30
0.0
 70
    12
 75
     6
  0
VERTEX
  5
1C28F
330
1C28E
100
AcDbEntity
  8
KERA0
100
AcDbVertex
100
AcDb3dPolylineVertex
 10
2130.335937169049
 20
1395.349818645587
 30
0.0
 70
    48
  0
VERTEX
  5
1E537
330
1C28E
100
AcDbEntity
  8
KERA0
100
AcDbVertex
100
AcDb3dPolylineVertex
 10
2130.335937169049
 20
1395.349818645587
 30
0.0
 70
    40
  0
VERTEX
  5
1E538
330
1C28E
100
AcDbEntity
  8
KERA0
100
AcDbVertex
100
AcDb3dPolylineVertex
 10
2131.36161105997
 20
1385.093080592264
 30
0.0
 70
    40
  0
VERTEX
  5
1E539
330
1C28E
100
AcDbEntity
  8
KERA0
100
AcDbVertex
100
AcDb3dPolylineVertex
 10
2132.387284950891
 20
1374.836342538942
 30
0.0
 70
    40
  0
VERTEX
  5
1E53A
330
1C28E
100
AcDbEntity
  8
KERA0
100
AcDbVertex
100
AcDb3dPolylineVertex
 10
2133.412958841812
 20
1364.579604485619
 30
0.0
 70
    40
  0
VERTEX
  5
1E53B
330
1C28E
100
AcDbEntity
  8
KERA0
100
AcDbVertex
100
AcDb3dPolylineVertex
 10
2134.438632732734
 20
1354.322866432297
 30
0.0
 70
    40
  0
VERTEX
  5
1E53C
330
1C28E
100
AcDbEntity
  8
KERA0
100
AcDbVertex
100
AcDb3dPolylineVertex
 10
2135.464306623654
 20
1344.066128378974
 30
0.0
 70
    40
  0
VERTEX
  5
1E53D
330
1C28E
100
AcDbEntity
  8
KERA0
100
AcDbVertex
100
AcDb3dPolylineVertex
 10
2136.489980514576
 20
1333.809390325652
 30
0.0
 70
    40
  0
VERTEX
  5
1E53E
330
1C28E
100
AcDbEntity
  8
KERA0
100
AcDbVertex
100
AcDb3dPolylineVertex
 10
2137.515654405496
 20
1323.552652272329
 30
0.0
 70
    40
  0
VERTEX
  5
1E53F
330
1C28E
100
AcDbEntity
  8
KERA0
100
AcDbVertex
100
AcDb3dPolylineVertex
 10
2138.541328296418
 20
1313.295914219007
 30
0.0
 70
    40
  0
VERTEX
  5
1C290
330
1C28E
100
AcDbEntity
  8
KERA0
100
AcDbVertex
100
AcDb3dPolylineVertex
 10
2133.071067544839
 20
1367.99851717006
 30
0.0
 70
    48
  0
VERTEX
  5
1C291
330
1C28E
100
AcDbEntity
  8
KERA0
100
AcDbVertex
100
AcDb3dPolylineVertex
 10
2135.806197920627
 20
1340.647215694534
 30
0.0
 70
    48
  0
VERTEX
  5
1C292
330
1C28E
100
AcDbEntity
  8
KERA0
100
AcDbVertex
100
AcDb3dPolylineVertex
 10
2138.541328296417
 20
1313.295914219007
 30
0.0
 70
    48
  0
SEQEND
  5
1C29C
330
1C28E
100
AcDbEntity
  8
KERA0
  0
ARC
  5
1C2AC
330
1E
100
AcDbEntity
  8
KERA0
100
AcDbCircle
 10
2160.432150729691
 20
1315.484999136577
 30
0.0
 40
22.0
100
AcDbArc
 50
185.7105936108807
 51
268.5000000000103
  0
POLYLINE
  5
1C2AE
330
1E
100
AcDbEntity
  8
KERA0
100
AcDb3dPolyline
 66
     1
 10
0.0
 20
0.0
 30
0.0
 70
    12
 75
     6
  0
VERTEX
  5
1C2AF
330
1C2AE
100
AcDbEntity
  8
KERA0
100
AcDbVertex
100
AcDb3dPolylineVertex
 10
2117.045539675305
 20
1399.852300009377
 30
0.0
 70
    48
  0
VERTEX
  5
1E52E
330
1C2AE
100
AcDbEntity
  8
KERA0
100
AcDbVertex
100
AcDb3dPolylineVertex
 10
2117.045539675305
 20
1399.852300009377
 30
0.0
 70
    40
  0
VERTEX
  5
1E52F
330
1C2AE
100
AcDbEntity
  8
KERA0
100
AcDbVertex
100
AcDb3dPolylineVertex
 10
2117.045539675305
 20
1400.977300009377
 30
0.0
 70
    40
  0
VERTEX
  5
1E530
330
1C2AE
100
AcDbEntity
  8
KERA0
100
AcDbVertex
100
AcDb3dPolylineVertex
 10
2117.045539675305
 20
1402.102300009377
 30
0.0
 70
    40
  0
VERTEX
  5
1E531
330
1C2AE
100
AcDbEntity
  8
KERA0
100
AcDbVertex
100
AcDb3dPolylineVertex
 10
2117.045539675305
 20
1403.227300009377
 30
0.0
 70
    40
  0
VERTEX
  5
1E532
330
1C2AE
100
AcDbEntity
  8
KERA0
100
AcDbVertex
100
AcDb3dPolylineVertex
 10
2117.045539675305
 20
1404.352300009377
 30
0.0
 70
    40
  0
VERTEX
  5
1E533
330
1C2AE
100
AcDbEntity
  8
KERA0
100
AcDbVertex
100
AcDb3dPolylineVertex
 10
2117.045539675305
 20
1405.477300009377
 30
0.0
 70
    40
  0
VERTEX
  5
1E534
330
1C2AE
100
AcDbEntity
  8
KERA0
100
AcDbVertex
100
AcDb3dPolylineVertex
 10
2117.045539675305
 20
1406.602300009377
 30
0.0
 70
    40
  0
VERTEX
  5
1E535
330
1C2AE
100
AcDbEntity
  8
KERA0
100
AcDbVertex
100
AcDb3dPolylineVertex
 10
2117.045539675305
 20
1407.727300009377
 30
0.0
 70
    40
  0
VERTEX
  5
1E536
330
1C2AE
100
AcDbEntity
  8
KERA0
100
AcDbVertex
100
AcDb3dPolylineVertex
 10
2117.045539675305
 20
1408.852300009377
 30
0.0
 70
    40
  0
VERTEX
  5
1C2B0
330
1C2AE
100
AcDbEntity
  8
KERA0
100
AcDbVertex
100
AcDb3dPolylineVertex
 10
2117.045539675305
 20
1402.852300009377
 30
0.0
 70
    48
  0
VERTEX
  5
1C2B1
330
1C2AE
100
AcDbEntity
  8
KERA0
100
AcDbVertex
100
AcDb3dPolylineVertex
 10
2117.045539675305
 20
1405.852300009377
 30
0.0
 70
    48
  0
VERTEX
  5
1C2B2
330
1C2AE
100
AcDbEntity
  8
KERA0
100
AcDbVertex
100
AcDb3dPolylineVertex
 10
2117.045539675305
 20
1408.852300009377
 30
0.0
 70
    48
  0
SEQEND
  5
1C2BC
330
1C2AE
100
AcDbEntity
  8
KERA0
  0
POLYLINE
  5
1C2BD
330
1E
100
AcDbEntity
  8
KERA0
100
AcDb3dPolyline
 66
     1
 10
0.0
 20
0.0
 30
0.0
 70
    12
 75
     6
  0
VERTEX
  5
1C2BE
330
1C2BD
100
AcDbEntity
  8
KERA0
100
AcDbVertex
100
AcDb3dPolylineVertex
 10
2117.045539675305
 20
1399.852300009377
 30
0.0
 70
    48
  0
VERTEX
  5
1E525
330
1C2BD
100
AcDbEntity
  8
KERA0
100
AcDbVertex
100
AcDb3dPolylineVertex
 10
2117.045539675305
 20
1399.852300009377
 30
0.0
 70
    40
  0
VERTEX
  5
1E526
330
1C2BD
100
AcDbEntity
  8
KERA0
100
AcDbVertex
100
AcDb3dPolylineVertex
 10
2118.084941118655
 20
1399.852300009377
 30
0.0
 70
    40
  0
VERTEX
  5
1E527
330
1C2BD
100
AcDbEntity
  8
KERA0
100
AcDbVertex
100
AcDb3dPolylineVertex
 10
2119.124342562006
 20
1399.852300009377
 30
0.0
 70
    40
  0
VERTEX
  5
1E528
330
1C2BD
100
AcDbEntity
  8
KERA0
100
AcDbVertex
100
AcDb3dPolylineVertex
 10
2120.163744005356
 20
1399.852300009377
 30
0.0
 70
    40
  0
VERTEX
  5
1E529
330
1C2BD
100
AcDbEntity
  8
KERA0
100
AcDbVertex
100
AcDb3dPolylineVertex
 10
2121.203145448706
 20
1399.852300009377
 30
0.0
 70
    40
  0
VERTEX
  5
1E52A
330
1C2BD
100
AcDbEntity
  8
KERA0
100
AcDbVertex
100
AcDb3dPolylineVertex
 10
2122.242546892058
 20
1399.852300009377
 30
0.0
 70
    40
  0
VERTEX
  5
1E52B
330
1C2BD
100
AcDbEntity
  8
KERA0
100
AcDbVertex
100
AcDb3dPolylineVertex
 10
2123.281948335408
 20
1399.852300009377
 30
0.0
 70
    40
  0
VERTEX
  5
1E52C
330
1C2BD
100
AcDbEntity
  8
KERA0
100
AcDbVertex
100
AcDb3dPolylineVertex
 10
2124.321349778759
 20
1399.852300009377
 30
0.0
 70
    40
  0
VERTEX
  5
1E52D
330
1C2BD
100
AcDbEntity
  8
KERA0
100
AcDbVertex
100
AcDb3dPolylineVertex
 10
2125.360751222109
 20
1399.852300009377
 30
0.0
 70
    40
  0
VERTEX
  5
1C2BF
330
1C2BD
100
AcDbEntity
  8
KERA0
100
AcDbVertex
100
AcDb3dPolylineVertex
 10
2119.817276857572
 20
1399.852300009377
 30
0.0
 70
    48
  0
VERTEX
  5
1C2C0
330
1C2BD
100
AcDbEntity
  8
KERA0
100
AcDbVertex
100
AcDb3dPolylineVertex
 10
2122.58901403984
 20
1399.852300009377
 30
0.0
 70
    48
  0
VERTEX
  5
1C2C1
330
1C2BD
100
AcDbEntity
  8
KERA0
100
AcDbVertex
100
AcDb3dPolylineVertex
 10
2125.360751222108
 20
1399.852300009377
 30
0.0
 70
    48
  0
SEQEND
  5
1C2CB
330
1C2BD
100
AcDbEntity
  8
KERA0
  0
ARC
  5
1C2CC
330
1E
100
AcDbEntity
  8
KERA0
100
AcDbCircle
 10
2125.360751222109
 20
1394.852300009377
 30
0.0
 40
5.0
100
AcDbArc
 50
5.710593610880727
 51
90.0
  0
POLYLINE
  5
1C2DC
330
1E
100
AcDbEntity
  8
KERA0
100
AcDb3dPolyline
 66
     1
 10
0.0
 20
0.0
 30
0.0
 70
    12
 75
     6
  0
VERTEX
  5
1C2DD
330
1C2DC
100
AcDbEntity
  8
KERA0
100
AcDbVertex
100
AcDb3dPolylineVertex
 10
2531.155137255984
 20
1395.349818645587
 30
0.0
 70
    48
  0
VERTEX
  5
1E5D0
330
1C2DC
100
AcDbEntity
  8
KERA0
100
AcDbVertex
100
AcDb3dPolylineVertex
 10
2531.155137255984
 20
1395.349818645587
 30
0.0
 70
    40
  0
VERTEX
  5
1E5D1
330
1C2DC
100
AcDbEntity
  8
KERA0
100
AcDbVertex
100
AcDb3dPolylineVertex
 10
2530.129463365063
 20
1385.093080592264
 30
0.0
 70
    40
  0
VERTEX
  5
1E5D2
330
1C2DC
100
AcDbEntity
  8
KERA0
100
AcDbVertex
100
AcDb3dPolylineVertex
 10
2529.103789474142
 20
1374.836342538942
 30
0.0
 70
    40
  0
VERTEX
  5
1E5D3
330
1C2DC
100
AcDbEntity
  8
KERA0
100
AcDbVertex
100
AcDb3dPolylineVertex
 10
2528.078115583221
 20
1364.579604485619
 30
0.0
 70
    40
  0
VERTEX
  5
1E5D4
330
1C2DC
100
AcDbEntity
  8
KERA0
100
AcDbVertex
100
AcDb3dPolylineVertex
 10
2527.052441692299
 20
1354.322866432297
 30
0.0
 70
    40
  0
VERTEX
  5
1E5D5
330
1C2DC
100
AcDbEntity
  8
KERA0
100
AcDbVertex
100
AcDb3dPolylineVertex
 10
2526.026767801377
 20
1344.066128378974
 30
0.0
 70
    40
  0
VERTEX
  5
1E5D6
330
1C2DC
100
AcDbEntity
  8
KERA0
100
AcDbVertex
100
AcDb3dPolylineVertex
 10
2525.001093910457
 20
1333.809390325652
 30
0.0
 70
    40
  0
VERTEX
  5
1E5D7
330
1C2DC
100
AcDbEntity
  8
KERA0
100
AcDbVertex
100
AcDb3dPolylineVertex
 10
2523.975420019535
 20
1323.552652272329
 30
0.0
 70
    40
  0
VERTEX
  5
1E5D8
330
1C2DC
100
AcDbEntity
  8
KERA0
100
AcDbVertex
100
AcDb3dPolylineVertex
 10
2522.949746128614
 20
1313.295914219007
 30
0.0
 70
    40
  0
VERTEX
  5
1C2DE
330
1C2DC
100
AcDbEntity
  8
KERA0
100
AcDbVertex
100
AcDb3dPolylineVertex
 10
2528.420006880194
 20
1367.99851717006
 30
0.0
 70
    48
  0
VERTEX
  5
1C2DF
330
1C2DC
100
AcDbEntity
  8
KERA0
100
AcDbVertex
100
AcDb3dPolylineVertex
 10
2525.684876504405
 20
1340.647215694534
 30
0.0
 70
    48
  0
VERTEX
  5
1C2E0
330
1C2DC
100
AcDbEntity
  8
KERA0
100
AcDbVertex
100
AcDb3dPolylineVertex
 10
2522.949746128615
 20
1313.295914219007
 30
0.0
 70
    48
  0
SEQEND
  5
1C2EA
330
1C2DC
100
AcDbEntity
  8
KERA0
  0
ARC
  5
1C486
330
1E
100
AcDbEntity
  8
KERA0
100
AcDbCircle
 10
2501.058927962081
 20
1315.484996218332
 30
0.0
 40
22.0
100
AcDbArc
 50
271.4999999999896
 51
354.2894063891192
  0
POLYLINE
  5
1C488
330
1E
100
AcDbEntity
  8
KERA0
100
AcDb3dPolyline
 66
     1
 10
0.0
 20
0.0
 30
0.0
 70
    12
 75
     6
  0
VERTEX
  5
1C489
330
1C488
100
AcDbEntity
  8
KERA0
100
AcDbVertex
100
AcDb3dPolylineVertex
 10
2544.445534749728
 20
1408.852300009377
 30
0.0
 70
    48
  0
VERTEX
  5
1E513
330
1C488
100
AcDbEntity
  8
KERA0
100
AcDbVertex
100
AcDb3dPolylineVertex
 10
2544.445534749728
 20
1408.852300009377
 30
0.0
 70
    40
  0
VERTEX
  5
1E514
330
1C488
100
AcDbEntity
  8
KERA0
100
AcDbVertex
100
AcDb3dPolylineVertex
 10
2517.733035057576
 20
1408.852300009377
 30
0.0
 70
    40
  0
VERTEX
  5
1E515
330
1C488
100
AcDbEntity
  8
KERA0
100
AcDbVertex
100
AcDb3dPolylineVertex
 10
2491.020535365425
 20
1408.852300009377
 30
0.0
 70
    40
  0
VERTEX
  5
1E516
330
1C488
100
AcDbEntity
  8
KERA0
100
AcDbVertex
100
AcDb3dPolylineVertex
 10
2464.308035673273
 20
1408.852300009377
 30
0.0
 70
    40
  0
VERTEX
  5
1E517
330
1C488
100
AcDbEntity
  8
KERA0
100
AcDbVertex
100
AcDb3dPolylineVertex
 10
2437.595535981122
 20
1408.852300009377
 30
0.0
 70
    40
  0
VERTEX
  5
1E518
330
1C488
100
AcDbEntity
  8
KERA0
100
AcDbVertex
100
AcDb3dPolylineVertex
 10
2410.883036288971
 20
1408.852300009377
 30
0.0
 70
    40
  0
VERTEX
  5
1E519
330
1C488
100
AcDbEntity
  8
KERA0
100
AcDbVertex
100
AcDb3dPolylineVertex
 10
2384.170536596819
 20
1408.852300009377
 30
0.0
 70
    40
  0
VERTEX
  5
1E51A
330
1C488
100
AcDbEntity
  8
KERA0
100
AcDbVertex
100
AcDb3dPolylineVertex
 10
2357.458036904668
 20
1408.852300009377
 30
0.0
 70
    40
  0
VERTEX
  5
1E51B
330
1C488
100
AcDbEntity
  8
KERA0
100
AcDbVertex
100
AcDb3dPolylineVertex
 10
2330.745537212516
 20
1408.852300009377
 30
0.0
 70
    40
  0
VERTEX
  5
1C48A
330
1C488
100
AcDbEntity
  8
KERA0
100
AcDbVertex
100
AcDb3dPolylineVertex
 10
2473.212202237323
 20
1408.852300009377
 30
0.0
 70
    48
  0
VERTEX
  5
1C48B
330
1C488
100
AcDbEntity
  8
KERA0
100
AcDbVertex
100
AcDb3dPolylineVertex
 10
2401.978869724921
 20
1408.852300009377
 30
0.0
 70
    48
  0
VERTEX
  5
1C48C
330
1C488
100
AcDbEntity
  8
KERA0
100
AcDbVertex
100
AcDb3dPolylineVertex
 10
2330.745537212516
 20
1408.852300009377
 30
0.0
 70
    48
  0
SEQEND
  5
1C496
330
1C488
100
AcDbEntity
  8
KERA0
  0
POLYLINE
  5
1C497
330
1E
100
AcDbEntity
  8
KERA0
100
AcDb3dPolyline
 66
     1
 10
0.0
 20
0.0
 30
0.0
 70
    12
 75
     6
  0
VERTEX
  5
1C498
330
1C497
100
AcDbEntity
  8
KERA0
100
AcDbVertex
100
AcDb3dPolylineVertex
 10
2544.445534749728
 20
1399.852300009377
 30
0.0
 70
    48
  0
VERTEX
  5
1E5E2
330
1C497
100
AcDbEntity
  8
KERA0
100
AcDbVertex
100
AcDb3dPolylineVertex
 10
2544.445534749728
 20
1399.852300009377
 30
0.0
 70
    40
  0
VERTEX
  5
1E5E3
330
1C497
100
AcDbEntity
  8
KERA0
100
AcDbVertex
100
AcDb3dPolylineVertex
 10
2544.445534749728
 20
1400.977300009377
 30
0.0
 70
    40
  0
VERTEX
  5
1E5E4
330
1C497
100
AcDbEntity
  8
KERA0
100
AcDbVertex
100
AcDb3dPolylineVertex
 10
2544.445534749728
 20
1402.102300009377
 30
0.0
 70
    40
  0
VERTEX
  5
1E5E5
330
1C497
100
AcDbEntity
  8
KERA0
100
AcDbVertex
100
AcDb3dPolylineVertex
 10
2544.445534749728
 20
1403.227300009377
 30
0.0
 70
    40
  0
VERTEX
  5
1E5E6
330
1C497
100
AcDbEntity
  8
KERA0
100
AcDbVertex
100
AcDb3dPolylineVertex
 10
2544.445534749728
 20
1404.352300009377
 30
0.0
 70
    40
  0
VERTEX
  5
1E5E7
330
1C497
100
AcDbEntity
  8
KERA0
100
AcDbVertex
100
AcDb3dPolylineVertex
 10
2544.445534749728
 20
1405.477300009377
 30
0.0
 70
    40
  0
VERTEX
  5
1E5E8
330
1C497
100
AcDbEntity
  8
KERA0
100
AcDbVertex
100
AcDb3dPolylineVertex
 10
2544.445534749728
 20
1406.602300009377
 30
0.0
 70
    40
  0
VERTEX
  5
1E5E9
330
1C497
100
AcDbEntity
  8
KERA0
100
AcDbVertex
100
AcDb3dPolylineVertex
 10
2544.445534749728
 20
1407.727300009377
 30
0.0
 70
    40
  0
VERTEX
  5
1E5EA
330
1C497
100
AcDbEntity
  8
KERA0
100
AcDbVertex
100
AcDb3dPolylineVertex
 10
2544.445534749728
 20
1408.852300009377
 30
0.0
 70
    40
  0
VERTEX
  5
1C499
330
1C497
100
AcDbEntity
  8
KERA0
100
AcDbVertex
100
AcDb3dPolylineVertex
 10
2544.445534749728
 20
1402.852300009377
 30
0.0
 70
    48
  0
VERTEX
  5
1C49A
330
1C497
100
AcDbEntity
  8
KERA0
100
AcDbVertex
100
AcDb3dPolylineVertex
 10
2544.445534749728
 20
1405.852300009377
 30
0.0
 70
    48
  0
VERTEX
  5
1C49B
330
1C497
100
AcDbEntity
  8
KERA0
100
AcDbVertex
100
AcDb3dPolylineVertex
 10
2544.445534749728
 20
1408.852300009377
 30
0.0
 70
    48
  0
SEQEND
  5
1C4A5
330
1C497
100
AcDbEntity
  8
KERA0
  0
POLYLINE
  5
1C4A6
330
1E
100
AcDbEntity
  8
KERA0
100
AcDb3dPolyline
 66
     1
 10
0.0
 20
0.0
 30
0.0
 70
    12
 75
     6
  0
VERTEX
  5
1C4A7
330
1C4A6
100
AcDbEntity
  8
KERA0
100
AcDbVertex
100
AcDb3dPolylineVertex
 10
2544.445534749728
 20
1399.852300009377
 30
0.0
 70
    48
  0
VERTEX
  5
1E5D9
330
1C4A6
100
AcDbEntity
  8
KERA0
100
AcDbVertex
100
AcDb3dPolylineVertex
 10
2544.445534749728
 20
1399.852300009377
 30
0.0
 70
    40
  0
VERTEX
  5
1E5DA
330
1C4A6
100
AcDbEntity
  8
KERA0
100
AcDbVertex
100
AcDb3dPolylineVertex
 10
2543.406133306377
 20
1399.852300009377
 30
0.0
 70
    40
  0
VERTEX
  5
1E5DB
330
1C4A6
100
AcDbEntity
  8
KERA0
100
AcDbVertex
100
AcDb3dPolylineVertex
 10
2542.366731863026
 20
1399.852300009377
 30
0.0
 70
    40
  0
VERTEX
  5
1E5DC
330
1C4A6
100
AcDbEntity
  8
KERA0
100
AcDbVertex
100
AcDb3dPolylineVertex
 10
2541.327330419676
 20
1399.852300009377
 30
0.0
 70
    40
  0
VERTEX
  5
1E5DD
330
1C4A6
100
AcDbEntity
  8
KERA0
100
AcDbVertex
100
AcDb3dPolylineVertex
 10
2540.287928976326
 20
1399.852300009377
 30
0.0
 70
    40
  0
VERTEX
  5
1E5DE
330
1C4A6
100
AcDbEntity
  8
KERA0
100
AcDbVertex
100
AcDb3dPolylineVertex
 10
2539.248527532975
 20
1399.852300009377
 30
0.0
 70
    40
  0
VERTEX
  5
1E5DF
330
1C4A6
100
AcDbEntity
  8
KERA0
100
AcDbVertex
100
AcDb3dPolylineVertex
 10
2538.209126089625
 20
1399.852300009377
 30
0.0
 70
    40
  0
VERTEX
  5
1E5E0
330
1C4A6
100
AcDbEntity
  8
KERA0
100
AcDbVertex
100
AcDb3dPolylineVertex
 10
2537.169724646274
 20
1399.852300009377
 30
0.0
 70
    40
  0
VERTEX
  5
1E5E1
330
1C4A6
100
AcDbEntity
  8
KERA0
100
AcDbVertex
100
AcDb3dPolylineVertex
 10
2536.130323202923
 20
1399.852300009377
 30
0.0
 70
    40
  0
VERTEX
  5
1C4A8
330
1C4A6
100
AcDbEntity
  8
KERA0
100
AcDbVertex
100
AcDb3dPolylineVertex
 10
2541.673797567459
 20
1399.852300009377
 30
0.0
 70
    48
  0
VERTEX
  5
1C4A9
330
1C4A6
100
AcDbEntity
  8
KERA0
100
AcDbVertex
100
AcDb3dPolylineVertex
 10
2538.902060385192
 20
1399.852300009377
 30
0.0
 70
    48
  0
VERTEX
  5
1C4AA
330
1C4A6
100
AcDbEntity
  8
KERA0
100
AcDbVertex
100
AcDb3dPolylineVertex
 10
2536.130323202923
 20
1399.852300009377
 30
0.0
 70
    48
  0
SEQEND
  5
1C4B4
330
1C4A6
100
AcDbEntity
  8
KERA0
  0
ARC
  5
1C4B5
330
1E
100
AcDbEntity
  8
KERA0
100
AcDbCircle
 10
2536.130323202923
 20
1394.852300009377
 30
0.0
 40
5.0
100
AcDbArc
 50
90.0
 51
174.2894063891192
  0
POLYLINE
  5
1C55C
330
1E
100
AcDbEntity
  8
0
100
AcDb3dPolyline
 66
     1
 10
0.0
 20
0.0
 30
0.0
 70
    12
 75
     6
  0
VERTEX
  5
1C55D
330
1C55C
100
AcDbEntity
  8
0
100
AcDbVertex
100
AcDb3dPolylineVertex
 10
2598.745538635254
 20
1446.852295241019
 30
0.0
 70
    48
  0
VERTEX
  5
1E5EB
330
1C55C
100
AcDbEntity
  8
0
100
AcDbVertex
100
AcDb3dPolylineVertex
 10
2598.745538635254
 20
1446.852295241019
 30
0.0
 70
    40
  0
VERTEX
  5
1E5EC
330
1C55C
100
AcDbEntity
  8
0
100
AcDbVertex
100
AcDb3dPolylineVertex
 10
2598.74563586698
 20
1446.852295240981
 30
0.0
 70
    40
  0
VERTEX
  5
1E5ED
330
1C55C
100
AcDbEntity
  8
0
100
AcDbVertex
100
AcDb3dPolylineVertex
 10
2598.745733098707
 20
1446.852295240868
 30
0.0
 70
    40
  0
VERTEX
  5
1E5EE
330
1C55C
100
AcDbEntity
  8
0
100
AcDbVertex
100
AcDb3dPolylineVertex
 10
2598.745830330434
 20
1446.852295240679
 30
0.0
 70
    40
  0
VERTEX
  5
1E5EF
330
1C55C
100
AcDbEntity
  8
0
100
AcDbVertex
100
AcDb3dPolylineVertex
 10
2598.74592756216
 20
1446.852295240415
 30
0.0
 70
    40
  0
VERTEX
  5
1E5F0
330
1C55C
100
AcDbEntity
  8
0
100
AcDbVertex
100
AcDb3dPolylineVertex
 10
2598.746024793887
 20
1446.852295240076
 30
0.0
 70
    40
  0
VERTEX
  5
1E5F1
330
1C55C
100
AcDbEntity
  8
0
100
AcDbVertex
100
AcDb3dPolylineVertex
 10
2598.746122025613
 20
1446.852295239661
 30
0.0
 70
    40
  0
VERTEX
  5
1E5F2
330
1C55C
100
AcDbEntity
  8
0
100
AcDbVertex
100
AcDb3dPolylineVertex
 10
2598.74621925734
 20
1446.85229523917
 30
0.0
 70
    40
  0
VERTEX
  5
1E5F3
330
1C55C
100
AcDbEntity
  8
0
100
AcDbVertex
100
AcDb3dPolylineVertex
 10
2598.746316489067
 20
1446.852295238604
 30
0.0
 70
    40
  0
VERTEX
  5
1C55E
330
1C55C
100
AcDbEntity
  8
0
100
AcDbVertex
100
AcDb3dPolylineVertex
 10
2598.745797919858
 20
1446.852295241019
 30
0.0
 70
    48
  0
VERTEX
  5
1C55F
330
1C55C
100
AcDbEntity
  8
0
100
AcDbVertex
100
AcDb3dPolylineVertex
 10
2598.746057204463
 20
1446.852295240214
 30
0.0
 70
    48
  0
VERTEX
  5
1C560
330
1C55C
100
AcDbEntity
  8
0
100
AcDbVertex
100
AcDb3dPolylineVertex
 10
2598.746316489068
 20
1446.852295238605
 30
0.0
 70
    48
  0
SEQEND
  5
1C56A
330
1C55C
100
AcDbEntity
  8
0
  0
POLYLINE
  5
1C674
330
1E
100
AcDbEntity
  8
KERA0
100
AcDb3dPolyline
 66
     1
 10
0.0
 20
0.0
 30
0.0
 70
    13
 75
     6
  0
VERTEX
  5
1C675
330
1C674
100
AcDbEntity
  8
KERA0
100
AcDbVertex
100
AcDb3dPolylineVertex
 10
2498.249612388847
 20
315.7413400354844
 30
0.0
 70
    48
  0
VERTEX
  5
1C676
330
1C674
100
AcDbEntity
  8
KERA0
100
AcDbVertex
100
AcDb3dPolylineVertex
 10
2567.632072079645
 20
483.245415211815
 30
0.0
 70
    48
  0
VERTEX
  5
1C677
330
1C674
100
AcDbEntity
  8
KERA0
100
AcDbVertex
100
AcDb3dPolylineVertex
 10
2498.249612388847
 20
650.7494903881454
 30
0.0
 70
    48
  0
VERTEX
  5
1C678
330
1C674
100
AcDbEntity
  8
KERA0
100
AcDbVertex
100
AcDb3dPolylineVertex
 10
2330.745537212517
 20
720.1319500789434
 30
0.0
 70
    48
  0
VERTEX
  5
1C679
330
1C674
100
AcDbEntity
  8
KERA0
100
AcDbVertex
100
AcDb3dPolylineVertex
 10
2163.241462036187
 20
650.7494903881454
 30
0.0
 70
    48
  0
VERTEX
  5
1C67A
330
1C674
100
AcDbEntity
  8
KERA0
100
AcDbVertex
100
AcDb3dPolylineVertex
 10
2093.859002345388
 20
483.245415211815
 30
0.0
 70
    48
  0
VERTEX
  5
1C67B
330
1C674
100
AcDbEntity
  8
KERA0
100
AcDbVertex
100
AcDb3dPolylineVertex
 10
2163.241462036187
 20
315.7413400354854
 30
0.0
 70
    48
  0
VERTEX
  5
1C67C
330
1C674
100
AcDbEntity
  8
KERA0
100
AcDbVertex
100
AcDb3dPolylineVertex
 10
2330.745537212517
 20
246.3588803446864
 30
0.0
 70
    48
  0
VERTEX
  5
1C67D
330
1C674
100
AcDbEntity
  8
KERA0
100
AcDbVertex
100
AcDb3dPolylineVertex
 10
2544.504585516046
 20
483.245415211815
 30
0.0
 70
    40
  0
VERTEX
  5
1C67E
330
1C674
100
AcDbEntity
  8
KERA0
100
AcDbVertex
100
AcDb3dPolylineVertex
 10
2542.11001048481
 20
514.5446296809893
 30
0.0
 70
    40
  0
VERTEX
  5
1C67F
330
1C674
100
AcDbEntity
  8
KERA0
100
AcDbVertex
100
AcDb3dPolylineVertex
 10
2535.104893660176
 20
545.1970463918354
 30
0.0
 70
    40
  0
VERTEX
  5
1C680
330
1C674
100
AcDbEntity
  8
KERA0
100
AcDbVertex
100
AcDb3dPolylineVertex
 10
2523.757147445757
 20
574.5558675860273
 30
0.0
 70
    40
  0
VERTEX
  5
1C681
330
1C674
100
AcDbEntity
  8
KERA0
100
AcDbVertex
100
AcDb3dPolylineVertex
 10
2508.334684245164
 20
601.9742955052365
 30
0.0
 70
    40
  0
VERTEX
  5
1C682
330
1C674
100
AcDbEntity
  8
KERA0
100
AcDbVertex
100
AcDb3dPolylineVertex
 10
2489.105416462008
 20
626.8055323911353
 30
0.0
 70
    40
  0
VERTEX
  5
1C683
330
1C674
100
AcDbEntity
  8
KERA0
100
AcDbVertex
100
AcDb3dPolylineVertex
 10
2466.35596688779
 20
648.4214908732844
 30
0.0
 70
    40
  0
VERTEX
  5
1C684
330
1C674
100
AcDbEntity
  8
KERA0
100
AcDbVertex
100
AcDb3dPolylineVertex
 10
2440.590466573195
 20
666.4115918404315
 30
0.0
 70
    40
  0
VERTEX
  5
1C685
330
1C674
100
AcDbEntity
  8
KERA0
100
AcDbVertex
100
AcDb3dPolylineVertex
 10
2412.453374478067
 20
680.5055840904794
 30
0.0
 70
    40
  0
VERTEX
  5
1C686
330
1C674
100
AcDbEntity
  8
KERA0
100
AcDbVertex
100
AcDb3dPolylineVertex
 10
2382.591488360731
 20
690.4355552198153
 30
0.0
 70
    40
  0
VERTEX
  5
1C687
330
1C674
100
AcDbEntity
  8
KERA0
100
AcDbVertex
100
AcDb3dPolylineVertex
 10
2351.651605979517
 20
695.9335928248293
 30
0.0
 70
    40
  0
VERTEX
  5
1C688
330
1C674
100
AcDbEntity
  8
KERA0
100
AcDbVertex
100
AcDb3dPolylineVertex
 10
2320.280525092751
 20
696.7350920624463
 30
0.0
 70
    40
  0
VERTEX
  5
1C689
330
1C674
100
AcDbEntity
  8
KERA0
100
AcDbVertex
100
AcDb3dPolylineVertex
 10
2289.125043458761
 20
692.7739017218985
 30
0.0
 70
    40
  0
VERTEX
  5
1C68A
330
1C674
100
AcDbEntity
  8
KERA0
100
AcDbVertex
100
AcDb3dPolylineVertex
 10
2258.831958835874
 20
684.2914737224904
 30
0.0
 70
    40
  0
VERTEX
  5
1C68B
330
1C674
100
AcDbEntity
  8
KERA0
100
AcDbVertex
100
AcDb3dPolylineVertex
 10
2230.048068982418
 20
671.5557204678344
 30
0.0
 70
    40
  0
VERTEX
  5
1C68C
330
1C674
100
AcDbEntity
  8
KERA0
100
AcDbVertex
100
AcDb3dPolylineVertex
 10
2203.420171656721
 20
654.8345543615414
 30
0.0
 70
    40
  0
VERTEX
  5
1C68D
330
1C674
100
AcDbEntity
  8
KERA0
100
AcDbVertex
100
AcDb3dPolylineVertex
 10
2179.595064617108
 20
634.3958878072234
 30
0.0
 70
    40
  0
VERTEX
  5
1C68E
330
1C674
100
AcDbEntity
  8
KERA0
100
AcDbVertex
100
AcDb3dPolylineVertex
 10
2159.15639806279
 20
610.5707807676114
 30
0.0
 70
    40
  0
VERTEX
  5
1C68F
330
1C674
100
AcDbEntity
  8
KERA0
100
AcDbVertex
100
AcDb3dPolylineVertex
 10
2142.435231956497
 20
583.9428834419134
 30
0.0
 70
    40
  0
VERTEX
  5
1C690
330
1C674
100
AcDbEntity
  8
KERA0
100
AcDbVertex
100
AcDb3dPolylineVertex
 10
2129.699478701841
 20
555.1589935884574
 30
0.0
 70
    40
  0
VERTEX
  5
1C691
330
1C674
100
AcDbEntity
  8
KERA0
100
AcDbVertex
100
AcDb3dPolylineVertex
 10
2121.217050702433
 20
524.8659089655704
 30
0.0
 70
    40
  0
VERTEX
  5
1C692
330
1C674
100
AcDbEntity
  8
KERA0
100
AcDbVertex
100
AcDb3dPolylineVertex
 10
2117.255860361886
 20
493.7104273315803
 30
0.0
 70
    40
  0
VERTEX
  5
1C693
330
1C674
100
AcDbEntity
  8
KERA0
100
AcDbVertex
100
AcDb3dPolylineVertex
 10
2118.057359599503
 20
462.3393464448144
 30
0.0
 70
    40
  0
VERTEX
  5
1C694
330
1C674
100
AcDbEntity
  8
KERA0
100
AcDbVertex
100
AcDb3dPolylineVertex
 10
2123.555397204516
 20
431.3994640636003
 30
0.0
 70
    40
  0
VERTEX
  5
1C695
330
1C674
100
AcDbEntity
  8
KERA0
100
AcDbVertex
100
AcDb3dPolylineVertex
 10
2133.485368333853
 20
401.5375779462654
 30
0.0
 70
    40
  0
VERTEX
  5
1C696
330
1C674
100
AcDbEntity
  8
KERA0
100
AcDbVertex
100
AcDb3dPolylineVertex
 10
2147.5793605839
 20
373.4004858511364
 30
0.0
 70
    40
  0
VERTEX
  5
1C697
330
1C674
100
AcDbEntity
  8
KERA0
100
AcDbVertex
100
AcDb3dPolylineVertex
 10
2165.569461551047
 20
347.6349855365424
 30
0.0
 70
    40
  0
VERTEX
  5
1C698
330
1C674
100
AcDbEntity
  8
KERA0
100
AcDbVertex
100
AcDb3dPolylineVertex
 10
2187.185420033196
 20
324.8855359623234
 30
0.0
 70
    40
  0
VERTEX
  5
1C699
330
1C674
100
AcDbEntity
  8
KERA0
100
AcDbVertex
100
AcDb3dPolylineVertex
 10
2212.016656919096
 20
305.6562681791683
 30
0.0
 70
    40
  0
VERTEX
  5
1C69A
330
1C674
100
AcDbEntity
  8
KERA0
100
AcDbVertex
100
AcDb3dPolylineVertex
 10
2239.435084838305
 20
290.2338049785744
 30
0.0
 70
    40
  0
VERTEX
  5
1C69B
330
1C674
100
AcDbEntity
  8
KERA0
100
AcDbVertex
100
AcDb3dPolylineVertex
 10
2268.793906032496
 20
278.8860587641554
 30
0.0
 70
    40
  0
VERTEX
  5
1C69C
330
1C674
100
AcDbEntity
  8
KERA0
100
AcDbVertex
100
AcDb3dPolylineVertex
 10
2299.446322743343
 20
271.8809419395213
 30
0.0
 70
    40
  0
VERTEX
  5
1C69D
330
1C674
100
AcDbEntity
  8
KERA0
100
AcDbVertex
100
AcDb3dPolylineVertex
 10
2330.745537212516
 20
269.4863669082853
 30
0.0
 70
    40
  0
VERTEX
  5
1C69E
330
1C674
100
AcDbEntity
  8
KERA0
100
AcDbVertex
100
AcDb3dPolylineVertex
 10
2362.044751681691
 20
271.8809419395213
 30
0.0
 70
    40
  0
VERTEX
  5
1C69F
330
1C674
100
AcDbEntity
  8
KERA0
100
AcDbVertex
100
AcDb3dPolylineVertex
 10
2392.697168392537
 20
278.8860587641554
 30
0.0
 70
    40
  0
VERTEX
  5
1C6A0
330
1C674
100
AcDbEntity
  8
KERA0
100
AcDbVertex
100
AcDb3dPolylineVertex
 10
2422.055989586729
 20
290.2338049785744
 30
0.0
 70
    40
  0
VERTEX
  5
1C6A1
330
1C674
100
AcDbEntity
  8
KERA0
100
AcDbVertex
100
AcDb3dPolylineVertex
 10
2449.474417505938
 20
305.6562681791674
 30
0.0
 70
    40
  0
VERTEX
  5
1C6A2
330
1C674
100
AcDbEntity
  8
KERA0
100
AcDbVertex
100
AcDb3dPolylineVertex
 10
2474.305654391837
 20
324.8855359623234
 30
0.0
 70
    40
  0
VERTEX
  5
1C6A3
330
1C674
100
AcDbEntity
  8
KERA0
100
AcDbVertex
100
AcDb3dPolylineVertex
 10
2495.921612873986
 20
347.6349855365424
 30
0.0
 70
    40
  0
VERTEX
  5
1C6A4
330
1C674
100
AcDbEntity
  8
KERA0
100
AcDbVertex
100
AcDb3dPolylineVertex
 10
2513.911713841133
 20
373.4004858511364
 30
0.0
 70
    40
  0
VERTEX
  5
1C6A5
330
1C674
100
AcDbEntity
  8
KERA0
100
AcDbVertex
100
AcDb3dPolylineVertex
 10
2528.005706091181
 20
401.5375779462654
 30
0.0
 70
    40
  0
VERTEX
  5
1C6A6
330
1C674
100
AcDbEntity
  8
KERA0
100
AcDbVertex
100
AcDb3dPolylineVertex
 10
2537.935677220517
 20
431.3994640636003
 30
0.0
 70
    40
  0
VERTEX
  5
1C6A7
330
1C674
100
AcDbEntity
  8
KERA0
100
AcDbVertex
100
AcDb3dPolylineVertex
 10
2543.433714825531
 20
462.3393464448144
 30
0.0
 70
    40
  0
SEQEND
  5
1C6A8
330
1C674
100
AcDbEntity
  8
KERA0
  0
POLYLINE
  5
1C6A9
330
1E
100
AcDbEntity
  8
KERA0
100
AcDb3dPolyline
 66
     1
 10
0.0
 20
0.0
 30
0.0
 70
    13
 75
     6
  0
VERTEX
  5
1C6AA
330
1C6A9
100
AcDbEntity
  8
KERA0
100
AcDbVertex
100
AcDb3dPolylineVertex
 10
2479.631745941849
 20
334.3592064824824
 30
0.0
 70
    48
  0
VERTEX
  5
1C6AB
330
1C6A9
100
AcDbEntity
  8
KERA0
100
AcDbVertex
100
AcDb3dPolylineVertex
 10
2541.302432847851
 20
483.245415211815
 30
0.0
 70
    48
  0
VERTEX
  5
1C6AC
330
1C6A9
100
AcDbEntity
  8
KERA0
100
AcDbVertex
100
AcDb3dPolylineVertex
 10
2479.631745941849
 20
632.1316239411474
 30
0.0
 70
    48
  0
VERTEX
  5
1C6AD
330
1C6A9
100
AcDbEntity
  8
KERA0
100
AcDbVertex
100
AcDb3dPolylineVertex
 10
2330.745537212517
 20
693.8023108471484
 30
0.0
 70
    48
  0
VERTEX
  5
1C6AE
330
1C6A9
100
AcDbEntity
  8
KERA0
100
AcDbVertex
100
AcDb3dPolylineVertex
 10
2181.859328483184
 20
632.1316239411474
 30
0.0
 70
    48
  0
VERTEX
  5
1C6AF
330
1C6A9
100
AcDbEntity
  8
KERA0
100
AcDbVertex
100
AcDb3dPolylineVertex
 10
2120.188641577183
 20
483.245415211815
 30
0.0
 70
    48
  0
VERTEX
  5
1C6B0
330
1C6A9
100
AcDbEntity
  8
KERA0
100
AcDbVertex
100
AcDb3dPolylineVertex
 10
2181.859328483184
 20
334.3592064824824
 30
0.0
 70
    48
  0
VERTEX
  5
1C6B1
330
1C6A9
100
AcDbEntity
  8
KERA0
100
AcDbVertex
100
AcDb3dPolylineVertex
 10
2330.745537212517
 20
272.6885195764814
 30
0.0
 70
    48
  0
VERTEX
  5
1C6B2
330
1C6A9
100
AcDbEntity
  8
KERA0
100
AcDbVertex
100
AcDb3dPolylineVertex
 10
2520.745537212517
 20
483.245415211815
 30
0.0
 70
    40
  0
VERTEX
  5
1C6B3
330
1C6A9
100
AcDbEntity
  8
KERA0
100
AcDbVertex
100
AcDb3dPolylineVertex
 10
2518.617116172352
 20
511.0657615145304
 30
0.0
 70
    40
  0
VERTEX
  5
1C6B4
330
1C6A9
100
AcDbEntity
  8
KERA0
100
AcDbVertex
100
AcDb3dPolylineVertex
 10
2512.390609237355
 20
538.3112008130393
 30
0.0
 70
    40
  0
VERTEX
  5
1C6B5
330
1C6A9
100
AcDbEntity
  8
KERA0
100
AcDbVertex
100
AcDb3dPolylineVertex
 10
2502.30415068577
 20
564.4068261031353
 30
0.0
 70
    40
  0
VERTEX
  5
1C6B6
330
1C6A9
100
AcDbEntity
  8
KERA0
100
AcDbVertex
100
AcDb3dPolylineVertex
 10
2488.595874795845
 20
588.7777303806114
 30
0.0
 70
    40
  0
VERTEX
  5
1C6B7
330
1C6A9
100
AcDbEntity
  8
KERA0
100
AcDbVertex
100
AcDb3dPolylineVertex
 10
2471.503915845823
 20
610.8490066412614
 30
0.0
 70
    40
  0
VERTEX
  5
1C6B8
330
1C6A9
100
AcDbEntity
  8
KERA0
100
AcDbVertex
100
AcDb3dPolylineVertex
 10
2451.283038865851
 20
630.0623786327784
 30
0.0
 70
    40
  0
VERTEX
  5
1C6B9
330
1C6A9
100
AcDbEntity
  8
KERA0
100
AcDbVertex
100
AcDb3dPolylineVertex
 10
2428.381341376903
 20
646.0529025936843
 30
0.0
 70
    40
  0
VERTEX
  5
1C6BA
330
1C6A9
100
AcDbEntity
  8
KERA0
100
AcDbVertex
100
AcDb3dPolylineVertex
 10
2403.371651539197
 20
658.5803654017454
 30
0.0
 70
    40
  0
VERTEX
  5
1C6BB
330
1C6A9
100
AcDbEntity
  8
KERA0
100
AcDbVertex
100
AcDb3dPolylineVertex
 10
2376.828876356941
 20
667.4066327787174
 30
0.0
 70
    40
  0
VERTEX
  5
1C6BC
330
1C6A9
100
AcDbEntity
  8
KERA0
100
AcDbVertex
100
AcDb3dPolylineVertex
 10
2349.32792283434
 20
672.2935704463534
 30
0.0
 70
    40
  0
VERTEX
  5
1C6BD
330
1C6A9
100
AcDbEntity
  8
KERA0
100
AcDbVertex
100
AcDb3dPolylineVertex
 10
2321.443697975601
 20
673.0059840557694
 30
0.0
 70
    40
  0
VERTEX
  5
1C6BE
330
1C6A9
100
AcDbEntity
  8
KERA0
100
AcDbVertex
100
AcDb3dPolylineVertex
 10
2293.751108784932
 20
669.4850750197444
 30
0.0
 70
    40
  0
VERTEX
  5
1C6BF
330
1C6A9
100
AcDbEntity
  8
KERA0
100
AcDbVertex
100
AcDb3dPolylineVertex
 10
2266.825062266538
 20
661.9454581816344
 30
0.0
 70
    40
  0
VERTEX
  5
1C6C0
330
1C6A9
100
AcDbEntity
  8
KERA0
100
AcDbVertex
100
AcDb3dPolylineVertex
 10
2241.240465424625
 20
650.6252678196874
 30
0.0
 70
    40
  0
VERTEX
  5
1C6C1
330
1C6A9
100
AcDbEntity
  8
KERA0
100
AcDbVertex
100
AcDb3dPolylineVertex
 10
2217.572225263402
 20
635.7626382121464
 30
0.0
 70
    40
  0
VERTEX
  5
1C6C2
330
1C6A9
100
AcDbEntity
  8
KERA0
100
AcDbVertex
100
AcDb3dPolylineVertex
 10
2196.395248787073
 20
617.5957036372594
 30
0.0
 70
    40
  0
VERTEX
  5
1C6C3
330
1C6A9
100
AcDbEntity
  8
KERA0
100
AcDbVertex
100
AcDb3dPolylineVertex
 10
2178.228314212185
 20
596.4187271609303
 30
0.0
 70
    40
  0
VERTEX
  5
1C6C4
330
1C6A9
100
AcDbEntity
  8
KERA0
100
AcDbVertex
100
AcDb3dPolylineVertex
 10
2163.365684604645
 20
572.7504869997063
 30
0.0
 70
    40
  0
VERTEX
  5
1C6C5
330
1C6A9
100
AcDbEntity
  8
KERA0
100
AcDbVertex
100
AcDb3dPolylineVertex
 10
2152.045494242697
 20
547.1658901577943
 30
0.0
 70
    40
  0
VERTEX
  5
1C6C6
330
1C6A9
100
AcDbEntity
  8
KERA0
100
AcDbVertex
100
AcDb3dPolylineVertex
 10
2144.505877404588
 20
520.2398436394004
 30
0.0
 70
    40
  0
VERTEX
  5
1C6C7
330
1C6A9
100
AcDbEntity
  8
KERA0
100
AcDbVertex
100
AcDb3dPolylineVertex
 10
2140.984968368563
 20
492.5472544487304
 30
0.0
 70
    40
  0
VERTEX
  5
1C6C8
330
1C6A9
100
AcDbEntity
  8
KERA0
100
AcDbVertex
100
AcDb3dPolylineVertex
 10
2141.697381977979
 20
464.6630295899924
 30
0.0
 70
    40
  0
VERTEX
  5
1C6C9
330
1C6A9
100
AcDbEntity
  8
KERA0
100
AcDbVertex
100
AcDb3dPolylineVertex
 10
2146.584319645615
 20
437.1620760673913
 30
0.0
 70
    40
  0
VERTEX
  5
1C6CA
330
1C6A9
100
AcDbEntity
  8
KERA0
100
AcDbVertex
100
AcDb3dPolylineVertex
 10
2155.410587022586
 20
410.6193008851343
 30
0.0
 70
    40
  0
VERTEX
  5
1C6CB
330
1C6A9
100
AcDbEntity
  8
KERA0
100
AcDbVertex
100
AcDb3dPolylineVertex
 10
2167.938049830648
 20
385.6096110474294
 30
0.0
 70
    40
  0
VERTEX
  5
1C6CC
330
1C6A9
100
AcDbEntity
  8
KERA0
100
AcDbVertex
100
AcDb3dPolylineVertex
 10
2183.928573791553
 20
362.7079135584803
 30
0.0
 70
    40
  0
VERTEX
  5
1C6CD
330
1C6A9
100
AcDbEntity
  8
KERA0
100
AcDbVertex
100
AcDb3dPolylineVertex
 10
2203.14194578307
 20
342.4870365785084
 30
0.0
 70
    40
  0
VERTEX
  5
1C6CE
330
1C6A9
100
AcDbEntity
  8
KERA0
100
AcDbVertex
100
AcDb3dPolylineVertex
 10
2225.213222043719
 20
325.3950776284874
 30
0.0
 70
    40
  0
VERTEX
  5
1C6CF
330
1C6A9
100
AcDbEntity
  8
KERA0
100
AcDbVertex
100
AcDb3dPolylineVertex
 10
2249.584126321197
 20
311.6868017385613
 30
0.0
 70
    40
  0
VERTEX
  5
1C6D0
330
1C6A9
100
AcDbEntity
  8
KERA0
100
AcDbVertex
100
AcDb3dPolylineVertex
 10
2275.679751611292
 20
301.6003431869774
 30
0.0
 70
    40
  0
VERTEX
  5
1C6D1
330
1C6A9
100
AcDbEntity
  8
KERA0
100
AcDbVertex
100
AcDb3dPolylineVertex
 10
2302.925190909801
 20
295.3738362519794
 30
0.0
 70
    40
  0
VERTEX
  5
1C6D2
330
1C6A9
100
AcDbEntity
  8
KERA0
100
AcDbVertex
100
AcDb3dPolylineVertex
 10
2330.745537212516
 20
293.2454152118154
 30
0.0
 70
    40
  0
VERTEX
  5
1C6D3
330
1C6A9
100
AcDbEntity
  8
KERA0
100
AcDbVertex
100
AcDb3dPolylineVertex
 10
2358.565883515232
 20
295.3738362519794
 30
0.0
 70
    40
  0
VERTEX
  5
1C6D4
330
1C6A9
100
AcDbEntity
  8
KERA0
100
AcDbVertex
100
AcDb3dPolylineVertex
 10
2385.811322813741
 20
301.6003431869774
 30
0.0
 70
    40
  0
VERTEX
  5
1C6D5
330
1C6A9
100
AcDbEntity
  8
KERA0
100
AcDbVertex
100
AcDb3dPolylineVertex
 10
2411.906948103837
 20
311.6868017385613
 30
0.0
 70
    40
  0
VERTEX
  5
1C6D6
330
1C6A9
100
AcDbEntity
  8
KERA0
100
AcDbVertex
100
AcDb3dPolylineVertex
 10
2436.277852381313
 20
325.3950776284874
 30
0.0
 70
    40
  0
VERTEX
  5
1C6D7
330
1C6A9
100
AcDbEntity
  8
KERA0
100
AcDbVertex
100
AcDb3dPolylineVertex
 10
2458.349128641963
 20
342.4870365785084
 30
0.0
 70
    40
  0
VERTEX
  5
1C6D8
330
1C6A9
100
AcDbEntity
  8
KERA0
100
AcDbVertex
100
AcDb3dPolylineVertex
 10
2477.56250063348
 20
362.7079135584803
 30
0.0
 70
    40
  0
VERTEX
  5
1C6D9
330
1C6A9
100
AcDbEntity
  8
KERA0
100
AcDbVertex
100
AcDb3dPolylineVertex
 10
2493.553024594386
 20
385.6096110474294
 30
0.0
 70
    40
  0
VERTEX
  5
1C6DA
330
1C6A9
100
AcDbEntity
  8
KERA0
100
AcDbVertex
100
AcDb3dPolylineVertex
 10
2506.080487402448
 20
410.6193008851343
 30
0.0
 70
    40
  0
VERTEX
  5
1C6DB
330
1C6A9
100
AcDbEntity
  8
KERA0
100
AcDbVertex
100
AcDb3dPolylineVertex
 10
2514.906754779419
 20
437.1620760673913
 30
0.0
 70
    40
  0
VERTEX
  5
1C6DC
330
1C6A9
100
AcDbEntity
  8
KERA0
100
AcDbVertex
100
AcDb3dPolylineVertex
 10
2519.793692447055
 20
464.6630295899924
 30
0.0
 70
    40
  0
SEQEND
  5
1C6DD
330
1C6A9
100
AcDbEntity
  8
KERA0
  0
DIMENSION
  5
1C757
330
1E
100
AcDbEntity
  8
KERA4
100
AcDbDimension
  2
*D0
 10
2544.504585516046
 20
1030.340505424609
 30
0.0
 11
2336.539686489341
 21
1030.340505424609
 31
0.0
 70
   160
  1
434
 71
     5
 42
426.9813547164922
  3
STANDARD
100
AcDbAlignedDimension
 13
2117.523230799554
 23
483.2454147237728
 33
0.0
 14
2544.504585516046
 24
483.245415211815
 34
0.0
100
AcDbRotatedDimension
  0
LINE
  5
1C765
330
1E
100
AcDbEntity
  8
KERA1
100
AcDbLine
 10
2141.045539675304
 20
1408.852300009377
 30
0.0
 11
2150.481774569074
 21
1314.489958945912
 31
0.0
  0
ARC
  5
1C76E
330
1E
100
AcDbEntity
  8
KERA1
100
AcDbCircle
 10
2160.432146462953
 20
1315.484996218332
 30
0.0
 40
10.0
100
AcDbArc
 50
185.7105936108796
 51
268.5000000000001
  0
LINE
  5
1C77D
330
1E
100
AcDbEntity
  8
KERA1
100
AcDbLine
 10
2520.445534749728
 20
1408.852300009377
 30
0.0
 11
2511.009299855959
 21
1314.489958945912
 31
0.0
  0
ARC
  5
1C77E
330
1E
100
AcDbEntity
  8
KERA1
100
AcDbCircle
 10
2501.05892796208
 20
1315.484996218332
 30
0.0
 40
10.0
100
AcDbArc
 50
271.4999999999998
 51
354.2894063891203
  0
LINE
  5
1CF3D
330
1E
100
AcDbEntity
  8
KERA2
100
AcDbLine
 10
2330.745537212516
 20
1448.852300009377
 30
0.0
 11
2330.745537212516
 21
1232.402843635896
 31
0.0
  0
DIMENSION
  5
1CFB8
330
1E
100
AcDbEntity
  8
KERA4
100
AcDbDimension
  2
*D1
 10
2353.345090227121
 20
1205.521793281453
 30
0.0
 11
2481.46582692562
 21
1205.521793281453
 31
0.0
 70
    32
  1
46
 71
     5
 42
45.19910602920845
  3
STANDARD
100
AcDbAlignedDimension
 13
2308.145984197912
 23
1268.42840926974
 33
0.0003017900500879
 14
2353.345090227121
 24
1268.42840926974
 34
0.0003017900500879
100
AcDbRotatedDimension
  0
DIMENSION
  5
1D002
330
1E
100
AcDbEntity
  8
KERA4
100
AcDbDimension
  2
*D2
 10
2520.745537212517
 20
948.6039402955876
 30
0.0
 11
2330.984079066799
 21
948.6039402955876
 31
0.0
 70
    32
 71
     5
 42
379.5229162914361
  3
STANDARD
100
AcDbAlignedDimension
 13
2141.222620921081
 23
483.2454147237728
 33
0.0
 14
2520.745537212517
 24
483.245415211815
 34
0.0
100
AcDbRotatedDimension
  0
LINE
  5
1D6EC
330
1E
100
AcDbEntity
  8
KERA2
100
AcDbLine
 10
2253.217959113714
 20
483.2454147237728
 30
0.0
 11
2408.273115311319
 21
483.2454147237728
 31
0.0
  0
CIRCLE
  5
1D6ED
330
1E
100
AcDbEntity
  8
KERA0
100
AcDbCircle
 10
2330.745537212516
 20
483.2454147237728
 30
0.0
 40
50.0
  0
CIRCLE
  5
1D6EE
330
1E
100
AcDbEntity
  8
KERA0
100
AcDbCircle
 10
2330.745537212516
 20
483.2454147237728
 30
0.0
 40
57.0
  0
LINE
  5
1D6EF
330
1E
100
AcDbEntity
  8
KERA2
100
AcDbLine
 10
2330.745537212516
 20
560.772992822575
 30
0.0
 11
2330.745537212516
 21
405.7178366249705
 31
0.0
  0
LINE
  5
1D712
330
1E
100
AcDbEntity
  8
KERA4
100
AcDbLine
 10
2273.74621357466
 20
503.5230922829746
 30
0.0
 11
2273.74621357466
 21
765.1819795630354
 31
0.0
  0
LINE
  5
1D713
330
1E
100
AcDbEntity
  8
KERA4
100
AcDbLine
 10
2387.744860850373
 20
502.967737164571
 30
0.0
 11
2387.744860850373
 21
768.0458832765053
 31
0.0
  0
LINE
  5
1D714
330
1E
100
AcDbEntity
  8
KERA4
100
AcDbLine
 10
2233.74621357466
 20
872.7348927185085
 30
0.0
 11
2193.74621357466
 21
872.7348927185085
 31
0.0
  0
LINE
  5
1D715
330
1E
100
AcDbEntity
  8
KERA4
100
AcDbLine
 10
2427.744860850373
 20
872.7348927185085
 30
0.0
 11
2467.744860850373
 21
872.7348927185085
 31
0.0
  0
SOLID
  5
1D716
330
1E
100
AcDbEntity
  8
KERA4
100
AcDbTrace
 10
2233.74621357466
 20
879.4015593851751
 30
0.0
 11
2233.74621357466
 21
866.0682260518418
 31
0.0
 12
2273.74621357466
 22
872.7348927185085
 32
0.0
 13
2273.74621357466
 23
872.7348927185085
 33
0.0
  0
SOLID
  5
1D717
330
1E
100
AcDbEntity
  8
KERA4
100
AcDbTrace
 10
2427.744860850373
 20
879.4015593851751
 30
0.0
 11
2427.744860850373
 21
866.0682260518418
 31
0.0
 12
2387.744860850373
 22
872.7348927185085
 32
0.0
 13
2387.744860850373
 23
872.7348927185085
 33
0.0
  0
MTEXT
  5
1D718
330
1E
100
AcDbEntity
  8
KERA4
100
AcDbMText
 10
2330.6647194698
 20
872.7348927185085
 30
0.0
 40
45.0
 41
0.0
 71
     5
 72
     1
  1
115
 73
     1
 44
1.0
  0
INSERT
  5
1D86E
330
1E
100
AcDbEntity
  8
KERA1
100
AcDbBlockReference
  2
Abdeckplatte klein
 10
-1293.615329153835
 20
932.379425546522
 30
0.0
  0
POLYLINE
  5
1D86F
330
1E
100
AcDbEntity
  8
KERA0
100
AcDb3dPolyline
 66
     1
 10
0.0
 20
0.0
 30
0.0
 70
     8
  0
VERTEX
  5
1D870
330
1D86F
100
AcDbEntity
  8
KERA0
100
AcDbVertex
100
AcDb3dPolylineVertex
 10
2330.745537212516
 20
1254.428404501368
 30
0.0
 70
    32
  0
VERTEX
  5
1D871
330
1D86F
100
AcDbEntity
  8
KERA0
100
AcDbVertex
100
AcDb3dPolylineVertex
 10
2325.754949217922
 20
1254.428404501369
 30
0.0
 70
    32
  0
VERTEX
  5
1D872
330
1D86F
100
AcDbEntity
  8
KERA0
100
AcDbVertex
100
AcDb3dPolylineVertex
 10
2320.365593435365
 20
1254.428404501369
 30
0.0
 70
    32
  0
VERTEX
  5
1D873
330
1D86F
100
AcDbEntity
  8
KERA0
100
AcDbVertex
100
AcDb3dPolylineVertex
 10
2314.976237652808
 20
1254.428404501369
 30
0.0
 70
    32
  0
VERTEX
  5
1D874
330
1D86F
100
AcDbEntity
  8
KERA0
100
AcDbVertex
100
AcDb3dPolylineVertex
 10
2309.586881870251
 20
1254.428404501369
 30
0.0
 70
    32
  0
VERTEX
  5
1D875
330
1D86F
100
AcDbEntity
  8
KERA0
100
AcDbVertex
100
AcDb3dPolylineVertex
 10
2304.197526087694
 20
1254.428404501369
 30
0.0
 70
    32
  0
VERTEX
  5
1D876
330
1D86F
100
AcDbEntity
  8
KERA0
100
AcDbVertex
100
AcDb3dPolylineVertex
 10
2298.808170305137
 20
1254.428404501369
 30
0.0
 70
    32
  0
VERTEX
  5
1D877
330
1D86F
100
AcDbEntity
  8
KERA0
100
AcDbVertex
100
AcDb3dPolylineVertex
 10
2293.41881452258
 20
1254.428404501369
 30
0.0
 70
    32
  0
VERTEX
  5
1D878
330
1D86F
100
AcDbEntity
  8
KERA0
100
AcDbVertex
100
AcDb3dPolylineVertex
 10
2288.029458740023
 20
1254.428404501369
 30
0.0
 70
    32
  0
SEQEND
  5
1D879
330
1D86F
100
AcDbEntity
  8
KERA0
  0
POLYLINE
  5
1D87A
330
1E
100
AcDbEntity
  8
KERA1
100
AcDb3dPolyline
 66
     1
 10
0.0
 20
0.0
 30
0.0
 70
     8
  0
VERTEX
  5
1D87B
330
1D87A
100
AcDbEntity
  8
KERA1
100
AcDbVertex
100
AcDb3dPolylineVertex
 10
2330.745537212516
 20
1277.852306305139
 30
0.0
 70
    32
  0
VERTEX
  5
1D87C
330
1D87A
100
AcDbEntity
  8
KERA1
100
AcDbVertex
100
AcDb3dPolylineVertex
 10
2326.812265381964
 20
1277.852306305139
 30
0.0
 70
    32
  0
VERTEX
  5
1D87D
330
1D87A
100
AcDbEntity
  8
KERA1
100
AcDbVertex
100
AcDb3dPolylineVertex
 10
2322.145511686036
 20
1277.852306305139
 30
0.0
 70
    32
  0
VERTEX
  5
1D87E
330
1D87A
100
AcDbEntity
  8
KERA1
100
AcDbVertex
100
AcDb3dPolylineVertex
 10
2317.478757990109
 20
1277.852306305139
 30
0.0
 70
    32
  0
VERTEX
  5
1D87F
330
1D87A
100
AcDbEntity
  8
KERA1
100
AcDbVertex
100
AcDb3dPolylineVertex
 10
2312.812004294181
 20
1277.852306305139
 30
0.0
 70
    32
  0
VERTEX
  5
1D880
330
1D87A
100
AcDbEntity
  8
KERA1
100
AcDbVertex
100
AcDb3dPolylineVertex
 10
2308.145250598253
 20
1277.852306305139
 30
0.0
 70
    32
  0
VERTEX
  5
1D881
330
1D87A
100
AcDbEntity
  8
KERA1
100
AcDbVertex
100
AcDb3dPolylineVertex
 10
2303.478496902325
 20
1277.852306305139
 30
0.0
 70
    32
  0
VERTEX
  5
1D882
330
1D87A
100
AcDbEntity
  8
KERA1
100
AcDbVertex
100
AcDb3dPolylineVertex
 10
2298.811743206397
 20
1277.852306305139
 30
0.0
 70
    32
  0
VERTEX
  5
1D883
330
1D87A
100
AcDbEntity
  8
KERA1
100
AcDbVertex
100
AcDb3dPolylineVertex
 10
2294.144989510469
 20
1277.852306305139
 30
0.0
 70
    32
  0
SEQEND
  5
1D884
330
1D87A
100
AcDbEntity
  8
KERA1
  0
POLYLINE
  5
1D885
330
1E
100
AcDbEntity
  8
KERA1
100
AcDb3dPolyline
 66
     1
 10
0.0
 20
0.0
 30
0.0
 70
    12
 75
     6
  0
VERTEX
  5
1D886
330
1D885
100
AcDbEntity
  8
KERA1
100
AcDbVertex
100
AcDb3dPolylineVertex
 10
2297.161794994325
 20
1275.341762042931
 30
-0.0000000000000213
 70
    48
  0
VERTEX
  5
1E552
330
1D885
100
AcDbEntity
  8
KERA1
100
AcDbVertex
100
AcDb3dPolylineVertex
 10
2297.161794994325
 20
1275.341762042931
 30
-0.0000000000000213
 70
    40
  0
VERTEX
  5
1E553
330
1D885
100
AcDbEntity
  8
KERA1
100
AcDbVertex
100
AcDb3dPolylineVertex
 10
2296.390445077695
 20
1275.933738475387
 30
-0.0000000000000213
 70
    40
  0
VERTEX
  5
1E554
330
1D885
100
AcDbEntity
  8
KERA1
100
AcDbVertex
100
AcDb3dPolylineVertex
 10
2295.583047273198
 20
1276.45692424614
 30
-0.0000000000000213
 70
    40
  0
VERTEX
  5
1E555
330
1D885
100
AcDbEntity
  8
KERA1
100
AcDbVertex
100
AcDb3dPolylineVertex
 10
2294.742551769138
 20
1276.910392594568
 30
-0.0000000000000213
 70
    40
  0
VERTEX
  5
1E556
330
1D885
100
AcDbEntity
  8
KERA1
100
AcDbVertex
100
AcDb3dPolylineVertex
 10
2293.871908753814
 20
1277.293216760048
 30
-0.0000000000000213
 70
    40
  0
VERTEX
  5
1E557
330
1D885
100
AcDbEntity
  8
KERA1
100
AcDbVertex
100
AcDb3dPolylineVertex
 10
2292.974068415527
 20
1277.604469981957
 30
-0.0000000000000213
 70
    40
  0
VERTEX
  5
1E558
330
1D885
100
AcDbEntity
  8
KERA1
100
AcDbVertex
100
AcDb3dPolylineVertex
 10
2292.051980942577
 20
1277.843225499674
 30
-0.0000000000000213
 70
    40
  0
VERTEX
  5
1E559
330
1D885
100
AcDbEntity
  8
KERA1
100
AcDbVertex
100
AcDb3dPolylineVertex
 10
2291.108596523267
 20
1278.008556552575
 30
-0.0000000000000213
 70
    40
  0
VERTEX
  5
1E55A
330
1D885
100
AcDbEntity
  8
KERA1
100
AcDbVertex
100
AcDb3dPolylineVertex
 10
2290.146865345895
 20
1278.099536380038
 30
-0.0000000000000213
 70
    40
  0
VERTEX
  5
1D887
330
1D885
100
AcDbEntity
  8
KERA1
100
AcDbVertex
100
AcDb3dPolylineVertex
 10
2295.155548123398
 20
1277.011262957864
 30
-0.0000000000000213
 70
    48
  0
VERTEX
  5
1D888
330
1D885
100
AcDbEntity
  8
KERA1
100
AcDbVertex
100
AcDb3dPolylineVertex
 10
2292.733321773366
 20
1277.956882261274
 30
-0.0000000000000213
 70
    48
  0
VERTEX
  5
1D889
330
1D885
100
AcDbEntity
  8
KERA1
100
AcDbVertex
100
AcDb3dPolylineVertex
 10
2290.146865345894
 20
1278.099536380038
 30
-0.0000000000000213
 70
    48
  0
SEQEND
  5
1D893
330
1D885
100
AcDbEntity
  8
KERA1
  0
ARC
  5
1D894
330
1E
100
AcDbEntity
  8
KERA0
100
AcDbCircle
 10
2273.819165214186
 20
1261.059986136072
 30
-0.004942726714985
 40
7.929755623318583
100
AcDbArc
 50
17.37039437056189
 51
60.31488487908666
  0
POLYLINE
  5
1D895
330
1E
100
AcDbEntity
  8
KERA0
100
AcDb3dPolyline
 66
     1
 10
0.0
 20
0.0
 30
0.0
 70
    12
 75
     6
  0
VERTEX
  5
1D896
330
1D895
100
AcDbEntity
  8
KERA0
100
AcDbVertex
100
AcDb3dPolylineVertex
 10
2288.046830991774
 20
1254.428377224771
 30
0.003338453145208
 70
    48
  0
VERTEX
  5
1E564
330
1D895
100
AcDbEntity
  8
KERA0
100
AcDbVertex
100
AcDb3dPolylineVertex
 10
2288.046830991774
 20
1254.428377224771
 30
0.003338453145208
 70
    40
  0
VERTEX
  5
1E565
330
1D895
100
AcDbEntity
  8
KERA0
100
AcDbVertex
100
AcDb3dPolylineVertex
 10
2286.996452794389
 20
1254.52825757367
 30
0.0024280333224336
 70
    40
  0
VERTEX
  5
1E566
330
1D895
100
AcDbEntity
  8
KERA0
100
AcDbVertex
100
AcDb3dPolylineVertex
 10
2285.994639867232
 20
1254.815110613704
 30
0.0015597076566287
 70
    40
  0
VERTEX
  5
1E567
330
1D895
100
AcDbEntity
  8
KERA0
100
AcDbVertex
100
AcDb3dPolylineVertex
 10
2285.061701957633
 20
1255.269754334888
 30
0.0007510797086938
 70
    40
  0
VERTEX
  5
1E568
330
1D895
100
AcDbEntity
  8
KERA0
100
AcDbVertex
100
AcDb3dPolylineVertex
 10
2284.217948812925
 20
1255.873006727231
 30
0.0000197530395291
 70
    40
  0
VERTEX
  5
1E569
330
1D895
100
AcDbEntity
  8
KERA0
100
AcDbVertex
100
AcDb3dPolylineVertex
 10
2283.48369018044
 20
1256.605685780745
 30
-0.0006166687899652
 70
    40
  0
VERTEX
  5
1E56A
330
1D895
100
AcDbEntity
  8
KERA0
100
AcDbVertex
100
AcDb3dPolylineVertex
 10
2282.879235807509
 20
1257.448609485442
 30
-0.0011405822188886
 70
    40
  0
VERTEX
  5
1E56B
330
1D895
100
AcDbEntity
  8
KERA0
100
AcDbVertex
100
AcDb3dPolylineVertex
 10
2282.424895441465
 20
1258.382595831333
 30
-0.001534383686341
 70
    40
  0
VERTEX
  5
1E56C
330
1D895
100
AcDbEntity
  8
KERA0
100
AcDbVertex
100
AcDb3dPolylineVertex
 10
2282.140978829639
 20
1259.388462808429
 30
-0.001780469631422
 70
    40
  0
VERTEX
  5
1D897
330
1D895
100
AcDbEntity
  8
KERA0
100
AcDbVertex
100
AcDb3dPolylineVertex
 10
2285.199121880519
 20
1254.428377224771
 30
0.0008701890182058
 70
    48
  0
VERTEX
  5
1D898
330
1D895
100
AcDbEntity
  8
KERA0
100
AcDbVertex
100
AcDb3dPolylineVertex
 10
2282.652805013477
 20
1256.627360703444
 30
-0.001336842084057
 70
    48
  0
VERTEX
  5
1D899
330
1D895
100
AcDbEntity
  8
KERA0
100
AcDbVertex
100
AcDb3dPolylineVertex
 10
2282.14097882964
 20
1259.388462808429
 30
-0.001780469631422
 70
    48
  0
SEQEND
  5
1D8A6
330
1D895
100
AcDbEntity
  8
KERA0
  0
POLYLINE
  5
1D8A7
330
1E
100
AcDbEntity
  8
KERA0
100
AcDb3dPolyline
 66
     1
 10
0.0
 20
0.0
 30
0.0
 70
    12
 75
     6
  0
VERTEX
  5
1D8A8
330
1D8A7
100
AcDbEntity
  8
KERA0
100
AcDbVertex
100
AcDb3dPolylineVertex
 10
2281.387282113527
 20
1263.427396291381
 30
-0.004942726714985
 70
    48
  0
VERTEX
  5
1E55B
330
1D8A7
100
AcDbEntity
  8
KERA0
100
AcDbVertex
100
AcDb3dPolylineVertex
 10
2281.387282113527
 20
1263.427396291381
 30
-0.004942726714985
 70
    40
  0
VERTEX
  5
1E55C
330
1D8A7
100
AcDbEntity
  8
KERA0
100
AcDbVertex
100
AcDb3dPolylineVertex
 10
2281.481494600444
 20
1262.922531138968
 30
-0.0041023271716842
 70
    40
  0
VERTEX
  5
1E55D
330
1D8A7
100
AcDbEntity
  8
KERA0
100
AcDbVertex
100
AcDb3dPolylineVertex
 10
2281.575707087359
 20
1262.417665986555
 30
-0.0032619276283834
 70
    40
  0
VERTEX
  5
1E55E
330
1D8A7
100
AcDbEntity
  8
KERA0
100
AcDbVertex
100
AcDb3dPolylineVertex
 10
2281.669919574274
 20
1261.912800834143
 30
-0.0024215280850826
 70
    40
  0
VERTEX
  5
1E55F
330
1D8A7
100
AcDbEntity
  8
KERA0
100
AcDbVertex
100
AcDb3dPolylineVertex
 10
2281.76413206119
 20
1261.407935681731
 30
-0.0015811285417818
 70
    40
  0
VERTEX
  5
1E560
330
1D8A7
100
AcDbEntity
  8
KERA0
100
AcDbVertex
100
AcDb3dPolylineVertex
 10
2281.858344548104
 20
1260.903070529319
 30
-0.0007407289984809
 70
    40
  0
VERTEX
  5
1E561
330
1D8A7
100
AcDbEntity
  8
KERA0
100
AcDbVertex
100
AcDb3dPolylineVertex
 10
2281.952557035018
 20
1260.398205376907
 30
0.00009967054482
 70
    40
  0
VERTEX
  5
1E562
330
1D8A7
100
AcDbEntity
  8
KERA0
100
AcDbVertex
100
AcDb3dPolylineVertex
 10
2282.046769521933
 20
1259.893340224496
 30
0.000940070088121
 70
    40
  0
VERTEX
  5
1E563
330
1D8A7
100
AcDbEntity
  8
KERA0
100
AcDbVertex
100
AcDb3dPolylineVertex
 10
2282.140982008846
 20
1259.388475072084
 30
0.001780469631422
 70
    40
  0
VERTEX
  5
1D8A9
330
1D8A7
100
AcDbEntity
  8
KERA0
100
AcDbVertex
100
AcDb3dPolylineVertex
 10
2281.638515411972
 20
1262.081089218279
 30
-0.002701661266183
 70
    48
  0
VERTEX
  5
1D8AA
330
1D8A7
100
AcDbEntity
  8
KERA0
100
AcDbVertex
100
AcDb3dPolylineVertex
 10
2281.889748710409
 20
1260.734782145182
 30
-0.0004605958173807
 70
    48
  0
VERTEX
  5
1D8AB
330
1D8A7
100
AcDbEntity
  8
KERA0
100
AcDbVertex
100
AcDb3dPolylineVertex
 10
2282.140982008847
 20
1259.388475072084
 30
0.001780469631422
 70
    48
  0
SEQEND
  5
1D8B5
330
1D8A7
100
AcDbEntity
  8
KERA0
  0
ARC
  5
1D8B6
330
1E
100
AcDbEntity
  8
KERA0
100
AcDbCircle
 10
2283.817475307975
 20
1289.153652414388
 30
-0.004942726714985
 40
21.90010174573866
100
AcDbArc
 50
199.0326311090971
 51
234.6281256388317
  0
ARC
  5
1D8B7
330
1E
100
AcDbEntity
  8
KERA0
100
AcDbCircle
 10
2253.217376828563
 20
1278.519078772329
 30
-0.0049427267150164
 40
10.48963230597413
100
AcDbArc
 50
20.49443288583651
 51
62.39483615397598
  0
ARC
  5
1D8B8
330
1E
100
AcDbEntity
  8
KERA1
100
AcDbCircle
 10
2279.862025662103
 20
1277.638302283323
 30
-0.0000000000000018
 40
5.0
100
AcDbArc
 50
25.67311703584829
 51
79.2816956234719
  0
LINE
  5
1D8B9
330
1E
100
AcDbEntity
  8
KERA1
100
AcDbLine
 10
2273.217581856836
 20
1296.88550481277
 30
0.0
 11
2274.15023699132
 21
1286.942310983601
 31
-0.0000000000000015
  0
ARC
  5
1D8BA
330
1E
100
AcDbEntity
  8
KERA1
100
AcDbCircle
 10
2278.770258941793
 20
1288.538346048887
 30
-0.0000000000000018
 40
4.886622726356658
100
AcDbArc
 50
200.1838094770181
 51
234.7445386929189
  0
ARC
  5
1D8BB
330
1E
100
AcDbEntity
  8
KERA1
100
AcDbCircle
 10
2282.77886835864
 20
1294.289581018422
 30
-0.0000000000000018
 40
11.89695581396876
100
AcDbArc
 50
234.9678514227533
 51
253.4355205851108
  0
ARC
  5
1D8BC
330
1E
100
AcDbEntity
  8
KERA1
100
AcDbCircle
 10
2283.637400175559
 20
1297.583977915647
 30
-0.0000000000000018
 40
15.29983815567872
100
AcDbArc
 50
253.8710938730328
 51
259.2816956234719
  0
ARC
  5
1D8BD
330
1E
100
AcDbEntity
  8
KERA1
100
AcDbCircle
 10
2270.230692602011
 20
1296.605339541177
 30
-0.0000000000002766
 40
3.0
100
AcDbArc
 50
5.358570914782329
 51
88.65997779301789
  0
ARC
  5
1D8BE
330
1E
100
AcDbEntity
  8
KERA0
100
AcDbCircle
 10
2288.641157824778
 20
1297.646720848226
 30
-0.004942726714985
 40
31.63307305749169
100
AcDbArc
 50
236.4092212452578
 51
249.8538891636724
  0
ARC
  5
1D8BF
330
1E
100
AcDbEntity
  8
KERA1
100
AcDbCircle
 10
2286.947026858032
 20
1281.043989799565
 30
-0.0000000000000196
 40
2.861039969660597
100
AcDbArc
 50
205.6731170358511
 51
268.3361605059498
  0
LINE
  5
1D8C0
330
1E
100
AcDbEntity
  8
KERA1
100
AcDbLine
 10
2286.863955429221
 20
1278.184156090114
 30
-0.0000000000000196
 11
2290.146865345894
 21
1278.099536380038
 31
-0.0000000000000213
  0
ARC
  5
1D8C1
330
1E
100
AcDbEntity
  8
KERA0
100
AcDbCircle
 10
2387.549892701466
 20
1260.097695711848
 30
0.0000000000000314
 40
7.929755623318583
100
AcDbArc
 50
119.6851151209133
 51
162.6296056294381
  0
POLYLINE
  5
1D8C2
330
1E
100
AcDbEntity
  8
KERA1
100
AcDb3dPolyline
 66
     1
 10
0.0
 20
0.0
 30
0.0
 70
    12
 75
     6
  0
VERTEX
  5
1D8C3
330
1D8C2
100
AcDbEntity
  8
KERA1
100
AcDbVertex
100
AcDb3dPolylineVertex
 10
2307.903956163959
 20
1265.06386640286
 30
0.000196815574694
 70
    48
  0
VERTEX
  5
1E591
330
1D8C2
100
AcDbEntity
  8
KERA1
100
AcDbVertex
100
AcDb3dPolylineVertex
 10
2307.903956163959
 20
1265.06386640286
 30
0.000196815574694
 70
    40
  0
VERTEX
  5
1E592
330
1D8C2
100
AcDbEntity
  8
KERA1
100
AcDbVertex
100
AcDb3dPolylineVertex
 10
2307.934209668204
 20
1263.734433665173
 30
0.0002099373841262
 70
    40
  0
VERTEX
  5
1E593
330
1D8C2
100
AcDbEntity
  8
KERA1
100
AcDbVertex
100
AcDb3dPolylineVertex
 10
2307.964463172448
 20
1262.405000927486
 30
0.0002230591935583
 70
    40
  0
VERTEX
  5
1E594
330
1D8C2
100
AcDbEntity
  8
KERA1
100
AcDbVertex
100
AcDb3dPolylineVertex
 10
2307.994716676692
 20
1261.0755681898
 30
0.0002361810029905
 70
    40
  0
VERTEX
  5
1E595
330
1D8C2
100
AcDbEntity
  8
KERA1
100
AcDbVertex
100
AcDb3dPolylineVertex
 10
2308.024970180936
 20
1259.746135452114
 30
0.0002493028124226
 70
    40
  0
VERTEX
  5
1E596
330
1D8C2
100
AcDbEntity
  8
KERA1
100
AcDbVertex
100
AcDb3dPolylineVertex
 10
2308.05522368518
 20
1258.416702714428
 30
0.0002624246218547
 70
    40
  0
VERTEX
  5
1E597
330
1D8C2
100
AcDbEntity
  8
KERA1
100
AcDbVertex
100
AcDb3dPolylineVertex
 10
2308.085477189424
 20
1257.087269976742
 30
0.0002755464312868
 70
    40
  0
VERTEX
  5
1E598
330
1D8C2
100
AcDbEntity
  8
KERA1
100
AcDbVertex
100
AcDb3dPolylineVertex
 10
2308.115730693668
 20
1255.757837239055
 30
0.0002886682407189
 70
    40
  0
VERTEX
  5
1E599
330
1D8C2
100
AcDbEntity
  8
KERA1
100
AcDbVertex
100
AcDb3dPolylineVertex
 10
2308.145984197912
 20
1254.428404501369
 30
0.000301790050151
 70
    40
  0
VERTEX
  5
1D8C4
330
1D8C2
100
AcDbEntity
  8
KERA1
100
AcDbVertex
100
AcDb3dPolylineVertex
 10
2307.984632175277
 20
1261.518712435695
 30
0.0002318070665132
 70
    48
  0
VERTEX
  5
1D8C5
330
1D8C2
100
AcDbEntity
  8
KERA1
100
AcDbVertex
100
AcDb3dPolylineVertex
 10
2308.065308186594
 20
1257.973558468533
 30
0.0002667985583321
 70
    48
  0
VERTEX
  5
1D8C6
330
1D8C2
100
AcDbEntity
  8
KERA1
100
AcDbVertex
100
AcDb3dPolylineVertex
 10
2308.145984197912
 20
1254.428404501369
 30
0.000301790050151
 70
    48
  0
SEQEND
  5
1D8D0
330
1D8C2
100
AcDbEntity
  8
KERA1
  0
POLYLINE
  5
1D8D1
330
1E
100
AcDbEntity
  8
KERA1
100
AcDb3dPolyline
 66
     1
 10
0.0
 20
0.0
 30
0.0
 70
    12
 75
     6
  0
VERTEX
  5
1D8D2
330
1D8D1
100
AcDbEntity
  8
KERA1
100
AcDbVertex
100
AcDb3dPolylineVertex
 10
2353.587118261073
 20
1265.06386640286
 30
0.000196815574694
 70
    48
  0
VERTEX
  5
1E5AC
330
1D8D1
100
AcDbEntity
  8
KERA1
100
AcDbVertex
100
AcDb3dPolylineVertex
 10
2353.587118261073
 20
1265.06386640286
 30
0.000196815574694
 70
    40
  0
VERTEX
  5
1E5AD
330
1D8D1
100
AcDbEntity
  8
KERA1
100
AcDbVertex
100
AcDb3dPolylineVertex
 10
2353.556864756829
 20
1263.734433665173
 30
0.0002099373841262
 70
    40
  0
VERTEX
  5
1E5AE
330
1D8D1
100
AcDbEntity
  8
KERA1
100
AcDbVertex
100
AcDb3dPolylineVertex
 10
2353.526611252584
 20
1262.405000927486
 30
0.0002230591935583
 70
    40
  0
VERTEX
  5
1E5AF
330
1D8D1
100
AcDbEntity
  8
KERA1
100
AcDbVertex
100
AcDb3dPolylineVertex
 10
2353.49635774834
 20
1261.0755681898
 30
0.0002361810029905
 70
    40
  0
VERTEX
  5
1E5B0
330
1D8D1
100
AcDbEntity
  8
KERA1
100
AcDbVertex
100
AcDb3dPolylineVertex
 10
2353.466104244096
 20
1259.746135452114
 30
0.0002493028124226
 70
    40
  0
VERTEX
  5
1E5B1
330
1D8D1
100
AcDbEntity
  8
KERA1
100
AcDbVertex
100
AcDb3dPolylineVertex
 10
2353.435850739852
 20
1258.416702714428
 30
0.0002624246218547
 70
    40
  0
VERTEX
  5
1E5B2
330
1D8D1
100
AcDbEntity
  8
KERA1
100
AcDbVertex
100
AcDb3dPolylineVertex
 10
2353.405597235608
 20
1257.087269976742
 30
0.0002755464312868
 70
    40
  0
VERTEX
  5
1E5B3
330
1D8D1
100
AcDbEntity
  8
KERA1
100
AcDbVertex
100
AcDb3dPolylineVertex
 10
2353.375343731364
 20
1255.757837239055
 30
0.0002886682407189
 70
    40
  0
VERTEX
  5
1E5B4
330
1D8D1
100
AcDbEntity
  8
KERA1
100
AcDbVertex
100
AcDb3dPolylineVertex
 10
2353.34509022712
 20
1254.428404501369
 30
0.000301790050151
 70
    40
  0
VERTEX
  5
1D8D3
330
1D8D1
100
AcDbEntity
  8
KERA1
100
AcDbVertex
100
AcDb3dPolylineVertex
 10
2353.506442249755
 20
1261.518712435695
 30
0.0002318070665132
 70
    48
  0
VERTEX
  5
1D8D4
330
1D8D1
100
AcDbEntity
  8
KERA1
100
AcDbVertex
100
AcDb3dPolylineVertex
 10
2353.425766238438
 20
1257.973558468533
 30
0.0002667985583321
 70
    48
  0
VERTEX
  5
1D8D5
330
1D8D1
100
AcDbEntity
  8
KERA1
100
AcDbVertex
100
AcDb3dPolylineVertex
 10
2353.34509022712
 20
1254.428404501369
 30
0.000301790050151
 70
    48
  0
SEQEND
  5
1D8DF
330
1D8D1
100
AcDbEntity
  8
KERA1
  0
POLYLINE
  5
1D8E0
330
1E
100
AcDbEntity
  8
KERA0
100
AcDb3dPolyline
 66
     1
 10
0.0
 20
0.0
 30
0.0
 70
     8
  0
VERTEX
  5
1D8E1
330
1D8E0
100
AcDbEntity
  8
KERA0
100
AcDbVertex
100
AcDb3dPolylineVertex
 10
2330.745537212516
 20
1254.428404501368
 30
0.0
 70
    32
  0
VERTEX
  5
1D8E2
330
1D8E0
100
AcDbEntity
  8
KERA0
100
AcDbVertex
100
AcDb3dPolylineVertex
 10
2335.73612520711
 20
1254.428404501369
 30
0.0
 70
    32
  0
VERTEX
  5
1D8E3
330
1D8E0
100
AcDbEntity
  8
KERA0
100
AcDbVertex
100
AcDb3dPolylineVertex
 10
2341.125480989667
 20
1254.428404501369
 30
0.0
 70
    32
  0
VERTEX
  5
1D8E4
330
1D8E0
100
AcDbEntity
  8
KERA0
100
AcDbVertex
100
AcDb3dPolylineVertex
 10
2346.514836772224
 20
1254.428404501369
 30
0.0
 70
    32
  0
VERTEX
  5
1D8E5
330
1D8E0
100
AcDbEntity
  8
KERA0
100
AcDbVertex
100
AcDb3dPolylineVertex
 10
2351.904192554781
 20
1254.428404501369
 30
0.0
 70
    32
  0
VERTEX
  5
1D8E6
330
1D8E0
100
AcDbEntity
  8
KERA0
100
AcDbVertex
100
AcDb3dPolylineVertex
 10
2357.293548337338
 20
1254.428404501369
 30
0.0
 70
    32
  0
VERTEX
  5
1D8E7
330
1D8E0
100
AcDbEntity
  8
KERA0
100
AcDbVertex
100
AcDb3dPolylineVertex
 10
2362.682904119895
 20
1254.428404501369
 30
0.0
 70
    32
  0
VERTEX
  5
1D8E8
330
1D8E0
100
AcDbEntity
  8
KERA0
100
AcDbVertex
100
AcDb3dPolylineVertex
 10
2368.072259902452
 20
1254.428404501369
 30
0.0
 70
    32
  0
VERTEX
  5
1D8E9
330
1D8E0
100
AcDbEntity
  8
KERA0
100
AcDbVertex
100
AcDb3dPolylineVertex
 10
2373.461615685009
 20
1254.428404501369
 30
0.0
 70
    32
  0
SEQEND
  5
1D8EA
330
1D8E0
100
AcDbEntity
  8
KERA0
  0
POLYLINE
  5
1D8EB
330
1E
100
AcDbEntity
  8
KERA0
100
AcDb3dPolyline
 66
     1
 10
0.0
 20
0.0
 30
0.0
 70
    12
 75
     6
  0
VERTEX
  5
1D8EC
330
1D8EB
100
AcDbEntity
  8
KERA0
100
AcDbVertex
100
AcDb3dPolylineVertex
 10
2373.444243433259
 20
1254.428377224771
 30
0.003338453145208
 70
    48
  0
VERTEX
  5
1E5C7
330
1D8EB
100
AcDbEntity
  8
KERA0
100
AcDbVertex
100
AcDb3dPolylineVertex
 10
2373.444243433259
 20
1254.428377224771
 30
0.003338453145208
 70
    40
  0
VERTEX
  5
1E5C8
330
1D8EB
100
AcDbEntity
  8
KERA0
100
AcDbVertex
100
AcDb3dPolylineVertex
 10
2374.494621630643
 20
1254.52825757367
 30
0.0024280333224336
 70
    40
  0
VERTEX
  5
1E5C9
330
1D8EB
100
AcDbEntity
  8
KERA0
100
AcDbVertex
100
AcDb3dPolylineVertex
 10
2375.4964345578
 20
1254.815110613704
 30
0.0015597076566287
 70
    40
  0
VERTEX
  5
1E5CA
330
1D8EB
100
AcDbEntity
  8
KERA0
100
AcDbVertex
100
AcDb3dPolylineVertex
 10
2376.429372467399
 20
1255.269754334888
 30
0.0007510797086938
 70
    40
  0
VERTEX
  5
1E5CB
330
1D8EB
100
AcDbEntity
  8
KERA0
100
AcDbVertex
100
AcDb3dPolylineVertex
 10
2377.273125612107
 20
1255.873006727231
 30
0.0000197530395291
 70
    40
  0
VERTEX
  5
1E5CC
330
1D8EB
100
AcDbEntity
  8
KERA0
100
AcDbVertex
100
AcDb3dPolylineVertex
 10
2378.007384244592
 20
1256.605685780745
 30
-0.0006166687899652
 70
    40
  0
VERTEX
  5
1E5CD
330
1D8EB
100
AcDbEntity
  8
KERA0
100
AcDbVertex
100
AcDb3dPolylineVertex
 10
2378.611838617522
 20
1257.448609485442
 30
-0.0011405822188886
 70
    40
  0
VERTEX
  5
1E5CE
330
1D8EB
100
AcDbEntity
  8
KERA0
100
AcDbVertex
100
AcDb3dPolylineVertex
 10
2379.066178983566
 20
1258.382595831333
 30
-0.001534383686341
 70
    40
  0
VERTEX
  5
1E5CF
330
1D8EB
100
AcDbEntity
  8
KERA0
100
AcDbVertex
100
AcDb3dPolylineVertex
 10
2379.350095595392
 20
1259.388462808429
 30
-0.001780469631422
 70
    40
  0
VERTEX
  5
1D8ED
330
1D8EB
100
AcDbEntity
  8
KERA0
100
AcDbVertex
100
AcDb3dPolylineVertex
 10
2376.291952544513
 20
1254.428377224771
 30
0.0008701890182058
 70
    48
  0
VERTEX
  5
1D8EE
330
1D8EB
100
AcDbEntity
  8
KERA0
100
AcDbVertex
100
AcDb3dPolylineVertex
 10
2378.838269411555
 20
1256.627360703444
 30
-0.001336842084057
 70
    48
  0
VERTEX
  5
1D8EF
330
1D8EB
100
AcDbEntity
  8
KERA0
100
AcDbVertex
100
AcDb3dPolylineVertex
 10
2379.350095595392
 20
1259.388462808429
 30
-0.001780469631422
 70
    48
  0
SEQEND
  5
1D8FC
330
1D8EB
100
AcDbEntity
  8
KERA0
  0
POLYLINE
  5
1D8FD
330
1E
100
AcDbEntity
  8
KERA0
100
AcDb3dPolyline
 66
     1
 10
0.0
 20
0.0
 30
0.0
 70
    12
 75
     6
  0
VERTEX
  5
1D8FE
330
1D8FD
100
AcDbEntity
  8
KERA0
100
AcDbVertex
100
AcDb3dPolylineVertex
 10
2380.103792311505
 20
1263.427396291381
 30
-0.004942726714985
 70
    48
  0
VERTEX
  5
1E5BE
330
1D8FD
100
AcDbEntity
  8
KERA0
100
AcDbVertex
100
AcDb3dPolylineVertex
 10
2380.103792311505
 20
1263.427396291381
 30
-0.004942726714985
 70
    40
  0
VERTEX
  5
1E5BF
330
1D8FD
100
AcDbEntity
  8
KERA0
100
AcDbVertex
100
AcDb3dPolylineVertex
 10
2380.009579824589
 20
1262.922531138968
 30
-0.0041023271716842
 70
    40
  0
VERTEX
  5
1E5C0
330
1D8FD
100
AcDbEntity
  8
KERA0
100
AcDbVertex
100
AcDb3dPolylineVertex
 10
2379.915367337673
 20
1262.417665986555
 30
-0.0032619276283834
 70
    40
  0
VERTEX
  5
1E5C1
330
1D8FD
100
AcDbEntity
  8
KERA0
100
AcDbVertex
100
AcDb3dPolylineVertex
 10
2379.821154850757
 20
1261.912800834143
 30
-0.0024215280850826
 70
    40
  0
VERTEX
  5
1E5C2
330
1D8FD
100
AcDbEntity
  8
KERA0
100
AcDbVertex
100
AcDb3dPolylineVertex
 10
2379.726942363842
 20
1261.407935681731
 30
-0.0015811285417818
 70
    40
  0
VERTEX
  5
1E5C3
330
1D8FD
100
AcDbEntity
  8
KERA0
100
AcDbVertex
100
AcDb3dPolylineVertex
 10
2379.632729876928
 20
1260.903070529319
 30
-0.0007407289984809
 70
    40
  0
VERTEX
  5
1E5C4
330
1D8FD
100
AcDbEntity
  8
KERA0
100
AcDbVertex
100
AcDb3dPolylineVertex
 10
2379.538517390013
 20
1260.398205376907
 30
0.00009967054482
 70
    40
  0
VERTEX
  5
1E5C5
330
1D8FD
100
AcDbEntity
  8
KERA0
100
AcDbVertex
100
AcDb3dPolylineVertex
 10
2379.444304903099
 20
1259.893340224496
 30
0.000940070088121
 70
    40
  0
VERTEX
  5
1E5C6
330
1D8FD
100
AcDbEntity
  8
KERA0
100
AcDbVertex
100
AcDb3dPolylineVertex
 10
2379.350092416184
 20
1259.388475072084
 30
0.001780469631422
 70
    40
  0
VERTEX
  5
1D8FF
330
1D8FD
100
AcDbEntity
  8
KERA0
100
AcDbVertex
100
AcDb3dPolylineVertex
 10
2379.85255901306
 20
1262.081089218279
 30
-0.002701661266183
 70
    48
  0
VERTEX
  5
1D900
330
1D8FD
100
AcDbEntity
  8
KERA0
100
AcDbVertex
100
AcDb3dPolylineVertex
 10
2379.601325714623
 20
1260.734782145182
 30
-0.0004605958173807
 70
    48
  0
VERTEX
  5
1D901
330
1D8FD
100
AcDbEntity
  8
KERA0
100
AcDbVertex
100
AcDb3dPolylineVertex
 10
2379.350092416185
 20
1259.388475072084
 30
0.001780469631422
 70
    48
  0
SEQEND
  5
1D90B
330
1D8FD
100
AcDbEntity
  8
KERA0
  0
POLYLINE
  5
1D90C
330
1E
100
AcDbEntity
  8
KERA1
100
AcDb3dPolyline
 66
     1
 10
0.0
 20
0.0
 30
0.0
 70
    12
 75
     6
  0
VERTEX
  5
1D90D
330
1D90C
100
AcDbEntity
  8
KERA1
100
AcDbVertex
100
AcDb3dPolylineVertex
 10
2364.329277888762
 20
1275.341763895893
 30
-0.0000000000000222
 70
    48
  0
VERTEX
  5
1E549
330
1D90C
100
AcDbEntity
  8
KERA1
100
AcDbVertex
100
AcDb3dPolylineVertex
 10
2364.329277888762
 20
1275.341763895893
 30
-0.0000000000000222
 70
    40
  0
VERTEX
  5
1E54A
330
1D90C
100
AcDbEntity
  8
KERA1
100
AcDbVertex
100
AcDb3dPolylineVertex
 10
2363.121542868481
 20
1274.336745644863
 30
-0.0000000000000238
 70
    40
  0
VERTEX
  5
1E54B
330
1D90C
100
AcDbEntity
  8
KERA1
100
AcDbVertex
100
AcDb3dPolylineVertex
 10
2361.913807848201
 20
1273.331727393833
 30
-0.0000000000000255
 70
    40
  0
VERTEX
  5
1E54C
330
1D90C
100
AcDbEntity
  8
KERA1
100
AcDbVertex
100
AcDb3dPolylineVertex
 10
2360.70607282792
 20
1272.326709142803
 30
-0.0000000000000273
 70
    40
  0
VERTEX
  5
1E54D
330
1D90C
100
AcDbEntity
  8
KERA1
100
AcDbVertex
100
AcDb3dPolylineVertex
 10
2359.49833780764
 20
1271.321690891773
 30
-0.0000000000000291
 70
    40
  0
VERTEX
  5
1E54E
330
1D90C
100
AcDbEntity
  8
KERA1
100
AcDbVertex
100
AcDb3dPolylineVertex
 10
2358.29060278736
 20
1270.316672640742
 30
-0.0000000000000308
 70
    40
  0
VERTEX
  5
1E54F
330
1D90C
100
AcDbEntity
  8
KERA1
100
AcDbVertex
100
AcDb3dPolylineVertex
 10
2357.082867767079
 20
1269.311654389712
 30
-0.0000000000000325
 70
    40
  0
VERTEX
  5
1E550
330
1D90C
100
AcDbEntity
  8
KERA1
100
AcDbVertex
100
AcDb3dPolylineVertex
 10
2355.875132746799
 20
1268.306636138682
 30
-0.000000000000034
 70
    40
  0
VERTEX
  5
1E551
330
1D90C
100
AcDbEntity
  8
KERA1
100
AcDbVertex
100
AcDb3dPolylineVertex
 10
2354.667397726518
 20
1267.301617887651
 30
-0.0000000000000354
 70
    40
  0
VERTEX
  5
1D90E
330
1D90C
100
AcDbEntity
  8
KERA1
100
AcDbVertex
100
AcDb3dPolylineVertex
 10
2361.108651168014
 20
1272.66171522648
 30
-0.0000000000000264
 70
    48
  0
VERTEX
  5
1D90F
330
1D90C
100
AcDbEntity
  8
KERA1
100
AcDbVertex
100
AcDb3dPolylineVertex
 10
2357.888024447265
 20
1269.981666557066
 30
-0.0000000000000319
 70
    48
  0
VERTEX
  5
1D910
330
1D90C
100
AcDbEntity
  8
KERA1
100
AcDbVertex
100
AcDb3dPolylineVertex
 10
2354.667397726518
 20
1267.301617887651
 30
-0.0000000000000354
 70
    48
  0
SEQEND
  5
1D91A
330
1D90C
100
AcDbEntity
  8
KERA1
  0
POLYLINE
  5
1D91B
330
1E
100
AcDbEntity
  8
KERA1
100
AcDb3dPolyline
 66
     1
 10
0.0
 20
0.0
 30
0.0
 70
    12
 75
     6
  0
VERTEX
  5
1D91C
330
1D91B
100
AcDbEntity
  8
KERA1
100
AcDbVertex
100
AcDb3dPolylineVertex
 10
2364.329277888762
 20
1275.341763895893
 30
0.0000000000000243
 70
    48
  0
VERTEX
  5
1E540
330
1D91B
100
AcDbEntity
  8
KERA1
100
AcDbVertex
100
AcDb3dPolylineVertex
 10
2364.329277888762
 20
1275.341763895893
 30
0.0000000000000243
 70
    40
  0
VERTEX
  5
1E541
330
1D91B
100
AcDbEntity
  8
KERA1
100
AcDbVertex
100
AcDb3dPolylineVertex
 10
2363.121542868481
 20
1274.336745644863
 30
0.0000000000000258
 70
    40
  0
VERTEX
  5
1E542
330
1D91B
100
AcDbEntity
  8
KERA1
100
AcDbVertex
100
AcDb3dPolylineVertex
 10
2361.913807848201
 20
1273.331727393833
 30
0.0000000000000274
 70
    40
  0
VERTEX
  5
1E543
330
1D91B
100
AcDbEntity
  8
KERA1
100
AcDbVertex
100
AcDb3dPolylineVertex
 10
2360.70607282792
 20
1272.326709142803
 30
0.000000000000029
 70
    40
  0
VERTEX
  5
1E544
330
1D91B
100
AcDbEntity
  8
KERA1
100
AcDbVertex
100
AcDb3dPolylineVertex
 10
2359.49833780764
 20
1271.321690891773
 30
0.0000000000000307
 70
    40
  0
VERTEX
  5
1E545
330
1D91B
100
AcDbEntity
  8
KERA1
100
AcDbVertex
100
AcDb3dPolylineVertex
 10
2358.29060278736
 20
1270.316672640742
 30
0.0000000000000323
 70
    40
  0
VERTEX
  5
1E546
330
1D91B
100
AcDbEntity
  8
KERA1
100
AcDbVertex
100
AcDb3dPolylineVertex
 10
2357.082867767079
 20
1269.311654389712
 30
0.0000000000000338
 70
    40
  0
VERTEX
  5
1E547
330
1D91B
100
AcDbEntity
  8
KERA1
100
AcDbVertex
100
AcDb3dPolylineVertex
 10
2355.875132746799
 20
1268.306636138682
 30
0.0000000000000352
 70
    40
  0
VERTEX
  5
1E548
330
1D91B
100
AcDbEntity
  8
KERA1
100
AcDbVertex
100
AcDb3dPolylineVertex
 10
2354.667397726518
 20
1267.301617887651
 30
0.0000000000000365
 70
    40
  0
VERTEX
  5
1D91D
330
1D91B
100
AcDbEntity
  8
KERA1
100
AcDbVertex
100
AcDb3dPolylineVertex
 10
2361.108651168014
 20
1272.66171522648
 30
0.0000000000000282
 70
    48
  0
VERTEX
  5
1D91E
330
1D91B
100
AcDbEntity
  8
KERA1
100
AcDbVertex
100
AcDb3dPolylineVertex
 10
2357.888024447265
 20
1269.981666557066
 30
0.0000000000000333
 70
    48
  0
VERTEX
  5
1D91F
330
1D91B
100
AcDbEntity
  8
KERA1
100
AcDbVertex
100
AcDb3dPolylineVertex
 10
2354.667397726518
 20
1267.301617887651
 30
0.0000000000000365
 70
    48
  0
SEQEND
  5
1D929
330
1D91B
100
AcDbEntity
  8
KERA1
  0
POLYLINE
  5
1D92A
330
1E
100
AcDbEntity
  8
KERA1
100
AcDb3dPolyline
 66
     1
 10
0.0
 20
0.0
 30
0.0
 70
     8
  0
VERTEX
  5
1D92B
330
1D92A
100
AcDbEntity
  8
KERA1
100
AcDbVertex
100
AcDb3dPolylineVertex
 10
2330.745537212516
 20
1277.852306305139
 30
0.0
 70
    32
  0
VERTEX
  5
1D92C
330
1D92A
100
AcDbEntity
  8
KERA1
100
AcDbVertex
100
AcDb3dPolylineVertex
 10
2334.678809043068
 20
1277.852306305139
 30
0.0
 70
    32
  0
VERTEX
  5
1D92D
330
1D92A
100
AcDbEntity
  8
KERA1
100
AcDbVertex
100
AcDb3dPolylineVertex
 10
2339.345562738996
 20
1277.852306305139
 30
0.0
 70
    32
  0
VERTEX
  5
1D92E
330
1D92A
100
AcDbEntity
  8
KERA1
100
AcDbVertex
100
AcDb3dPolylineVertex
 10
2344.012316434923
 20
1277.852306305139
 30
0.0
 70
    32
  0
VERTEX
  5
1D92F
330
1D92A
100
AcDbEntity
  8
KERA1
100
AcDbVertex
100
AcDb3dPolylineVertex
 10
2348.679070130851
 20
1277.852306305139
 30
0.0
 70
    32
  0
VERTEX
  5
1D930
330
1D92A
100
AcDbEntity
  8
KERA1
100
AcDbVertex
100
AcDb3dPolylineVertex
 10
2353.345823826779
 20
1277.852306305139
 30
0.0
 70
    32
  0
VERTEX
  5
1D931
330
1D92A
100
AcDbEntity
  8
KERA1
100
AcDbVertex
100
AcDb3dPolylineVertex
 10
2358.012577522707
 20
1277.852306305139
 30
0.0
 70
    32
  0
VERTEX
  5
1D932
330
1D92A
100
AcDbEntity
  8
KERA1
100
AcDbVertex
100
AcDb3dPolylineVertex
 10
2362.679331218635
 20
1277.852306305139
 30
0.0
 70
    32
  0
VERTEX
  5
1D933
330
1D92A
100
AcDbEntity
  8
KERA1
100
AcDbVertex
100
AcDb3dPolylineVertex
 10
2367.346084914563
 20
1277.852306305139
 30
0.0
 70
    32
  0
SEQEND
  5
1D934
330
1D92A
100
AcDbEntity
  8
KERA1
  0
POLYLINE
  5
1D935
330
1E
100
AcDbEntity
  8
KERA1
100
AcDb3dPolyline
 66
     1
 10
0.0
 20
0.0
 30
0.0
 70
     8
  0
VERTEX
  5
1D936
330
1D935
100
AcDbEntity
  8
KERA1
100
AcDbVertex
100
AcDb3dPolylineVertex
 10
2330.745537212516
 20
1266.428396887058
 30
0.0
 70
    32
  0
VERTEX
  5
1D937
330
1D935
100
AcDbEntity
  8
KERA1
100
AcDbVertex
100
AcDb3dPolylineVertex
 10
2328.376019672874
 20
1266.428396887058
 30
0.0
 70
    32
  0
VERTEX
  5
1D938
330
1D935
100
AcDbEntity
  8
KERA1
100
AcDbVertex
100
AcDb3dPolylineVertex
 10
2325.602186531231
 20
1266.428396887058
 30
0.0
 70
    32
  0
VERTEX
  5
1D939
330
1D935
100
AcDbEntity
  8
KERA1
100
AcDbVertex
100
AcDb3dPolylineVertex
 10
2322.828353389585
 20
1266.428396887058
 30
0.0
 70
    32
  0
VERTEX
  5
1D93A
330
1D935
100
AcDbEntity
  8
KERA1
100
AcDbVertex
100
AcDb3dPolylineVertex
 10
2320.054520247934
 20
1266.428396887058
 30
0.0
 70
    32
  0
VERTEX
  5
1D93B
330
1D935
100
AcDbEntity
  8
KERA1
100
AcDbVertex
100
AcDb3dPolylineVertex
 10
2317.280687106281
 20
1266.428396887058
 30
0.0
 70
    32
  0
VERTEX
  5
1D93C
330
1D935
100
AcDbEntity
  8
KERA1
100
AcDbVertex
100
AcDb3dPolylineVertex
 10
2314.506853964626
 20
1266.428396887058
 30
0.0
 70
    32
  0
VERTEX
  5
1D93D
330
1D935
100
AcDbEntity
  8
KERA1
100
AcDbVertex
100
AcDb3dPolylineVertex
 10
2311.73302082297
 20
1266.428396887058
 30
0.0
 70
    32
  0
VERTEX
  5
1D93E
330
1D935
100
AcDbEntity
  8
KERA1
100
AcDbVertex
100
AcDb3dPolylineVertex
 10
2308.959187681314
 20
1266.428396887058
 30
0.0
 70
    32
  0
SEQEND
  5
1D93F
330
1D935
100
AcDbEntity
  8
KERA1
  0
POLYLINE
  5
1D940
330
1E
100
AcDbEntity
  8
KERA1
100
AcDb3dPolyline
 66
     1
 10
0.0
 20
0.0
 30
0.0
 70
    12
 75
     6
  0
VERTEX
  5
1D941
330
1D940
100
AcDbEntity
  8
KERA1
100
AcDbVertex
100
AcDb3dPolylineVertex
 10
2307.903956163959
 20
1265.06386640286
 30
0.0001968155746923
 70
    48
  0
VERTEX
  5
1E588
330
1D940
100
AcDbEntity
  8
KERA1
100
AcDbVertex
100
AcDb3dPolylineVertex
 10
2307.903956163959
 20
1265.06386640286
 30
0.0001968155746923
 70
    40
  0
VERTEX
  5
1E589
330
1D940
100
AcDbEntity
  8
KERA1
100
AcDbVertex
100
AcDb3dPolylineVertex
 10
2307.879214443429
 20
1265.38619039285
 30
0.00019230789302
 70
    40
  0
VERTEX
  5
1E58A
330
1D940
100
AcDbEntity
  8
KERA1
100
AcDbVertex
100
AcDb3dPolylineVertex
 10
2307.820580161335
 20
1265.701272021219
 30
0.0001816253425329
 70
    40
  0
VERTEX
  5
1E58B
330
1D940
100
AcDbEntity
  8
KERA1
100
AcDbVertex
100
AcDb3dPolylineVertex
 10
2307.729243425225
 20
1266.006646032435
 30
0.0001649847483286
 70
    40
  0
VERTEX
  5
1E58C
330
1D940
100
AcDbEntity
  8
KERA1
100
AcDbVertex
100
AcDb3dPolylineVertex
 10
2307.606394342644
 20
1266.299847170967
 30
0.0001426029355047
 70
    40
  0
VERTEX
  5
1E58D
330
1D940
100
AcDbEntity
  8
KERA1
100
AcDbVertex
100
AcDb3dPolylineVertex
 10
2307.453223021137
 20
1266.578410181286
 30
0.0001146967291588
 70
    40
  0
VERTEX
  5
1E58E
330
1D940
100
AcDbEntity
  8
KERA1
100
AcDbVertex
100
AcDb3dPolylineVertex
 10
2307.27091956825
 20
1266.83986980786
 30
0.0000814829543885
 70
    40
  0
VERTEX
  5
1E58F
330
1D940
100
AcDbEntity
  8
KERA1
100
AcDbVertex
100
AcDb3dPolylineVertex
 10
2307.060674091527
 20
1267.081760795158
 30
0.0000431784362914
 70
    40
  0
VERTEX
  5
1E590
330
1D940
100
AcDbEntity
  8
KERA1
100
AcDbVertex
100
AcDb3dPolylineVertex
 10
2306.823676698515
 20
1267.301617887651
 30
-0.0000000000000348
 70
    40
  0
VERTEX
  5
1D942
330
1D940
100
AcDbEntity
  8
KERA1
100
AcDbVertex
100
AcDb3dPolylineVertex
 10
2307.884226198
 20
1265.930862186747
 30
0.0001932209820727
 70
    48
  0
VERTEX
  5
1D943
330
1D940
100
AcDbEntity
  8
KERA1
100
AcDbVertex
100
AcDb3dPolylineVertex
 10
2307.490281094893
 20
1266.746902172328
 30
0.0001214483210539
 70
    48
  0
VERTEX
  5
1D944
330
1D940
100
AcDbEntity
  8
KERA1
100
AcDbVertex
100
AcDb3dPolylineVertex
 10
2306.823676698515
 20
1267.301617887651
 30
-0.0000000000000348
 70
    48
  0
SEQEND
  5
1D94E
330
1D940
100
AcDbEntity
  8
KERA1
  0
POLYLINE
  5
1D94F
330
1E
100
AcDbEntity
  8
KERA1
100
AcDb3dPolyline
 66
     1
 10
0.0
 20
0.0
 30
0.0
 70
    12
 75
     6
  0
VERTEX
  5
1D950
330
1D94F
100
AcDbEntity
  8
KERA1
100
AcDbVertex
100
AcDb3dPolylineVertex
 10
2307.903956163959
 20
1265.06386640286
 30
-0.0001968155746915
 70
    48
  0
VERTEX
  5
1E57F
330
1D94F
100
AcDbEntity
  8
KERA1
100
AcDbVertex
100
AcDb3dPolylineVertex
 10
2307.903956163959
 20
1265.06386640286
 30
-0.0001968155746915
 70
    40
  0
VERTEX
  5
1E580
330
1D94F
100
AcDbEntity
  8
KERA1
100
AcDbVertex
100
AcDb3dPolylineVertex
 10
2307.879214443429
 20
1265.38619039285
 30
-0.0001923078930192
 70
    40
  0
VERTEX
  5
1E581
330
1D94F
100
AcDbEntity
  8
KERA1
100
AcDbVertex
100
AcDb3dPolylineVertex
 10
2307.820580161335
 20
1265.701272021219
 30
-0.000181625342532
 70
    40
  0
VERTEX
  5
1E582
330
1D94F
100
AcDbEntity
  8
KERA1
100
AcDbVertex
100
AcDb3dPolylineVertex
 10
2307.729243425225
 20
1266.006646032435
 30
-0.0001649847483276
 70
    40
  0
VERTEX
  5
1E583
330
1D94F
100
AcDbEntity
  8
KERA1
100
AcDbVertex
100
AcDb3dPolylineVertex
 10
2307.606394342644
 20
1266.299847170967
 30
-0.0001426029355037
 70
    40
  0
VERTEX
  5
1E584
330
1D94F
100
AcDbEntity
  8
KERA1
100
AcDbVertex
100
AcDb3dPolylineVertex
 10
2307.453223021137
 20
1266.578410181286
 30
-0.0001146967291577
 70
    40
  0
VERTEX
  5
1E585
330
1D94F
100
AcDbEntity
  8
KERA1
100
AcDbVertex
100
AcDb3dPolylineVertex
 10
2307.27091956825
 20
1266.83986980786
 30
-0.0000814829543874
 70
    40
  0
VERTEX
  5
1E586
330
1D94F
100
AcDbEntity
  8
KERA1
100
AcDbVertex
100
AcDb3dPolylineVertex
 10
2307.060674091527
 20
1267.081760795158
 30
-0.0000431784362903
 70
    40
  0
VERTEX
  5
1E587
330
1D94F
100
AcDbEntity
  8
KERA1
100
AcDbVertex
100
AcDb3dPolylineVertex
 10
2306.823676698515
 20
1267.301617887651
 30
0.0000000000000359
 70
    40
  0
VERTEX
  5
1D951
330
1D94F
100
AcDbEntity
  8
KERA1
100
AcDbVertex
100
AcDb3dPolylineVertex
 10
2307.884226198
 20
1265.930862186747
 30
-0.0001932209820718
 70
    48
  0
VERTEX
  5
1D952
330
1D94F
100
AcDbEntity
  8
KERA1
100
AcDbVertex
100
AcDb3dPolylineVertex
 10
2307.490281094893
 20
1266.746902172328
 30
-0.0001214483210528
 70
    48
  0
VERTEX
  5
1D953
330
1D94F
100
AcDbEntity
  8
KERA1
100
AcDbVertex
100
AcDb3dPolylineVertex
 10
2306.823676698515
 20
1267.301617887651
 30
0.0000000000000359
 70
    48
  0
SEQEND
  5
1D95D
330
1D94F
100
AcDbEntity
  8
KERA1
  0
POLYLINE
  5
1D95E
330
1E
100
AcDbEntity
  8
KERA1
100
AcDb3dPolyline
 66
     1
 10
0.0
 20
0.0
 30
0.0
 70
    12
 75
     6
  0
VERTEX
  5
1D95F
330
1D95E
100
AcDbEntity
  8
KERA1
100
AcDbVertex
100
AcDb3dPolylineVertex
 10
2297.16179653627
 20
1275.341763895893
 30
0.0000000000000243
 70
    48
  0
VERTEX
  5
1E576
330
1D95E
100
AcDbEntity
  8
KERA1
100
AcDbVertex
100
AcDb3dPolylineVertex
 10
2297.16179653627
 20
1275.341763895893
 30
0.0000000000000243
 70
    40
  0
VERTEX
  5
1E577
330
1D95E
100
AcDbEntity
  8
KERA1
100
AcDbVertex
100
AcDb3dPolylineVertex
 10
2298.36953155655
 20
1274.336745644863
 30
0.0000000000000258
 70
    40
  0
VERTEX
  5
1E578
330
1D95E
100
AcDbEntity
  8
KERA1
100
AcDbVertex
100
AcDb3dPolylineVertex
 10
2299.577266576831
 20
1273.331727393833
 30
0.0000000000000274
 70
    40
  0
VERTEX
  5
1E579
330
1D95E
100
AcDbEntity
  8
KERA1
100
AcDbVertex
100
AcDb3dPolylineVertex
 10
2300.785001597112
 20
1272.326709142803
 30
0.000000000000029
 70
    40
  0
VERTEX
  5
1E57A
330
1D95E
100
AcDbEntity
  8
KERA1
100
AcDbVertex
100
AcDb3dPolylineVertex
 10
2301.992736617392
 20
1271.321690891773
 30
0.0000000000000307
 70
    40
  0
VERTEX
  5
1E57B
330
1D95E
100
AcDbEntity
  8
KERA1
100
AcDbVertex
100
AcDb3dPolylineVertex
 10
2303.200471637673
 20
1270.316672640742
 30
0.0000000000000323
 70
    40
  0
VERTEX
  5
1E57C
330
1D95E
100
AcDbEntity
  8
KERA1
100
AcDbVertex
100
AcDb3dPolylineVertex
 10
2304.408206657954
 20
1269.311654389712
 30
0.0000000000000338
 70
    40
  0
VERTEX
  5
1E57D
330
1D95E
100
AcDbEntity
  8
KERA1
100
AcDbVertex
100
AcDb3dPolylineVertex
 10
2305.615941678234
 20
1268.306636138682
 30
0.0000000000000352
 70
    40
  0
VERTEX
  5
1E57E
330
1D95E
100
AcDbEntity
  8
KERA1
100
AcDbVertex
100
AcDb3dPolylineVertex
 10
2306.823676698515
 20
1267.301617887651
 30
0.0000000000000365
 70
    40
  0
VERTEX
  5
1D960
330
1D95E
100
AcDbEntity
  8
KERA1
100
AcDbVertex
100
AcDb3dPolylineVertex
 10
2300.382423257019
 20
1272.66171522648
 30
0.0000000000000282
 70
    48
  0
VERTEX
  5
1D961
330
1D95E
100
AcDbEntity
  8
KERA1
100
AcDbVertex
100
AcDb3dPolylineVertex
 10
2303.603049977766
 20
1269.981666557066
 30
0.0000000000000333
 70
    48
  0
VERTEX
  5
1D962
330
1D95E
100
AcDbEntity
  8
KERA1
100
AcDbVertex
100
AcDb3dPolylineVertex
 10
2306.823676698515
 20
1267.301617887651
 30
0.0000000000000365
 70
    48
  0
SEQEND
  5
1D96C
330
1D95E
100
AcDbEntity
  8
KERA1
  0
POLYLINE
  5
1D96D
330
1E
100
AcDbEntity
  8
KERA1
100
AcDb3dPolyline
 66
     1
 10
0.0
 20
0.0
 30
0.0
 70
    12
 75
     6
  0
VERTEX
  5
1D96E
330
1D96D
100
AcDbEntity
  8
KERA1
100
AcDbVertex
100
AcDb3dPolylineVertex
 10
2297.16179653627
 20
1275.341763895893
 30
-0.0000000000000222
 70
    48
  0
VERTEX
  5
1E56D
330
1D96D
100
AcDbEntity
  8
KERA1
100
AcDbVertex
100
AcDb3dPolylineVertex
 10
2297.16179653627
 20
1275.341763895893
 30
-0.0000000000000222
 70
    40
  0
VERTEX
  5
1E56E
330
1D96D
100
AcDbEntity
  8
KERA1
100
AcDbVertex
100
AcDb3dPolylineVertex
 10
2298.36953155655
 20
1274.336745644863
 30
-0.0000000000000238
 70
    40
  0
VERTEX
  5
1E56F
330
1D96D
100
AcDbEntity
  8
KERA1
100
AcDbVertex
100
AcDb3dPolylineVertex
 10
2299.577266576831
 20
1273.331727393833
 30
-0.0000000000000255
 70
    40
  0
VERTEX
  5
1E570
330
1D96D
100
AcDbEntity
  8
KERA1
100
AcDbVertex
100
AcDb3dPolylineVertex
 10
2300.785001597112
 20
1272.326709142803
 30
-0.0000000000000273
 70
    40
  0
VERTEX
  5
1E571
330
1D96D
100
AcDbEntity
  8
KERA1
100
AcDbVertex
100
AcDb3dPolylineVertex
 10
2301.992736617392
 20
1271.321690891773
 30
-0.0000000000000291
 70
    40
  0
VERTEX
  5
1E572
330
1D96D
100
AcDbEntity
  8
KERA1
100
AcDbVertex
100
AcDb3dPolylineVertex
 10
2303.200471637673
 20
1270.316672640742
 30
-0.0000000000000308
 70
    40
  0
VERTEX
  5
1E573
330
1D96D
100
AcDbEntity
  8
KERA1
100
AcDbVertex
100
AcDb3dPolylineVertex
 10
2304.408206657954
 20
1269.311654389712
 30
-0.0000000000000325
 70
    40
  0
VERTEX
  5
1E574
330
1D96D
100
AcDbEntity
  8
KERA1
100
AcDbVertex
100
AcDb3dPolylineVertex
 10
2305.615941678234
 20
1268.306636138682
 30
-0.000000000000034
 70
    40
  0
VERTEX
  5
1E575
330
1D96D
100
AcDbEntity
  8
KERA1
100
AcDbVertex
100
AcDb3dPolylineVertex
 10
2306.823676698515
 20
1267.301617887651
 30
-0.0000000000000354
 70
    40
  0
VERTEX
  5
1D96F
330
1D96D
100
AcDbEntity
  8
KERA1
100
AcDbVertex
100
AcDb3dPolylineVertex
 10
2300.382423257019
 20
1272.66171522648
 30
-0.0000000000000264
 70
    48
  0
VERTEX
  5
1D970
330
1D96D
100
AcDbEntity
  8
KERA1
100
AcDbVertex
100
AcDb3dPolylineVertex
 10
2303.603049977766
 20
1269.981666557066
 30
-0.0000000000000319
 70
    48
  0
VERTEX
  5
1D971
330
1D96D
100
AcDbEntity
  8
KERA1
100
AcDbVertex
100
AcDb3dPolylineVertex
 10
2306.823676698515
 20
1267.301617887651
 30
-0.0000000000000354
 70
    48
  0
SEQEND
  5
1D97B
330
1D96D
100
AcDbEntity
  8
KERA1
  0
POLYLINE
  5
1D97C
330
1E
100
AcDbEntity
  8
KERA1
100
AcDb3dPolyline
 66
     1
 10
0.0
 20
0.0
 30
0.0
 70
     8
  0
VERTEX
  5
1D97D
330
1D97C
100
AcDbEntity
  8
KERA1
100
AcDbVertex
100
AcDb3dPolylineVertex
 10
2330.745537212516
 20
1266.428396887058
 30
0.0
 70
    32
  0
VERTEX
  5
1D97E
330
1D97C
100
AcDbEntity
  8
KERA1
100
AcDbVertex
100
AcDb3dPolylineVertex
 10
2333.115054752158
 20
1266.428396887058
 30
0.0
 70
    32
  0
VERTEX
  5
1D97F
330
1D97C
100
AcDbEntity
  8
KERA1
100
AcDbVertex
100
AcDb3dPolylineVertex
 10
2335.888887893801
 20
1266.428396887058
 30
0.0
 70
    32
  0
VERTEX
  5
1D980
330
1D97C
100
AcDbEntity
  8
KERA1
100
AcDbVertex
100
AcDb3dPolylineVertex
 10
2338.662721035447
 20
1266.428396887058
 30
0.0
 70
    32
  0
VERTEX
  5
1D981
330
1D97C
100
AcDbEntity
  8
KERA1
100
AcDbVertex
100
AcDb3dPolylineVertex
 10
2341.436554177098
 20
1266.428396887058
 30
0.0
 70
    32
  0
VERTEX
  5
1D982
330
1D97C
100
AcDbEntity
  8
KERA1
100
AcDbVertex
100
AcDb3dPolylineVertex
 10
2344.210387318751
 20
1266.428396887058
 30
0.0
 70
    32
  0
VERTEX
  5
1D983
330
1D97C
100
AcDbEntity
  8
KERA1
100
AcDbVertex
100
AcDb3dPolylineVertex
 10
2346.984220460406
 20
1266.428396887058
 30
0.0
 70
    32
  0
VERTEX
  5
1D984
330
1D97C
100
AcDbEntity
  8
KERA1
100
AcDbVertex
100
AcDb3dPolylineVertex
 10
2349.758053602062
 20
1266.428396887058
 30
0.0
 70
    32
  0
VERTEX
  5
1D985
330
1D97C
100
AcDbEntity
  8
KERA1
100
AcDbVertex
100
AcDb3dPolylineVertex
 10
2352.531886743718
 20
1266.428396887058
 30
0.0
 70
    32
  0
SEQEND
  5
1D986
330
1D97C
100
AcDbEntity
  8
KERA1
  0
POLYLINE
  5
1D987
330
1E
100
AcDbEntity
  8
KERA1
100
AcDb3dPolyline
 66
     1
 10
0.0
 20
0.0
 30
0.0
 70
    12
 75
     6
  0
VERTEX
  5
1D988
330
1D987
100
AcDbEntity
  8
KERA1
100
AcDbVertex
100
AcDb3dPolylineVertex
 10
2353.587118261073
 20
1265.06386640286
 30
-0.0001968155746915
 70
    48
  0
VERTEX
  5
1E5A3
330
1D987
100
AcDbEntity
  8
KERA1
100
AcDbVertex
100
AcDb3dPolylineVertex
 10
2353.587118261073
 20
1265.06386640286
 30
-0.0001968155746915
 70
    40
  0
VERTEX
  5
1E5A4
330
1D987
100
AcDbEntity
  8
KERA1
100
AcDbVertex
100
AcDb3dPolylineVertex
 10
2353.611859981604
 20
1265.38619039285
 30
-0.0001923078930192
 70
    40
  0
VERTEX
  5
1E5A5
330
1D987
100
AcDbEntity
  8
KERA1
100
AcDbVertex
100
AcDb3dPolylineVertex
 10
2353.670494263697
 20
1265.701272021219
 30
-0.000181625342532
 70
    40
  0
VERTEX
  5
1E5A6
330
1D987
100
AcDbEntity
  8
KERA1
100
AcDbVertex
100
AcDb3dPolylineVertex
 10
2353.761830999807
 20
1266.006646032435
 30
-0.0001649847483276
 70
    40
  0
VERTEX
  5
1E5A7
330
1D987
100
AcDbEntity
  8
KERA1
100
AcDbVertex
100
AcDb3dPolylineVertex
 10
2353.884680082388
 20
1266.299847170967
 30
-0.0001426029355037
 70
    40
  0
VERTEX
  5
1E5A8
330
1D987
100
AcDbEntity
  8
KERA1
100
AcDbVertex
100
AcDb3dPolylineVertex
 10
2354.037851403896
 20
1266.578410181286
 30
-0.0001146967291577
 70
    40
  0
VERTEX
  5
1E5A9
330
1D987
100
AcDbEntity
  8
KERA1
100
AcDbVertex
100
AcDb3dPolylineVertex
 10
2354.220154856784
 20
1266.83986980786
 30
-0.0000814829543874
 70
    40
  0
VERTEX
  5
1E5AA
330
1D987
100
AcDbEntity
  8
KERA1
100
AcDbVertex
100
AcDb3dPolylineVertex
 10
2354.430400333506
 20
1267.081760795158
 30
-0.0000431784362903
 70
    40
  0
VERTEX
  5
1E5AB
330
1D987
100
AcDbEntity
  8
KERA1
100
AcDbVertex
100
AcDb3dPolylineVertex
 10
2354.667397726518
 20
1267.301617887651
 30
0.0000000000000359
 70
    40
  0
VERTEX
  5
1D989
330
1D987
100
AcDbEntity
  8
KERA1
100
AcDbVertex
100
AcDb3dPolylineVertex
 10
2353.606848227032
 20
1265.930862186747
 30
-0.0001932209820718
 70
    48
  0
VERTEX
  5
1D98A
330
1D987
100
AcDbEntity
  8
KERA1
100
AcDbVertex
100
AcDb3dPolylineVertex
 10
2354.000793330139
 20
1266.746902172328
 30
-0.0001214483210528
 70
    48
  0
VERTEX
  5
1D98B
330
1D987
100
AcDbEntity
  8
KERA1
100
AcDbVertex
100
AcDb3dPolylineVertex
 10
2354.667397726518
 20
1267.301617887651
 30
0.0000000000000359
 70
    48
  0
SEQEND
  5
1D995
330
1D987
100
AcDbEntity
  8
KERA1
  0
POLYLINE
  5
1D996
330
1E
100
AcDbEntity
  8
KERA1
100
AcDb3dPolyline
 66
     1
 10
0.0
 20
0.0
 30
0.0
 70
    12
 75
     6
  0
VERTEX
  5
1D997
330
1D996
100
AcDbEntity
  8
KERA1
100
AcDbVertex
100
AcDb3dPolylineVertex
 10
2353.587118261073
 20
1265.06386640286
 30
0.0001968155746923
 70
    48
  0
VERTEX
  5
1E59A
330
1D996
100
AcDbEntity
  8
KERA1
100
AcDbVertex
100
AcDb3dPolylineVertex
 10
2353.587118261073
 20
1265.06386640286
 30
0.0001968155746923
 70
    40
  0
VERTEX
  5
1E59B
330
1D996
100
AcDbEntity
  8
KERA1
100
AcDbVertex
100
AcDb3dPolylineVertex
 10
2353.611859981604
 20
1265.38619039285
 30
0.00019230789302
 70
    40
  0
VERTEX
  5
1E59C
330
1D996
100
AcDbEntity
  8
KERA1
100
AcDbVertex
100
AcDb3dPolylineVertex
 10
2353.670494263697
 20
1265.701272021219
 30
0.0001816253425329
 70
    40
  0
VERTEX
  5
1E59D
330
1D996
100
AcDbEntity
  8
KERA1
100
AcDbVertex
100
AcDb3dPolylineVertex
 10
2353.761830999807
 20
1266.006646032435
 30
0.0001649847483286
 70
    40
  0
VERTEX
  5
1E59E
330
1D996
100
AcDbEntity
  8
KERA1
100
AcDbVertex
100
AcDb3dPolylineVertex
 10
2353.884680082388
 20
1266.299847170967
 30
0.0001426029355047
 70
    40
  0
VERTEX
  5
1E59F
330
1D996
100
AcDbEntity
  8
KERA1
100
AcDbVertex
100
AcDb3dPolylineVertex
 10
2354.037851403896
 20
1266.578410181286
 30
0.0001146967291588
 70
    40
  0
VERTEX
  5
1E5A0
330
1D996
100
AcDbEntity
  8
KERA1
100
AcDbVertex
100
AcDb3dPolylineVertex
 10
2354.220154856784
 20
1266.83986980786
 30
0.0000814829543885
 70
    40
  0
VERTEX
  5
1E5A1
330
1D996
100
AcDbEntity
  8
KERA1
100
AcDbVertex
100
AcDb3dPolylineVertex
 10
2354.430400333506
 20
1267.081760795158
 30
0.0000431784362914
 70
    40
  0
VERTEX
  5
1E5A2
330
1D996
100
AcDbEntity
  8
KERA1
100
AcDbVertex
100
AcDb3dPolylineVertex
 10
2354.667397726518
 20
1267.301617887651
 30
-0.0000000000000348
 70
    40
  0
VERTEX
  5
1D998
330
1D996
100
AcDbEntity
  8
KERA1
100
AcDbVertex
100
AcDb3dPolylineVertex
 10
2353.606848227032
 20
1265.930862186747
 30
0.0001932209820727
 70
    48
  0
VERTEX
  5
1D999
330
1D996
100
AcDbEntity
  8
KERA1
100
AcDbVertex
100
AcDb3dPolylineVertex
 10
2354.000793330139
 20
1266.746902172328
 30
0.0001214483210539
 70
    48
  0
VERTEX
  5
1D99A
330
1D996
100
AcDbEntity
  8
KERA1
100
AcDbVertex
100
AcDb3dPolylineVertex
 10
2354.667397726518
 20
1267.301617887651
 30
-0.0000000000000348
 70
    48
  0
SEQEND
  5
1D9A4
330
1D996
100
AcDbEntity
  8
KERA1
  0
ARC
  5
1D9A5
330
1E
100
AcDbEntity
  8
KERA0
100
AcDbCircle
 10
2372.727900090874
 20
1296.684430424001
 30
0.0000000000000314
 40
31.63307305749169
100
AcDbArc
 50
290.1461108363275
 51
303.5907787547421
  0
ARC
  5
1D9A6
330
1E
100
AcDbEntity
  8
KERA1
100
AcDbCircle
 10
2382.720815483239
 20
1288.538346048887
 30
-0.0000000000000018
 40
4.886622726356658
100
AcDbArc
 50
305.255461307081
 51
339.8161905229818
  0
LINE
  5
1D9A7
330
1E
100
AcDbEntity
  8
KERA1
100
AcDbLine
 10
2374.627118995811
 20
1278.184156090114
 30
-0.0000000000000196
 11
2371.344209079138
 21
1278.099536380038
 31
-0.0000000000000213
  0
POLYLINE
  5
1D9A8
330
1E
100
AcDbEntity
  8
KERA1
100
AcDb3dPolyline
 66
     1
 10
0.0
 20
0.0
 30
0.0
 70
    12
 75
     6
  0
VERTEX
  5
1D9A9
330
1D9A8
100
AcDbEntity
  8
KERA1
100
AcDbVertex
100
AcDb3dPolylineVertex
 10
2364.329279430707
 20
1275.341762042931
 30
-0.0000000000000213
 70
    48
  0
VERTEX
  5
1E5B5
330
1D9A8
100
AcDbEntity
  8
KERA1
100
AcDbVertex
100
AcDb3dPolylineVertex
 10
2364.329279430707
 20
1275.341762042931
 30
-0.0000000000000213
 70
    40
  0
VERTEX
  5
1E5B6
330
1D9A8
100
AcDbEntity
  8
KERA1
100
AcDbVertex
100
AcDb3dPolylineVertex
 10
2365.100629347338
 20
1275.933738475387
 30
-0.0000000000000213
 70
    40
  0
VERTEX
  5
1E5B7
330
1D9A8
100
AcDbEntity
  8
KERA1
100
AcDbVertex
100
AcDb3dPolylineVertex
 10
2365.908027151834
 20
1276.45692424614
 30
-0.0000000000000213
 70
    40
  0
VERTEX
  5
1E5B8
330
1D9A8
100
AcDbEntity
  8
KERA1
100
AcDbVertex
100
AcDb3dPolylineVertex
 10
2366.748522655894
 20
1276.910392594568
 30
-0.0000000000000213
 70
    40
  0
VERTEX
  5
1E5B9
330
1D9A8
100
AcDbEntity
  8
KERA1
100
AcDbVertex
100
AcDb3dPolylineVertex
 10
2367.619165671219
 20
1277.293216760048
 30
-0.0000000000000213
 70
    40
  0
VERTEX
  5
1E5BA
330
1D9A8
100
AcDbEntity
  8
KERA1
100
AcDbVertex
100
AcDb3dPolylineVertex
 10
2368.517006009505
 20
1277.604469981957
 30
-0.0000000000000213
 70
    40
  0
VERTEX
  5
1E5BB
330
1D9A8
100
AcDbEntity
  8
KERA1
100
AcDbVertex
100
AcDb3dPolylineVertex
 10
2369.439093482454
 20
1277.843225499674
 30
-0.0000000000000213
 70
    40
  0
VERTEX
  5
1E5BC
330
1D9A8
100
AcDbEntity
  8
KERA1
100
AcDbVertex
100
AcDb3dPolylineVertex
 10
2370.382477901765
 20
1278.008556552575
 30
-0.0000000000000213
 70
    40
  0
VERTEX
  5
1E5BD
330
1D9A8
100
AcDbEntity
  8
KERA1
100
AcDbVertex
100
AcDb3dPolylineVertex
 10
2371.344209079138
 20
1278.099536380038
 30
-0.0000000000000213
 70
    40
  0
VERTEX
  5
1D9AA
330
1D9A8
100
AcDbEntity
  8
KERA1
100
AcDbVertex
100
AcDb3dPolylineVertex
 10
2366.335526301635
 20
1277.011262957864
 30
-0.0000000000000213
 70
    48
  0
VERTEX
  5
1D9AB
330
1D9A8
100
AcDbEntity
  8
KERA1
100
AcDbVertex
100
AcDb3dPolylineVertex
 10
2368.757752651666
 20
1277.956882261274
 30
-0.0000000000000213
 70
    48
  0
VERTEX
  5
1D9AC
330
1D9A8
100
AcDbEntity
  8
KERA1
100
AcDbVertex
100
AcDb3dPolylineVertex
 10
2371.344209079138
 20
1278.099536380038
 30
-0.0000000000000213
 70
    48
  0
SEQEND
  5
1D9B6
330
1D9A8
100
AcDbEntity
  8
KERA1
  0
ARC
  5
1D9B7
330
1E
100
AcDbEntity
  8
KERA1
100
AcDbCircle
 10
2377.853674249473
 20
1297.583977915647
 30
-0.0000000000000018
 40
15.29983815567872
100
AcDbArc
 50
280.7183043765281
 51
286.1289061269671
  0
ARC
  5
1D9B8
330
1E
100
AcDbEntity
  8
KERA1
100
AcDbCircle
 10
2378.712206066392
 20
1294.289581018422
 30
-0.0000000000000018
 40
11.89695581396876
100
AcDbArc
 50
286.5644794148891
 51
305.0321485772466
  0
ARC
  5
1D9B9
330
1E
100
AcDbEntity
  8
KERA1
100
AcDbCircle
 10
2381.629048762929
 20
1277.638302283323
 30
-0.0000000000000018
 40
5.0
100
AcDbArc
 50
100.718304376528
 51
154.3268829641517
  0
ARC
  5
1D9BA
330
1E
100
AcDbEntity
  8
KERA1
100
AcDbCircle
 10
2374.544047567
 20
1281.043989799565
 30
-0.0000000000000196
 40
2.861039969660597
100
AcDbArc
 50
271.6638394940501
 51
334.3268829641487
  0
ARC
  5
1D9BB
330
1E
100
AcDbEntity
  8
KERA0
100
AcDbCircle
 10
2408.151681087089
 20
1277.556788348105
 30
0.0
 40
10.48963230597413
100
AcDbArc
 50
117.6051638460009
 51
159.5055671141634
  0
LINE
  5
1D9BC
330
1E
100
AcDbEntity
  8
KERA1
100
AcDbLine
 10
2388.273492568196
 20
1296.88550481277
 30
0.0
 11
2387.340837433712
 21
1286.942310983601
 31
-0.0000000000000015
  0
ARC
  5
1D9BD
330
1E
100
AcDbEntity
  8
KERA0
100
AcDbCircle
 10
2377.551582607678
 20
1288.191361990164
 30
0.0000000000000314
 40
21.90010174573866
100
AcDbArc
 50
305.3718743611682
 51
340.9673688909029
  0
ARC
  5
1D9BE
330
1E
100
AcDbEntity
  8
KERA1
100
AcDbCircle
 10
2391.260381823022
 20
1296.605339541177
 30
-0.0000000000002766
 40
3.0
100
AcDbArc
 50
91.34002220695606
 51
174.6414290852176
  0
LINE
  5
1D9C0
330
1E
100
AcDbEntity
  8
KERA1
100
AcDbLine
 10
2160.244426616907
 20
1305.48675831061
 30
0.0
 11
2270.300849604433
 21
1299.604519094824
 31
0.0
  0
LINE
  5
1D9D9
330
1E
100
AcDbEntity
  8
KERA1
100
AcDbLine
 10
2501.246647808125
 20
1305.48675831061
 30
0.0
 11
2391.190224820599
 21
1299.604519094824
 31
0.0
  0
POLYLINE
  5
1D9DA
330
1E
100
AcDbEntity
  8
KERA0
100
AcDb3dPolyline
 66
     1
 10
0.0
 20
0.0
 30
0.0
 70
    12
 75
     6
  0
VERTEX
  5
1D9DB
330
1D9DA
100
AcDbEntity
  8
KERA0
100
AcDbVertex
100
AcDb3dPolylineVertex
 10
2403.413054751152
 20
1287.814590433599
 30
-0.0049427267150164
 70
    48
  0
VERTEX
  5
1D9DC
330
1D9DA
100
AcDbEntity
  8
KERA0
100
AcDbVertex
100
AcDb3dPolylineVertex
 10
2403.413054751152
 20
1287.814590433599
 30
-0.0049427267150164
 70
    40
  0
VERTEX
  5
1D9DD
330
1D9DA
100
AcDbEntity
  8
KERA0
100
AcDbVertex
100
AcDb3dPolylineVertex
 10
2412.215018787261
 20
1289.070267944335
 30
-0.0033112407485364
 70
    40
  0
VERTEX
  5
1D9DE
330
1D9DA
100
AcDbEntity
  8
KERA0
100
AcDbVertex
100
AcDb3dPolylineVertex
 10
2422.407285530989
 20
1290.107570871749
 30
-0.0020852128328975
 70
    40
  0
VERTEX
  5
1D9DF
330
1D9DA
100
AcDbEntity
  8
KERA0
100
AcDbVertex
100
AcDb3dPolylineVertex
 10
2433.791240309819
 20
1290.957695584886
 30
-0.0012067203894083
 70
    40
  0
VERTEX
  5
1D9E0
330
1D9DA
100
AcDbEntity
  8
KERA0
100
AcDbVertex
100
AcDb3dPolylineVertex
 10
2446.168268451234
 20
1291.651838452792
 30
-0.0006178408393771
 70
    40
  0
VERTEX
  5
1D9E1
330
1D9DA
100
AcDbEntity
  8
KERA0
100
AcDbVertex
100
AcDb3dPolylineVertex
 10
2459.339755282717
 20
1292.221195844514
 30
-0.0002606516041122
 70
    40
  0
VERTEX
  5
1D9E2
330
1D9DA
100
AcDbEntity
  8
KERA0
100
AcDbVertex
100
AcDb3dPolylineVertex
 10
2473.107086131751
 20
1292.696964129097
 30
-0.0000772301049221
 70
    40
  0
VERTEX
  5
1D9E3
330
1D9DA
100
AcDbEntity
  8
KERA0
100
AcDbVertex
100
AcDb3dPolylineVertex
 10
2487.27164632582
 20
1293.110339675588
 30
-0.0000096537631153
 70
    40
  0
VERTEX
  5
1D9E4
330
1D9DA
100
AcDbEntity
  8
KERA0
100
AcDbVertex
100
AcDb3dPolylineVertex
 10
2501.634821192405
 20
1293.492518853033
 30
0.0
 70
    40
  0
VERTEX
  5
1D9E5
330
1D9DA
100
AcDbEntity
  8
KERA0
100
AcDbVertex
100
AcDb3dPolylineVertex
 10
2424.85467552838
 20
1291.481960012478
 30
0.0
 70
    48
  0
VERTEX
  5
1D9E6
330
1D9DA
100
AcDbEntity
  8
KERA0
100
AcDbVertex
100
AcDb3dPolylineVertex
 10
2463.244748360393
 20
1292.487239432756
 30
0.0
 70
    48
  0
VERTEX
  5
1D9E7
330
1D9DA
100
AcDbEntity
  8
KERA0
100
AcDbVertex
100
AcDb3dPolylineVertex
 10
2501.634821192406
 20
1293.492518853034
 30
0.0
 70
    48
  0
SEQEND
  5
1D9E8
330
1D9DA
100
AcDbEntity
  8
KERA0
  0
POINT
  5
1E1B4
330
1E
100
AcDbEntity
  8
Defpoints
  6
ByBlock
 62
     0
100
AcDbPoint
 10
2889.221633068891
 20
1039.949545871883
 30
0.0
  0
LINE
  5
1E469
330
1E
100
AcDbEntity
  8
KERA4
100
AcDbLine
 10
2564.445534749728
 20
1408.852300009377
 30
0.0
 11
2717.656141514774
 21
1408.852300009377
 31
0.0
  0
LINE
  5
1E46A
330
1E
100
AcDbEntity
  8
KERA4
100
AcDbLine
 10
2400.436497253815
 20
1298.882704840915
 30
0.0
 11
2717.656141514774
 21
1298.882704840915
 31
0.0
  0
LINE
  5
1E46B
330
1E
100
AcDbEntity
  8
KERA4
100
AcDbLine
 10
2702.656141514774
 20
1448.852300009377
 30
0.0
 11
2702.656141514774
 21
1488.852300009377
 31
0.0
  0
LINE
  5
1E46C
330
1E
100
AcDbEntity
  8
KERA4
100
AcDbLine
 10
2702.656141514774
 20
1258.882704840915
 30
0.0
 11
2702.656141514774
 21
1218.882704840915
 31
0.0
  0
SOLID
  5
1E46D
330
1E
100
AcDbEntity
  8
KERA4
100
AcDbTrace
 10
2695.989474848108
 20
1448.852300009377
 30
0.0
 11
2709.322808181441
 21
1448.852300009377
 31
0.0
 12
2702.656141514774
 22
1408.852300009377
 32
0.0
 13
2702.656141514774
 23
1408.852300009377
 33
0.0
  0
SOLID
  5
1E46E
330
1E
100
AcDbEntity
  8
KERA4
100
AcDbTrace
 10
2695.989474848108
 20
1258.882704840915
 30
0.0
 11
2709.322808181441
 21
1258.882704840915
 31
0.0
 12
2702.656141514774
 22
1298.882704840915
 32
0.0
 13
2702.656141514774
 23
1298.882704840915
 33
0.0
  0
MTEXT
  5
1E46F
330
1E
100
AcDbEntity
  8
KERA4
100
AcDbMText
 10
2702.656141514774
 20
1353.867502425146
 30
0.0
 40
45.0
 41
0.0
 71
     5
 72
     1
  1
\A1;110
 73
     1
 44
1.0
  0
DIMENSION
  5
1E471
330
1E
100
AcDbEntity
  8
KERA4
100
AcDbDimension
  2
*D4
 10
2831.43421417772
 20
1254.428404501369
 30
0.0
 11
2831.434214177719
 21
1324.28993823177
 31
0.0
 70
   160
  1
150
 71
     5
 42
154.4238955080081
  3
STANDARD
100
AcDbAlignedDimension
 13
2544.445534749728
 23
1408.852300009377
 33
0.0
 14
2370.766937793731
 24
1254.428404501369
 34
0.0
 50
90.0
100
AcDbRotatedDimension
  0
DIMENSION
  5
1E5FF
330
1E
100
AcDbEntity
  8
KERA4
100
AcDbDimension
  2
*D5
 10
2380.745537212516
 20
777.2684037987628
 30
0.0
 11
2330.745537212516
 21
777.2684037987628
 31
0.0
 70
   160
 71
     5
 42
100.0
  3
STANDARD
100
AcDbAlignedDimension
 13
2280.745537212517
 23
483.2454147237728
 33
0.0
 14
2380.745537212516
 24
483.2454147237728
 34
0.0
100
AcDbRotatedDimension
  0
LINE
  5
1E62E
330
1E
100
AcDbEntity
  8
KERA4
100
AcDbLine
 10
2387.744860850373
 20
793.8210394476391
 30
0.0
 11
2387.744860850373
 21
887.7348927185085
 31
0.0
  0
LINE
  5
1E62F
330
1E
100
AcDbEntity
  8
KERA4
100
AcDbLine
 10
2273.74621357466
 20
797.7589070536605
 30
0.0
 11
2273.74621357466
 21
887.7348927185085
 31
0.0
  0
ENDSEC
  0
SECTION
  2
OBJECTS
  0
DICTIONARY
  5
C
330
0
100
AcDbDictionary
281
     1
  3
ACAD_GROUP
350
D
  3
ACAD_LAYOUT
350
19
  3
ACAD_MLINESTYLE
350
16
  3
ACAD_PLOTSETTINGS
350
18
  3
ACAD_PLOTSTYLENAME
350
E
  3
AcDbVariableDictionary
350
22AC
  3
ASE_INDEX_DICTIONARY
350
1E4BA
  0
DICTIONARY
  5
D
102
{ACAD_REACTORS
330
C
102
}
330
C
100
AcDbDictionary
281
     1
  0
DICTIONARY
  5
19
102
{ACAD_REACTORS
330
C
102
}
330
C
100
AcDbDictionary
281
     1
  3
Layout1
350
1D
  3
Model
350
21
  0
DICTIONARY
  5
16
102
{ACAD_REACTORS
330
C
102
}
330
C
100
AcDbDictionary
281
     1
  3
Standard
350
17
  0
DICTIONARY
  5
18
102
{ACAD_REACTORS
330
C
102
}
330
C
100
AcDbDictionary
281
     1
  0
ACDBDICTIONARYWDFLT
  5
E
102
{ACAD_REACTORS
330
C
102
}
330
C
100
AcDbDictionary
281
     1
  3
Normal
350
F
100
AcDbDictionaryWithDefault
340
F
  0
DICTIONARY
  5
22AC
102
{ACAD_REACTORS
330
C
102
}
330
C
100
AcDbDictionary
281
     1
  3
DIMASSOC
350
22AD
  0
DICTIONARY
  5
1E4BA
102
{ACAD_REACTORS
330
C
102
}
330
C
100
AcDbDictionary
281
     1
  3
ASEBlockHierarchyIndexRecord
350
1E4BB
1001
DCO15
1040
1623567264.301
  0
LAYOUT
  5
1D
102
{ACAD_REACTORS
330
19
102
}
330
19
100
AcDbPlotSettings
  1

  2
TPM1(4050N)
  4

  6

 40
0.0
 41
0.0
 42
0.0
 43
0.0
 44
0.0
 45
0.0
 46
0.0
 47
0.0
 48
0.0
 49
0.0
140
0.0
141
0.0
142
1.0
143
1.0
 70
   688
 72
     0
 73
     0
 74
     5
  7

 75
    16
147
1.0
148
0.0
149
0.0
100
AcDbLayout
  1
Layout1
 70
     1
 71
     1
 10
0.0
 20
0.0
 11
12.0
 21
9.0
 12
0.0
 22
0.0
 32
0.0
 14
1.000000000000000E+20
 24
1.000000000000000E+20
 34
1.000000000000000E+20
 15
-1.000000000000000E+20
 25
-1.000000000000000E+20
 35
-1.000000000000000E+20
146
0.0
 13
0.0
 23
0.0
 33
0.0
 16
1.0
 26
0.0
 36
0.0
 17
0.0
 27
1.0
 37
0.0
 76
     0
330
1A
  0
LAYOUT
  5
21
102
{ACAD_REACTORS
330
19
102
}
330
19
100
AcDbPlotSettings
  1

  2
\\ger-1001-01c001\GER-1001-01PB63
  4
User256
  6

 40
3.174999952316284
 41
3.174999952316284
 42
3.175003051757812
 43
3.17498779296875
 44
210.0
 45
296.8999938964843
 46
16.46
 47
0.0
 48
-515.9047334842234
 49
-1574.402560922981
140
1695.888510785305
141
728.4131463316025
142
1.0
143
8.957960295184467
 70
 11956
 72
     1
 73
     0
 74
     2
  7

 75
     0
147
0.1116325555202081
148
-1711.234538020701
149
531.6157259759815
100
AcDbLayout
  1
Model
 70
     1
 71
     0
 10
0.0
 20
0.0
 11
12.0
 21
9.0
 12
0.0
 22
0.0
 32
0.0
 14
0.0
 24
0.0
 34
0.0
 15
0.0
 25
0.0
 35
0.0
146
0.0
 13
0.0
 23
0.0
 33
0.0
 16
1.0
 26
0.0
 36
0.0
 17
0.0
 27
1.0
 37
0.0
 76
     0
330
1E
  0
MLINESTYLE
  5
17
102
{ACAD_REACTORS
330
16
102
}
330
16
100
AcDbMlineStyle
  2
STANDARD
 70
     0
  3

 62
   256
 51
90.0
 52
90.0
 71
     2
 49
0.5
 62
   256
  6
BYLAYER
 49
-0.5
 62
   256
  6
BYLAYER
  0
ACDBPLACEHOLDER
  5
F
102
{ACAD_REACTORS
330
E
102
}
330
E
  0
DICTIONARYVAR
  5
22AD
102
{ACAD_REACTORS
330
22AC
102
}
330
22AC
100
DictionaryVariables
280
     0
  1
1
  0
XRECORD
  5
1E4BB
102
{ACAD_REACTORS
330
1E4BA
102
}
330
1E4BA
100
AcDbXrecord
280
     1
330
1D86E
  0
ENDSEC
  0
EOF
