  0
SECTION
  2
HEADER
  9
$ACADVER
  1
AC1015
  9
$ACADMAINTVER
 70
    13
  9
$DWGCODEPAGE
  3
ANSI_1252
  9
$INSBASE
 10
0.0
 20
0.0
 30
0.0
  9
$EXTMIN
 10
1896.94279577353
 20
-318.6263695186899
 30
-0.0049432300321644
  9
$EXTMAX
 10
3203.644690635853
 20
1487.394643546494
 30
0.0033389885426959
  9
$LIMMIN
 10
1711.234538020701
 20
-531.6157259759815
  9
$LIMMAX
 10
3240.585647917727
 20
2071.119692892064
  9
$ORTHOMODE
 70
     1
  9
$REGENMODE
 70
     1
  9
$FILLMODE
 70
     1
  9
$QTEXTMODE
 70
     0
  9
$MIRRTEXT
 70
     1
  9
$LTSCALE
 40
2.0
  9
$ATTMODE
 70
     1
  9
$TEXTSIZE
 40
0.2
  9
$TRACEWID
 40
0.05
  9
$TEXTSTYLE
  7
Standard
  9
$CLAYER
  8
KERA4
  9
$CELTYPE
  6
ByLayer
  9
$CECOLOR
 62
   256
  9
$CELTSCALE
 40
1.0
  9
$DISPSILH
 70
     0
  9
$DIMSCALE
 40
1.0
  9
$DIMASZ
 40
40.0
  9
$DIMEXO
 40
20.0
  9
$DIMDLI
 40
30.0
  9
$DIMRND
 40
0.0
  9
$DIMDLE
 40
0.0
  9
$DIMEXE
 40
15.0
  9
$DIMTP
 40
0.0
  9
$DIMTM
 40
0.0
  9
$DIMTXT
 40
45.0
  9
$DIMCEN
 40
4.0
  9
$DIMTSZ
 40
0.0
  9
$DIMTOL
 70
     0
  9
$DIMLIM
 70
     0
  9
$DIMTIH
 70
     1
  9
$DIMTOH
 70
     1
  9
$DIMSE1
 70
     0
  9
$DIMSE2
 70
     0
  9
$DIMTAD
 70
     0
  9
$DIMZIN
 70
     9
  9
$DIMBLK
  1

  9
$DIMASO
 70
     1
  9
$DIMSHO
 70
     1
  9
$DIMPOST
  1

  9
$DIMAPOST
  1

  9
$DIMALT
 70
     0
  9
$DIMALTD
 70
     2
  9
$DIMALTF
 40
25.4
  9
$DIMLFAC
 40
1.0
  9
$DIMTOFL
 70
     0
  9
$DIMTVP
 40
0.0
  9
$DIMTIX
 70
     0
  9
$DIMSOXD
 70
     0
  9
$DIMSAH
 70
     0
  9
$DIMBLK1
  1

  9
$DIMBLK2
  1

  9
$DIMSTYLE
  2
STANDARD
  9
$DIMCLRD
 70
     0
  9
$DIMCLRE
 70
     0
  9
$DIMCLRT
 70
     0
  9
$DIMTFAC
 40
1.0
  9
$DIMGAP
 40
15.0
  9
$DIMJUST
 70
     0
  9
$DIMSD1
 70
     0
  9
$DIMSD2
 70
     0
  9
$DIMTOLJ
 70
     1
  9
$DIMTZIN
 70
     0
  9
$DIMALTZ
 70
     0
  9
$DIMALTTZ
 70
     0
  9
$DIMUPT
 70
     0
  9
$DIMDEC
 70
     0
  9
$DIMTDEC
 70
     0
  9
$DIMALTU
 70
     2
  9
$DIMALTTD
 70
     2
  9
$DIMTXSTY
  7
Standard
  9
$DIMAUNIT
 70
     0
  9
$DIMADEC
 70
     0
  9
$DIMALTRND
 40
0.0
  9
$DIMAZIN
 70
     0
  9
$DIMDSEP
 70
    46
  9
$DIMATFIT
 70
     3
  9
$DIMFRAC
 70
     0
  9
$DIMLDRBLK
  1

  9
$DIMLUNIT
 70
     2
  9
$DIMLWD
 70
    -2
  9
$DIMLWE
 70
    -2
  9
$DIMTMOVE
 70
     0
  9
$LUNITS
 70
     2
  9
$LUPREC
 70
     4
  9
$SKETCHINC
 40
0.1
  9
$FILLETRAD
 40
10.0
  9
$AUNITS
 70
     0
  9
$AUPREC
 70
     0
  9
$MENU
  1
.
  9
$ELEVATION
 40
0.0
  9
$PELEVATION
 40
0.0
  9
$THICKNESS
 40
0.0
  9
$LIMCHECK
 70
     0
  9
$CHAMFERA
 40
0.0
  9
$CHAMFERB
 40
0.0
  9
$CHAMFERC
 40
0.0
  9
$CHAMFERD
 40
0.0
  9
$SKPOLY
 70
     0
  9
$TDCREATE
 40
2453206.537812858
  9
$TDUCREATE
 40
2453206.454479525
  9
$TDUPDATE
 40
2454595.415840613
  9
$TDUUPDATE
 40
2454595.332507280
  9
$TDINDWG
 40
1.2091028819
  9
$TDUSRTIMER
 40
1.2091028819
  9
$USRTIMER
 70
     1
  9
$ANGBASE
 50
0.0
  9
$ANGDIR
 70
     0
  9
$PDMODE
 70
     0
  9
$PDSIZE
 40
0.0
  9
$PLINEWID
 40
0.0
  9
$SPLFRAME
 70
     0
  9
$SPLINETYPE
 70
     6
  9
$SPLINESEGS
 70
     8
  9
$HANDSEED
  5
23839
  9
$SURFTAB1
 70
     6
  9
$SURFTAB2
 70
     6
  9
$SURFTYPE
 70
     6
  9
$SURFU
 70
     6
  9
$SURFV
 70
     6
  9
$UCSBASE
  2

  9
$UCSNAME
  2

  9
$UCSORG
 10
0.0
 20
0.0
 30
0.0
  9
$UCSXDIR
 10
1.0
 20
0.0
 30
0.0
  9
$UCSYDIR
 10
0.0
 20
1.0
 30
0.0
  9
$UCSORTHOREF
  2

  9
$UCSORTHOVIEW
 70
     1
  9
$UCSORGTOP
 10
0.0
 20
0.0
 30
0.0
  9
$UCSORGBOTTOM
 10
0.0
 20
0.0
 30
0.0
  9
$UCSORGLEFT
 10
0.0
 20
0.0
 30
0.0
  9
$UCSORGRIGHT
 10
0.0
 20
0.0
 30
0.0
  9
$UCSORGFRONT
 10
0.0
 20
0.0
 30
0.0
  9
$UCSORGBACK
 10
0.0
 20
0.0
 30
0.0
  9
$PUCSBASE
  2

  9
$PUCSNAME
  2

  9
$PUCSORG
 10
0.0
 20
0.0
 30
0.0
  9
$PUCSXDIR
 10
1.0
 20
0.0
 30
0.0
  9
$PUCSYDIR
 10
0.0
 20
1.0
 30
0.0
  9
$PUCSORTHOREF
  2

  9
$PUCSORTHOVIEW
 70
     0
  9
$PUCSORGTOP
 10
0.0
 20
0.0
 30
0.0
  9
$PUCSORGBOTTOM
 10
0.0
 20
0.0
 30
0.0
  9
$PUCSORGLEFT
 10
0.0
 20
0.0
 30
0.0
  9
$PUCSORGRIGHT
 10
0.0
 20
0.0
 30
0.0
  9
$PUCSORGFRONT
 10
0.0
 20
0.0
 30
0.0
  9
$PUCSORGBACK
 10
0.0
 20
0.0
 30
0.0
  9
$USERI1
 70
     0
  9
$USERI2
 70
     0
  9
$USERI3
 70
     0
  9
$USERI4
 70
     0
  9
$USERI5
 70
     0
  9
$USERR1
 40
0.0
  9
$USERR2
 40
0.0
  9
$USERR3
 40
0.0
  9
$USERR4
 40
0.0
  9
$USERR5
 40
0.0
  9
$WORLDVIEW
 70
     1
  9
$SHADEDGE
 70
     3
  9
$SHADEDIF
 70
    70
  9
$TILEMODE
 70
     1
  9
$MAXACTVP
 70
    64
  9
$PINSBASE
 10
0.0
 20
0.0
 30
0.0
  9
$PLIMCHECK
 70
     0
  9
$PEXTMIN
 10
1.000000000000000E+20
 20
1.000000000000000E+20
 30
1.000000000000000E+20
  9
$PEXTMAX
 10
-1.000000000000000E+20
 20
-1.000000000000000E+20
 30
-1.000000000000000E+20
  9
$PLIMMIN
 10
0.0
 20
0.0
  9
$PLIMMAX
 10
12.0
 20
9.0
  9
$UNITMODE
 70
     0
  9
$VISRETAIN
 70
     1
  9
$PLINEGEN
 70
     0
  9
$PSLTSCALE
 70
     1
  9
$TREEDEPTH
 70
  3020
  9
$CMLSTYLE
  2
Standard
  9
$CMLJUST
 70
     0
  9
$CMLSCALE
 40
1.0
  9
$PROXYGRAPHICS
 70
     1
  9
$MEASUREMENT
 70
     0
  9
$CELWEIGHT
370
    -1
  9
$ENDCAPS
280
     0
  9
$JOINSTYLE
280
     0
  9
$LWDISPLAY
290
     0
  9
$INSUNITS
 70
     0
  9
$HYPERLINKBASE
  1

  9
$STYLESHEET
  1

  9
$XEDIT
290
     1
  9
$CEPSNTYPE
380
     0
  9
$PSTYLEMODE
290
     1
  9
$FINGERPRINTGUID
  2
{77FBDECF-49F4-4993-9EF0-C4F1C0454A89}
  9
$VERSIONGUID
  2
{FD7E590C-C248-453E-9D59-4E12C3EFCFCC}
  9
$EXTNAMES
290
     1
  9
$PSVPSCALE
 40
0.0
  9
$OLESTARTUP
290
     0
  0
ENDSEC
  0
SECTION
  2
CLASSES
  0
CLASS
  1
ACDBDICTIONARYWDFLT
  2
AcDbDictionaryWithDefault
  3
AutoCAD 2000
 90
        0
280
     0
281
     0
  0
CLASS
  1
ACDBPLACEHOLDER
  2
AcDbPlaceHolder
  3
AutoCAD 2000
 90
        0
280
     0
281
     0
  0
CLASS
  1
LAYOUT
  2
AcDbLayout
  3
AutoCAD 2000
 90
        0
280
     0
281
     0
  0
CLASS
  1
DICTIONARYVAR
  2
AcDbDictionaryVar
  3
AutoCAD 2000
 90
        0
280
     0
281
     0
  0
ENDSEC
  0
SECTION
  2
TABLES
  0
TABLE
  2
VPORT
  5
8
330
0
100
AcDbSymbolTable
 70
     7
  0
VPORT
  5
23838
330
8
100
AcDbSymbolTableRecord
100
AcDbViewportTableRecord
  2
*Active
 70
     0
 10
0.0
 20
0.0
 11
1.0
 21
1.0
 12
2550.293743204692
 22
584.3841370139021
 13
0.0
 23
0.0
 14
1.0
 24
1.0
 15
50.0
 25
50.0
 16
0.0
 26
0.0
 36
1.0
 17
0.0
 27
0.0
 37
0.0
 40
1818.606525351352
 41
1.401162790697674
 42
50.0
 43
0.0
 44
0.0
 50
0.0
 51
0.0
 71
     0
 72
   100
 73
     1
 74
     0
 75
     0
 76
     1
 77
     0
 78
     0
281
     0
 65
     1
110
0.0
120
0.0
130
0.0
111
1.0
121
0.0
131
0.0
112
0.0
122
1.0
132
0.0
 79
     1
146
0.0
  0
ENDTAB
  0
TABLE
  2
LTYPE
  5
5
330
0
100
AcDbSymbolTable
 70
     3
  0
LTYPE
  5
13
330
5
100
AcDbSymbolTableRecord
100
AcDbLinetypeTableRecord
  2
ByBlock
 70
     0
  3

 72
    65
 73
     0
 40
0.0
  0
LTYPE
  5
14
330
5
100
AcDbSymbolTableRecord
100
AcDbLinetypeTableRecord
  2
ByLayer
 70
     0
  3

 72
    65
 73
     0
 40
0.0
  0
LTYPE
  5
15
330
5
100
AcDbSymbolTableRecord
100
AcDbLinetypeTableRecord
  2
Continuous
 70
     0
  3
Solid line
 72
    65
 73
     0
 40
0.0
  0
LTYPE
  5
295F
330
5
100
AcDbSymbolTableRecord
100
AcDbLinetypeTableRecord
  2
ACAD_ISO10W100
 70
     0
  3
ISO Strichpunktlinie __ . __ . __ . __ . __ . _
 72
    65
 73
     4
 40
18.0
 49
12.0
 74
     0
 49
-3.0
 74
     0
 49
0.0
 74
     0
 49
-3.0
 74
     0
  0
LTYPE
  5
2960
330
5
100
AcDbSymbolTableRecord
100
AcDbLinetypeTableRecord
  2
ACAD_ISO02W100
 70
     0
  3
ISO Strichlinie __ __ __ __ __ __ __ __ __ __ _
 72
    65
 73
     2
 40
15.0
 49
12.0
 74
     0
 49
-3.0
 74
     0
  0
ENDTAB
  0
TABLE
  2
LAYER
  5
2
330
0
100
AcDbSymbolTable
 70
     6
  0
LAYER
  5
10
330
2
100
AcDbSymbolTableRecord
100
AcDbLayerTableRecord
  2
0
 70
     0
 62
     7
  6
Continuous
370
    -3
390
F
  0
LAYER
  5
2961
330
2
100
AcDbSymbolTableRecord
100
AcDbLayerTableRecord
  2
Defpoints
 70
     0
 62
     7
  6
Continuous
290
     0
370
    -3
390
F
  0
LAYER
  5
2962
330
2
100
AcDbSymbolTableRecord
100
AcDbLayerTableRecord
  2
KERA0
 70
     0
 62
     5
  6
Continuous
370
    40
390
F
  0
LAYER
  5
2963
330
2
100
AcDbSymbolTableRecord
100
AcDbLayerTableRecord
  2
KERA2
 70
     0
 62
     7
  6
ACAD_ISO10W100
370
    18
390
F
  0
LAYER
  5
2964
330
2
100
AcDbSymbolTableRecord
100
AcDbLayerTableRecord
  2
KERA4
 70
     0
 62
     1
  6
Continuous
370
    18
390
F
  0
LAYER
  5
2967
330
2
100
AcDbSymbolTableRecord
100
AcDbLayerTableRecord
  2
KERA1
 70
     0
 62
     1
  6
ACAD_ISO02W100
370
    25
390
F
  0
ENDTAB
  0
TABLE
  2
STYLE
  5
3
330
0
100
AcDbSymbolTable
 70
     1
  0
STYLE
  5
11
330
3
100
AcDbSymbolTableRecord
100
AcDbTextStyleTableRecord
  2
Standard
 70
     0
 40
45.0
 41
1.0
 50
0.0
 71
     0
 42
0.2
  3
ARIAL.TTF
  4

1001
ACAD
1000
Arial
1071
       34
  0
ENDTAB
  0
TABLE
  2
VIEW
  5
6
330
0
100
AcDbSymbolTable
 70
     0
  0
ENDTAB
  0
TABLE
  2
UCS
  5
7
330
0
100
AcDbSymbolTable
 70
     0
  0
ENDTAB
  0
TABLE
  2
APPID
  5
9
330
0
100
AcDbSymbolTable
 70
     2
  0
APPID
  5
12
330
9
100
AcDbSymbolTableRecord
100
AcDbRegAppTableRecord
  2
ACAD
 70
     0
  0
APPID
  5
22A9
330
9
100
AcDbSymbolTableRecord
100
AcDbRegAppTableRecord
  2
DCO15
 70
     0
  0
ENDTAB
  0
TABLE
  2
DIMSTYLE
  5
A
330
0
100
AcDbSymbolTable
 70
     1
100
AcDbDimStyleTable
 71
     1
340
10EF3
  0
DIMSTYLE
105
10EF3
102
{ACAD_REACTORS
330
2208D
330
220B7
330
2214A
330
22158
330
23212
330
237C1
330
237F7
102
}
330
A
100
AcDbSymbolTableRecord
100
AcDbDimStyleTableRecord
  2
STANDARD
 70
     0
 41
40.0
 42
20.0
 43
30.0
 44
15.0
 78
     9
140
45.0
141
4.0
147
15.0
271
     0
272
     0
340
11
  0
ENDTAB
  0
TABLE
  2
BLOCK_RECORD
  5
1
330
0
100
AcDbSymbolTable
 70
    11
  0
BLOCK_RECORD
  5
1E
330
1
100
AcDbSymbolTableRecord
100
AcDbBlockTableRecord
  2
*Model_Space
340
21
  0
BLOCK_RECORD
  5
1A
330
1
100
AcDbSymbolTableRecord
100
AcDbBlockTableRecord
  2
*Paper_Space
340
1D
  0
BLOCK_RECORD
  5
2208E
330
1
100
AcDbSymbolTableRecord
100
AcDbBlockTableRecord
  2
*D0
340
0
  0
BLOCK_RECORD
  5
220B8
330
1
100
AcDbSymbolTableRecord
100
AcDbBlockTableRecord
  2
*D1
340
0
  0
BLOCK_RECORD
  5
2214B
330
1
100
AcDbSymbolTableRecord
100
AcDbBlockTableRecord
  2
*D2
340
0
  0
BLOCK_RECORD
  5
22159
330
1
100
AcDbSymbolTableRecord
100
AcDbBlockTableRecord
  2
*D3
340
0
  0
BLOCK_RECORD
  5
2281D
330
1
100
AcDbSymbolTableRecord
100
AcDbBlockTableRecord
  2
Kl Abdeckpl
340
0
310
2800000020000000200000000100080000000000000400000000000000000000000000000000000000000000000080000080000000808000800000008000800080800000C0C0C000C0DCC000F0CAA6000020400000206000002080000020A0000020C0000020E00000400000004020000040400000406000004080000040A0
310
000040C0000040E00000600000006020000060400000606000006080000060A0000060C0000060E00000800000008020000080400000806000008080000080A0000080C0000080E00000A0000000A0200000A0400000A0600000A0800000A0A00000A0C00000A0E00000C0000000C0200000C0400000C0600000C0800000C0
310
A00000C0C00000C0E00000E0000000E0200000E0400000E0600000E0800000E0A00000E0C00000E0E00040000000400020004000400040006000400080004000A0004000C0004000E00040200000402020004020400040206000402080004020A0004020C0004020E000404000004040200040404000404060004040800040
310
40A0004040C0004040E00040600000406020004060400040606000406080004060A0004060C0004060E00040800000408020004080400040806000408080004080A0004080C0004080E00040A0000040A0200040A0400040A0600040A0800040A0A00040A0C00040A0E00040C0000040C0200040C0400040C0600040C08000
310
40C0A00040C0C00040C0E00040E0000040E0200040E0400040E0600040E0800040E0A00040E0C00040E0E00080000000800020008000400080006000800080008000A0008000C0008000E00080200000802020008020400080206000802080008020A0008020C0008020E00080400000804020008040400080406000804080
310
008040A0008040C0008040E00080600000806020008060400080606000806080008060A0008060C0008060E00080800000808020008080400080806000808080008080A0008080C0008080E00080A0000080A0200080A0400080A0600080A0800080A0A00080A0C00080A0E00080C0000080C0200080C0400080C0600080C0
310
800080C0A00080C0C00080C0E00080E0000080E0200080E0400080E0600080E0800080E0A00080E0C00080E0E000C0000000C0002000C0004000C0006000C0008000C000A000C000C000C000E000C0200000C0202000C0204000C0206000C0208000C020A000C020C000C020E000C0400000C0402000C0404000C0406000C0
310
408000C040A000C040C000C040E000C0600000C0602000C0604000C0606000C0608000C060A000C060C000C060E000C0800000C0802000C0804000C0806000C0808000C080A000C080C000C080E000C0A00000C0A02000C0A04000C0A06000C0A08000C0A0A000C0A0C000C0A0E000C0C00000C0C02000C0C04000C0C06000
310
C0C08000C0C0A000F0FBFF00A4A0A000808080000000FF0000FF000000FFFF00FF000000FF00FF00FFFF0000FFFFFF00FFFFFFFFFFFFFFFFFFFFFFFFFFFFFFFFFFFFFFFFFFFFFFFFFFFFFFFFFFFFFFFFFFFFFFFFFFFFFFFFFFFFFFFFFFFFFFFFFFFFFFFFFFFFFFFFFFFFFFFFFFFFFFFFFFFFFFFFFFFFFFFFFFFFFFFFFFFFFF
310
FFFFFFFFFFFFFFFFFFFFFFFFFFFFFFFFFFFFFFFFFFFFFFFFFFFFFFFFFFFFFFFFFFFFFFFFFFFFFFFFFFFFFFFFFFFFFFFFFFFFFFFFFFFFFFFFFFFFFFFFFFFFFFFFFFFFFFFFFFFFFFFFFFFFFFFFFFFFFFFFFFFFFFFFFFFFFFFFFFFFFFFFFFFFFFFFFFFFFFFFFFFFFFFFFFFFFFFFFFFFFFFFFFFFFFFFFFFFFFFFFFFFFFFFFFFFFF
310
FFFFFFFFFFFFFFFFFFFFFFFFFFFFFFFFFFFFFFFFFFFFFFFFFFFFFFFFFFFFFFFFFFFFFFFFFFFFFFFFFFFFFFFFFFFFFFFFFFFFFFFFFFFFFFFFFFFFFFFFFFFFFFFFFFFFFFFFFFFFFFFFFFFFFFFFFFFFFFFFFFFFFFFFFFFFFFFFFFFFFFFFFFFFFFFFFFFFFFFFFFFFFFFFFFFFFFFFFFFFFFFFFFFFFFFFFFFFFFFFFFFFFFFFFFFFFF
310
FFFFFFFFFFFFFFFFFFFFFFFFFFFFFFFFFFFFFFFFFFFFFFFFFFFFFFFFFFFFFFFFFFFFFFFFFFFFFFFFFFFFFFFFFFFFFFFFFFFFFFFFFFFFFFFFFFFFFFFFFFFFFFFFFFFFFFFFFFFFFFFFFFFFFFFFFFFFFFFFFFFFFFFFFFFFFFFFFFFFFFFFFFFFFFFFFFFFFFFFFFFFFFFFFFFFFFFFFFFFFFFFFFFFFFFFFF0000FFFFFFFFFFFFFFFF
310
FFFFFFFFFFFFFFFFFFFFFFFFFFFFFFFF0000FFFFFFFF0000FFFFFFFFFFFFFFFFFFFFFFFFFFFFFFFFFFFFFFFFFFFFFFFF0000FFFFFF000000000000000000000000000000000000000000000000000000000000FFFF000000000000000000000000000000000000000000000000000000000000FFFFFFFFFFFFFFFFFFFFFFFF
310
FFFFFFFFFFFFFFFFFFFFFFFFFFFFFFFFFFFFFFFFFFFFFFFFFFFFFFFFFFFFFFFFFFFFFFFFFFFFFFFFFFFFFFFFFFFFFFFFFFFFFFFFFFFFFFFFFFFFFFFFFFFFFFFFFFFFFFFFFFFFFFFFFFFFFFFFFFFFFFFFFFFFFFFFFFFFFFFFFFFFFFFFFFFFFFFFFFFFFFFFFFFFFFFFFFFFFFFFFFFFFFFFFFFFFFFFFFFFFFFFFFFFFFFFFFFFFF
310
FFFFFFFFFFFFFFFFFFFFFFFFFFFFFFFFFFFFFFFFFFFFFFFFFFFFFFFFFFFFFFFFFFFFFFFFFFFFFFFFFFFFFFFFFFFFFFFFFFFFFFFFFFFFFFFFFFFFFFFFFFFFFFFFFFFFFFFFFFFFFFFFFFFFFFFFFFFFFFFFFFFFFFFFFFFFFFFFFFFFFFFFFFFFFFFFFFFFFFFFFFFFFFFFFFFFFFFFFFFFFFFFFFFFFFFFFFFFFFFFFFFFFFFFFFFFFF
310
FFFFFFFFFFFFFFFFFFFFFFFFFFFFFFFFFFFFFFFFFFFFFFFFFFFFFFFFFFFFFFFFFFFFFFFFFFFFFFFFFFFFFFFFFFFFFFFFFFFFFFFFFFFFFFFFFFFFFFFFFFFFFFFFFFFFFFFFFFFFFFFFFFFFFFFFFFFFFFFFFFFFFFFFFFFFFFFFFFFFFFFFFFFFFFFFFFFFFFFFFFFFFFFFFFFFFFFFFFFFFFFFFFFFFFFFFFFFFFFFFFFFFFFFFFFFFF
310
FFFFFFFFFFFFFFFFFFFFFFFFFFFFFFFFFFFFFFFFFFFFFFFFFFFFFFFFFFFFFFFFFFFFFFFFFFFFFFFFFFFFFFFFFFFFFFFFFFFFFFFFFFFFFFFF
102
{BLKREFS
331
23008
102
}
  0
BLOCK_RECORD
  5
23213
330
1
100
AcDbSymbolTableRecord
100
AcDbBlockTableRecord
  2
*D5
340
0
  0
BLOCK_RECORD
  5
237C2
330
1
100
AcDbSymbolTableRecord
100
AcDbBlockTableRecord
  2
*D9
340
0
  0
BLOCK_RECORD
  5
237F8
330
1
100
AcDbSymbolTableRecord
100
AcDbBlockTableRecord
  2
*D10
340
0
  0
ENDTAB
  0
ENDSEC
  0
SECTION
  2
BLOCKS
  0
BLOCK
  5
1F
330
1E
100
AcDbEntity
  8
0
100
AcDbBlockBegin
  2
*Model_Space
 70
     0
 10
0.0
 20
0.0
 30
0.0
  3
*Model_Space
  1

  0
ENDBLK
  5
20
330
1E
100
AcDbEntity
  8
0
100
AcDbBlockEnd
  0
BLOCK
  5
1B
330
1A
100
AcDbEntity
 67
     1
  8
0
100
AcDbBlockBegin
  2
*Paper_Space
 70
     0
 10
0.0
 20
0.0
 30
0.0
  3
*Paper_Space
  1

  0
ENDBLK
  5
1C
330
1A
100
AcDbEntity
 67
     1
  8
0
100
AcDbBlockEnd
  0
BLOCK
  5
22099
330
2208E
100
AcDbEntity
  8
0
100
AcDbBlockBegin
  2
*D0
 70
     1
 10
0.0
 20
0.0
 30
0.0
  3
*D0
  1

  0
LINE
  5
23651
330
2208E
100
AcDbEntity
  8
KERA4
 62
     0
370
    -2
100
AcDbLine
 10
2067.057330384944
 20
667.7309546649541
 30
0.0
 11
2067.057330384944
 21
1043.695493901183
 31
0.0
  0
LINE
  5
23652
330
2208E
100
AcDbEntity
  8
KERA4
 62
     0
370
    -2
100
AcDbLine
 10
2594.445541874859
 20
667.2454028930663
 30
0.0
 11
2594.445541874859
 21
1043.695493901183
 31
0.0
  0
LINE
  5
23653
330
2208E
100
AcDbEntity
  8
KERA4
 62
     0
370
    -2
100
AcDbLine
 10
2107.057330384944
 20
1028.695493901182
 30
0.0
 11
2265.064176126075
 21
1028.695493901182
 31
0.0
  0
LINE
  5
23654
330
2208E
100
AcDbEntity
  8
KERA4
 62
     0
370
    -2
100
AcDbLine
 10
2554.445541874859
 20
1028.695493901182
 30
0.0
 11
2394.303603138353
 21
1028.695493901182
 31
0.0
  0
SOLID
  5
23655
330
2208E
100
AcDbEntity
  8
KERA4
 62
     0
100
AcDbTrace
 10
2107.057330384944
 20
1035.362160567849
 30
0.0
 11
2107.057330384944
 21
1022.028827234516
 31
0.0
 12
2067.057330384944
 22
1028.695493901182
 32
0.0
 13
2067.057330384944
 23
1028.695493901182
 33
0.0
  0
SOLID
  5
23656
330
2208E
100
AcDbEntity
  8
KERA4
 62
     0
100
AcDbTrace
 10
2554.445541874859
 20
1035.362160567849
 30
0.0
 11
2554.445541874859
 21
1022.028827234516
 31
0.0
 12
2594.445541874859
 22
1028.695493901182
 32
0.0
 13
2594.445541874859
 23
1028.695493901182
 33
0.0
  0
MTEXT
  5
23657
330
2208E
100
AcDbEntity
  8
KERA4
 62
     0
100
AcDbMText
 10
2329.683889632214
 20
1028.695493901182
 30
0.0
 40
45.0
 41
0.0
 71
     5
 72
     1
  1
\A1;534
 73
     1
 44
1.0
  0
POINT
  5
23658
330
2208E
100
AcDbEntity
  8
Defpoints
 62
     0
100
AcDbPoint
 10
2067.057330384944
 20
647.7309546649542
 30
0.0
  0
POINT
  5
23659
330
2208E
100
AcDbEntity
  8
Defpoints
 62
     0
100
AcDbPoint
 10
2594.445541874859
 20
647.2454028930663
 30
0.0
  0
POINT
  5
2365A
330
2208E
100
AcDbEntity
  8
Defpoints
 62
     0
100
AcDbPoint
 10
2594.445541874859
 20
1028.695493901182
 30
0.0
  0
ENDBLK
  5
2209A
330
2208E
100
AcDbEntity
  8
0
100
AcDbBlockEnd
  0
BLOCK
  5
220C3
330
220B8
100
AcDbEntity
  8
0
100
AcDbBlockBegin
  2
*D1
 70
     1
 10
0.0
 20
0.0
 30
0.0
  3
*D1
  1

  0
LINE
  5
237ED
330
220B8
100
AcDbEntity
  8
KERA4
 62
     0
370
    -2
100
AcDbLine
 10
2580.745537201231
 20
633.2454038714103
 30
0.0
 11
3016.561972223893
 21
633.2454038714102
 31
0.0
  0
LINE
  5
237EE
330
220B8
100
AcDbEntity
  8
KERA4
 62
     0
370
    -2
100
AcDbLine
 10
2580.745537201231
 20
333.2454038714103
 30
0.0
 11
3016.561972223893
 21
333.2454038714101
 31
0.0
  0
LINE
  5
237EF
330
220B8
100
AcDbEntity
  8
KERA4
 62
     0
370
    -2
100
AcDbLine
 10
3001.561972223893
 20
593.2454038714102
 30
0.0
 11
3001.561972223893
 21
521.2365362042887
 31
0.0
  0
LINE
  5
237F0
330
220B8
100
AcDbEntity
  8
KERA4
 62
     0
370
    -2
100
AcDbLine
 10
3001.561972223893
 20
373.2454038714101
 30
0.0
 11
3001.561972223893
 21
445.2542715385316
 31
0.0
  0
SOLID
  5
237F1
330
220B8
100
AcDbEntity
  8
KERA4
 62
     0
100
AcDbTrace
 10
2994.895305557227
 20
593.2454038714102
 30
0.0
 11
3008.22863889056
 21
593.2454038714102
 31
0.0
 12
3001.561972223893
 22
633.2454038714102
 32
0.0
 13
3001.561972223893
 23
633.2454038714102
 33
0.0
  0
SOLID
  5
237F2
330
220B8
100
AcDbEntity
  8
KERA4
 62
     0
100
AcDbTrace
 10
2994.895305557227
 20
373.2454038714101
 30
0.0
 11
3008.22863889056
 21
373.2454038714101
 31
0.0
 12
3001.561972223893
 22
333.2454038714101
 32
0.0
 13
3001.561972223893
 23
333.2454038714101
 33
0.0
  0
MTEXT
  5
237F3
330
220B8
100
AcDbEntity
  8
KERA4
 62
     0
100
AcDbMText
 10
3001.561972223893
 20
483.2454038714106
 30
0.0
 40
45.0
 41
0.0
 71
     5
 72
     1
  1
\A1;300
 73
     1
 44
1.0
  0
POINT
  5
237F4
330
220B8
100
AcDbEntity
  8
Defpoints
 62
     0
100
AcDbPoint
 10
2560.745537201231
 20
633.2454038714103
 30
0.0
  0
POINT
  5
237F5
330
220B8
100
AcDbEntity
  8
Defpoints
 62
     0
100
AcDbPoint
 10
2560.745537201231
 20
333.2454038714103
 30
0.0
  0
POINT
  5
237F6
330
220B8
100
AcDbEntity
  8
Defpoints
 62
     0
100
AcDbPoint
 10
3001.561972223893
 20
333.2454038714101
 30
0.0
  0
ENDBLK
  5
220C4
330
220B8
100
AcDbEntity
  8
0
100
AcDbBlockEnd
  0
BLOCK
  5
22156
330
2214B
100
AcDbEntity
  8
0
100
AcDbBlockBegin
  2
*D2
 70
     1
 10
0.0
 20
0.0
 30
0.0
  3
*D2
  1

  0
LINE
  5
237E3
330
2214B
100
AcDbEntity
  8
KERA4
 62
     0
370
    -2
100
AcDbLine
 10
2604.445541874859
 20
657.2454028930661
 30
0.0
 11
3166.120704602362
 21
657.245402893066
 31
0.0
  0
LINE
  5
237E4
330
2214B
100
AcDbEntity
  8
KERA4
 62
     0
370
    -2
100
AcDbLine
 10
2604.445541874859
 20
309.2454195823663
 30
0.0
 11
3166.120704602362
 21
309.2454195823662
 31
0.0
  0
LINE
  5
237E5
330
2214B
100
AcDbEntity
  8
KERA4
 62
     0
370
    -2
100
AcDbLine
 10
3151.120704602362
 20
617.245402893066
 30
0.0
 11
3151.120704602362
 21
521.2365435705947
 31
0.0
  0
LINE
  5
237E6
330
2214B
100
AcDbEntity
  8
KERA4
 62
     0
370
    -2
100
AcDbLine
 10
3151.120704602362
 20
349.2454195823662
 30
0.0
 11
3151.120704602362
 21
445.2542789048375
 31
0.0
  0
SOLID
  5
237E7
330
2214B
100
AcDbEntity
  8
KERA4
 62
     0
100
AcDbTrace
 10
3144.454037935696
 20
617.245402893066
 30
0.0
 11
3157.787371269029
 21
617.245402893066
 31
0.0
 12
3151.120704602362
 22
657.245402893066
 32
0.0
 13
3151.120704602362
 23
657.245402893066
 33
0.0
  0
SOLID
  5
237E8
330
2214B
100
AcDbEntity
  8
KERA4
 62
     0
100
AcDbTrace
 10
3144.454037935696
 20
349.2454195823662
 30
0.0
 11
3157.787371269029
 21
349.2454195823662
 31
0.0
 12
3151.120704602362
 22
309.2454195823662
 32
0.0
 13
3151.120704602362
 23
309.2454195823662
 33
0.0
  0
MTEXT
  5
237E9
330
2214B
100
AcDbEntity
  8
KERA4
 62
     0
100
AcDbMText
 10
3151.120704602362
 20
483.2454112377166
 30
0.0
 40
45.0
 41
0.0
 71
     5
 72
     1
  1
\A1;348
 73
     1
 44
1.0
  0
POINT
  5
237EA
330
2214B
100
AcDbEntity
  8
Defpoints
 62
     0
100
AcDbPoint
 10
2584.445541874859
 20
657.2454028930661
 30
0.0
  0
POINT
  5
237EB
330
2214B
100
AcDbEntity
  8
Defpoints
 62
     0
100
AcDbPoint
 10
2584.445541874859
 20
309.2454195823663
 30
0.0
  0
POINT
  5
237EC
330
2214B
100
AcDbEntity
  8
Defpoints
 62
     0
100
AcDbPoint
 10
3151.120704602362
 20
309.2454195823662
 30
0.0
  0
ENDBLK
  5
22157
330
2214B
100
AcDbEntity
  8
0
100
AcDbBlockEnd
  0
BLOCK
  5
22164
330
22159
100
AcDbEntity
  8
0
100
AcDbBlockBegin
  2
*D3
 70
     1
 10
0.0
 20
0.0
 30
0.0
  3
*D3
  1

  0
LINE
  5
23647
330
22159
100
AcDbEntity
  8
KERA4
 62
     0
370
    -2
100
AcDbLine
 10
2090.745537201231
 20
643.2454038714102
 30
0.0
 11
2090.745537201231
 21
941.8227279967439
 31
0.0
  0
LINE
  5
23648
330
22159
100
AcDbEntity
  8
KERA4
 62
     0
370
    -2
100
AcDbLine
 10
2570.745537201231
 20
643.2454038714102
 30
0.0
 11
2570.745537201231
 21
941.8227279967439
 31
0.0
  0
LINE
  5
23649
330
22159
100
AcDbEntity
  8
KERA4
 62
     0
370
    -2
100
AcDbLine
 10
2130.745537201231
 20
926.822727996744
 30
0.0
 11
2265.204950570944
 21
926.822727996744
 31
0.0
  0
LINE
  5
2364A
330
22159
100
AcDbEntity
  8
KERA4
 62
     0
370
    -2
100
AcDbLine
 10
2530.745537201231
 20
926.822727996744
 30
0.0
 11
2396.286123831518
 21
926.822727996744
 31
0.0
  0
SOLID
  5
2364B
330
22159
100
AcDbEntity
  8
KERA4
 62
     0
100
AcDbTrace
 10
2130.745537201231
 20
933.4893946634107
 30
0.0
 11
2130.745537201231
 21
920.1560613300774
 31
0.0
 12
2090.745537201231
 22
926.822727996744
 32
0.0
 13
2090.745537201231
 23
926.822727996744
 33
0.0
  0
SOLID
  5
2364C
330
22159
100
AcDbEntity
  8
KERA4
 62
     0
100
AcDbTrace
 10
2530.745537201231
 20
933.4893946634107
 30
0.0
 11
2530.745537201231
 21
920.1560613300774
 31
0.0
 12
2570.745537201231
 22
926.822727996744
 32
0.0
 13
2570.745537201231
 23
926.822727996744
 33
0.0
  0
MTEXT
  5
2364D
330
22159
100
AcDbEntity
  8
KERA4
 62
     0
100
AcDbMText
 10
2330.745537201231
 20
926.822727996744
 30
0.0
 40
45.0
 41
0.0
 71
     5
 72
     1
  1
\A1;480
 73
     1
 44
1.0
  0
POINT
  5
2364E
330
22159
100
AcDbEntity
  8
Defpoints
 62
     0
100
AcDbPoint
 10
2090.745537201231
 20
623.2454038714102
 30
0.0
  0
POINT
  5
2364F
330
22159
100
AcDbEntity
  8
Defpoints
 62
     0
100
AcDbPoint
 10
2570.745537201231
 20
623.2454038714102
 30
0.0
  0
POINT
  5
23650
330
22159
100
AcDbEntity
  8
Defpoints
 62
     0
100
AcDbPoint
 10
2570.745537201231
 20
926.822727996744
 30
0.0
  0
ENDBLK
  5
22165
330
22159
100
AcDbEntity
  8
0
100
AcDbBlockEnd
  0
BLOCK
  5
2287C
330
2281D
100
AcDbEntity
  8
0
100
AcDbBlockBegin
  2
Kl Abdeckpl
 70
     0
 10
0.0
 20
0.0
 30
0.0
  3
Kl Abdeckpl
  1

  0
POLYLINE
  5
2281E
330
2281D
100
AcDbEntity
  8
0
100
AcDb3dPolyline
 66
     1
 10
0.0
 20
0.0
 30
0.0
 70
    12
 75
     6
  0
VERTEX
  5
2281F
330
2281E
100
AcDbEntity
  8
0
100
AcDbVertex
100
AcDb3dPolylineVertex
 10
2216.169340808567
 20
1908.541843478688
 30
0.0
 70
    48
  0
VERTEX
  5
22820
330
2281E
100
AcDbEntity
  8
0
100
AcDbVertex
100
AcDb3dPolylineVertex
 10
2269.502673183534
 20
1908.541843478688
 30
0.0
 70
    48
  0
VERTEX
  5
22821
330
2281E
100
AcDbEntity
  8
0
100
AcDbVertex
100
AcDb3dPolylineVertex
 10
2322.8360055585
 20
1908.541843478687
 30
0.0
 70
    48
  0
VERTEX
  5
22822
330
2281E
100
AcDbEntity
  8
0
100
AcDbVertex
100
AcDb3dPolylineVertex
 10
2376.169337933466
 20
1908.541843478688
 30
0.0
 70
    48
  0
VERTEX
  5
22823
330
2281E
100
AcDbEntity
  8
0
100
AcDbVertex
100
AcDb3dPolylineVertex
 10
2216.169340808567
 20
1908.541843478688
 30
0.0
 70
    40
  0
VERTEX
  5
22824
330
2281E
100
AcDbEntity
  8
0
100
AcDbVertex
100
AcDb3dPolylineVertex
 10
2236.16934044918
 20
1908.541843478688
 30
0.0
 70
    40
  0
VERTEX
  5
22825
330
2281E
100
AcDbEntity
  8
0
100
AcDbVertex
100
AcDb3dPolylineVertex
 10
2256.169340089792
 20
1908.541843478688
 30
0.0
 70
    40
  0
VERTEX
  5
22826
330
2281E
100
AcDbEntity
  8
0
100
AcDbVertex
100
AcDb3dPolylineVertex
 10
2276.169339730404
 20
1908.541843478688
 30
0.0
 70
    40
  0
VERTEX
  5
22827
330
2281E
100
AcDbEntity
  8
0
100
AcDbVertex
100
AcDb3dPolylineVertex
 10
2296.169339371016
 20
1908.541843478688
 30
0.0
 70
    40
  0
VERTEX
  5
22828
330
2281E
100
AcDbEntity
  8
0
100
AcDbVertex
100
AcDb3dPolylineVertex
 10
2316.169339011629
 20
1908.541843478688
 30
0.0
 70
    40
  0
VERTEX
  5
22829
330
2281E
100
AcDbEntity
  8
0
100
AcDbVertex
100
AcDb3dPolylineVertex
 10
2336.169338652241
 20
1908.541843478688
 30
0.0
 70
    40
  0
VERTEX
  5
2282A
330
2281E
100
AcDbEntity
  8
0
100
AcDbVertex
100
AcDb3dPolylineVertex
 10
2356.169338292852
 20
1908.541843478688
 30
0.0
 70
    40
  0
VERTEX
  5
2282B
330
2281E
100
AcDbEntity
  8
0
100
AcDbVertex
100
AcDb3dPolylineVertex
 10
2376.169337933466
 20
1908.541843478688
 30
0.0
 70
    40
  0
SEQEND
  5
2282C
330
2281E
100
AcDbEntity
  8
0
  0
POLYLINE
  5
2282D
330
2281D
100
AcDbEntity
  8
0
100
AcDb3dPolyline
 66
     1
 10
0.0
 20
0.0
 30
0.0
 70
    12
 75
     6
  0
VERTEX
  5
2282E
330
2282D
100
AcDbEntity
  8
0
100
AcDbVertex
100
AcDb3dPolylineVertex
 10
2219.169340808567
 20
1916.541848247058
 30
0.0
 70
    48
  0
VERTEX
  5
2282F
330
2282D
100
AcDbEntity
  8
0
100
AcDbVertex
100
AcDb3dPolylineVertex
 10
2270.502673183533
 20
1916.541848247059
 30
0.0
 70
    48
  0
VERTEX
  5
22830
330
2282D
100
AcDbEntity
  8
0
100
AcDbVertex
100
AcDb3dPolylineVertex
 10
2321.8360055585
 20
1916.541848247059
 30
0.0
 70
    48
  0
VERTEX
  5
22831
330
2282D
100
AcDbEntity
  8
0
100
AcDbVertex
100
AcDb3dPolylineVertex
 10
2373.169337933466
 20
1916.541848247059
 30
0.0
 70
    48
  0
VERTEX
  5
22832
330
2282D
100
AcDbEntity
  8
0
100
AcDbVertex
100
AcDb3dPolylineVertex
 10
2219.169340808567
 20
1916.541848247058
 30
0.0
 70
    40
  0
VERTEX
  5
22833
330
2282D
100
AcDbEntity
  8
0
100
AcDbVertex
100
AcDb3dPolylineVertex
 10
2238.41934044918
 20
1916.541848247059
 30
0.0
 70
    40
  0
VERTEX
  5
22834
330
2282D
100
AcDbEntity
  8
0
100
AcDbVertex
100
AcDb3dPolylineVertex
 10
2257.669340089792
 20
1916.541848247059
 30
0.0
 70
    40
  0
VERTEX
  5
22835
330
2282D
100
AcDbEntity
  8
0
100
AcDbVertex
100
AcDb3dPolylineVertex
 10
2276.919339730404
 20
1916.541848247058
 30
0.0
 70
    40
  0
VERTEX
  5
22836
330
2282D
100
AcDbEntity
  8
0
100
AcDbVertex
100
AcDb3dPolylineVertex
 10
2296.169339371016
 20
1916.541848247059
 30
0.0
 70
    40
  0
VERTEX
  5
22837
330
2282D
100
AcDbEntity
  8
0
100
AcDbVertex
100
AcDb3dPolylineVertex
 10
2315.419339011629
 20
1916.541848247059
 30
0.0
 70
    40
  0
VERTEX
  5
22838
330
2282D
100
AcDbEntity
  8
0
100
AcDbVertex
100
AcDb3dPolylineVertex
 10
2334.669338652241
 20
1916.541848247059
 30
0.0
 70
    40
  0
VERTEX
  5
22839
330
2282D
100
AcDbEntity
  8
0
100
AcDbVertex
100
AcDb3dPolylineVertex
 10
2353.919338292853
 20
1916.541848247059
 30
0.0
 70
    40
  0
VERTEX
  5
2283A
330
2282D
100
AcDbEntity
  8
0
100
AcDbVertex
100
AcDb3dPolylineVertex
 10
2373.169337933466
 20
1916.541848247059
 30
0.0
 70
    40
  0
SEQEND
  5
2283B
330
2282D
100
AcDbEntity
  8
0
  0
POLYLINE
  5
2283C
330
2281D
100
AcDbEntity
  8
0
100
AcDb3dPolyline
 66
     1
 10
0.0
 20
0.0
 30
0.0
 70
    12
 75
     6
  0
VERTEX
  5
2283D
330
2283C
100
AcDbEntity
  8
0
100
AcDbVertex
100
AcDb3dPolylineVertex
 10
2222.164349746992
 20
1908.541843478688
 30
0.0
 70
    48
  0
VERTEX
  5
2283E
330
2283C
100
AcDbEntity
  8
0
100
AcDbVertex
100
AcDb3dPolylineVertex
 10
2222.164349746992
 20
1904.319128838934
 30
0.0
 70
    48
  0
VERTEX
  5
2283F
330
2283C
100
AcDbEntity
  8
0
100
AcDbVertex
100
AcDb3dPolylineVertex
 10
2222.164349746992
 20
1900.09641419918
 30
0.0
 70
    48
  0
VERTEX
  5
22840
330
2283C
100
AcDbEntity
  8
0
100
AcDbVertex
100
AcDb3dPolylineVertex
 10
2222.164349746992
 20
1895.873699559426
 30
0.0
 70
    48
  0
VERTEX
  5
22841
330
2283C
100
AcDbEntity
  8
0
100
AcDbVertex
100
AcDb3dPolylineVertex
 10
2222.164349746992
 20
1908.541843478688
 30
0.0
 70
    40
  0
VERTEX
  5
22842
330
2283C
100
AcDbEntity
  8
0
100
AcDbVertex
100
AcDb3dPolylineVertex
 10
2222.164349746992
 20
1906.95832548878
 30
0.0
 70
    40
  0
VERTEX
  5
22843
330
2283C
100
AcDbEntity
  8
0
100
AcDbVertex
100
AcDb3dPolylineVertex
 10
2222.164349746992
 20
1905.374807498872
 30
0.0
 70
    40
  0
VERTEX
  5
22844
330
2283C
100
AcDbEntity
  8
0
100
AcDbVertex
100
AcDb3dPolylineVertex
 10
2222.164349746992
 20
1903.791289508965
 30
0.0
 70
    40
  0
VERTEX
  5
22845
330
2283C
100
AcDbEntity
  8
0
100
AcDbVertex
100
AcDb3dPolylineVertex
 10
2222.164349746992
 20
1902.207771519057
 30
0.0
 70
    40
  0
VERTEX
  5
22846
330
2283C
100
AcDbEntity
  8
0
100
AcDbVertex
100
AcDb3dPolylineVertex
 10
2222.164349746992
 20
1900.624253529149
 30
0.0
 70
    40
  0
VERTEX
  5
22847
330
2283C
100
AcDbEntity
  8
0
100
AcDbVertex
100
AcDb3dPolylineVertex
 10
2222.164349746992
 20
1899.040735539242
 30
0.0
 70
    40
  0
VERTEX
  5
22848
330
2283C
100
AcDbEntity
  8
0
100
AcDbVertex
100
AcDb3dPolylineVertex
 10
2222.164349746992
 20
1897.457217549334
 30
0.0
 70
    40
  0
VERTEX
  5
22849
330
2283C
100
AcDbEntity
  8
0
100
AcDbVertex
100
AcDb3dPolylineVertex
 10
2222.164349746992
 20
1895.873699559426
 30
0.0
 70
    40
  0
SEQEND
  5
2284A
330
2283C
100
AcDbEntity
  8
0
  0
POLYLINE
  5
2284B
330
2281D
100
AcDbEntity
  8
0
100
AcDb3dPolyline
 66
     1
 10
0.0
 20
0.0
 30
0.0
 70
    12
 75
     6
  0
VERTEX
  5
2284C
330
2284B
100
AcDbEntity
  8
0
100
AcDbVertex
100
AcDb3dPolylineVertex
 10
2227.664349746993
 20
1908.541843478688
 30
0.0
 70
    48
  0
VERTEX
  5
2284D
330
2284B
100
AcDbEntity
  8
0
100
AcDbVertex
100
AcDb3dPolylineVertex
 10
2227.664349746993
 20
1904.319130428391
 30
0.0
 70
    48
  0
VERTEX
  5
2284E
330
2284B
100
AcDbEntity
  8
0
100
AcDbVertex
100
AcDb3dPolylineVertex
 10
2227.664349746993
 20
1900.096417378094
 30
0.0
 70
    48
  0
VERTEX
  5
2284F
330
2284B
100
AcDbEntity
  8
0
100
AcDbVertex
100
AcDb3dPolylineVertex
 10
2227.664349746993
 20
1895.873704327797
 30
0.0
 70
    48
  0
VERTEX
  5
22850
330
2284B
100
AcDbEntity
  8
0
100
AcDbVertex
100
AcDb3dPolylineVertex
 10
2227.664349746993
 20
1908.541843478688
 30
0.0
 70
    40
  0
VERTEX
  5
22851
330
2284B
100
AcDbEntity
  8
0
100
AcDbVertex
100
AcDb3dPolylineVertex
 10
2227.664349746993
 20
1906.958326084826
 30
0.0
 70
    40
  0
VERTEX
  5
22852
330
2284B
100
AcDbEntity
  8
0
100
AcDbVertex
100
AcDb3dPolylineVertex
 10
2227.664349746993
 20
1905.374808690965
 30
0.0
 70
    40
  0
VERTEX
  5
22853
330
2284B
100
AcDbEntity
  8
0
100
AcDbVertex
100
AcDb3dPolylineVertex
 10
2227.664349746993
 20
1903.791291297104
 30
0.0
 70
    40
  0
VERTEX
  5
22854
330
2284B
100
AcDbEntity
  8
0
100
AcDbVertex
100
AcDb3dPolylineVertex
 10
2227.664349746993
 20
1902.207773903243
 30
0.0
 70
    40
  0
VERTEX
  5
22855
330
2284B
100
AcDbEntity
  8
0
100
AcDbVertex
100
AcDb3dPolylineVertex
 10
2227.664349746993
 20
1900.624256509381
 30
0.0
 70
    40
  0
VERTEX
  5
22856
330
2284B
100
AcDbEntity
  8
0
100
AcDbVertex
100
AcDb3dPolylineVertex
 10
2227.664349746993
 20
1899.04073911552
 30
0.0
 70
    40
  0
VERTEX
  5
22857
330
2284B
100
AcDbEntity
  8
0
100
AcDbVertex
100
AcDb3dPolylineVertex
 10
2227.664349746993
 20
1897.457221721658
 30
0.0
 70
    40
  0
VERTEX
  5
22858
330
2284B
100
AcDbEntity
  8
0
100
AcDbVertex
100
AcDb3dPolylineVertex
 10
2227.664349746993
 20
1895.873704327797
 30
0.0
 70
    40
  0
SEQEND
  5
22859
330
2284B
100
AcDbEntity
  8
0
  0
ARC
  5
2285A
330
2281D
100
AcDbEntity
  8
0
100
AcDbCircle
 10
2219.169340808567
 20
1913.541848247059
 30
0.0
 40
3.0
100
AcDbArc
 50
90.0
 51
180.0
  0
LINE
  5
2285B
330
2281D
100
AcDbEntity
  8
0
100
AcDbLine
 10
2216.169340808567
 20
1908.541843478688
 30
0.0
 11
2216.169340808567
 21
1913.541848247059
 31
0.0
  0
ARC
  5
2285C
330
2281D
100
AcDbEntity
  8
0
100
AcDbCircle
 10
2373.169337933466
 20
1913.541848247059
 30
0.0
 40
3.0
100
AcDbArc
 50
0.0
 51
90.0
  0
POLYLINE
  5
2285D
330
2281D
100
AcDbEntity
  8
0
100
AcDb3dPolyline
 66
     1
 10
0.0
 20
0.0
 30
0.0
 70
    12
 75
     6
  0
VERTEX
  5
2285E
330
2285D
100
AcDbEntity
  8
0
100
AcDbVertex
100
AcDb3dPolylineVertex
 10
2364.674331870143
 20
1908.541843478688
 30
0.0
 70
    48
  0
VERTEX
  5
2285F
330
2285D
100
AcDbEntity
  8
0
100
AcDbVertex
100
AcDb3dPolylineVertex
 10
2364.674331870143
 20
1904.319130428391
 30
0.0
 70
    48
  0
VERTEX
  5
22860
330
2285D
100
AcDbEntity
  8
0
100
AcDbVertex
100
AcDb3dPolylineVertex
 10
2364.674331870143
 20
1900.096417378094
 30
0.0
 70
    48
  0
VERTEX
  5
22861
330
2285D
100
AcDbEntity
  8
0
100
AcDbVertex
100
AcDb3dPolylineVertex
 10
2364.674331870143
 20
1895.873704327797
 30
0.0
 70
    48
  0
VERTEX
  5
22862
330
2285D
100
AcDbEntity
  8
0
100
AcDbVertex
100
AcDb3dPolylineVertex
 10
2364.674331870143
 20
1908.541843478688
 30
0.0
 70
    40
  0
VERTEX
  5
22863
330
2285D
100
AcDbEntity
  8
0
100
AcDbVertex
100
AcDb3dPolylineVertex
 10
2364.674331870143
 20
1906.958326084826
 30
0.0
 70
    40
  0
VERTEX
  5
22864
330
2285D
100
AcDbEntity
  8
0
100
AcDbVertex
100
AcDb3dPolylineVertex
 10
2364.674331870143
 20
1905.374808690965
 30
0.0
 70
    40
  0
VERTEX
  5
22865
330
2285D
100
AcDbEntity
  8
0
100
AcDbVertex
100
AcDb3dPolylineVertex
 10
2364.674331870143
 20
1903.791291297104
 30
0.0
 70
    40
  0
VERTEX
  5
22866
330
2285D
100
AcDbEntity
  8
0
100
AcDbVertex
100
AcDb3dPolylineVertex
 10
2364.674331870143
 20
1902.207773903243
 30
0.0
 70
    40
  0
VERTEX
  5
22867
330
2285D
100
AcDbEntity
  8
0
100
AcDbVertex
100
AcDb3dPolylineVertex
 10
2364.674331870143
 20
1900.624256509381
 30
0.0
 70
    40
  0
VERTEX
  5
22868
330
2285D
100
AcDbEntity
  8
0
100
AcDbVertex
100
AcDb3dPolylineVertex
 10
2364.674331870143
 20
1899.04073911552
 30
0.0
 70
    40
  0
VERTEX
  5
22869
330
2285D
100
AcDbEntity
  8
0
100
AcDbVertex
100
AcDb3dPolylineVertex
 10
2364.674331870143
 20
1897.457221721658
 30
0.0
 70
    40
  0
VERTEX
  5
2286A
330
2285D
100
AcDbEntity
  8
0
100
AcDbVertex
100
AcDb3dPolylineVertex
 10
2364.674331870143
 20
1895.873704327797
 30
0.0
 70
    40
  0
SEQEND
  5
2286B
330
2285D
100
AcDbEntity
  8
0
  0
POLYLINE
  5
2286C
330
2281D
100
AcDbEntity
  8
0
100
AcDb3dPolyline
 66
     1
 10
0.0
 20
0.0
 30
0.0
 70
    12
 75
     6
  0
VERTEX
  5
2286D
330
2286C
100
AcDbEntity
  8
0
100
AcDbVertex
100
AcDb3dPolylineVertex
 10
2370.174331870143
 20
1908.541843478688
 30
0.0
 70
    48
  0
VERTEX
  5
2286E
330
2286C
100
AcDbEntity
  8
0
100
AcDbVertex
100
AcDb3dPolylineVertex
 10
2370.174331870143
 20
1904.319128838934
 30
0.0
 70
    48
  0
VERTEX
  5
2286F
330
2286C
100
AcDbEntity
  8
0
100
AcDbVertex
100
AcDb3dPolylineVertex
 10
2370.174331870143
 20
1900.09641419918
 30
0.0
 70
    48
  0
VERTEX
  5
22870
330
2286C
100
AcDbEntity
  8
0
100
AcDbVertex
100
AcDb3dPolylineVertex
 10
2370.174331870143
 20
1895.873699559426
 30
0.0
 70
    48
  0
VERTEX
  5
22871
330
2286C
100
AcDbEntity
  8
0
100
AcDbVertex
100
AcDb3dPolylineVertex
 10
2370.174331870143
 20
1908.541843478688
 30
0.0
 70
    40
  0
VERTEX
  5
22872
330
2286C
100
AcDbEntity
  8
0
100
AcDbVertex
100
AcDb3dPolylineVertex
 10
2370.174331870143
 20
1906.95832548878
 30
0.0
 70
    40
  0
VERTEX
  5
22873
330
2286C
100
AcDbEntity
  8
0
100
AcDbVertex
100
AcDb3dPolylineVertex
 10
2370.174331870143
 20
1905.374807498872
 30
0.0
 70
    40
  0
VERTEX
  5
22874
330
2286C
100
AcDbEntity
  8
0
100
AcDbVertex
100
AcDb3dPolylineVertex
 10
2370.174331870143
 20
1903.791289508965
 30
0.0
 70
    40
  0
VERTEX
  5
22875
330
2286C
100
AcDbEntity
  8
0
100
AcDbVertex
100
AcDb3dPolylineVertex
 10
2370.174331870143
 20
1902.207771519057
 30
0.0
 70
    40
  0
VERTEX
  5
22876
330
2286C
100
AcDbEntity
  8
0
100
AcDbVertex
100
AcDb3dPolylineVertex
 10
2370.174331870143
 20
1900.624253529149
 30
0.0
 70
    40
  0
VERTEX
  5
22877
330
2286C
100
AcDbEntity
  8
0
100
AcDbVertex
100
AcDb3dPolylineVertex
 10
2370.174331870143
 20
1899.040735539242
 30
0.0
 70
    40
  0
VERTEX
  5
22878
330
2286C
100
AcDbEntity
  8
0
100
AcDbVertex
100
AcDb3dPolylineVertex
 10
2370.174331870143
 20
1897.457217549334
 30
0.0
 70
    40
  0
VERTEX
  5
22879
330
2286C
100
AcDbEntity
  8
0
100
AcDbVertex
100
AcDb3dPolylineVertex
 10
2370.174331870143
 20
1895.873699559426
 30
0.0
 70
    40
  0
SEQEND
  5
2287A
330
2286C
100
AcDbEntity
  8
0
  0
LINE
  5
2287B
330
2281D
100
AcDbEntity
  8
0
100
AcDbLine
 10
2376.169337933466
 20
1908.541843478688
 30
0.0
 11
2376.169337933466
 21
1913.541848247059
 31
0.0
  0
ENDBLK
  5
2287D
330
2281D
100
AcDbEntity
  8
0
100
AcDbBlockEnd
  0
BLOCK
  5
2321E
330
23213
100
AcDbEntity
  8
0
100
AcDbBlockBegin
  2
*D5
 70
     1
 10
0.0
 20
0.0
 30
0.0
  3
*D5
  1

  0
LINE
  5
2382C
330
23213
100
AcDbEntity
  8
KERA4
 62
     0
370
    -2
100
AcDbLine
 10
2308.19958689837
 20
1232.783392977942
 30
0.0
 11
2308.19958689837
 21
1174.876776989655
 31
0.0
  0
LINE
  5
2382D
330
23213
100
AcDbEntity
  8
KERA4
 62
     0
370
    -2
100
AcDbLine
 10
2353.497978249949
 20
1232.807033551978
 30
0.0
 11
2353.497978249949
 21
1174.876776989655
 31
0.0
  0
LINE
  5
2382E
330
23213
100
AcDbEntity
  8
KERA4
 62
     0
370
    -2
100
AcDbLine
 10
2268.19958689837
 20
1189.876776989655
 30
0.0
 11
2228.199586898371
 21
1189.876776989655
 31
0.0
  0
LINE
  5
2382F
330
23213
100
AcDbEntity
  8
KERA4
 62
     0
370
    -2
100
AcDbLine
 10
2393.497978249949
 20
1189.876776989655
 30
0.0
 11
2433.497978249949
 21
1189.876776989655
 31
0.0
  0
SOLID
  5
23830
330
23213
100
AcDbEntity
  8
KERA4
 62
     0
100
AcDbTrace
 10
2268.19958689837
 20
1196.543443656322
 30
0.0
 11
2268.19958689837
 21
1183.210110322988
 31
0.0
 12
2308.19958689837
 22
1189.876776989655
 32
0.0
 13
2308.19958689837
 23
1189.876776989655
 33
0.0
  0
SOLID
  5
23831
330
23213
100
AcDbEntity
  8
KERA4
 62
     0
100
AcDbTrace
 10
2393.497978249949
 20
1196.543443656322
 30
0.0
 11
2393.497978249949
 21
1183.210110322988
 31
0.0
 12
2353.497978249949
 22
1189.876776989655
 32
0.0
 13
2353.497978249949
 23
1189.876776989655
 33
0.0
  0
MTEXT
  5
23832
330
23213
100
AcDbEntity
  8
KERA4
 62
     0
100
AcDbMText
 10
2481.618714948449
 20
1189.876776989655
 30
0.0
 40
45.0
 41
0.0
 71
     5
 72
     1
  1
\A1;46
 73
     1
 44
1.0
  0
POINT
  5
23833
330
23213
100
AcDbEntity
  8
Defpoints
 62
     0
100
AcDbPoint
 10
2308.19958689837
 20
1252.783392977942
 30
0.000301790050151
  0
POINT
  5
23834
330
23213
100
AcDbEntity
  8
Defpoints
 62
     0
100
AcDbPoint
 10
2353.497978249949
 20
1252.807033551978
 30
0.000301790050151
  0
POINT
  5
23835
330
23213
100
AcDbEntity
  8
Defpoints
 62
     0
100
AcDbPoint
 10
2353.497978249949
 20
1189.876776989655
 30
0.0
  0
ENDBLK
  5
2321F
330
23213
100
AcDbEntity
  8
0
100
AcDbBlockEnd
  0
BLOCK
  5
237CD
330
237C2
100
AcDbEntity
  8
0
100
AcDbBlockBegin
  2
*D9
 70
     1
 10
0.0
 20
0.0
 30
0.0
  3
*D9
  1

  0
LINE
  5
237CF
330
237C2
100
AcDbEntity
  8
KERA4
 62
     0
370
    -2
100
AcDbLine
 10
2250.745537212516
 20
550.2454298498882
 30
0.0
 11
2250.745537212516
 21
765.0586583119984
 31
0.0
  0
LINE
  5
237D0
330
237C2
100
AcDbEntity
  8
KERA4
 62
     0
370
    -2
100
AcDbLine
 10
2410.745537682314
 20
550.2454298498882
 30
0.0
 11
2410.745537682314
 21
765.0586583119984
 31
0.0
  0
LINE
  5
237D1
330
237C2
100
AcDbEntity
  8
KERA4
 62
     0
370
    -2
100
AcDbLine
 10
2210.745537212516
 20
750.0586583119984
 30
0.0
 11
2170.745537212516
 21
750.0586583119984
 31
0.0
  0
LINE
  5
237D2
330
237C2
100
AcDbEntity
  8
KERA4
 62
     0
370
    -2
100
AcDbLine
 10
2450.745537682314
 20
750.0586583119984
 30
0.0
 11
2490.745537682314
 21
750.0586583119984
 31
0.0
  0
SOLID
  5
237D3
330
237C2
100
AcDbEntity
  8
KERA4
 62
     0
100
AcDbTrace
 10
2210.745537212516
 20
756.725324978665
 30
0.0
 11
2210.745537212516
 21
743.3919916453318
 31
0.0
 12
2250.745537212516
 22
750.0586583119984
 32
0.0
 13
2250.745537212516
 23
750.0586583119984
 33
0.0
  0
SOLID
  5
237D4
330
237C2
100
AcDbEntity
  8
KERA4
 62
     0
100
AcDbTrace
 10
2450.745537682314
 20
756.725324978665
 30
0.0
 11
2450.745537682314
 21
743.3919916453318
 31
0.0
 12
2410.745537682314
 22
750.0586583119984
 32
0.0
 13
2410.745537682314
 23
750.0586583119984
 33
0.0
  0
MTEXT
  5
237D5
330
237C2
100
AcDbEntity
  8
KERA4
 62
     0
100
AcDbMText
 10
2330.745537447415
 20
750.0586583119984
 30
0.0
 40
45.0
 41
0.0
 71
     5
 72
     1
  1
\A1;164
 73
     1
 44
1.0
  0
POINT
  5
237D6
330
237C2
100
AcDbEntity
  8
Defpoints
 62
     0
100
AcDbPoint
 10
2250.745537212516
 20
530.2454298498883
 30
0.0
  0
POINT
  5
237D7
330
237C2
100
AcDbEntity
  8
Defpoints
 62
     0
100
AcDbPoint
 10
2410.745537682314
 20
530.2454298498883
 30
0.0
  0
POINT
  5
237D8
330
237C2
100
AcDbEntity
  8
Defpoints
 62
     0
100
AcDbPoint
 10
2410.745537682314
 20
750.0586583119984
 30
0.0
  0
ENDBLK
  5
237CE
330
237C2
100
AcDbEntity
  8
0
100
AcDbBlockEnd
  0
BLOCK
  5
23803
330
237F8
100
AcDbEntity
  8
0
100
AcDbBlockBegin
  2
*D10
 70
     1
 10
0.0
 20
0.0
 30
0.0
  3
*D10
  1

  0
LINE
  5
23805
330
237F8
100
AcDbEntity
  8
KERA4
 62
     0
370
    -2
100
AcDbLine
 10
2427.745537682314
 20
533.2454298498882
 30
0.0
 11
2714.825661202743
 21
533.2454298498882
 31
0.0
  0
LINE
  5
23806
330
237F8
100
AcDbEntity
  8
KERA4
 62
     0
370
    -2
100
AcDbLine
 10
2427.745537682314
 20
433.2454153063541
 30
0.0
 11
2714.825661202743
 21
433.245415306354
 31
0.0
  0
LINE
  5
23807
330
237F8
100
AcDbEntity
  8
KERA4
 62
     0
370
    -2
100
AcDbLine
 10
2699.825661202744
 20
573.2454298498883
 30
0.0
 11
2699.825661202744
 21
613.2454298498883
 31
0.0
  0
LINE
  5
23808
330
237F8
100
AcDbEntity
  8
KERA4
 62
     0
370
    -2
100
AcDbLine
 10
2699.825661202744
 20
393.245415306354
 30
0.0
 11
2699.825661202744
 21
353.245415306354
 31
0.0
  0
SOLID
  5
23809
330
237F8
100
AcDbEntity
  8
KERA4
 62
     0
100
AcDbTrace
 10
2693.158994536077
 20
573.2454298498883
 30
0.0
 11
2706.49232786941
 21
573.2454298498883
 31
0.0
 12
2699.825661202744
 22
533.2454298498882
 32
0.0
 13
2699.825661202744
 23
533.2454298498882
 33
0.0
  0
SOLID
  5
2380A
330
237F8
100
AcDbEntity
  8
KERA4
 62
     0
100
AcDbTrace
 10
2693.158994536077
 20
393.245415306354
 30
0.0
 11
2706.49232786941
 21
393.245415306354
 31
0.0
 12
2699.825661202744
 22
433.245415306354
 32
0.0
 13
2699.825661202744
 23
433.245415306354
 33
0.0
  0
MTEXT
  5
2380B
330
237F8
100
AcDbEntity
  8
KERA4
 62
     0
100
AcDbMText
 10
2699.825661202744
 20
483.2454225781216
 30
0.0
 40
45.0
 41
0.0
 71
     5
 72
     1
  1
\A1;105
 73
     1
 44
1.0
  0
POINT
  5
2380C
330
237F8
100
AcDbEntity
  8
Defpoints
 62
     0
100
AcDbPoint
 10
2407.745537682314
 20
533.2454298498882
 30
0.0
  0
POINT
  5
2380D
330
237F8
100
AcDbEntity
  8
Defpoints
 62
     0
100
AcDbPoint
 10
2407.745537682314
 20
433.2454153063541
 30
0.0
  0
POINT
  5
2380E
330
237F8
100
AcDbEntity
  8
Defpoints
 62
     0
100
AcDbPoint
 10
2699.825661202744
 20
433.245415306354
 30
0.0
  0
ENDBLK
  5
23804
330
237F8
100
AcDbEntity
  8
0
100
AcDbBlockEnd
  0
ENDSEC
  0
SECTION
  2
ENTITIES
  0
MTEXT
  5
3441
330
1E
100
AcDbEntity
  8
KERA4
100
AcDbMText
 10
1901.988948390646
 20
-33.71245194653784
 30
0.0
 40
45.0
 41
0.0
 71
     1
 72
     5
  1
Washtop Design - Zeichnung \PUnterbauwaschtisch,\PMod.-Nr. VSA_UBS48_T\P08.05.08/Th                                            \P{\Ftxt.shx;        }
 73
     1
 44
1.0
  0
POLYLINE
  5
1C55C
330
1E
100
AcDbEntity
  8
0
100
AcDb3dPolyline
 66
     1
 10
0.0
 20
0.0
 30
0.0
 70
    12
 75
     6
  0
VERTEX
  5
1C55D
330
1C55C
100
AcDbEntity
  8
0
100
AcDbVertex
100
AcDb3dPolylineVertex
 10
2598.745538635254
 20
1445.207283717593
 30
0.0
 70
    48
  0
VERTEX
  5
237B8
330
1C55C
100
AcDbEntity
  8
0
100
AcDbVertex
100
AcDb3dPolylineVertex
 10
2598.745538635254
 20
1445.207283717593
 30
0.0
 70
    40
  0
VERTEX
  5
237B9
330
1C55C
100
AcDbEntity
  8
0
100
AcDbVertex
100
AcDb3dPolylineVertex
 10
2598.74563586698
 20
1445.207283717555
 30
0.0
 70
    40
  0
VERTEX
  5
237BA
330
1C55C
100
AcDbEntity
  8
0
100
AcDbVertex
100
AcDb3dPolylineVertex
 10
2598.745733098707
 20
1445.207283717442
 30
0.0
 70
    40
  0
VERTEX
  5
237BB
330
1C55C
100
AcDbEntity
  8
0
100
AcDbVertex
100
AcDb3dPolylineVertex
 10
2598.745830330434
 20
1445.207283717253
 30
0.0
 70
    40
  0
VERTEX
  5
237BC
330
1C55C
100
AcDbEntity
  8
0
100
AcDbVertex
100
AcDb3dPolylineVertex
 10
2598.74592756216
 20
1445.207283716989
 30
0.0
 70
    40
  0
VERTEX
  5
237BD
330
1C55C
100
AcDbEntity
  8
0
100
AcDbVertex
100
AcDb3dPolylineVertex
 10
2598.746024793887
 20
1445.207283716649
 30
0.0
 70
    40
  0
VERTEX
  5
237BE
330
1C55C
100
AcDbEntity
  8
0
100
AcDbVertex
100
AcDb3dPolylineVertex
 10
2598.746122025613
 20
1445.207283716234
 30
0.0
 70
    40
  0
VERTEX
  5
237BF
330
1C55C
100
AcDbEntity
  8
0
100
AcDbVertex
100
AcDb3dPolylineVertex
 10
2598.74621925734
 20
1445.207283715744
 30
0.0
 70
    40
  0
VERTEX
  5
237C0
330
1C55C
100
AcDbEntity
  8
0
100
AcDbVertex
100
AcDb3dPolylineVertex
 10
2598.746316489067
 20
1445.207283715179
 30
0.0
 70
    40
  0
VERTEX
  5
1C55E
330
1C55C
100
AcDbEntity
  8
0
100
AcDbVertex
100
AcDb3dPolylineVertex
 10
2598.745797919858
 20
1445.207283717593
 30
0.0
 70
    48
  0
VERTEX
  5
1C55F
330
1C55C
100
AcDbEntity
  8
0
100
AcDbVertex
100
AcDb3dPolylineVertex
 10
2598.746057204463
 20
1445.207283716787
 30
0.0
 70
    48
  0
VERTEX
  5
1C560
330
1C55C
100
AcDbEntity
  8
0
100
AcDbVertex
100
AcDb3dPolylineVertex
 10
2598.746316489068
 20
1445.207283715178
 30
0.0
 70
    48
  0
SEQEND
  5
1C56A
330
1C55C
100
AcDbEntity
  8
0
  0
POLYLINE
  5
1C713
330
1E
100
AcDbEntity
  8
KERA4
100
AcDb3dPolyline
 66
     1
 10
0.0
 20
0.0
 30
0.0
 70
    13
 75
     6
  0
VERTEX
  5
1C714
330
1C713
100
AcDbEntity
  8
KERA4
100
AcDbVertex
100
AcDb3dPolylineVertex
 10
2348.376800210121
 20
465.6141610180684
 30
0.0
 70
    48
  0
VERTEX
  5
1C715
330
1C713
100
AcDbEntity
  8
KERA4
100
AcDbVertex
100
AcDb3dPolylineVertex
 10
2355.679907870042
 20
483.2454225781214
 30
0.0
 70
    48
  0
VERTEX
  5
1C716
330
1C713
100
AcDbEntity
  8
KERA4
100
AcDbVertex
100
AcDb3dPolylineVertex
 10
2348.376800210121
 20
500.8766841381743
 30
0.0
 70
    48
  0
VERTEX
  5
1C717
330
1C713
100
AcDbEntity
  8
KERA4
100
AcDbVertex
100
AcDb3dPolylineVertex
 10
2330.745538650068
 20
508.1797917980954
 30
0.0
 70
    48
  0
VERTEX
  5
1C718
330
1C713
100
AcDbEntity
  8
KERA4
100
AcDbVertex
100
AcDb3dPolylineVertex
 10
2313.114277090015
 20
500.8766841381743
 30
0.0
 70
    48
  0
VERTEX
  5
1C719
330
1C713
100
AcDbEntity
  8
KERA4
100
AcDbVertex
100
AcDb3dPolylineVertex
 10
2305.811169430094
 20
483.2454225781214
 30
0.0
 70
    48
  0
VERTEX
  5
1C71A
330
1C713
100
AcDbEntity
  8
KERA4
100
AcDbVertex
100
AcDb3dPolylineVertex
 10
2313.114277090015
 20
465.6141610180684
 30
0.0
 70
    48
  0
VERTEX
  5
1C71B
330
1C713
100
AcDbEntity
  8
KERA4
100
AcDbVertex
100
AcDb3dPolylineVertex
 10
2330.745538650068
 20
458.3110533581474
 30
0.0
 70
    48
  0
VERTEX
  5
1C71C
330
1C713
100
AcDbEntity
  8
KERA4
100
AcDbVertex
100
AcDb3dPolylineVertex
 10
2353.245538650068
 20
483.2454225781214
 30
0.0
 70
    40
  0
VERTEX
  5
1C71D
330
1C713
100
AcDbEntity
  8
KERA4
100
AcDbVertex
100
AcDb3dPolylineVertex
 10
2352.993488790048
 20
486.5399372718643
 30
0.0
 70
    40
  0
VERTEX
  5
1C71E
330
1C713
100
AcDbEntity
  8
KERA4
100
AcDbVertex
100
AcDb3dPolylineVertex
 10
2352.256139284588
 20
489.7663708730033
 30
0.0
 70
    40
  0
VERTEX
  5
1C71F
330
1C713
100
AcDbEntity
  8
KERA4
100
AcDbVertex
100
AcDb3dPolylineVertex
 10
2351.061690245585
 20
492.8566422889353
 30
0.0
 70
    40
  0
VERTEX
  5
1C720
330
1C713
100
AcDbEntity
  8
KERA4
100
AcDbVertex
100
AcDb3dPolylineVertex
 10
2349.438341784936
 20
495.7426704270574
 30
0.0
 70
    40
  0
VERTEX
  5
1C721
330
1C713
100
AcDbEntity
  8
KERA4
100
AcDbVertex
100
AcDb3dPolylineVertex
 10
2347.414294014539
 20
498.3563741947664
 30
0.0
 70
    40
  0
VERTEX
  5
1C722
330
1C713
100
AcDbEntity
  8
KERA4
100
AcDbVertex
100
AcDb3dPolylineVertex
 10
2345.019716477437
 20
500.6316419306034
 30
0.0
 70
    40
  0
VERTEX
  5
1C723
330
1C713
100
AcDbEntity
  8
KERA4
100
AcDbVertex
100
AcDb3dPolylineVertex
 10
2342.307673353745
 20
502.5252566101844
 30
0.0
 70
    40
  0
VERTEX
  5
1C724
330
1C713
100
AcDbEntity
  8
KERA4
100
AcDbVertex
100
AcDb3dPolylineVertex
 10
2339.345999557175
 20
504.0087719427184
 30
0.0
 70
    40
  0
VERTEX
  5
1C725
330
1C713
100
AcDbEntity
  8
KERA4
100
AcDbVertex
100
AcDb3dPolylineVertex
 10
2336.202776180329
 20
505.0539878163074
 30
0.0
 70
    40
  0
VERTEX
  5
1C726
330
1C713
100
AcDbEntity
  8
KERA4
100
AcDbVertex
100
AcDb3dPolylineVertex
 10
2332.94608431581
 20
505.6327041190534
 30
0.0
 70
    40
  0
VERTEX
  5
1C727
330
1C713
100
AcDbEntity
  8
KERA4
100
AcDbVertex
100
AcDb3dPolylineVertex
 10
2329.644005056223
 20
505.7170688885894
 30
0.0
 70
    40
  0
VERTEX
  5
1C728
330
1C713
100
AcDbEntity
  8
KERA4
100
AcDbVertex
100
AcDb3dPolylineVertex
 10
2326.36461949417
 20
505.3001191343233
 30
0.0
 70
    40
  0
VERTEX
  5
1C729
330
1C713
100
AcDbEntity
  8
KERA4
100
AcDbVertex
100
AcDb3dPolylineVertex
 10
2323.176008722255
 20
504.4072697719153
 30
0.0
 70
    40
  0
VERTEX
  5
1C72A
330
1C713
100
AcDbEntity
  8
KERA4
100
AcDbVertex
100
AcDb3dPolylineVertex
 10
2320.146253833081
 20
503.0667209132643
 30
0.0
 70
    40
  0
VERTEX
  5
1C72B
330
1C713
100
AcDbEntity
  8
KERA4
100
AcDbVertex
100
AcDb3dPolylineVertex
 10
2317.343435919252
 20
501.3066726702663
 30
0.0
 70
    40
  0
VERTEX
  5
1C72C
330
1C713
100
AcDbEntity
  8
KERA4
100
AcDbVertex
100
AcDb3dPolylineVertex
 10
2314.835636073371
 20
499.1553251548184
 30
0.0
 70
    40
  0
VERTEX
  5
1C72D
330
1C713
100
AcDbEntity
  8
KERA4
100
AcDbVertex
100
AcDb3dPolylineVertex
 10
2312.684288557923
 20
496.6475253089375
 30
0.0
 70
    40
  0
VERTEX
  5
1C72E
330
1C713
100
AcDbEntity
  8
KERA4
100
AcDbVertex
100
AcDb3dPolylineVertex
 10
2310.924240314925
 20
493.8447073951083
 30
0.0
 70
    40
  0
VERTEX
  5
1C72F
330
1C713
100
AcDbEntity
  8
KERA4
100
AcDbVertex
100
AcDb3dPolylineVertex
 10
2309.583691456274
 20
490.8149525059343
 30
0.0
 70
    40
  0
VERTEX
  5
1C730
330
1C713
100
AcDbEntity
  8
KERA4
100
AcDbVertex
100
AcDb3dPolylineVertex
 10
2308.690842093866
 20
487.6263417340194
 30
0.0
 70
    40
  0
VERTEX
  5
1C731
330
1C713
100
AcDbEntity
  8
KERA4
100
AcDbVertex
100
AcDb3dPolylineVertex
 10
2308.2738923396
 20
484.3469561719664
 30
0.0
 70
    40
  0
VERTEX
  5
1C732
330
1C713
100
AcDbEntity
  8
KERA4
100
AcDbVertex
100
AcDb3dPolylineVertex
 10
2308.358257109136
 20
481.0448769123793
 30
0.0
 70
    40
  0
VERTEX
  5
1C733
330
1C713
100
AcDbEntity
  8
KERA4
100
AcDbVertex
100
AcDb3dPolylineVertex
 10
2308.936973411882
 20
477.7881850478604
 30
0.0
 70
    40
  0
VERTEX
  5
1C734
330
1C713
100
AcDbEntity
  8
KERA4
100
AcDbVertex
100
AcDb3dPolylineVertex
 10
2309.982189285471
 20
474.6449616710144
 30
0.0
 70
    40
  0
VERTEX
  5
1C735
330
1C713
100
AcDbEntity
  8
KERA4
100
AcDbVertex
100
AcDb3dPolylineVertex
 10
2311.465704618005
 20
471.6832878744444
 30
0.0
 70
    40
  0
VERTEX
  5
1C736
330
1C713
100
AcDbEntity
  8
KERA4
100
AcDbVertex
100
AcDb3dPolylineVertex
 10
2313.359319297585
 20
468.9712447507524
 30
0.0
 70
    40
  0
VERTEX
  5
1C737
330
1C713
100
AcDbEntity
  8
KERA4
100
AcDbVertex
100
AcDb3dPolylineVertex
 10
2315.634587033423
 20
466.5766672136514
 30
0.0
 70
    40
  0
VERTEX
  5
1C738
330
1C713
100
AcDbEntity
  8
KERA4
100
AcDbVertex
100
AcDb3dPolylineVertex
 10
2318.248290801132
 20
464.5526194432534
 30
0.0
 70
    40
  0
VERTEX
  5
1C739
330
1C713
100
AcDbEntity
  8
KERA4
100
AcDbVertex
100
AcDb3dPolylineVertex
 10
2321.134318939254
 20
462.9292709826044
 30
0.0
 70
    40
  0
VERTEX
  5
1C73A
330
1C713
100
AcDbEntity
  8
KERA4
100
AcDbVertex
100
AcDb3dPolylineVertex
 10
2324.224590355186
 20
461.7348219436014
 30
0.0
 70
    40
  0
VERTEX
  5
1C73B
330
1C713
100
AcDbEntity
  8
KERA4
100
AcDbVertex
100
AcDb3dPolylineVertex
 10
2327.451023956325
 20
460.9974724381413
 30
0.0
 70
    40
  0
VERTEX
  5
1C73C
330
1C713
100
AcDbEntity
  8
KERA4
100
AcDbVertex
100
AcDb3dPolylineVertex
 10
2330.745538650068
 20
460.7454225781213
 30
0.0
 70
    40
  0
VERTEX
  5
1C73D
330
1C713
100
AcDbEntity
  8
KERA4
100
AcDbVertex
100
AcDb3dPolylineVertex
 10
2334.040053343811
 20
460.9974724381413
 30
0.0
 70
    40
  0
VERTEX
  5
1C73E
330
1C713
100
AcDbEntity
  8
KERA4
100
AcDbVertex
100
AcDb3dPolylineVertex
 10
2337.26648694495
 20
461.7348219436014
 30
0.0
 70
    40
  0
VERTEX
  5
1C73F
330
1C713
100
AcDbEntity
  8
KERA4
100
AcDbVertex
100
AcDb3dPolylineVertex
 10
2340.356758360882
 20
462.9292709826044
 30
0.0
 70
    40
  0
VERTEX
  5
1C740
330
1C713
100
AcDbEntity
  8
KERA4
100
AcDbVertex
100
AcDb3dPolylineVertex
 10
2343.242786499004
 20
464.5526194432534
 30
0.0
 70
    40
  0
VERTEX
  5
1C741
330
1C713
100
AcDbEntity
  8
KERA4
100
AcDbVertex
100
AcDb3dPolylineVertex
 10
2345.856490266713
 20
466.5766672136503
 30
0.0
 70
    40
  0
VERTEX
  5
1C742
330
1C713
100
AcDbEntity
  8
KERA4
100
AcDbVertex
100
AcDb3dPolylineVertex
 10
2348.13175800255
 20
468.9712447507524
 30
0.0
 70
    40
  0
VERTEX
  5
1C743
330
1C713
100
AcDbEntity
  8
KERA4
100
AcDbVertex
100
AcDb3dPolylineVertex
 10
2350.02537268213
 20
471.6832878744444
 30
0.0
 70
    40
  0
VERTEX
  5
1C744
330
1C713
100
AcDbEntity
  8
KERA4
100
AcDbVertex
100
AcDb3dPolylineVertex
 10
2351.508888014665
 20
474.6449616710144
 30
0.0
 70
    40
  0
VERTEX
  5
1C745
330
1C713
100
AcDbEntity
  8
KERA4
100
AcDbVertex
100
AcDb3dPolylineVertex
 10
2352.554103888254
 20
477.7881850478604
 30
0.0
 70
    40
  0
VERTEX
  5
1C746
330
1C713
100
AcDbEntity
  8
KERA4
100
AcDbVertex
100
AcDb3dPolylineVertex
 10
2353.132820191
 20
481.0448769123793
 30
0.0
 70
    40
  0
SEQEND
  5
1C747
330
1C713
100
AcDbEntity
  8
KERA4
  0
LINE
  5
1F39C
330
1E
100
AcDbEntity
  8
KERA0
100
AcDbLine
 10
2100.745537201231
 20
633.2454038714103
 30
0.0
 11
2560.745537201231
 21
633.2454038714103
 31
0.0
  0
LINE
  5
1F39D
330
1E
100
AcDbEntity
  8
KERA0
100
AcDbLine
 10
2100.745537201231
 20
333.2454038714103
 30
0.0
 11
2560.745537201231
 21
333.2454038714103
 31
0.0
  0
LINE
  5
1F3DA
330
1E
100
AcDbEntity
  8
KERA0
100
AcDbLine
 10
2077.045535402705
 20
657.2454028930662
 30
0.0
 11
2584.445541874859
 21
657.2454028930662
 31
0.0
  0
LINE
  5
1F3DB
330
1E
100
AcDbEntity
  8
KERA0
100
AcDbLine
 10
2077.045535402705
 20
309.2454195823663
 30
0.0
 11
2584.445541874859
 21
309.2454195823663
 31
0.0
  0
LINE
  5
1F409
330
1E
100
AcDbEntity
  8
KERA0
100
AcDbLine
 10
2067.045535402705
 20
319.2454195823663
 30
0.0
 11
2067.045535402705
 21
647.2454028930663
 31
0.0
  0
LINE
  5
1F40A
330
1E
100
AcDbEntity
  8
KERA0
100
AcDbLine
 10
2090.745537201231
 20
343.2454038714102
 30
0.0
 11
2090.745537201231
 21
623.2454038714102
 31
0.0
  0
ARC
  5
20326
330
1E
100
AcDbEntity
  8
KERA0
100
AcDbCircle
 10
2077.045535402705
 20
319.2454195823663
 30
0.0
 40
10.0
100
AcDbArc
 50
180.0
 51
270.0
  0
ARC
  5
203CE
330
1E
100
AcDbEntity
  8
KERA0
100
AcDbCircle
 10
2100.745537201231
 20
343.2454038714102
 30
0.0
 40
10.0
100
AcDbArc
 50
180.0
 51
270.0
  0
ARC
  5
208CB
330
1E
100
AcDbEntity
  8
KERA0
100
AcDbCircle
 10
2100.745537201231
 20
623.2454038714102
 30
0.0
 40
10.0
100
AcDbArc
 50
90.0
 51
180.0
  0
ARC
  5
208DB
330
1E
100
AcDbEntity
  8
KERA0
100
AcDbCircle
 10
2077.045535402705
 20
647.2454028930663
 30
0.0
 40
10.0
100
AcDbArc
 50
90.0
 51
180.0
  0
LINE
  5
20E35
330
1E
100
AcDbEntity
  8
KERA0
100
AcDbLine
 10
2570.745537201231
 20
343.2454038714102
 30
0.0
 11
2570.745537201231
 21
623.2454038714102
 31
0.0
  0
LINE
  5
20E54
330
1E
100
AcDbEntity
  8
KERA0
100
AcDbLine
 10
2594.445541874859
 20
319.2454195823663
 30
0.0
 11
2594.445541874859
 21
647.2454028930663
 31
0.0
  0
ARC
  5
210DE
330
1E
100
AcDbEntity
  8
KERA0
100
AcDbCircle
 10
2584.445541874859
 20
319.2454195823663
 30
0.0
 40
10.0
100
AcDbArc
 50
270.0
 51
0.000000000000007
  0
ARC
  5
210DF
330
1E
100
AcDbEntity
  8
KERA0
100
AcDbCircle
 10
2560.745537201231
 20
343.2454038714102
 30
0.0
 40
10.0
100
AcDbArc
 50
270.0
 51
0.0
  0
ARC
  5
21435
330
1E
100
AcDbEntity
  8
KERA0
100
AcDbCircle
 10
2560.745537201231
 20
623.2454038714102
 30
0.0
 40
10.0
100
AcDbArc
 50
0.0
 51
90.0
  0
ARC
  5
21667
330
1E
100
AcDbEntity
  8
KERA0
100
AcDbCircle
 10
2584.445541874859
 20
647.2454028930663
 30
0.0
 40
10.0
100
AcDbArc
 50
0.0
 51
90.0
  0
POLYLINE
  5
21841
330
1E
100
AcDbEntity
  8
KERA0
100
AcDb3dPolyline
 66
     1
 10
0.0
 20
0.0
 30
0.0
 70
    12
 75
     6
  0
VERTEX
  5
21842
330
21841
100
AcDbEntity
  8
KERA0
100
AcDbVertex
100
AcDb3dPolylineVertex
 10
2594.499141722786
 20
1407.207288485951
 30
0.0
 70
    48
  0
VERTEX
  5
2365B
330
21841
100
AcDbEntity
  8
KERA0
100
AcDbVertex
100
AcDb3dPolylineVertex
 10
2594.499141722786
 20
1407.207288485951
 30
0.0
 70
    40
  0
VERTEX
  5
2365C
330
21841
100
AcDbEntity
  8
KERA0
100
AcDbVertex
100
AcDb3dPolylineVertex
 10
2561.536641496559
 20
1407.207288485951
 30
0.0
 70
    40
  0
VERTEX
  5
2365D
330
21841
100
AcDbEntity
  8
KERA0
100
AcDbVertex
100
AcDb3dPolylineVertex
 10
2528.574141270333
 20
1407.207288485951
 30
0.0
 70
    40
  0
VERTEX
  5
2365E
330
21841
100
AcDbEntity
  8
KERA0
100
AcDbVertex
100
AcDb3dPolylineVertex
 10
2495.611641044106
 20
1407.207288485951
 30
0.0
 70
    40
  0
VERTEX
  5
2365F
330
21841
100
AcDbEntity
  8
KERA0
100
AcDbVertex
100
AcDb3dPolylineVertex
 10
2462.64914081788
 20
1407.207288485951
 30
0.0
 70
    40
  0
VERTEX
  5
23660
330
21841
100
AcDbEntity
  8
KERA0
100
AcDbVertex
100
AcDb3dPolylineVertex
 10
2429.686640591653
 20
1407.207288485951
 30
0.0
 70
    40
  0
VERTEX
  5
23661
330
21841
100
AcDbEntity
  8
KERA0
100
AcDbVertex
100
AcDb3dPolylineVertex
 10
2396.724140365427
 20
1407.207288485951
 30
0.0
 70
    40
  0
VERTEX
  5
23662
330
21841
100
AcDbEntity
  8
KERA0
100
AcDbVertex
100
AcDb3dPolylineVertex
 10
2363.7616401392
 20
1407.207288485951
 30
0.0
 70
    40
  0
VERTEX
  5
23663
330
21841
100
AcDbEntity
  8
KERA0
100
AcDbVertex
100
AcDb3dPolylineVertex
 10
2330.799139912973
 20
1407.207288485951
 30
0.0
 70
    40
  0
VERTEX
  5
21843
330
21841
100
AcDbEntity
  8
KERA0
100
AcDbVertex
100
AcDb3dPolylineVertex
 10
2506.599141119515
 20
1407.207288485951
 30
0.0
 70
    48
  0
VERTEX
  5
21844
330
21841
100
AcDbEntity
  8
KERA0
100
AcDbVertex
100
AcDb3dPolylineVertex
 10
2418.699140516245
 20
1407.207288485951
 30
0.0
 70
    48
  0
VERTEX
  5
21845
330
21841
100
AcDbEntity
  8
KERA0
100
AcDbVertex
100
AcDb3dPolylineVertex
 10
2330.799139912974
 20
1407.207288485951
 30
0.0
 70
    48
  0
SEQEND
  5
2184F
330
21841
100
AcDbEntity
  8
KERA0
  0
ARC
  5
2185F
330
1E
100
AcDbEntity
  8
KERA0
100
AcDbCircle
 10
2110.354479923044
 20
1315.152708349363
 30
0.0
 40
22.0
100
AcDbArc
 50
185.7105936108807
 51
268.5000000000103
  0
POLYLINE
  5
21860
330
1E
100
AcDbEntity
  8
KERA0
100
AcDb3dPolyline
 66
     1
 10
0.0
 20
0.0
 30
0.0
 70
    12
 75
     6
  0
VERTEX
  5
21861
330
21860
100
AcDbEntity
  8
KERA0
100
AcDbVertex
100
AcDb3dPolylineVertex
 10
2067.099138103162
 20
1407.207288485951
 30
0.0
 70
    48
  0
VERTEX
  5
236AA
330
21860
100
AcDbEntity
  8
KERA0
100
AcDbVertex
100
AcDb3dPolylineVertex
 10
2067.099138103162
 20
1407.207288485951
 30
0.0
 70
    40
  0
VERTEX
  5
236AB
330
21860
100
AcDbEntity
  8
KERA0
100
AcDbVertex
100
AcDb3dPolylineVertex
 10
2100.061638329389
 20
1407.207288485951
 30
0.0
 70
    40
  0
VERTEX
  5
236AC
330
21860
100
AcDbEntity
  8
KERA0
100
AcDbVertex
100
AcDb3dPolylineVertex
 10
2133.024138555616
 20
1407.207288485951
 30
0.0
 70
    40
  0
VERTEX
  5
236AD
330
21860
100
AcDbEntity
  8
KERA0
100
AcDbVertex
100
AcDb3dPolylineVertex
 10
2165.986638781843
 20
1407.207288485951
 30
0.0
 70
    40
  0
VERTEX
  5
236AE
330
21860
100
AcDbEntity
  8
KERA0
100
AcDbVertex
100
AcDb3dPolylineVertex
 10
2198.949139008069
 20
1407.207288485951
 30
0.0
 70
    40
  0
VERTEX
  5
236AF
330
21860
100
AcDbEntity
  8
KERA0
100
AcDbVertex
100
AcDb3dPolylineVertex
 10
2231.911639234295
 20
1407.207288485951
 30
0.0
 70
    40
  0
VERTEX
  5
236B0
330
21860
100
AcDbEntity
  8
KERA0
100
AcDbVertex
100
AcDb3dPolylineVertex
 10
2264.874139460521
 20
1407.207288485951
 30
0.0
 70
    40
  0
VERTEX
  5
236B1
330
21860
100
AcDbEntity
  8
KERA0
100
AcDbVertex
100
AcDb3dPolylineVertex
 10
2297.836639686748
 20
1407.207288485951
 30
0.0
 70
    40
  0
VERTEX
  5
236B2
330
21860
100
AcDbEntity
  8
KERA0
100
AcDbVertex
100
AcDb3dPolylineVertex
 10
2330.799139912974
 20
1407.207288485951
 30
0.0
 70
    40
  0
VERTEX
  5
21862
330
21860
100
AcDbEntity
  8
KERA0
100
AcDbVertex
100
AcDb3dPolylineVertex
 10
2154.999138706434
 20
1407.207288485951
 30
0.0
 70
    48
  0
VERTEX
  5
21863
330
21860
100
AcDbEntity
  8
KERA0
100
AcDbVertex
100
AcDb3dPolylineVertex
 10
2242.899139309704
 20
1407.207288485951
 30
0.0
 70
    48
  0
VERTEX
  5
21864
330
21860
100
AcDbEntity
  8
KERA0
100
AcDbVertex
100
AcDb3dPolylineVertex
 10
2330.799139912974
 20
1407.207288485951
 30
0.0
 70
    48
  0
SEQEND
  5
2186E
330
21860
100
AcDbEntity
  8
KERA0
  0
LINE
  5
2186F
330
1E
100
AcDbEntity
  8
KERA1
100
AcDbLine
 10
2091.099138103163
 20
1407.207288485951
 30
0.0
 11
2100.404099107135
 21
1314.157686210888
 31
0.0
  0
POLYLINE
  5
21C65
330
1E
100
AcDbEntity
  8
KERA0
100
AcDb3dPolyline
 66
     1
 10
0.0
 20
0.0
 30
0.0
 70
     8
  0
VERTEX
  5
21C66
330
21C65
100
AcDbEntity
  8
KERA0
100
AcDbVertex
100
AcDb3dPolylineVertex
 10
2080.389535089849
 20
1393.704812192736
 30
0.0
 70
    32
  0
VERTEX
  5
21C67
330
21C65
100
AcDbEntity
  8
KERA0
100
AcDbVertex
100
AcDb3dPolylineVertex
 10
2081.41520898077
 20
1383.448074139412
 30
0.0
 70
    32
  0
VERTEX
  5
21C68
330
21C65
100
AcDbEntity
  8
KERA0
100
AcDbVertex
100
AcDb3dPolylineVertex
 10
2082.440882871692
 20
1373.19133608609
 30
0.0
 70
    32
  0
VERTEX
  5
21C69
330
21C65
100
AcDbEntity
  8
KERA0
100
AcDbVertex
100
AcDb3dPolylineVertex
 10
2083.466556762612
 20
1362.934598032768
 30
0.0
 70
    32
  0
VERTEX
  5
21C6A
330
21C65
100
AcDbEntity
  8
KERA0
100
AcDbVertex
100
AcDb3dPolylineVertex
 10
2084.492230653534
 20
1352.677859979446
 30
0.0
 70
    32
  0
VERTEX
  5
21C6B
330
21C65
100
AcDbEntity
  8
KERA0
100
AcDbVertex
100
AcDb3dPolylineVertex
 10
2085.517904544455
 20
1342.421121926123
 30
0.0
 70
    32
  0
VERTEX
  5
21C6C
330
21C65
100
AcDbEntity
  8
KERA0
100
AcDbVertex
100
AcDb3dPolylineVertex
 10
2086.543578435376
 20
1332.164383872801
 30
0.0
 70
    32
  0
VERTEX
  5
21C6D
330
21C65
100
AcDbEntity
  8
KERA0
100
AcDbVertex
100
AcDb3dPolylineVertex
 10
2087.569252326296
 20
1321.907645819478
 30
0.0
 70
    32
  0
VERTEX
  5
21C6E
330
21C65
100
AcDbEntity
  8
KERA0
100
AcDbVertex
100
AcDb3dPolylineVertex
 10
2088.463654421229
 20
1312.963625616509
 30
0.0
 70
    32
  0
SEQEND
  5
21C6F
330
21C65
100
AcDbEntity
  8
KERA0
  0
POLYLINE
  5
21D42
330
1E
100
AcDbEntity
  8
KERA0
100
AcDb3dPolyline
 66
     1
 10
0.0
 20
0.0
 30
0.0
 70
    12
 75
     6
  0
VERTEX
  5
21D43
330
21D42
100
AcDbEntity
  8
KERA0
100
AcDbVertex
100
AcDb3dPolylineVertex
 10
2067.099138103162
 20
1398.207293556525
 30
0.0
 70
    48
  0
VERTEX
  5
236B3
330
21D42
100
AcDbEntity
  8
KERA0
100
AcDbVertex
100
AcDb3dPolylineVertex
 10
2067.099138103162
 20
1398.207293556525
 30
0.0
 70
    40
  0
VERTEX
  5
236B4
330
21D42
100
AcDbEntity
  8
KERA0
100
AcDbVertex
100
AcDb3dPolylineVertex
 10
2068.138539483131
 20
1398.207293556525
 30
0.0
 70
    40
  0
VERTEX
  5
236B5
330
21D42
100
AcDbEntity
  8
KERA0
100
AcDbVertex
100
AcDb3dPolylineVertex
 10
2069.1779408631
 20
1398.207293556525
 30
0.0
 70
    40
  0
VERTEX
  5
236B6
330
21D42
100
AcDbEntity
  8
KERA0
100
AcDbVertex
100
AcDb3dPolylineVertex
 10
2070.217342243068
 20
1398.207293556525
 30
0.0
 70
    40
  0
VERTEX
  5
236B7
330
21D42
100
AcDbEntity
  8
KERA0
100
AcDbVertex
100
AcDb3dPolylineVertex
 10
2071.256743623036
 20
1398.207293556525
 30
0.0
 70
    40
  0
VERTEX
  5
236B8
330
21D42
100
AcDbEntity
  8
KERA0
100
AcDbVertex
100
AcDb3dPolylineVertex
 10
2072.296145003005
 20
1398.207293556525
 30
0.0
 70
    40
  0
VERTEX
  5
236B9
330
21D42
100
AcDbEntity
  8
KERA0
100
AcDbVertex
100
AcDb3dPolylineVertex
 10
2073.335546382973
 20
1398.207293556525
 30
0.0
 70
    40
  0
VERTEX
  5
236BA
330
21D42
100
AcDbEntity
  8
KERA0
100
AcDbVertex
100
AcDb3dPolylineVertex
 10
2074.374947762942
 20
1398.207293556525
 30
0.0
 70
    40
  0
VERTEX
  5
236BB
330
21D42
100
AcDbEntity
  8
KERA0
100
AcDbVertex
100
AcDb3dPolylineVertex
 10
2075.41434914291
 20
1398.207293556525
 30
0.0
 70
    40
  0
VERTEX
  5
21D44
330
21D42
100
AcDbEntity
  8
KERA0
100
AcDbVertex
100
AcDb3dPolylineVertex
 10
2069.870875116412
 20
1398.207293556525
 30
0.0
 70
    48
  0
VERTEX
  5
21D45
330
21D42
100
AcDbEntity
  8
KERA0
100
AcDbVertex
100
AcDb3dPolylineVertex
 10
2072.642612129661
 20
1398.207293556525
 30
0.0
 70
    48
  0
VERTEX
  5
21D46
330
21D42
100
AcDbEntity
  8
KERA0
100
AcDbVertex
100
AcDb3dPolylineVertex
 10
2075.41434914291
 20
1398.207293556525
 30
0.0
 70
    48
  0
SEQEND
  5
21D50
330
21D42
100
AcDbEntity
  8
KERA0
  0
POLYLINE
  5
21D51
330
1E
100
AcDbEntity
  8
KERA0
100
AcDb3dPolyline
 66
     1
 10
0.0
 20
0.0
 30
0.0
 70
    12
 75
     6
  0
VERTEX
  5
21D52
330
21D51
100
AcDbEntity
  8
KERA0
100
AcDbVertex
100
AcDb3dPolylineVertex
 10
2067.099138103162
 20
1398.207293556525
 30
0.0
 70
    48
  0
VERTEX
  5
236BC
330
21D51
100
AcDbEntity
  8
KERA0
100
AcDbVertex
100
AcDb3dPolylineVertex
 10
2067.099138103162
 20
1398.207293556525
 30
0.0
 70
    40
  0
VERTEX
  5
236BD
330
21D51
100
AcDbEntity
  8
KERA0
100
AcDbVertex
100
AcDb3dPolylineVertex
 10
2067.099138103162
 20
1399.332292922703
 30
0.0
 70
    40
  0
VERTEX
  5
236BE
330
21D51
100
AcDbEntity
  8
KERA0
100
AcDbVertex
100
AcDb3dPolylineVertex
 10
2067.099138103162
 20
1400.457292288881
 30
0.0
 70
    40
  0
VERTEX
  5
236BF
330
21D51
100
AcDbEntity
  8
KERA0
100
AcDbVertex
100
AcDb3dPolylineVertex
 10
2067.099138103162
 20
1401.582291655059
 30
0.0
 70
    40
  0
VERTEX
  5
236C0
330
21D51
100
AcDbEntity
  8
KERA0
100
AcDbVertex
100
AcDb3dPolylineVertex
 10
2067.099138103162
 20
1402.707291021237
 30
0.0
 70
    40
  0
VERTEX
  5
236C1
330
21D51
100
AcDbEntity
  8
KERA0
100
AcDbVertex
100
AcDb3dPolylineVertex
 10
2067.099138103162
 20
1403.832290387415
 30
0.0
 70
    40
  0
VERTEX
  5
236C2
330
21D51
100
AcDbEntity
  8
KERA0
100
AcDbVertex
100
AcDb3dPolylineVertex
 10
2067.099138103162
 20
1404.957289753594
 30
0.0
 70
    40
  0
VERTEX
  5
236C3
330
21D51
100
AcDbEntity
  8
KERA0
100
AcDbVertex
100
AcDb3dPolylineVertex
 10
2067.099138103162
 20
1406.082289119772
 30
0.0
 70
    40
  0
VERTEX
  5
236C4
330
21D51
100
AcDbEntity
  8
KERA0
100
AcDbVertex
100
AcDb3dPolylineVertex
 10
2067.099138103162
 20
1407.20728848595
 30
0.0
 70
    40
  0
VERTEX
  5
21D53
330
21D51
100
AcDbEntity
  8
KERA0
100
AcDbVertex
100
AcDb3dPolylineVertex
 10
2067.099138103162
 20
1401.207291866334
 30
0.0
 70
    48
  0
VERTEX
  5
21D54
330
21D51
100
AcDbEntity
  8
KERA0
100
AcDbVertex
100
AcDb3dPolylineVertex
 10
2067.099138103162
 20
1404.207290176142
 30
0.0
 70
    48
  0
VERTEX
  5
21D55
330
21D51
100
AcDbEntity
  8
KERA0
100
AcDbVertex
100
AcDb3dPolylineVertex
 10
2067.099138103162
 20
1407.207288485951
 30
0.0
 70
    48
  0
SEQEND
  5
21D5F
330
21D51
100
AcDbEntity
  8
KERA0
  0
ARC
  5
21D60
330
1E
100
AcDbEntity
  8
KERA0
100
AcDbCircle
 10
2075.41434914291
 20
1393.207293556526
 30
0.0
 40
5.0
100
AcDbArc
 50
5.710593610880727
 51
90.0
  0
POLYLINE
  5
21D79
330
1E
100
AcDbEntity
  8
KERA0
100
AcDb3dPolyline
 66
     1
 10
0.0
 20
0.0
 30
0.0
 70
    12
 75
     6
  0
VERTEX
  5
21D7A
330
21D79
100
AcDbEntity
  8
KERA0
100
AcDbVertex
100
AcDb3dPolylineVertex
 10
2224.807980085299
 20
1285.612424063276
 30
-0.0000000000000245
 70
    48
  0
VERTEX
  5
231F9
330
21D79
100
AcDbEntity
  8
KERA0
100
AcDbVertex
100
AcDb3dPolylineVertex
 10
2224.807980085299
 20
1285.612424063276
 30
-0.0000000000000245
 70
    40
  0
VERTEX
  5
231FA
330
21D79
100
AcDbEntity
  8
KERA0
100
AcDbVertex
100
AcDb3dPolylineVertex
 10
2220.677340202341
 20
1287.217714510467
 30
-0.0000000000000164
 70
    40
  0
VERTEX
  5
231FB
330
21D79
100
AcDbEntity
  8
KERA0
100
AcDbVertex
100
AcDb3dPolylineVertex
 10
2212.447486136972
 20
1288.558279880998
 30
-0.0000000000000103
 70
    40
  0
VERTEX
  5
231FC
330
21D79
100
AcDbEntity
  8
KERA0
100
AcDbVertex
100
AcDb3dPolylineVertex
 10
2200.704019915253
 20
1289.671938042964
 30
-0.000000000000006
 70
    40
  0
VERTEX
  5
231FD
330
21D79
100
AcDbEntity
  8
KERA0
100
AcDbVertex
100
AcDb3dPolylineVertex
 10
2186.032543563241
 20
1290.596506864457
 30
-0.0000000000000031
 70
    40
  0
VERTEX
  5
231FE
330
21D79
100
AcDbEntity
  8
KERA0
100
AcDbVertex
100
AcDb3dPolylineVertex
 10
2169.018659106994
 20
1291.369804213574
 30
-0.0000000000000013
 70
    40
  0
VERTEX
  5
231FF
330
21D79
100
AcDbEntity
  8
KERA0
100
AcDbVertex
100
AcDb3dPolylineVertex
 10
2150.247968572571
 20
1292.029647958407
 30
-0.0000000000000004
 70
    40
  0
VERTEX
  5
23200
330
21D79
100
AcDbEntity
  8
KERA0
100
AcDbVertex
100
AcDb3dPolylineVertex
 10
2130.306073986032
 20
1292.613855967052
 30
0.0
 70
    40
  0
VERTEX
  5
23201
330
21D79
100
AcDbEntity
  8
KERA0
100
AcDbVertex
100
AcDb3dPolylineVertex
 10
2109.778577373433
 20
1293.160246107603
 30
0.0
 70
    40
  0
VERTEX
  5
21D7B
330
21D79
100
AcDbEntity
  8
KERA0
100
AcDbVertex
100
AcDb3dPolylineVertex
 10
2219.779094441565
 20
1290.27978124075
 30
0.0
 70
    48
  0
VERTEX
  5
21D7C
330
21D79
100
AcDbEntity
  8
KERA0
100
AcDbVertex
100
AcDb3dPolylineVertex
 10
2164.778835907499
 20
1291.720013674177
 30
0.0
 70
    48
  0
VERTEX
  5
21D7D
330
21D79
100
AcDbEntity
  8
KERA0
100
AcDbVertex
100
AcDb3dPolylineVertex
 10
2109.778577373432
 20
1293.160246107603
 30
0.0
 70
    48
  0
SEQEND
  5
21D87
330
21D79
100
AcDbEntity
  8
KERA0
  0
LINE
  5
21D88
330
1E
100
AcDbEntity
  8
KERA1
100
AcDbLine
 10
2110.092701517936
 20
1305.156150233552
 30
0.0
 11
2240.437159415426
 21
1297.207292412372
 31
0.0
  0
ARC
  5
21D89
330
1E
100
AcDbEntity
  8
KERA1
100
AcDbCircle
 10
2110.354471001014
 20
1315.152723483308
 30
0.0
 40
10.0
100
AcDbArc
 50
185.7105936108792
 51
268.5000000000001
  0
POLYLINE
  5
21F29
330
1E
100
AcDbEntity
  8
KERA0
100
AcDb3dPolyline
 66
     1
 10
0.0
 20
0.0
 30
0.0
 70
     8
  0
VERTEX
  5
21F2A
330
21F29
100
AcDbEntity
  8
KERA0
100
AcDbVertex
100
AcDb3dPolylineVertex
 10
2581.2087447361
 20
1393.704812192736
 30
0.0
 70
    32
  0
VERTEX
  5
21F2B
330
21F29
100
AcDbEntity
  8
KERA0
100
AcDbVertex
100
AcDb3dPolylineVertex
 10
2580.183070845178
 20
1383.448074139412
 30
0.0
 70
    32
  0
VERTEX
  5
21F2C
330
21F29
100
AcDbEntity
  8
KERA0
100
AcDbVertex
100
AcDb3dPolylineVertex
 10
2579.157396954256
 20
1373.19133608609
 30
0.0
 70
    32
  0
VERTEX
  5
21F2D
330
21F29
100
AcDbEntity
  8
KERA0
100
AcDbVertex
100
AcDb3dPolylineVertex
 10
2578.131723063336
 20
1362.934598032768
 30
0.0
 70
    32
  0
VERTEX
  5
21F2E
330
21F29
100
AcDbEntity
  8
KERA0
100
AcDbVertex
100
AcDb3dPolylineVertex
 10
2577.106049172415
 20
1352.677859979446
 30
0.0
 70
    32
  0
VERTEX
  5
21F2F
330
21F29
100
AcDbEntity
  8
KERA0
100
AcDbVertex
100
AcDb3dPolylineVertex
 10
2576.080375281494
 20
1342.421121926123
 30
0.0
 70
    32
  0
VERTEX
  5
21F30
330
21F29
100
AcDbEntity
  8
KERA0
100
AcDbVertex
100
AcDb3dPolylineVertex
 10
2575.054701390573
 20
1332.164383872801
 30
0.0
 70
    32
  0
VERTEX
  5
21F31
330
21F29
100
AcDbEntity
  8
KERA0
100
AcDbVertex
100
AcDb3dPolylineVertex
 10
2574.029027499652
 20
1321.907645819478
 30
0.0
 70
    32
  0
VERTEX
  5
21F32
330
21F29
100
AcDbEntity
  8
KERA0
100
AcDbVertex
100
AcDb3dPolylineVertex
 10
2573.13462540472
 20
1312.963625616509
 30
0.0
 70
    32
  0
SEQEND
  5
21F33
330
21F29
100
AcDbEntity
  8
KERA0
  0
LINE
  5
21F34
330
1E
100
AcDbEntity
  8
KERA1
100
AcDbLine
 10
2570.499141722786
 20
1407.207288485951
 30
0.0
 11
2561.194180718814
 21
1314.157686210888
 31
0.0
  0
ARC
  5
21F35
330
1E
100
AcDbEntity
  8
KERA1
100
AcDbCircle
 10
2551.243808824934
 20
1315.152723483308
 30
0.0
 40
10.0
100
AcDbArc
 50
271.4999999999998
 51
354.2894063891206
  0
ARC
  5
21F36
330
1E
100
AcDbEntity
  8
KERA0
100
AcDbCircle
 10
2551.243799902905
 20
1315.152708349363
 30
0.0
 40
22.0
100
AcDbArc
 50
271.4999999999897
 51
354.2894063891192
  0
ARC
  5
21F46
330
1E
100
AcDbEntity
  8
KERA0
100
AcDbCircle
 10
2586.183930683039
 20
1393.207293556526
 30
0.0
 40
5.0
100
AcDbArc
 50
90.0
 51
174.2894063891192
  0
POLYLINE
  5
21F47
330
1E
100
AcDbEntity
  8
KERA0
100
AcDb3dPolyline
 66
     1
 10
0.0
 20
0.0
 30
0.0
 70
    12
 75
     6
  0
VERTEX
  5
21F48
330
21F47
100
AcDbEntity
  8
KERA0
100
AcDbVertex
100
AcDb3dPolylineVertex
 10
2594.499141722786
 20
1398.207293556525
 30
0.0
 70
    48
  0
VERTEX
  5
237A6
330
21F47
100
AcDbEntity
  8
KERA0
100
AcDbVertex
100
AcDb3dPolylineVertex
 10
2594.499141722786
 20
1398.207293556525
 30
0.0
 70
    40
  0
VERTEX
  5
237A7
330
21F47
100
AcDbEntity
  8
KERA0
100
AcDbVertex
100
AcDb3dPolylineVertex
 10
2594.499141722786
 20
1399.332292922703
 30
0.0
 70
    40
  0
VERTEX
  5
237A8
330
21F47
100
AcDbEntity
  8
KERA0
100
AcDbVertex
100
AcDb3dPolylineVertex
 10
2594.499141722786
 20
1400.457292288881
 30
0.0
 70
    40
  0
VERTEX
  5
237A9
330
21F47
100
AcDbEntity
  8
KERA0
100
AcDbVertex
100
AcDb3dPolylineVertex
 10
2594.499141722786
 20
1401.582291655059
 30
0.0
 70
    40
  0
VERTEX
  5
237AA
330
21F47
100
AcDbEntity
  8
KERA0
100
AcDbVertex
100
AcDb3dPolylineVertex
 10
2594.499141722786
 20
1402.707291021237
 30
0.0
 70
    40
  0
VERTEX
  5
237AB
330
21F47
100
AcDbEntity
  8
KERA0
100
AcDbVertex
100
AcDb3dPolylineVertex
 10
2594.499141722786
 20
1403.832290387415
 30
0.0
 70
    40
  0
VERTEX
  5
237AC
330
21F47
100
AcDbEntity
  8
KERA0
100
AcDbVertex
100
AcDb3dPolylineVertex
 10
2594.499141722786
 20
1404.957289753594
 30
0.0
 70
    40
  0
VERTEX
  5
237AD
330
21F47
100
AcDbEntity
  8
KERA0
100
AcDbVertex
100
AcDb3dPolylineVertex
 10
2594.499141722786
 20
1406.082289119772
 30
0.0
 70
    40
  0
VERTEX
  5
237AE
330
21F47
100
AcDbEntity
  8
KERA0
100
AcDbVertex
100
AcDb3dPolylineVertex
 10
2594.499141722786
 20
1407.20728848595
 30
0.0
 70
    40
  0
VERTEX
  5
21F49
330
21F47
100
AcDbEntity
  8
KERA0
100
AcDbVertex
100
AcDb3dPolylineVertex
 10
2594.499141722786
 20
1401.207291866334
 30
0.0
 70
    48
  0
VERTEX
  5
21F4A
330
21F47
100
AcDbEntity
  8
KERA0
100
AcDbVertex
100
AcDb3dPolylineVertex
 10
2594.499141722786
 20
1404.207290176142
 30
0.0
 70
    48
  0
VERTEX
  5
21F4B
330
21F47
100
AcDbEntity
  8
KERA0
100
AcDbVertex
100
AcDb3dPolylineVertex
 10
2594.499141722786
 20
1407.207288485951
 30
0.0
 70
    48
  0
SEQEND
  5
21F55
330
21F47
100
AcDbEntity
  8
KERA0
  0
POLYLINE
  5
21F56
330
1E
100
AcDbEntity
  8
KERA0
100
AcDb3dPolyline
 66
     1
 10
0.0
 20
0.0
 30
0.0
 70
    12
 75
     6
  0
VERTEX
  5
21F57
330
21F56
100
AcDbEntity
  8
KERA0
100
AcDbVertex
100
AcDb3dPolylineVertex
 10
2594.499141722786
 20
1398.207293556525
 30
0.0
 70
    48
  0
VERTEX
  5
2379D
330
21F56
100
AcDbEntity
  8
KERA0
100
AcDbVertex
100
AcDb3dPolylineVertex
 10
2594.499141722786
 20
1398.207293556525
 30
0.0
 70
    40
  0
VERTEX
  5
2379E
330
21F56
100
AcDbEntity
  8
KERA0
100
AcDbVertex
100
AcDb3dPolylineVertex
 10
2593.459740342817
 20
1398.207293556525
 30
0.0
 70
    40
  0
VERTEX
  5
2379F
330
21F56
100
AcDbEntity
  8
KERA0
100
AcDbVertex
100
AcDb3dPolylineVertex
 10
2592.420338962849
 20
1398.207293556525
 30
0.0
 70
    40
  0
VERTEX
  5
237A0
330
21F56
100
AcDbEntity
  8
KERA0
100
AcDbVertex
100
AcDb3dPolylineVertex
 10
2591.380937582881
 20
1398.207293556525
 30
0.0
 70
    40
  0
VERTEX
  5
237A1
330
21F56
100
AcDbEntity
  8
KERA0
100
AcDbVertex
100
AcDb3dPolylineVertex
 10
2590.341536202913
 20
1398.207293556525
 30
0.0
 70
    40
  0
VERTEX
  5
237A2
330
21F56
100
AcDbEntity
  8
KERA0
100
AcDbVertex
100
AcDb3dPolylineVertex
 10
2589.302134822944
 20
1398.207293556525
 30
0.0
 70
    40
  0
VERTEX
  5
237A3
330
21F56
100
AcDbEntity
  8
KERA0
100
AcDbVertex
100
AcDb3dPolylineVertex
 10
2588.262733442976
 20
1398.207293556525
 30
0.0
 70
    40
  0
VERTEX
  5
237A4
330
21F56
100
AcDbEntity
  8
KERA0
100
AcDbVertex
100
AcDb3dPolylineVertex
 10
2587.223332063008
 20
1398.207293556525
 30
0.0
 70
    40
  0
VERTEX
  5
237A5
330
21F56
100
AcDbEntity
  8
KERA0
100
AcDbVertex
100
AcDb3dPolylineVertex
 10
2586.183930683039
 20
1398.207293556525
 30
0.0
 70
    40
  0
VERTEX
  5
21F58
330
21F56
100
AcDbEntity
  8
KERA0
100
AcDbVertex
100
AcDb3dPolylineVertex
 10
2591.727404709537
 20
1398.207293556525
 30
0.0
 70
    48
  0
VERTEX
  5
21F59
330
21F56
100
AcDbEntity
  8
KERA0
100
AcDbVertex
100
AcDb3dPolylineVertex
 10
2588.955667696287
 20
1398.207293556525
 30
0.0
 70
    48
  0
VERTEX
  5
21F5A
330
21F56
100
AcDbEntity
  8
KERA0
100
AcDbVertex
100
AcDb3dPolylineVertex
 10
2586.183930683039
 20
1398.207293556525
 30
0.0
 70
    48
  0
SEQEND
  5
21F64
330
21F56
100
AcDbEntity
  8
KERA0
  0
POLYLINE
  5
21F65
330
1E
100
AcDbEntity
  8
0
100
AcDb3dPolyline
 66
     1
 10
0.0
 20
0.0
 30
0.0
 70
    12
 75
     6
  0
VERTEX
  5
21F66
330
21F65
100
AcDbEntity
  8
0
100
AcDbVertex
100
AcDb3dPolylineVertex
 10
2598.799141324426
 20
1445.207288788167
 30
0.0
 70
    48
  0
VERTEX
  5
237AF
330
21F65
100
AcDbEntity
  8
0
100
AcDbVertex
100
AcDb3dPolylineVertex
 10
2598.799141324426
 20
1445.207288788167
 30
0.0
 70
    40
  0
VERTEX
  5
237B0
330
21F65
100
AcDbEntity
  8
0
100
AcDbVertex
100
AcDb3dPolylineVertex
 10
2598.799238556153
 20
1445.20728878813
 30
0.0
 70
    40
  0
VERTEX
  5
237B1
330
21F65
100
AcDbEntity
  8
0
100
AcDbVertex
100
AcDb3dPolylineVertex
 10
2598.799335787879
 20
1445.207288788016
 30
0.0
 70
    40
  0
VERTEX
  5
237B2
330
21F65
100
AcDbEntity
  8
0
100
AcDbVertex
100
AcDb3dPolylineVertex
 10
2598.799433019606
 20
1445.207288787828
 30
0.0
 70
    40
  0
VERTEX
  5
237B3
330
21F65
100
AcDbEntity
  8
0
100
AcDbVertex
100
AcDb3dPolylineVertex
 10
2598.799530251333
 20
1445.207288787563
 30
0.0
 70
    40
  0
VERTEX
  5
237B4
330
21F65
100
AcDbEntity
  8
0
100
AcDbVertex
100
AcDb3dPolylineVertex
 10
2598.79962748306
 20
1445.207288787224
 30
0.0
 70
    40
  0
VERTEX
  5
237B5
330
21F65
100
AcDbEntity
  8
0
100
AcDbVertex
100
AcDb3dPolylineVertex
 10
2598.799724714787
 20
1445.207288786809
 30
0.0
 70
    40
  0
VERTEX
  5
237B6
330
21F65
100
AcDbEntity
  8
0
100
AcDbVertex
100
AcDb3dPolylineVertex
 10
2598.799821946514
 20
1445.207288786319
 30
0.0
 70
    40
  0
VERTEX
  5
237B7
330
21F65
100
AcDbEntity
  8
0
100
AcDbVertex
100
AcDb3dPolylineVertex
 10
2598.799919178241
 20
1445.207288785753
 30
0.0
 70
    40
  0
VERTEX
  5
21F67
330
21F65
100
AcDbEntity
  8
0
100
AcDbVertex
100
AcDb3dPolylineVertex
 10
2598.79940060903
 20
1445.207288788167
 30
0.0
 70
    48
  0
VERTEX
  5
21F68
330
21F65
100
AcDbEntity
  8
0
100
AcDbVertex
100
AcDb3dPolylineVertex
 10
2598.799659893635
 20
1445.207288787362
 30
0.0
 70
    48
  0
VERTEX
  5
21F69
330
21F65
100
AcDbEntity
  8
0
100
AcDbVertex
100
AcDb3dPolylineVertex
 10
2598.79991917824
 20
1445.207288785754
 30
0.0
 70
    48
  0
SEQEND
  5
21F73
330
21F65
100
AcDbEntity
  8
0
  0
LINE
  5
2208B
330
1E
100
AcDbEntity
  8
KERA2
100
AcDbLine
 10
2330.799139912974
 20
1407.207288485951
 30
0.0
 11
2330.799139912974
 21
1260.514750469421
 31
0.0
  0
DIMENSION
  5
2208D
330
1E
100
AcDbEntity
  8
KERA4
100
AcDbDimension
  2
*D0
 10
2594.445541874859
 20
1028.695493901182
 30
0.0
 11
2329.683889632214
 21
1028.695493901182
 31
0.0
 70
   160
  1
534
 71
     5
 42
527.3882114899147
  3
STANDARD
100
AcDbAlignedDimension
 13
2067.057330384944
 23
647.7309546649542
 33
0.0
 14
2594.445541874859
 24
647.2454028930663
 34
0.0
100
AcDbRotatedDimension
  0
DIMENSION
  5
220B7
330
1E
100
AcDbEntity
  8
KERA4
100
AcDbDimension
  2
*D1
 10
3001.561972223893
 20
333.2454038714101
 30
0.0
 11
3001.561972223893
 21
483.2454038714106
 31
0.0
 70
    32
 71
     5
 42
300.0
  3
STANDARD
100
AcDbAlignedDimension
 13
2560.745537201231
 23
633.2454038714103
 33
0.0
 14
2560.745537201231
 24
333.2454038714103
 34
0.0
 50
90.0
100
AcDbRotatedDimension
  0
LINE
  5
220EB
330
1E
100
AcDbEntity
  8
KERA4
100
AcDbLine
 10
2580.745537201231
 20
633.2454038714103
 30
0.0
 11
3016.561972223893
 21
633.2454038714102
 31
0.0
  0
LINE
  5
220ED
330
1E
100
AcDbEntity
  8
KERA4
100
AcDbLine
 10
3001.561972223893
 20
593.2454038714102
 30
0.0
 11
3001.561972223893
 21
553.2454038714101
 31
0.0
  0
SOLID
  5
220F0
330
1E
100
AcDbEntity
  8
KERA4
100
AcDbTrace
 10
2994.895305557227
 20
593.2454038714102
 30
0.0
 11
3008.22863889056
 21
593.2454038714102
 31
0.0
 12
3001.561972223893
 22
633.2454038714102
 32
0.0
 13
3001.561972223893
 23
633.2454038714102
 33
0.0
  0
DIMENSION
  5
2214A
330
1E
100
AcDbEntity
  8
KERA4
100
AcDbDimension
  2
*D2
 10
3151.120704602362
 20
309.2454195823662
 30
0.0
 11
3151.120704602362
 21
483.2454112377166
 31
0.0
 70
    32
 71
     5
 42
347.9999833106997
  3
STANDARD
100
AcDbAlignedDimension
 13
2584.445541874859
 23
657.2454028930661
 33
0.0
 14
2584.445541874859
 24
309.2454195823663
 34
0.0
 50
90.0
100
AcDbRotatedDimension
  0
DIMENSION
  5
22158
330
1E
100
AcDbEntity
  8
KERA4
100
AcDbDimension
  2
*D3
 10
2570.745537201231
 20
926.822727996744
 30
0.0
 11
2330.745537201231
 21
926.822727996744
 31
0.0
 70
    32
 71
     5
 42
480.0
  3
STANDARD
100
AcDbAlignedDimension
 13
2090.745537201231
 23
623.2454038714102
 33
0.0
 14
2570.745537201231
 24
623.2454038714102
 34
0.0
100
AcDbRotatedDimension
  0
POLYLINE
  5
22F34
330
1E
100
AcDbEntity
  8
KERA0
100
AcDb3dPolyline
 66
     1
 10
0.0
 20
0.0
 30
0.0
 70
    12
 75
     6
  0
VERTEX
  5
22F35
330
22F34
100
AcDbEntity
  8
KERA0
100
AcDbVertex
100
AcDb3dPolylineVertex
 10
2253.745536742719
 20
433.2454151049401
 30
0.0
 70
    48
  0
VERTEX
  5
22F36
330
22F34
100
AcDbEntity
  8
KERA0
100
AcDbVertex
100
AcDb3dPolylineVertex
 10
2305.07887038925
 20
433.2454151049401
 30
0.0
 70
    48
  0
VERTEX
  5
22F37
330
22F34
100
AcDbEntity
  8
KERA0
100
AcDbVertex
100
AcDb3dPolylineVertex
 10
2356.412204035783
 20
433.2454151049401
 30
0.0
 70
    48
  0
VERTEX
  5
22F38
330
22F34
100
AcDbEntity
  8
KERA0
100
AcDbVertex
100
AcDb3dPolylineVertex
 10
2407.745537682314
 20
433.2454151049401
 30
0.0
 70
    48
  0
VERTEX
  5
22F39
330
22F34
100
AcDbEntity
  8
KERA0
100
AcDbVertex
100
AcDb3dPolylineVertex
 10
2253.745536742719
 20
433.2454151049401
 30
0.0
 70
    40
  0
VERTEX
  5
22F3A
330
22F34
100
AcDbEntity
  8
KERA0
100
AcDbVertex
100
AcDb3dPolylineVertex
 10
2272.995536860169
 20
433.2454151049401
 30
0.0
 70
    40
  0
VERTEX
  5
22F3B
330
22F34
100
AcDbEntity
  8
KERA0
100
AcDbVertex
100
AcDb3dPolylineVertex
 10
2292.245536977618
 20
433.2454151049401
 30
0.0
 70
    40
  0
VERTEX
  5
22F3C
330
22F34
100
AcDbEntity
  8
KERA0
100
AcDbVertex
100
AcDb3dPolylineVertex
 10
2311.495537095067
 20
433.2454151049401
 30
0.0
 70
    40
  0
VERTEX
  5
22F3D
330
22F34
100
AcDbEntity
  8
KERA0
100
AcDbVertex
100
AcDb3dPolylineVertex
 10
2330.745537212516
 20
433.2454151049401
 30
0.0
 70
    40
  0
VERTEX
  5
22F3E
330
22F34
100
AcDbEntity
  8
KERA0
100
AcDbVertex
100
AcDb3dPolylineVertex
 10
2349.995537329966
 20
433.2454151049401
 30
0.0
 70
    40
  0
VERTEX
  5
22F3F
330
22F34
100
AcDbEntity
  8
KERA0
100
AcDbVertex
100
AcDb3dPolylineVertex
 10
2369.245537447415
 20
433.2454151049401
 30
0.0
 70
    40
  0
VERTEX
  5
22F40
330
22F34
100
AcDbEntity
  8
KERA0
100
AcDbVertex
100
AcDb3dPolylineVertex
 10
2388.495537564865
 20
433.2454151049401
 30
0.0
 70
    40
  0
VERTEX
  5
22F41
330
22F34
100
AcDbEntity
  8
KERA0
100
AcDbVertex
100
AcDb3dPolylineVertex
 10
2407.745537682314
 20
433.2454151049401
 30
0.0
 70
    40
  0
SEQEND
  5
22F42
330
22F34
100
AcDbEntity
  8
KERA0
  0
POLYLINE
  5
22F43
330
1E
100
AcDbEntity
  8
KERA0
100
AcDb3dPolyline
 66
     1
 10
0.0
 20
0.0
 30
0.0
 70
    12
 75
     6
  0
VERTEX
  5
22F44
330
22F43
100
AcDbEntity
  8
KERA0
100
AcDbVertex
100
AcDb3dPolylineVertex
 10
2253.736134461192
 20
533.2454151049403
 30
0.0
 70
    48
  0
VERTEX
  5
22F45
330
22F43
100
AcDbEntity
  8
KERA0
100
AcDbVertex
100
AcDb3dPolylineVertex
 10
2305.075736295409
 20
533.2454151049403
 30
0.0
 70
    48
  0
VERTEX
  5
22F46
330
22F43
100
AcDbEntity
  8
KERA0
100
AcDbVertex
100
AcDb3dPolylineVertex
 10
2356.415338129623
 20
533.2454151049403
 30
0.0
 70
    48
  0
VERTEX
  5
22F47
330
22F43
100
AcDbEntity
  8
KERA0
100
AcDbVertex
100
AcDb3dPolylineVertex
 10
2407.75493996384
 20
533.2454151049403
 30
0.0
 70
    48
  0
VERTEX
  5
22F48
330
22F43
100
AcDbEntity
  8
KERA0
100
AcDbVertex
100
AcDb3dPolylineVertex
 10
2253.736134461192
 20
533.2454151049403
 30
0.0
 70
    40
  0
VERTEX
  5
22F49
330
22F43
100
AcDbEntity
  8
KERA0
100
AcDbVertex
100
AcDb3dPolylineVertex
 10
2272.988485149024
 20
533.2454151049403
 30
0.0
 70
    40
  0
VERTEX
  5
22F4A
330
22F43
100
AcDbEntity
  8
KERA0
100
AcDbVertex
100
AcDb3dPolylineVertex
 10
2292.240835836854
 20
533.2454151049403
 30
0.0
 70
    40
  0
VERTEX
  5
22F4B
330
22F43
100
AcDbEntity
  8
KERA0
100
AcDbVertex
100
AcDb3dPolylineVertex
 10
2311.493186524685
 20
533.2454151049403
 30
0.0
 70
    40
  0
VERTEX
  5
22F4C
330
22F43
100
AcDbEntity
  8
KERA0
100
AcDbVertex
100
AcDb3dPolylineVertex
 10
2330.745537212516
 20
533.2454151049403
 30
0.0
 70
    40
  0
VERTEX
  5
22F4D
330
22F43
100
AcDbEntity
  8
KERA0
100
AcDbVertex
100
AcDb3dPolylineVertex
 10
2349.997887900347
 20
533.2454151049403
 30
0.0
 70
    40
  0
VERTEX
  5
22F4E
330
22F43
100
AcDbEntity
  8
KERA0
100
AcDbVertex
100
AcDb3dPolylineVertex
 10
2369.250238588178
 20
533.2454151049403
 30
0.0
 70
    40
  0
VERTEX
  5
22F4F
330
22F43
100
AcDbEntity
  8
KERA0
100
AcDbVertex
100
AcDb3dPolylineVertex
 10
2388.502589276009
 20
533.2454151049403
 30
0.0
 70
    40
  0
VERTEX
  5
22F50
330
22F43
100
AcDbEntity
  8
KERA0
100
AcDbVertex
100
AcDb3dPolylineVertex
 10
2407.75493996384
 20
533.2454151049403
 30
0.0
 70
    40
  0
SEQEND
  5
22F51
330
22F43
100
AcDbEntity
  8
KERA0
  0
POLYLINE
  5
22F52
330
1E
100
AcDbEntity
  8
KERA0
100
AcDb3dPolyline
 66
     1
 10
0.0
 20
0.0
 30
0.0
 70
    12
 75
     6
  0
VERTEX
  5
22F53
330
22F52
100
AcDbEntity
  8
KERA0
100
AcDbVertex
100
AcDb3dPolylineVertex
 10
2253.745538650067
 20
540.2454151275403
 30
0.0
 70
    48
  0
VERTEX
  5
22F54
330
22F52
100
AcDbEntity
  8
KERA0
100
AcDbVertex
100
AcDb3dPolylineVertex
 10
2305.078871025034
 20
540.2454151275403
 30
0.0
 70
    48
  0
VERTEX
  5
22F55
330
22F52
100
AcDbEntity
  8
KERA0
100
AcDbVertex
100
AcDb3dPolylineVertex
 10
2356.4122034
 20
540.2454151275403
 30
0.0
 70
    48
  0
VERTEX
  5
22F56
330
22F52
100
AcDbEntity
  8
KERA0
100
AcDbVertex
100
AcDb3dPolylineVertex
 10
2407.745535774965
 20
540.2454151275403
 30
0.0
 70
    48
  0
VERTEX
  5
22F57
330
22F52
100
AcDbEntity
  8
KERA0
100
AcDbVertex
100
AcDb3dPolylineVertex
 10
2253.745538650067
 20
540.2454151275403
 30
0.0
 70
    40
  0
VERTEX
  5
22F58
330
22F52
100
AcDbEntity
  8
KERA0
100
AcDbVertex
100
AcDb3dPolylineVertex
 10
2272.99553829068
 20
540.2454151275403
 30
0.0
 70
    40
  0
VERTEX
  5
22F59
330
22F52
100
AcDbEntity
  8
KERA0
100
AcDbVertex
100
AcDb3dPolylineVertex
 10
2292.245537931291
 20
540.2454151275403
 30
0.0
 70
    40
  0
VERTEX
  5
22F5A
330
22F52
100
AcDbEntity
  8
KERA0
100
AcDbVertex
100
AcDb3dPolylineVertex
 10
2311.495537571905
 20
540.2454151275403
 30
0.0
 70
    40
  0
VERTEX
  5
22F5B
330
22F52
100
AcDbEntity
  8
KERA0
100
AcDbVertex
100
AcDb3dPolylineVertex
 10
2330.745537212516
 20
540.2454151275403
 30
0.0
 70
    40
  0
VERTEX
  5
22F5C
330
22F52
100
AcDbEntity
  8
KERA0
100
AcDbVertex
100
AcDb3dPolylineVertex
 10
2349.995536853129
 20
540.2454151275403
 30
0.0
 70
    40
  0
VERTEX
  5
22F5D
330
22F52
100
AcDbEntity
  8
KERA0
100
AcDbVertex
100
AcDb3dPolylineVertex
 10
2369.24553649374
 20
540.2454151275403
 30
0.0
 70
    40
  0
VERTEX
  5
22F5E
330
22F52
100
AcDbEntity
  8
KERA0
100
AcDbVertex
100
AcDb3dPolylineVertex
 10
2388.495536134353
 20
540.2454151275403
 30
0.0
 70
    40
  0
VERTEX
  5
22F5F
330
22F52
100
AcDbEntity
  8
KERA0
100
AcDbVertex
100
AcDb3dPolylineVertex
 10
2407.745535774965
 20
540.2454151275403
 30
0.0
 70
    40
  0
SEQEND
  5
22F60
330
22F52
100
AcDbEntity
  8
KERA0
  0
POLYLINE
  5
22F61
330
1E
100
AcDbEntity
  8
KERA0
100
AcDb3dPolyline
 66
     1
 10
0.0
 20
0.0
 30
0.0
 70
    12
 75
     6
  0
VERTEX
  5
22F62
330
22F61
100
AcDbEntity
  8
KERA0
100
AcDbVertex
100
AcDb3dPolylineVertex
 10
2253.745538650067
 20
426.2454151275401
 30
0.0
 70
    48
  0
VERTEX
  5
22F63
330
22F61
100
AcDbEntity
  8
KERA0
100
AcDbVertex
100
AcDb3dPolylineVertex
 10
2305.078871025034
 20
426.2454151275401
 30
0.0
 70
    48
  0
VERTEX
  5
22F64
330
22F61
100
AcDbEntity
  8
KERA0
100
AcDbVertex
100
AcDb3dPolylineVertex
 10
2356.4122034
 20
426.2454151275401
 30
0.0
 70
    48
  0
VERTEX
  5
22F65
330
22F61
100
AcDbEntity
  8
KERA0
100
AcDbVertex
100
AcDb3dPolylineVertex
 10
2407.745535774965
 20
426.2454151275401
 30
0.0
 70
    48
  0
VERTEX
  5
22F66
330
22F61
100
AcDbEntity
  8
KERA0
100
AcDbVertex
100
AcDb3dPolylineVertex
 10
2253.745538650067
 20
426.2454151275401
 30
0.0
 70
    40
  0
VERTEX
  5
22F67
330
22F61
100
AcDbEntity
  8
KERA0
100
AcDbVertex
100
AcDb3dPolylineVertex
 10
2272.99553829068
 20
426.2454151275401
 30
0.0
 70
    40
  0
VERTEX
  5
22F68
330
22F61
100
AcDbEntity
  8
KERA0
100
AcDbVertex
100
AcDb3dPolylineVertex
 10
2292.245537931291
 20
426.2454151275401
 30
0.0
 70
    40
  0
VERTEX
  5
22F69
330
22F61
100
AcDbEntity
  8
KERA0
100
AcDbVertex
100
AcDb3dPolylineVertex
 10
2311.495537571905
 20
426.2454151275401
 30
0.0
 70
    40
  0
VERTEX
  5
22F6A
330
22F61
100
AcDbEntity
  8
KERA0
100
AcDbVertex
100
AcDb3dPolylineVertex
 10
2330.745537212516
 20
426.2454151275401
 30
0.0
 70
    40
  0
VERTEX
  5
22F6B
330
22F61
100
AcDbEntity
  8
KERA0
100
AcDbVertex
100
AcDb3dPolylineVertex
 10
2349.995536853129
 20
426.2454151275401
 30
0.0
 70
    40
  0
VERTEX
  5
22F6C
330
22F61
100
AcDbEntity
  8
KERA0
100
AcDbVertex
100
AcDb3dPolylineVertex
 10
2369.24553649374
 20
426.2454151275401
 30
0.0
 70
    40
  0
VERTEX
  5
22F6D
330
22F61
100
AcDbEntity
  8
KERA0
100
AcDbVertex
100
AcDb3dPolylineVertex
 10
2388.495536134353
 20
426.2454151275401
 30
0.0
 70
    40
  0
VERTEX
  5
22F6E
330
22F61
100
AcDbEntity
  8
KERA0
100
AcDbVertex
100
AcDb3dPolylineVertex
 10
2407.745535774965
 20
426.2454151275401
 30
0.0
 70
    40
  0
SEQEND
  5
22F6F
330
22F61
100
AcDbEntity
  8
KERA0
  0
LINE
  5
22F70
330
1E
100
AcDbEntity
  8
KERA2
100
AcDbLine
 10
2218.451981937804
 20
483.2454147237727
 30
0.0
 11
2443.039092487229
 21
483.2454147237727
 31
0.0
  0
POLYLINE
  5
22F71
330
1E
100
AcDbEntity
  8
KERA0
100
AcDb3dPolyline
 66
     1
 10
0.0
 20
0.0
 30
0.0
 70
    12
 75
     6
  0
VERTEX
  5
22F72
330
22F71
100
AcDbEntity
  8
KERA0
100
AcDbVertex
100
AcDb3dPolylineVertex
 10
2250.745537212516
 20
530.2454298498883
 30
0.0
 70
    48
  0
VERTEX
  5
22F73
330
22F71
100
AcDbEntity
  8
KERA0
100
AcDbVertex
100
AcDb3dPolylineVertex
 10
2250.745537212516
 20
498.9120916687102
 30
0.0
 70
    48
  0
VERTEX
  5
22F74
330
22F71
100
AcDbEntity
  8
KERA0
100
AcDbVertex
100
AcDb3dPolylineVertex
 10
2250.745537212516
 20
467.5787534875322
 30
0.0
 70
    48
  0
VERTEX
  5
22F75
330
22F71
100
AcDbEntity
  8
KERA0
100
AcDbVertex
100
AcDb3dPolylineVertex
 10
2250.745537212516
 20
436.2454153063541
 30
0.0
 70
    48
  0
VERTEX
  5
22F76
330
22F71
100
AcDbEntity
  8
KERA0
100
AcDbVertex
100
AcDb3dPolylineVertex
 10
2250.745537212516
 20
530.2454298498883
 30
0.0
 70
    40
  0
VERTEX
  5
22F77
330
22F71
100
AcDbEntity
  8
KERA0
100
AcDbVertex
100
AcDb3dPolylineVertex
 10
2250.745537212516
 20
518.4954280319463
 30
0.0
 70
    40
  0
VERTEX
  5
22F78
330
22F71
100
AcDbEntity
  8
KERA0
100
AcDbVertex
100
AcDb3dPolylineVertex
 10
2250.745537212516
 20
506.7454262140042
 30
0.0
 70
    40
  0
VERTEX
  5
22F79
330
22F71
100
AcDbEntity
  8
KERA0
100
AcDbVertex
100
AcDb3dPolylineVertex
 10
2250.745537212516
 20
494.9954243960632
 30
0.0
 70
    40
  0
VERTEX
  5
22F7A
330
22F71
100
AcDbEntity
  8
KERA0
100
AcDbVertex
100
AcDb3dPolylineVertex
 10
2250.745537212516
 20
483.2454225781211
 30
0.0
 70
    40
  0
VERTEX
  5
22F7B
330
22F71
100
AcDbEntity
  8
KERA0
100
AcDbVertex
100
AcDb3dPolylineVertex
 10
2250.745537212516
 20
471.4954207601791
 30
0.0
 70
    40
  0
VERTEX
  5
22F7C
330
22F71
100
AcDbEntity
  8
KERA0
100
AcDbVertex
100
AcDb3dPolylineVertex
 10
2250.745537212516
 20
459.7454189422381
 30
0.0
 70
    40
  0
VERTEX
  5
22F7D
330
22F71
100
AcDbEntity
  8
KERA0
100
AcDbVertex
100
AcDb3dPolylineVertex
 10
2250.745537212516
 20
447.9954171242962
 30
0.0
 70
    40
  0
VERTEX
  5
22F7E
330
22F71
100
AcDbEntity
  8
KERA0
100
AcDbVertex
100
AcDb3dPolylineVertex
 10
2250.745537212516
 20
436.2454153063541
 30
0.0
 70
    40
  0
SEQEND
  5
22F7F
330
22F71
100
AcDbEntity
  8
KERA0
  0
POLYLINE
  5
22F80
330
1E
100
AcDbEntity
  8
KERA0
100
AcDb3dPolyline
 66
     1
 10
0.0
 20
0.0
 30
0.0
 70
    12
 75
     6
  0
VERTEX
  5
22F81
330
22F80
100
AcDbEntity
  8
KERA0
100
AcDbVertex
100
AcDb3dPolylineVertex
 10
2243.745538650068
 20
530.2454151275403
 30
0.0
 70
    48
  0
VERTEX
  5
22F82
330
22F80
100
AcDbEntity
  8
KERA0
100
AcDbVertex
100
AcDb3dPolylineVertex
 10
2243.745538650068
 20
498.9120817942072
 30
0.0
 70
    48
  0
VERTEX
  5
22F83
330
22F80
100
AcDbEntity
  8
KERA0
100
AcDbVertex
100
AcDb3dPolylineVertex
 10
2243.745538650068
 20
467.5787484608742
 30
0.0
 70
    48
  0
VERTEX
  5
22F84
330
22F80
100
AcDbEntity
  8
KERA0
100
AcDbVertex
100
AcDb3dPolylineVertex
 10
2243.745538650068
 20
436.2454151275402
 30
0.0
 70
    48
  0
VERTEX
  5
22F85
330
22F80
100
AcDbEntity
  8
KERA0
100
AcDbVertex
100
AcDb3dPolylineVertex
 10
2243.745538650068
 20
530.2454151275403
 30
0.0
 70
    40
  0
VERTEX
  5
22F86
330
22F80
100
AcDbEntity
  8
KERA0
100
AcDbVertex
100
AcDb3dPolylineVertex
 10
2243.745538650068
 20
518.4954151275404
 30
0.0
 70
    40
  0
VERTEX
  5
22F87
330
22F80
100
AcDbEntity
  8
KERA0
100
AcDbVertex
100
AcDb3dPolylineVertex
 10
2243.745538650068
 20
506.7454151275402
 30
0.0
 70
    40
  0
VERTEX
  5
22F88
330
22F80
100
AcDbEntity
  8
KERA0
100
AcDbVertex
100
AcDb3dPolylineVertex
 10
2243.745538650068
 20
494.9954151275402
 30
0.0
 70
    40
  0
VERTEX
  5
22F89
330
22F80
100
AcDbEntity
  8
KERA0
100
AcDbVertex
100
AcDb3dPolylineVertex
 10
2243.745538650068
 20
483.2454151275405
 30
0.0
 70
    40
  0
VERTEX
  5
22F8A
330
22F80
100
AcDbEntity
  8
KERA0
100
AcDbVertex
100
AcDb3dPolylineVertex
 10
2243.745538650068
 20
471.4954151275402
 30
0.0
 70
    40
  0
VERTEX
  5
22F8B
330
22F80
100
AcDbEntity
  8
KERA0
100
AcDbVertex
100
AcDb3dPolylineVertex
 10
2243.745538650068
 20
459.7454151275402
 30
0.0
 70
    40
  0
VERTEX
  5
22F8C
330
22F80
100
AcDbEntity
  8
KERA0
100
AcDbVertex
100
AcDb3dPolylineVertex
 10
2243.745538650068
 20
447.9954151275402
 30
0.0
 70
    40
  0
VERTEX
  5
22F8D
330
22F80
100
AcDbEntity
  8
KERA0
100
AcDbVertex
100
AcDb3dPolylineVertex
 10
2243.745538650068
 20
436.2454151275402
 30
0.0
 70
    40
  0
SEQEND
  5
22F8E
330
22F80
100
AcDbEntity
  8
KERA0
  0
ARC
  5
22F8F
330
1E
100
AcDbEntity
  8
KERA0
100
AcDbCircle
 10
2253.745538650067
 20
436.2454151275402
 30
0.0
 40
10.0
100
AcDbArc
 50
180.0
 51
270.0
  0
ARC
  5
22F90
330
1E
100
AcDbEntity
  8
KERA0
100
AcDbCircle
 10
2253.745536742719
 20
436.2454153063541
 30
0.0
 40
3.0
100
AcDbArc
 50
180.0
 51
270.0
  0
ARC
  5
22F91
330
1E
100
AcDbEntity
  8
KERA0
100
AcDbCircle
 10
2253.745538650067
 20
530.2454151275403
 30
0.0
 40
10.0
100
AcDbArc
 50
90.0
 51
180.0
  0
ARC
  5
22F92
330
1E
100
AcDbEntity
  8
KERA0
100
AcDbCircle
 10
2253.764348384901
 20
530.2454298498883
 30
0.0
 40
3.0
100
AcDbArc
 50
90.0
 51
180.0
  0
POLYLINE
  5
22F93
330
1E
100
AcDbEntity
  8
KERA0
100
AcDb3dPolyline
 66
     1
 10
0.0
 20
0.0
 30
0.0
 70
    12
 75
     6
  0
VERTEX
  5
22F94
330
22F93
100
AcDbEntity
  8
KERA0
100
AcDbVertex
100
AcDb3dPolylineVertex
 10
2417.745535774966
 20
530.2454151275403
 30
0.0
 70
    48
  0
VERTEX
  5
22F95
330
22F93
100
AcDbEntity
  8
KERA0
100
AcDbVertex
100
AcDb3dPolylineVertex
 10
2417.745535774966
 20
498.9120817942072
 30
0.0
 70
    48
  0
VERTEX
  5
22F96
330
22F93
100
AcDbEntity
  8
KERA0
100
AcDbVertex
100
AcDb3dPolylineVertex
 10
2417.745535774966
 20
467.5787484608742
 30
0.0
 70
    48
  0
VERTEX
  5
22F97
330
22F93
100
AcDbEntity
  8
KERA0
100
AcDbVertex
100
AcDb3dPolylineVertex
 10
2417.745535774966
 20
436.2454151275402
 30
0.0
 70
    48
  0
VERTEX
  5
22F98
330
22F93
100
AcDbEntity
  8
KERA0
100
AcDbVertex
100
AcDb3dPolylineVertex
 10
2417.745535774966
 20
530.2454151275403
 30
0.0
 70
    40
  0
VERTEX
  5
22F99
330
22F93
100
AcDbEntity
  8
KERA0
100
AcDbVertex
100
AcDb3dPolylineVertex
 10
2417.745535774966
 20
518.4954151275404
 30
0.0
 70
    40
  0
VERTEX
  5
22F9A
330
22F93
100
AcDbEntity
  8
KERA0
100
AcDbVertex
100
AcDb3dPolylineVertex
 10
2417.745535774966
 20
506.7454151275402
 30
0.0
 70
    40
  0
VERTEX
  5
22F9B
330
22F93
100
AcDbEntity
  8
KERA0
100
AcDbVertex
100
AcDb3dPolylineVertex
 10
2417.745535774966
 20
494.9954151275402
 30
0.0
 70
    40
  0
VERTEX
  5
22F9C
330
22F93
100
AcDbEntity
  8
KERA0
100
AcDbVertex
100
AcDb3dPolylineVertex
 10
2417.745535774966
 20
483.2454151275405
 30
0.0
 70
    40
  0
VERTEX
  5
22F9D
330
22F93
100
AcDbEntity
  8
KERA0
100
AcDbVertex
100
AcDb3dPolylineVertex
 10
2417.745535774966
 20
471.4954151275402
 30
0.0
 70
    40
  0
VERTEX
  5
22F9E
330
22F93
100
AcDbEntity
  8
KERA0
100
AcDbVertex
100
AcDb3dPolylineVertex
 10
2417.745535774966
 20
459.7454151275402
 30
0.0
 70
    40
  0
VERTEX
  5
22F9F
330
22F93
100
AcDbEntity
  8
KERA0
100
AcDbVertex
100
AcDb3dPolylineVertex
 10
2417.745535774966
 20
447.9954151275402
 30
0.0
 70
    40
  0
VERTEX
  5
22FA0
330
22F93
100
AcDbEntity
  8
KERA0
100
AcDbVertex
100
AcDb3dPolylineVertex
 10
2417.745535774966
 20
436.2454151275402
 30
0.0
 70
    40
  0
SEQEND
  5
22FA1
330
22F93
100
AcDbEntity
  8
KERA0
  0
POLYLINE
  5
22FA2
330
1E
100
AcDbEntity
  8
KERA0
100
AcDb3dPolyline
 66
     1
 10
0.0
 20
0.0
 30
0.0
 70
    12
 75
     6
  0
VERTEX
  5
22FA3
330
22FA2
100
AcDbEntity
  8
KERA0
100
AcDbVertex
100
AcDb3dPolylineVertex
 10
2410.745537212517
 20
530.2454298498883
 30
0.0
 70
    48
  0
VERTEX
  5
22FA4
330
22FA2
100
AcDbEntity
  8
KERA0
100
AcDbVertex
100
AcDb3dPolylineVertex
 10
2410.745537212517
 20
498.9120916687102
 30
0.0
 70
    48
  0
VERTEX
  5
22FA5
330
22FA2
100
AcDbEntity
  8
KERA0
100
AcDbVertex
100
AcDb3dPolylineVertex
 10
2410.745537212517
 20
467.5787534875322
 30
0.0
 70
    48
  0
VERTEX
  5
22FA6
330
22FA2
100
AcDbEntity
  8
KERA0
100
AcDbVertex
100
AcDb3dPolylineVertex
 10
2410.745537212517
 20
436.2454153063541
 30
0.0
 70
    48
  0
VERTEX
  5
22FA7
330
22FA2
100
AcDbEntity
  8
KERA0
100
AcDbVertex
100
AcDb3dPolylineVertex
 10
2410.745537212517
 20
530.2454298498883
 30
0.0
 70
    40
  0
VERTEX
  5
22FA8
330
22FA2
100
AcDbEntity
  8
KERA0
100
AcDbVertex
100
AcDb3dPolylineVertex
 10
2410.745537212517
 20
518.4954280319463
 30
0.0
 70
    40
  0
VERTEX
  5
22FA9
330
22FA2
100
AcDbEntity
  8
KERA0
100
AcDbVertex
100
AcDb3dPolylineVertex
 10
2410.745537212517
 20
506.7454262140042
 30
0.0
 70
    40
  0
VERTEX
  5
22FAA
330
22FA2
100
AcDbEntity
  8
KERA0
100
AcDbVertex
100
AcDb3dPolylineVertex
 10
2410.745537212517
 20
494.9954243960632
 30
0.0
 70
    40
  0
VERTEX
  5
22FAB
330
22FA2
100
AcDbEntity
  8
KERA0
100
AcDbVertex
100
AcDb3dPolylineVertex
 10
2410.745537212517
 20
483.2454225781211
 30
0.0
 70
    40
  0
VERTEX
  5
22FAC
330
22FA2
100
AcDbEntity
  8
KERA0
100
AcDbVertex
100
AcDb3dPolylineVertex
 10
2410.745537212517
 20
471.4954207601791
 30
0.0
 70
    40
  0
VERTEX
  5
22FAD
330
22FA2
100
AcDbEntity
  8
KERA0
100
AcDbVertex
100
AcDb3dPolylineVertex
 10
2410.745537212517
 20
459.7454189422381
 30
0.0
 70
    40
  0
VERTEX
  5
22FAE
330
22FA2
100
AcDbEntity
  8
KERA0
100
AcDbVertex
100
AcDb3dPolylineVertex
 10
2410.745537212517
 20
447.9954171242962
 30
0.0
 70
    40
  0
VERTEX
  5
22FAF
330
22FA2
100
AcDbEntity
  8
KERA0
100
AcDbVertex
100
AcDb3dPolylineVertex
 10
2410.745537212517
 20
436.2454153063541
 30
0.0
 70
    40
  0
SEQEND
  5
22FB0
330
22FA2
100
AcDbEntity
  8
KERA0
  0
LINE
  5
22FB1
330
1E
100
AcDbEntity
  8
KERA2
100
AcDbLine
 10
2330.745537212516
 20
549.9942677595786
 30
0.0
 11
2330.745537212516
 21
416.4965616879667
 31
0.0
  0
ARC
  5
22FB3
330
1E
100
AcDbEntity
  8
KERA0
100
AcDbCircle
 10
2407.745539589662
 20
436.2454151275402
 30
0.0
 40
10.0
100
AcDbArc
 50
270.0
 51
0.0
  0
ARC
  5
22FB4
330
1E
100
AcDbEntity
  8
KERA0
100
AcDbCircle
 10
2407.745537682314
 20
436.2454153063541
 30
0.0
 40
3.0
100
AcDbArc
 50
270.0
 51
0.0
  0
ARC
  5
22FB5
330
1E
100
AcDbEntity
  8
KERA0
100
AcDbCircle
 10
2407.745537682314
 20
530.2454298498883
 30
0.0
 40
3.0
100
AcDbArc
 50
0.0
 51
90.0
  0
ARC
  5
22FB6
330
1E
100
AcDbEntity
  8
KERA0
100
AcDbCircle
 10
2407.745535774965
 20
530.2454151275403
 30
0.0
 40
10.0
100
AcDbArc
 50
0.0
 51
90.0
  0
POLYLINE
  5
22FB7
330
1E
100
AcDbEntity
  8
KERA0
100
AcDb3dPolyline
 66
     1
 10
0.0
 20
0.0
 30
0.0
 70
    12
 75
     6
  0
VERTEX
  5
22FB8
330
22FB7
100
AcDbEntity
  8
KERA0
100
AcDbVertex
100
AcDb3dPolylineVertex
 10
2288.100433692231
 20
1252.783365701345
 30
0.003338453145208
 70
    48
  0
VERTEX
  5
236A1
330
22FB7
100
AcDbEntity
  8
KERA0
100
AcDbVertex
100
AcDb3dPolylineVertex
 10
2288.100433692231
 20
1252.783365701345
 30
0.003338453145208
 70
    40
  0
VERTEX
  5
236A2
330
22FB7
100
AcDbEntity
  8
KERA0
100
AcDbVertex
100
AcDb3dPolylineVertex
 10
2287.050055494847
 20
1252.883246050243
 30
0.0024280333224336
 70
    40
  0
VERTEX
  5
236A3
330
22FB7
100
AcDbEntity
  8
KERA0
100
AcDbVertex
100
AcDb3dPolylineVertex
 10
2286.04824256769
 20
1253.170099090278
 30
0.0015597076566287
 70
    40
  0
VERTEX
  5
236A4
330
22FB7
100
AcDbEntity
  8
KERA0
100
AcDbVertex
100
AcDb3dPolylineVertex
 10
2285.115304658091
 20
1253.624742811461
 30
0.0007510797086938
 70
    40
  0
VERTEX
  5
236A5
330
22FB7
100
AcDbEntity
  8
KERA0
100
AcDbVertex
100
AcDb3dPolylineVertex
 10
2284.271551513383
 20
1254.227995203805
 30
0.0000197530395291
 70
    40
  0
VERTEX
  5
236A6
330
22FB7
100
AcDbEntity
  8
KERA0
100
AcDbVertex
100
AcDb3dPolylineVertex
 10
2283.537292880898
 20
1254.960674257319
 30
-0.0006166687899652
 70
    40
  0
VERTEX
  5
236A7
330
22FB7
100
AcDbEntity
  8
KERA0
100
AcDbVertex
100
AcDb3dPolylineVertex
 10
2282.932838507967
 20
1255.803597962016
 30
-0.0011405822188886
 70
    40
  0
VERTEX
  5
236A8
330
22FB7
100
AcDbEntity
  8
KERA0
100
AcDbVertex
100
AcDb3dPolylineVertex
 10
2282.478498141923
 20
1256.737584307907
 30
-0.001534383686341
 70
    40
  0
VERTEX
  5
236A9
330
22FB7
100
AcDbEntity
  8
KERA0
100
AcDbVertex
100
AcDb3dPolylineVertex
 10
2282.194581530097
 20
1257.743451285003
 30
-0.001780469631422
 70
    40
  0
VERTEX
  5
22FB9
330
22FB7
100
AcDbEntity
  8
KERA0
100
AcDbVertex
100
AcDb3dPolylineVertex
 10
2285.252724580977
 20
1252.783365701345
 30
0.0008701890182058
 70
    48
  0
VERTEX
  5
22FBA
330
22FB7
100
AcDbEntity
  8
KERA0
100
AcDbVertex
100
AcDb3dPolylineVertex
 10
2282.706407713936
 20
1254.982349180018
 30
-0.001336842084057
 70
    48
  0
VERTEX
  5
22FBB
330
22FB7
100
AcDbEntity
  8
KERA0
100
AcDbVertex
100
AcDb3dPolylineVertex
 10
2282.194581530098
 20
1257.743451285003
 30
-0.001780469631422
 70
    48
  0
SEQEND
  5
22FC8
330
22FB7
100
AcDbEntity
  8
KERA0
  0
POLYLINE
  5
22FC9
330
1E
100
AcDbEntity
  8
KERA0
100
AcDb3dPolyline
 66
     1
 10
0.0
 20
0.0
 30
0.0
 70
    12
 75
     6
  0
VERTEX
  5
22FCA
330
22FC9
100
AcDbEntity
  8
KERA0
100
AcDbVertex
100
AcDb3dPolylineVertex
 10
2281.440884813985
 20
1261.782384767954
 30
-0.004942726714985
 70
    48
  0
VERTEX
  5
23698
330
22FC9
100
AcDbEntity
  8
KERA0
100
AcDbVertex
100
AcDb3dPolylineVertex
 10
2281.440884813985
 20
1261.782384767954
 30
-0.004942726714985
 70
    40
  0
VERTEX
  5
23699
330
22FC9
100
AcDbEntity
  8
KERA0
100
AcDbVertex
100
AcDb3dPolylineVertex
 10
2281.535097300902
 20
1261.277519615541
 30
-0.0041023271716842
 70
    40
  0
VERTEX
  5
2369A
330
22FC9
100
AcDbEntity
  8
KERA0
100
AcDbVertex
100
AcDb3dPolylineVertex
 10
2281.629309787818
 20
1260.772654463129
 30
-0.0032619276283834
 70
    40
  0
VERTEX
  5
2369B
330
22FC9
100
AcDbEntity
  8
KERA0
100
AcDbVertex
100
AcDb3dPolylineVertex
 10
2281.723522274733
 20
1260.267789310717
 30
-0.0024215280850826
 70
    40
  0
VERTEX
  5
2369C
330
22FC9
100
AcDbEntity
  8
KERA0
100
AcDbVertex
100
AcDb3dPolylineVertex
 10
2281.817734761648
 20
1259.762924158305
 30
-0.0015811285417818
 70
    40
  0
VERTEX
  5
2369D
330
22FC9
100
AcDbEntity
  8
KERA0
100
AcDbVertex
100
AcDb3dPolylineVertex
 10
2281.911947248562
 20
1259.258059005893
 30
-0.0007407289984809
 70
    40
  0
VERTEX
  5
2369E
330
22FC9
100
AcDbEntity
  8
KERA0
100
AcDbVertex
100
AcDb3dPolylineVertex
 10
2282.006159735476
 20
1258.753193853481
 30
0.00009967054482
 70
    40
  0
VERTEX
  5
2369F
330
22FC9
100
AcDbEntity
  8
KERA0
100
AcDbVertex
100
AcDb3dPolylineVertex
 10
2282.10037222239
 20
1258.24832870107
 30
0.000940070088121
 70
    40
  0
VERTEX
  5
236A0
330
22FC9
100
AcDbEntity
  8
KERA0
100
AcDbVertex
100
AcDb3dPolylineVertex
 10
2282.194584709305
 20
1257.743463548658
 30
0.001780469631422
 70
    40
  0
VERTEX
  5
22FCB
330
22FC9
100
AcDbEntity
  8
KERA0
100
AcDbVertex
100
AcDb3dPolylineVertex
 10
2281.692118112431
 20
1260.436077694852
 30
-0.002701661266183
 70
    48
  0
VERTEX
  5
22FCC
330
22FC9
100
AcDbEntity
  8
KERA0
100
AcDbVertex
100
AcDb3dPolylineVertex
 10
2281.943351410868
 20
1259.089770621755
 30
-0.0004605958173807
 70
    48
  0
VERTEX
  5
22FCD
330
22FC9
100
AcDbEntity
  8
KERA0
100
AcDbVertex
100
AcDb3dPolylineVertex
 10
2282.194584709305
 20
1257.743463548658
 30
0.001780469631422
 70
    48
  0
SEQEND
  5
22FD7
330
22FC9
100
AcDbEntity
  8
KERA0
  0
POLYLINE
  5
22FD8
330
1E
100
AcDbEntity
  8
KERA0
100
AcDb3dPolyline
 66
     1
 10
0.0
 20
0.0
 30
0.0
 70
    12
 75
     6
  0
VERTEX
  5
22FD9
330
22FD8
100
AcDbEntity
  8
KERA0
100
AcDbVertex
100
AcDb3dPolylineVertex
 10
2380.247272873831
 20
1261.833950390098
 30
-0.004942726714985
 70
    48
  0
VERTEX
  5
2368F
330
22FD8
100
AcDbEntity
  8
KERA0
100
AcDbVertex
100
AcDb3dPolylineVertex
 10
2380.247272873831
 20
1261.833950390098
 30
-0.004942726714985
 70
    40
  0
VERTEX
  5
23690
330
22FD8
100
AcDbEntity
  8
KERA0
100
AcDbVertex
100
AcDb3dPolylineVertex
 10
2380.153587401706
 20
1261.328987176463
 30
-0.0041023271716842
 70
    40
  0
VERTEX
  5
23691
330
22FD8
100
AcDbEntity
  8
KERA0
100
AcDbVertex
100
AcDb3dPolylineVertex
 10
2380.05990192958
 20
1260.824023962828
 30
-0.0032619276283834
 70
    40
  0
VERTEX
  5
23692
330
22FD8
100
AcDbEntity
  8
KERA0
100
AcDbVertex
100
AcDb3dPolylineVertex
 10
2379.966216457457
 20
1260.319060749194
 30
-0.0024215280850826
 70
    40
  0
VERTEX
  5
23693
330
22FD8
100
AcDbEntity
  8
KERA0
100
AcDbVertex
100
AcDb3dPolylineVertex
 10
2379.872530985333
 20
1259.81409753556
 30
-0.0015811285417818
 70
    40
  0
VERTEX
  5
23694
330
22FD8
100
AcDbEntity
  8
KERA0
100
AcDbVertex
100
AcDb3dPolylineVertex
 10
2379.778845513209
 20
1259.309134321926
 30
-0.0007407289984809
 70
    40
  0
VERTEX
  5
23695
330
22FD8
100
AcDbEntity
  8
KERA0
100
AcDbVertex
100
AcDb3dPolylineVertex
 10
2379.685160041085
 20
1258.804171108293
 30
0.00009967054482
 70
    40
  0
VERTEX
  5
23696
330
22FD8
100
AcDbEntity
  8
KERA0
100
AcDbVertex
100
AcDb3dPolylineVertex
 10
2379.591474568962
 20
1258.299207894659
 30
0.000940070088121
 70
    40
  0
VERTEX
  5
23697
330
22FD8
100
AcDbEntity
  8
KERA0
100
AcDbVertex
100
AcDb3dPolylineVertex
 10
2379.497789096839
 20
1257.794244681026
 30
0.001780469631422
 70
    40
  0
VERTEX
  5
22FDA
330
22FD8
100
AcDbEntity
  8
KERA0
100
AcDbVertex
100
AcDb3dPolylineVertex
 10
2379.997444948162
 20
1260.487381820404
 30
-0.002701661266183
 70
    48
  0
VERTEX
  5
22FDB
330
22FD8
100
AcDbEntity
  8
KERA0
100
AcDbVertex
100
AcDb3dPolylineVertex
 10
2379.747617022501
 20
1259.140813250715
 30
-0.0004605958173807
 70
    48
  0
VERTEX
  5
22FDC
330
22FD8
100
AcDbEntity
  8
KERA0
100
AcDbVertex
100
AcDb3dPolylineVertex
 10
2379.497789096839
 20
1257.794244681026
 30
0.001780469631422
 70
    48
  0
SEQEND
  5
22FE6
330
22FD8
100
AcDbEntity
  8
KERA0
  0
POLYLINE
  5
22FE7
330
1E
100
AcDbEntity
  8
KERA0
100
AcDb3dPolyline
 66
     1
 10
0.0
 20
0.0
 30
0.0
 70
    12
 75
     6
  0
VERTEX
  5
22FE8
330
22FE7
100
AcDbEntity
  8
KERA0
100
AcDbVertex
100
AcDb3dPolylineVertex
 10
2373.59712053597
 20
1252.827985183293
 30
0.003338453145208
 70
    48
  0
VERTEX
  5
23686
330
22FE7
100
AcDbEntity
  8
KERA0
100
AcDbVertex
100
AcDb3dPolylineVertex
 10
2373.59712053597
 20
1252.827985183293
 30
0.003338453145208
 70
    40
  0
VERTEX
  5
23687
330
22FE7
100
AcDbEntity
  8
KERA0
100
AcDbVertex
100
AcDb3dPolylineVertex
 10
2374.647393908998
 20
1252.928961831805
 30
0.0024280333224336
 70
    40
  0
VERTEX
  5
23688
330
22FE7
100
AcDbEntity
  8
KERA0
100
AcDbVertex
100
AcDb3dPolylineVertex
 10
2375.648906881631
 20
1253.216860378597
 30
0.0015597076566287
 70
    40
  0
VERTEX
  5
23689
330
22FE7
100
AcDbEntity
  8
KERA0
100
AcDbVertex
100
AcDb3dPolylineVertex
 10
2376.581369739221
 20
1253.67247762541
 30
0.0007510797086938
 70
    40
  0
VERTEX
  5
2368A
330
22FE7
100
AcDbEntity
  8
KERA0
100
AcDbVertex
100
AcDb3dPolylineVertex
 10
2377.42449276712
 20
1254.276610373984
 30
0.0000197530395291
 70
    40
  0
VERTEX
  5
2368B
330
22FE7
100
AcDbEntity
  8
KERA0
100
AcDbVertex
100
AcDb3dPolylineVertex
 10
2378.15798625068
 20
1255.010055426059
 30
-0.0006166687899652
 70
    40
  0
VERTEX
  5
2368C
330
22FE7
100
AcDbEntity
  8
KERA0
100
AcDbVertex
100
AcDb3dPolylineVertex
 10
2378.761560475252
 20
1255.853609583375
 30
-0.0011405822188886
 70
    40
  0
VERTEX
  5
2368D
330
22FE7
100
AcDbEntity
  8
KERA0
100
AcDbVertex
100
AcDb3dPolylineVertex
 10
2379.21492572619
 20
1256.788069647674
 30
-0.001534383686341
 70
    40
  0
VERTEX
  5
2368E
330
22FE7
100
AcDbEntity
  8
KERA0
100
AcDbVertex
100
AcDb3dPolylineVertex
 10
2379.497792288845
 20
1257.794232420696
 30
-0.001780469631422
 70
    40
  0
VERTEX
  5
22FE9
330
22FE7
100
AcDbEntity
  8
KERA0
100
AcDbVertex
100
AcDb3dPolylineVertex
 10
2376.444828095995
 20
1252.830957538722
 30
0.0008701890182058
 70
    48
  0
VERTEX
  5
22FEA
330
22FE7
100
AcDbEntity
  8
KERA0
100
AcDbVertex
100
AcDb3dPolylineVertex
 10
2378.988848341385
 20
1255.032597590571
 30
-0.001336842084057
 70
    48
  0
VERTEX
  5
22FEB
330
22FE7
100
AcDbEntity
  8
KERA0
100
AcDbVertex
100
AcDb3dPolylineVertex
 10
2379.497792288845
 20
1257.794232420696
 30
-0.001780469631422
 70
    48
  0
SEQEND
  5
22FF8
330
22FE7
100
AcDbEntity
  8
KERA0
  0
POLYLINE
  5
22FF9
330
1E
100
AcDbEntity
  8
KERA1
100
AcDb3dPolyline
 66
     1
 10
0.0
 20
0.0
 30
0.0
 70
    12
 75
     6
  0
VERTEX
  5
22FFA
330
22FF9
100
AcDbEntity
  8
KERA1
100
AcDbVertex
100
AcDb3dPolylineVertex
 10
2262.294132653015
 20
1276.539149335059
 30
0.0
 70
    48
  0
VERTEX
  5
236FB
330
22FF9
100
AcDbEntity
  8
KERA1
100
AcDbVertex
100
AcDb3dPolylineVertex
 10
2262.294132653015
 20
1276.539149335059
 30
0.0
 70
    40
  0
VERTEX
  5
236FC
330
22FF9
100
AcDbEntity
  8
KERA1
100
AcDbVertex
100
AcDb3dPolylineVertex
 10
2265.782426203414
 20
1276.528572317925
 30
-0.0000000000000027
 70
    40
  0
VERTEX
  5
236FD
330
22FF9
100
AcDbEntity
  8
KERA1
100
AcDbVertex
100
AcDb3dPolylineVertex
 10
2269.270719753813
 20
1276.517995300791
 30
-0.0000000000000053
 70
    40
  0
VERTEX
  5
236FE
330
22FF9
100
AcDbEntity
  8
KERA1
100
AcDbVertex
100
AcDb3dPolylineVertex
 10
2272.759013304211
 20
1276.507418283656
 30
-0.000000000000008
 70
    40
  0
VERTEX
  5
236FF
330
22FF9
100
AcDbEntity
  8
KERA1
100
AcDbVertex
100
AcDb3dPolylineVertex
 10
2276.247306854609
 20
1276.496841266522
 30
-0.0000000000000107
 70
    40
  0
VERTEX
  5
23700
330
22FF9
100
AcDbEntity
  8
KERA1
100
AcDbVertex
100
AcDb3dPolylineVertex
 10
2279.735600405008
 20
1276.486264249387
 30
-0.0000000000000133
 70
    40
  0
VERTEX
  5
23701
330
22FF9
100
AcDbEntity
  8
KERA1
100
AcDbVertex
100
AcDb3dPolylineVertex
 10
2283.223893955406
 20
1276.475687232253
 30
-0.000000000000016
 70
    40
  0
VERTEX
  5
23702
330
22FF9
100
AcDbEntity
  8
KERA1
100
AcDbVertex
100
AcDb3dPolylineVertex
 10
2286.712187505805
 20
1276.465110215119
 30
-0.0000000000000186
 70
    40
  0
VERTEX
  5
23703
330
22FF9
100
AcDbEntity
  8
KERA1
100
AcDbVertex
100
AcDb3dPolylineVertex
 10
2290.200481056203
 20
1276.454533197984
 30
-0.0000000000000213
 70
    40
  0
VERTEX
  5
22FFB
330
22FF9
100
AcDbEntity
  8
KERA1
100
AcDbVertex
100
AcDb3dPolylineVertex
 10
2271.596248787412
 20
1276.510943956034
 30
-0.0000000000000071
 70
    48
  0
VERTEX
  5
22FFC
330
22FF9
100
AcDbEntity
  8
KERA1
100
AcDbVertex
100
AcDb3dPolylineVertex
 10
2280.898364921807
 20
1276.482738577009
 30
-0.0000000000000142
 70
    48
  0
VERTEX
  5
22FFD
330
22FF9
100
AcDbEntity
  8
KERA1
100
AcDbVertex
100
AcDb3dPolylineVertex
 10
2290.200481056203
 20
1276.454533197984
 30
-0.0000000000000213
 70
    48
  0
SEQEND
  5
23007
330
22FF9
100
AcDbEntity
  8
KERA1
  0
INSERT
  5
23008
330
1E
100
AcDbEntity
  8
KERA4
100
AcDbBlockReference
  2
Kl Abdeckpl
 10
34.68272981293057
 20
-619.3345321380895
 30
0.0
  0
POLYLINE
  5
2300A
330
1E
100
AcDbEntity
  8
KERA0
100
AcDb3dPolyline
 66
     1
 10
0.0
 20
0.0
 30
0.0
 70
    12
 75
     6
  0
VERTEX
  5
2300B
330
2300A
100
AcDbEntity
  8
KERA0
100
AcDbVertex
100
AcDb3dPolylineVertex
 10
2278.005663145881
 20
1264.769739956985
 30
-0.0000000000000213
 70
    48
  0
VERTEX
  5
23675
330
2300A
100
AcDbEntity
  8
KERA0
100
AcDbVertex
100
AcDb3dPolylineVertex
 10
2278.005663145881
 20
1264.769739956985
 30
-0.0000000000000213
 70
    40
  0
VERTEX
  5
23676
330
2300A
100
AcDbEntity
  8
KERA0
100
AcDbVertex
100
AcDb3dPolylineVertex
 10
2278.298884683577
 20
1264.75546462592
 30
0.0002554117937295
 70
    40
  0
VERTEX
  5
23677
330
2300A
100
AcDbEntity
  8
KERA0
100
AcDbVertex
100
AcDb3dPolylineVertex
 10
2278.593939672737
 20
1264.714366659581
 30
0.0004372005898019
 70
    40
  0
VERTEX
  5
23678
330
2300A
100
AcDbEntity
  8
KERA0
100
AcDbVertex
100
AcDb3dPolylineVertex
 10
2278.888144131872
 20
1264.647098914644
 30
0.0005444977837202
 70
    40
  0
VERTEX
  5
23679
330
2300A
100
AcDbEntity
  8
KERA0
100
AcDbVertex
100
AcDb3dPolylineVertex
 10
2279.178814079495
 20
1264.55431424778
 30
0.0005764347710086
 70
    40
  0
VERTEX
  5
2367A
330
2300A
100
AcDbEntity
  8
KERA0
100
AcDbVertex
100
AcDb3dPolylineVertex
 10
2279.463265534118
 20
1264.436665515662
 30
0.0005321429471913
 70
    40
  0
VERTEX
  5
2367B
330
2300A
100
AcDbEntity
  8
KERA0
100
AcDbVertex
100
AcDb3dPolylineVertex
 10
2279.738814514252
 20
1264.294805574962
 30
0.0004107537077926
 70
    40
  0
VERTEX
  5
2367C
330
2300A
100
AcDbEntity
  8
KERA0
100
AcDbVertex
100
AcDb3dPolylineVertex
 10
2280.00277703841
 20
1264.129387282354
 30
0.0002113984483367
 70
    40
  0
VERTEX
  5
2367D
330
2300A
100
AcDbEntity
  8
KERA0
100
AcDbVertex
100
AcDb3dPolylineVertex
 10
2280.252469125103
 20
1263.941063494509
 30
-0.0000667914356523
 70
    40
  0
VERTEX
  5
2367E
330
2300A
100
AcDbEntity
  8
KERA0
100
AcDbVertex
100
AcDb3dPolylineVertex
 10
2280.485258922679
 20
1263.730670986504
 30
-0.0004241145062673
 70
    40
  0
VERTEX
  5
2367F
330
2300A
100
AcDbEntity
  8
KERA0
100
AcDbVertex
100
AcDb3dPolylineVertex
 10
2280.698723098828
 20
1263.499782207023
 30
-0.0008585891560707
 70
    40
  0
VERTEX
  5
23680
330
2300A
100
AcDbEntity
  8
KERA0
100
AcDbVertex
100
AcDb3dPolylineVertex
 10
2280.890490451073
 20
1263.250153523151
 30
-0.0013676637352423
 70
    40
  0
VERTEX
  5
23681
330
2300A
100
AcDbEntity
  8
KERA0
100
AcDbVertex
100
AcDb3dPolylineVertex
 10
2281.058189776939
 20
1262.983541301977
 30
-0.0019487865939618
 70
    40
  0
VERTEX
  5
23682
330
2300A
100
AcDbEntity
  8
KERA0
100
AcDbVertex
100
AcDb3dPolylineVertex
 10
2281.199449873949
 20
1262.701701910586
 30
-0.0025994060824088
 70
    40
  0
VERTEX
  5
23683
330
2300A
100
AcDbEntity
  8
KERA0
100
AcDbVertex
100
AcDb3dPolylineVertex
 10
2281.311899539629
 20
1262.406391716067
 30
-0.003316970550763
 70
    40
  0
VERTEX
  5
23684
330
2300A
100
AcDbEntity
  8
KERA0
100
AcDbVertex
100
AcDb3dPolylineVertex
 10
2281.393167571501
 20
1262.099367085504
 30
-0.0040989283492042
 70
    40
  0
VERTEX
  5
23685
330
2300A
100
AcDbEntity
  8
KERA0
100
AcDbVertex
100
AcDb3dPolylineVertex
 10
2281.44088276709
 20
1261.782384385986
 30
-0.004942727827912
 70
    40
  0
VERTEX
  5
2300C
330
2300A
100
AcDbEntity
  8
KERA0
100
AcDbVertex
100
AcDb3dPolylineVertex
 10
2278.78275688313
 20
1264.768016238215
 30
0.0007784900206846
 70
    48
  0
VERTEX
  5
2300D
330
2300A
100
AcDbEntity
  8
KERA0
100
AcDbVertex
100
AcDb3dPolylineVertex
 10
2280.433316260592
 20
1264.178424972517
 30
0.0007833763404412
 70
    48
  0
VERTEX
  5
2300E
330
2300A
100
AcDbEntity
  8
KERA0
100
AcDbVertex
100
AcDb3dPolylineVertex
 10
2281.360487096095
 20
1262.639387794787
 30
-0.002612408444176
 70
    48
  0
VERTEX
  5
2300F
330
2300A
100
AcDbEntity
  8
KERA0
100
AcDbVertex
100
AcDb3dPolylineVertex
 10
2281.44088276709
 20
1261.782384385985
 30
-0.004942727827912
 70
    48
  0
SEQEND
  5
2301B
330
2300A
100
AcDbEntity
  8
KERA0
  0
POLYLINE
  5
2301C
330
1E
100
AcDbEntity
  8
KERA1
100
AcDb3dPolyline
 66
     1
 10
0.0
 20
0.0
 30
0.0
 70
    12
 75
     6
  0
VERTEX
  5
2301D
330
2301C
100
AcDbEntity
  8
KERA1
100
AcDbVertex
100
AcDb3dPolylineVertex
 10
2244.106424836383
 20
1285.69501740245
 30
0.0
 70
    48
  0
VERTEX
  5
23779
330
2301C
100
AcDbEntity
  8
KERA1
100
AcDbVertex
100
AcDb3dPolylineVertex
 10
2244.106424836383
 20
1285.69501740245
 30
0.0
 70
    40
  0
VERTEX
  5
2377A
330
2301C
100
AcDbEntity
  8
KERA1
100
AcDbVertex
100
AcDb3dPolylineVertex
 10
2244.008005633574
 20
1286.819954038152
 30
0.0
 70
    40
  0
VERTEX
  5
2377B
330
2301C
100
AcDbEntity
  8
KERA1
100
AcDbVertex
100
AcDb3dPolylineVertex
 10
2243.909586430765
 20
1287.944890673854
 30
0.0
 70
    40
  0
VERTEX
  5
2377C
330
2301C
100
AcDbEntity
  8
KERA1
100
AcDbVertex
100
AcDb3dPolylineVertex
 10
2243.811167227956
 20
1289.069827309556
 30
0.0
 70
    40
  0
VERTEX
  5
2377D
330
2301C
100
AcDbEntity
  8
KERA1
100
AcDbVertex
100
AcDb3dPolylineVertex
 10
2243.712748025147
 20
1290.194763945258
 30
0.0
 70
    40
  0
VERTEX
  5
2377E
330
2301C
100
AcDbEntity
  8
KERA1
100
AcDbVertex
100
AcDb3dPolylineVertex
 10
2243.614328822338
 20
1291.31970058096
 30
0.0
 70
    40
  0
VERTEX
  5
2377F
330
2301C
100
AcDbEntity
  8
KERA1
100
AcDbVertex
100
AcDb3dPolylineVertex
 10
2243.515909619529
 20
1292.444637216662
 30
0.0
 70
    40
  0
VERTEX
  5
23780
330
2301C
100
AcDbEntity
  8
KERA1
100
AcDbVertex
100
AcDb3dPolylineVertex
 10
2243.41749041672
 20
1293.569573852364
 30
0.0
 70
    40
  0
VERTEX
  5
23781
330
2301C
100
AcDbEntity
  8
KERA1
100
AcDbVertex
100
AcDb3dPolylineVertex
 10
2243.319071213911
 20
1294.694510488065
 30
0.0
 70
    40
  0
VERTEX
  5
2301E
330
2301C
100
AcDbEntity
  8
KERA1
100
AcDbVertex
100
AcDb3dPolylineVertex
 10
2243.843973628892
 20
1288.694848430988
 30
0.0
 70
    48
  0
VERTEX
  5
2301F
330
2301C
100
AcDbEntity
  8
KERA1
100
AcDbVertex
100
AcDb3dPolylineVertex
 10
2243.581522421402
 20
1291.694679459527
 30
0.0
 70
    48
  0
VERTEX
  5
23020
330
2301C
100
AcDbEntity
  8
KERA1
100
AcDbVertex
100
AcDb3dPolylineVertex
 10
2243.319071213912
 20
1294.694510488065
 30
0.0
 70
    48
  0
SEQEND
  5
2302A
330
2301C
100
AcDbEntity
  8
KERA1
  0
POLYLINE
  5
2302B
330
1E
100
AcDbEntity
  8
KERA1
100
AcDb3dPolyline
 66
     1
 10
0.0
 20
0.0
 30
0.0
 70
    12
 75
     6
  0
VERTEX
  5
2302C
330
2302B
100
AcDbEntity
  8
KERA1
100
AcDbVertex
100
AcDb3dPolylineVertex
 10
2251.478368027135
 20
1280.77645026359
 30
-0.0000000000000196
 70
    48
  0
VERTEX
  5
23767
330
2302B
100
AcDbEntity
  8
KERA1
100
AcDbVertex
100
AcDb3dPolylineVertex
 10
2251.478368027135
 20
1280.77645026359
 30
-0.0000000000000196
 70
    40
  0
VERTEX
  5
23768
330
2302B
100
AcDbEntity
  8
KERA1
100
AcDbVertex
100
AcDb3dPolylineVertex
 10
2251.872378237663
 20
1280.750807917299
 30
-0.0000000000000196
 70
    40
  0
VERTEX
  5
23769
330
2302B
100
AcDbEntity
  8
KERA1
100
AcDbVertex
100
AcDb3dPolylineVertex
 10
2252.250923388644
 20
1280.676037557178
 30
-0.0000000000000196
 70
    40
  0
VERTEX
  5
2376A
330
2302B
100
AcDbEntity
  8
KERA1
100
AcDbVertex
100
AcDb3dPolylineVertex
 10
2252.610768461944
 20
1280.55537420136
 30
-0.0000000000000196
 70
    40
  0
VERTEX
  5
2376B
330
2302B
100
AcDbEntity
  8
KERA1
100
AcDbVertex
100
AcDb3dPolylineVertex
 10
2252.948678439435
 20
1280.392052867975
 30
-0.0000000000000196
 70
    40
  0
VERTEX
  5
2376C
330
2302B
100
AcDbEntity
  8
KERA1
100
AcDbVertex
100
AcDb3dPolylineVertex
 10
2253.261418302984
 20
1280.189308575155
 30
-0.0000000000000196
 70
    40
  0
VERTEX
  5
2376D
330
2302B
100
AcDbEntity
  8
KERA1
100
AcDbVertex
100
AcDb3dPolylineVertex
 10
2253.545753034459
 20
1279.950376341031
 30
-0.0000000000000196
 70
    40
  0
VERTEX
  5
2376E
330
2302B
100
AcDbEntity
  8
KERA1
100
AcDbVertex
100
AcDb3dPolylineVertex
 10
2253.79844761573
 20
1279.678491183733
 30
-0.0000000000000196
 70
    40
  0
VERTEX
  5
2376F
330
2302B
100
AcDbEntity
  8
KERA1
100
AcDbVertex
100
AcDb3dPolylineVertex
 10
2254.016267028667
 20
1279.376888121392
 30
-0.0000000000000196
 70
    40
  0
VERTEX
  5
2302D
330
2302B
100
AcDbEntity
  8
KERA1
100
AcDbVertex
100
AcDb3dPolylineVertex
 10
2252.546806429604
 20
1280.77645026359
 30
-0.0000000000000196
 70
    48
  0
VERTEX
  5
2302E
330
2302B
100
AcDbEntity
  8
KERA1
100
AcDbVertex
100
AcDb3dPolylineVertex
 10
2253.484791056955
 20
1280.217911256017
 30
-0.0000000000000196
 70
    48
  0
VERTEX
  5
2302F
330
2302B
100
AcDbEntity
  8
KERA1
100
AcDbVertex
100
AcDb3dPolylineVertex
 10
2254.016267028665
 20
1279.376888121392
 30
-0.0000000000000196
 70
    48
  0
SEQEND
  5
23039
330
2302B
100
AcDbEntity
  8
KERA1
  0
POLYLINE
  5
2303A
330
1E
100
AcDbEntity
  8
KERA0
100
AcDb3dPolyline
 66
     1
 10
0.0
 20
0.0
 30
0.0
 70
    12
 75
     6
  0
VERTEX
  5
2303B
330
2303A
100
AcDbEntity
  8
KERA0
100
AcDbVertex
100
AcDb3dPolylineVertex
 10
2278.005663145881
 20
1264.769739956985
 30
-0.0000000000000213
 70
    48
  0
VERTEX
  5
236F2
330
2303A
100
AcDbEntity
  8
KERA0
100
AcDbVertex
100
AcDb3dPolylineVertex
 10
2278.005663145881
 20
1264.769739956985
 30
-0.0000000000000213
 70
    40
  0
VERTEX
  5
236F3
330
2303A
100
AcDbEntity
  8
KERA0
100
AcDbVertex
100
AcDb3dPolylineVertex
 10
2274.903238345465
 20
1264.850979808195
 30
-0.0000000000000213
 70
    40
  0
VERTEX
  5
236F4
330
2303A
100
AcDbEntity
  8
KERA0
100
AcDbVertex
100
AcDb3dPolylineVertex
 10
2271.800813545048
 20
1264.932219659406
 30
-0.0000000000000213
 70
    40
  0
VERTEX
  5
236F5
330
2303A
100
AcDbEntity
  8
KERA0
100
AcDbVertex
100
AcDb3dPolylineVertex
 10
2268.698388744631
 20
1265.013459510616
 30
-0.0000000000000213
 70
    40
  0
VERTEX
  5
236F6
330
2303A
100
AcDbEntity
  8
KERA0
100
AcDbVertex
100
AcDb3dPolylineVertex
 10
2265.595963944214
 20
1265.094699361826
 30
-0.0000000000000213
 70
    40
  0
VERTEX
  5
236F7
330
2303A
100
AcDbEntity
  8
KERA0
100
AcDbVertex
100
AcDb3dPolylineVertex
 10
2262.493539143798
 20
1265.175939213036
 30
-0.0000000000000213
 70
    40
  0
VERTEX
  5
236F8
330
2303A
100
AcDbEntity
  8
KERA0
100
AcDbVertex
100
AcDb3dPolylineVertex
 10
2259.391114343381
 20
1265.257179064246
 30
-0.0000000000000213
 70
    40
  0
VERTEX
  5
236F9
330
2303A
100
AcDbEntity
  8
KERA0
100
AcDbVertex
100
AcDb3dPolylineVertex
 10
2256.288689542964
 20
1265.338418915457
 30
-0.0000000000000213
 70
    40
  0
VERTEX
  5
236FA
330
2303A
100
AcDbEntity
  8
KERA0
100
AcDbVertex
100
AcDb3dPolylineVertex
 10
2253.186264742548
 20
1265.419658766667
 30
-0.0000000000000213
 70
    40
  0
VERTEX
  5
2303C
330
2303A
100
AcDbEntity
  8
KERA0
100
AcDbVertex
100
AcDb3dPolylineVertex
 10
2269.73253034477
 20
1264.986379560212
 30
-0.0000000000000213
 70
    48
  0
VERTEX
  5
2303D
330
2303A
100
AcDbEntity
  8
KERA0
100
AcDbVertex
100
AcDb3dPolylineVertex
 10
2261.45939754366
 20
1265.203019163439
 30
-0.0000000000000213
 70
    48
  0
VERTEX
  5
2303E
330
2303A
100
AcDbEntity
  8
KERA0
100
AcDbVertex
100
AcDb3dPolylineVertex
 10
2253.186264742548
 20
1265.419658766667
 30
-0.0000000000000213
 70
    48
  0
SEQEND
  5
23048
330
2303A
100
AcDbEntity
  8
KERA0
  0
ARC
  5
23049
330
1E
100
AcDbEntity
  8
KERA0
100
AcDbCircle
 10
2253.996061312283
 20
1287.393628781757
 30
-0.0000000000000245
 40
22.000040753172
100
AcDbArc
 50
201.2372390134629
 51
267.1561109295614
  0
ARC
  5
2304A
330
1E
100
AcDbEntity
  8
KERA0
100
AcDbCircle
 10
2224.238384857907
 20
1275.628456420422
 30
-0.0000000000000245
 40
10.000202428782
100
AcDbArc
 50
22.30897499692646
 51
86.73475863404089
  0
POLYLINE
  5
2304B
330
1E
100
AcDbEntity
  8
KERA1
100
AcDb3dPolyline
 66
     1
 10
0.0
 20
0.0
 30
0.0
 70
    12
 75
     6
  0
VERTEX
  5
2304C
330
2304B
100
AcDbEntity
  8
KERA1
100
AcDbVertex
100
AcDb3dPolylineVertex
 10
2244.106426054999
 20
1285.695007510744
 30
0.0
 70
    48
  0
VERTEX
  5
23770
330
2304B
100
AcDbEntity
  8
KERA1
100
AcDbVertex
100
AcDb3dPolylineVertex
 10
2244.106426054999
 20
1285.695007510744
 30
0.0
 70
    40
  0
VERTEX
  5
23771
330
2304B
100
AcDbEntity
  8
KERA1
100
AcDbVertex
100
AcDb3dPolylineVertex
 10
2244.328928223594
 20
1284.824852012162
 30
-0.000000000000003
 70
    40
  0
VERTEX
  5
23772
330
2304B
100
AcDbEntity
  8
KERA1
100
AcDbVertex
100
AcDb3dPolylineVertex
 10
2244.794916807657
 20
1284.004816883626
 30
-0.0000000000000058
 70
    40
  0
VERTEX
  5
23773
330
2304B
100
AcDbEntity
  8
KERA1
100
AcDbVertex
100
AcDb3dPolylineVertex
 10
2245.48250439761
 20
1283.246318498256
 30
-0.0000000000000086
 70
    40
  0
VERTEX
  5
23774
330
2304B
100
AcDbEntity
  8
KERA1
100
AcDbVertex
100
AcDb3dPolylineVertex
 10
2246.369803583879
 20
1282.56077322917
 30
-0.0000000000000113
 70
    40
  0
VERTEX
  5
23775
330
2304B
100
AcDbEntity
  8
KERA1
100
AcDbVertex
100
AcDb3dPolylineVertex
 10
2247.434926956887
 20
1281.959597449487
 30
-0.0000000000000138
 70
    40
  0
VERTEX
  5
23776
330
2304B
100
AcDbEntity
  8
KERA1
100
AcDbVertex
100
AcDb3dPolylineVertex
 10
2248.655987107058
 20
1281.454207532326
 30
-0.000000000000016
 70
    40
  0
VERTEX
  5
23777
330
2304B
100
AcDbEntity
  8
KERA1
100
AcDbVertex
100
AcDb3dPolylineVertex
 10
2250.011096624816
 20
1281.056019850806
 30
-0.000000000000018
 70
    40
  0
VERTEX
  5
23778
330
2304B
100
AcDbEntity
  8
KERA1
100
AcDbVertex
100
AcDb3dPolylineVertex
 10
2251.478368100585
 20
1280.776450778044
 30
-0.0000000000000196
 70
    40
  0
VERTEX
  5
2304D
330
2304B
100
AcDbEntity
  8
KERA1
100
AcDbVertex
100
AcDb3dPolylineVertex
 10
2244.355661142117
 20
1283.317913575011
 30
-0.0000000000000079
 70
    48
  0
VERTEX
  5
2304E
330
2304B
100
AcDbEntity
  8
KERA1
100
AcDbVertex
100
AcDb3dPolylineVertex
 10
2247.435550363033
 20
1281.353662273179
 30
-0.0000000000000157
 70
    48
  0
VERTEX
  5
2304F
330
2304B
100
AcDbEntity
  8
KERA1
100
AcDbVertex
100
AcDb3dPolylineVertex
 10
2251.478368100585
 20
1280.776450778044
 30
-0.0000000000000196
 70
    48
  0
SEQEND
  5
2305C
330
2304B
100
AcDbEntity
  8
KERA1
  0
ARC
  5
2305D
330
1E
100
AcDbEntity
  8
KERA1
100
AcDbCircle
 10
2257.015097373786
 20
1279.460653037562
 30
-0.0000000000000196
 40
3.0
100
AcDbArc
 50
181.5999999999998
 51
271.5999999999934
  0
POLYLINE
  5
2305E
330
1E
100
AcDbEntity
  8
KERA1
100
AcDb3dPolyline
 66
     1
 10
0.0
 20
0.0
 30
0.0
 70
    12
 75
     6
  0
VERTEX
  5
2305F
330
2305E
100
AcDbEntity
  8
KERA1
100
AcDbVertex
100
AcDb3dPolylineVertex
 10
2256.794171290905
 20
1276.539144566688
 30
0.0
 70
    48
  0
VERTEX
  5
23704
330
2305E
100
AcDbEntity
  8
KERA1
100
AcDbVertex
100
AcDb3dPolylineVertex
 10
2256.794171290905
 20
1276.539144566688
 30
0.0
 70
    40
  0
VERTEX
  5
23705
330
2305E
100
AcDbEntity
  8
KERA1
100
AcDbVertex
100
AcDb3dPolylineVertex
 10
2257.481671290905
 20
1276.539144566688
 30
0.0
 70
    40
  0
VERTEX
  5
23706
330
2305E
100
AcDbEntity
  8
KERA1
100
AcDbVertex
100
AcDb3dPolylineVertex
 10
2258.169171290905
 20
1276.539144566688
 30
0.0
 70
    40
  0
VERTEX
  5
23707
330
2305E
100
AcDbEntity
  8
KERA1
100
AcDbVertex
100
AcDb3dPolylineVertex
 10
2258.856671290905
 20
1276.539144566688
 30
0.0
 70
    40
  0
VERTEX
  5
23708
330
2305E
100
AcDbEntity
  8
KERA1
100
AcDbVertex
100
AcDb3dPolylineVertex
 10
2259.544171290905
 20
1276.539144566688
 30
0.0
 70
    40
  0
VERTEX
  5
23709
330
2305E
100
AcDbEntity
  8
KERA1
100
AcDbVertex
100
AcDb3dPolylineVertex
 10
2260.231671290905
 20
1276.539144566688
 30
0.0
 70
    40
  0
VERTEX
  5
2370A
330
2305E
100
AcDbEntity
  8
KERA1
100
AcDbVertex
100
AcDb3dPolylineVertex
 10
2260.919171290905
 20
1276.539144566688
 30
0.0
 70
    40
  0
VERTEX
  5
2370B
330
2305E
100
AcDbEntity
  8
KERA1
100
AcDbVertex
100
AcDb3dPolylineVertex
 10
2261.606671290905
 20
1276.539144566688
 30
0.0
 70
    40
  0
VERTEX
  5
2370C
330
2305E
100
AcDbEntity
  8
KERA1
100
AcDbVertex
100
AcDb3dPolylineVertex
 10
2262.294171290905
 20
1276.539144566688
 30
0.0
 70
    40
  0
VERTEX
  5
23060
330
2305E
100
AcDbEntity
  8
KERA1
100
AcDbVertex
100
AcDb3dPolylineVertex
 10
2258.627504624238
 20
1276.539144566688
 30
0.0
 70
    48
  0
VERTEX
  5
23061
330
2305E
100
AcDbEntity
  8
KERA1
100
AcDbVertex
100
AcDb3dPolylineVertex
 10
2260.460837957571
 20
1276.539144566688
 30
0.0
 70
    48
  0
VERTEX
  5
23062
330
2305E
100
AcDbEntity
  8
KERA1
100
AcDbVertex
100
AcDb3dPolylineVertex
 10
2262.294171290905
 20
1276.539144566688
 30
0.0
 70
    48
  0
SEQEND
  5
2306C
330
2305E
100
AcDbEntity
  8
KERA1
  0
ARC
  5
2306D
330
1E
100
AcDbEntity
  8
KERA1
100
AcDbCircle
 10
2240.358628570502
 20
1294.208320437445
 30
0.0
 40
3.0
100
AcDbArc
 50
5.000000000000595
 51
88.50000000001033
  0
POLYLINE
  5
2306E
330
1E
100
AcDbEntity
  8
KERA0
100
AcDb3dPolyline
 66
     1
 10
0.0
 20
0.0
 30
0.0
 70
    12
 75
     6
  0
VERTEX
  5
2306F
330
2306E
100
AcDbEntity
  8
KERA0
100
AcDbVertex
100
AcDb3dPolylineVertex
 10
2383.679374556753
 20
1264.824889535673
 30
-0.0000000000000213
 70
    48
  0
VERTEX
  5
23664
330
2306E
100
AcDbEntity
  8
KERA0
100
AcDbVertex
100
AcDb3dPolylineVertex
 10
2383.679374556753
 20
1264.824889535673
 30
-0.0000000000000213
 70
    40
  0
VERTEX
  5
23665
330
2306E
100
AcDbEntity
  8
KERA0
100
AcDbVertex
100
AcDb3dPolylineVertex
 10
2383.386168078956
 20
1264.810308156324
 30
0.0002554117937295
 70
    40
  0
VERTEX
  5
23666
330
2306E
100
AcDbEntity
  8
KERA0
100
AcDbVertex
100
AcDb3dPolylineVertex
 10
2383.091156147375
 20
1264.76890224261
 30
0.0004372005898019
 70
    40
  0
VERTEX
  5
23667
330
2306E
100
AcDbEntity
  8
KERA0
100
AcDbVertex
100
AcDb3dPolylineVertex
 10
2382.797022060605
 20
1264.701327452312
 30
0.0005444977837202
 70
    40
  0
VERTEX
  5
23668
330
2306E
100
AcDbEntity
  8
KERA0
100
AcDbVertex
100
AcDb3dPolylineVertex
 10
2382.506449117238
 20
1264.608239443205
 30
0.0005764347710086
 70
    40
  0
VERTEX
  5
23669
330
2306E
100
AcDbEntity
  8
KERA0
100
AcDbVertex
100
AcDb3dPolylineVertex
 10
2382.222120615869
 20
1264.49029387307
 30
0.0005321429471913
 70
    40
  0
VERTEX
  5
2366A
330
2306E
100
AcDbEntity
  8
KERA0
100
AcDbVertex
100
AcDb3dPolylineVertex
 10
2381.946719855088
 20
1264.348146399684
 30
0.0004107537077926
 70
    40
  0
VERTEX
  5
2366B
330
2306E
100
AcDbEntity
  8
KERA0
100
AcDbVertex
100
AcDb3dPolylineVertex
 10
2381.682930133492
 20
1264.182452680827
 30
0.0002113984483367
 70
    40
  0
VERTEX
  5
2366C
330
2306E
100
AcDbEntity
  8
KERA0
100
AcDbVertex
100
AcDb3dPolylineVertex
 10
2381.433434749671
 20
1263.993868374274
 30
-0.0000667914356523
 70
    40
  0
VERTEX
  5
2366D
330
2306E
100
AcDbEntity
  8
KERA0
100
AcDbVertex
100
AcDb3dPolylineVertex
 10
2381.200864680444
 20
1263.783233001698
 30
-0.0004241145062673
 70
    40
  0
VERTEX
  5
2366E
330
2306E
100
AcDbEntity
  8
KERA0
100
AcDbVertex
100
AcDb3dPolylineVertex
 10
2380.987641615526
 20
1263.552121540328
 30
-0.0008585891560707
 70
    40
  0
VERTEX
  5
2366F
330
2306E
100
AcDbEntity
  8
KERA0
100
AcDbVertex
100
AcDb3dPolylineVertex
 10
2380.796134922857
 20
1263.302292831287
 30
-0.0013676637352423
 70
    40
  0
VERTEX
  5
23670
330
2306E
100
AcDbEntity
  8
KERA0
100
AcDbVertex
100
AcDb3dPolylineVertex
 10
2380.628713970375
 20
1263.035505715696
 30
-0.0019487865939618
 70
    40
  0
VERTEX
  5
23671
330
2306E
100
AcDbEntity
  8
KERA0
100
AcDbVertex
100
AcDb3dPolylineVertex
 10
2380.487748126022
 20
1262.753519034676
 30
-0.0025994060824088
 70
    40
  0
VERTEX
  5
23672
330
2306E
100
AcDbEntity
  8
KERA0
100
AcDbVertex
100
AcDb3dPolylineVertex
 10
2380.375606757736
 20
1262.45809162935
 30
-0.003316970550763
 70
    40
  0
VERTEX
  5
23673
330
2306E
100
AcDbEntity
  8
KERA0
100
AcDbVertex
100
AcDb3dPolylineVertex
 10
2380.294659233457
 20
1262.150982340839
 30
-0.0040989283492042
 70
    40
  0
VERTEX
  5
23674
330
2306E
100
AcDbEntity
  8
KERA0
100
AcDbVertex
100
AcDb3dPolylineVertex
 10
2380.247274921123
 20
1261.833950010266
 30
-0.004942727827912
 70
    40
  0
VERTEX
  5
23070
330
2306E
100
AcDbEntity
  8
KERA0
100
AcDbVertex
100
AcDb3dPolylineVertex
 10
2382.902283041976
 20
1264.822354710141
 30
0.0007784900206846
 70
    48
  0
VERTEX
  5
23071
330
2306E
100
AcDbEntity
  8
KERA0
100
AcDbVertex
100
AcDb3dPolylineVertex
 10
2381.252339961729
 20
1264.231040960038
 30
0.0007833763404412
 70
    48
  0
VERTEX
  5
23072
330
2306E
100
AcDbEntity
  8
KERA0
100
AcDbVertex
100
AcDb3dPolylineVertex
 10
2380.326776033248
 20
1262.691036866882
 30
-0.002612408444176
 70
    48
  0
VERTEX
  5
23073
330
2306E
100
AcDbEntity
  8
KERA0
100
AcDbVertex
100
AcDb3dPolylineVertex
 10
2380.247274921123
 20
1261.833950010266
 30
-0.004942727827912
 70
    48
  0
SEQEND
  5
2307F
330
2306E
100
AcDbEntity
  8
KERA0
  0
POLYLINE
  5
23080
330
1E
100
AcDbEntity
  8
KERA1
100
AcDb3dPolyline
 66
     1
 10
0.0
 20
0.0
 30
0.0
 70
    12
 75
     6
  0
VERTEX
  5
23081
330
23080
100
AcDbEntity
  8
KERA1
100
AcDbVertex
100
AcDb3dPolylineVertex
 10
2307.957558864417
 20
1263.418854879433
 30
-0.0001968155746915
 70
    48
  0
VERTEX
  5
236E0
330
23080
100
AcDbEntity
  8
KERA1
100
AcDbVertex
100
AcDb3dPolylineVertex
 10
2307.957558864417
 20
1263.418854879433
 30
-0.0001968155746915
 70
    40
  0
VERTEX
  5
236E1
330
23080
100
AcDbEntity
  8
KERA1
100
AcDbVertex
100
AcDb3dPolylineVertex
 10
2307.932817143887
 20
1263.741178869424
 30
-0.0001923078930192
 70
    40
  0
VERTEX
  5
236E2
330
23080
100
AcDbEntity
  8
KERA1
100
AcDbVertex
100
AcDb3dPolylineVertex
 10
2307.874182861794
 20
1264.056260497792
 30
-0.000181625342532
 70
    40
  0
VERTEX
  5
236E3
330
23080
100
AcDbEntity
  8
KERA1
100
AcDbVertex
100
AcDb3dPolylineVertex
 10
2307.782846125684
 20
1264.361634509008
 30
-0.0001649847483276
 70
    40
  0
VERTEX
  5
236E4
330
23080
100
AcDbEntity
  8
KERA1
100
AcDbVertex
100
AcDb3dPolylineVertex
 10
2307.659997043102
 20
1264.654835647541
 30
-0.0001426029355037
 70
    40
  0
VERTEX
  5
236E5
330
23080
100
AcDbEntity
  8
KERA1
100
AcDbVertex
100
AcDb3dPolylineVertex
 10
2307.506825721595
 20
1264.933398657859
 30
-0.0001146967291577
 70
    40
  0
VERTEX
  5
236E6
330
23080
100
AcDbEntity
  8
KERA1
100
AcDbVertex
100
AcDb3dPolylineVertex
 10
2307.324522268708
 20
1265.194858284433
 30
-0.0000814829543874
 70
    40
  0
VERTEX
  5
236E7
330
23080
100
AcDbEntity
  8
KERA1
100
AcDbVertex
100
AcDb3dPolylineVertex
 10
2307.114276791985
 20
1265.436749271732
 30
-0.0000431784362903
 70
    40
  0
VERTEX
  5
236E8
330
23080
100
AcDbEntity
  8
KERA1
100
AcDbVertex
100
AcDb3dPolylineVertex
 10
2306.877279398973
 20
1265.656606364225
 30
0.0000000000000359
 70
    40
  0
VERTEX
  5
23082
330
23080
100
AcDbEntity
  8
KERA1
100
AcDbVertex
100
AcDb3dPolylineVertex
 10
2307.937828898458
 20
1264.285850663321
 30
-0.0001932209820718
 70
    48
  0
VERTEX
  5
23083
330
23080
100
AcDbEntity
  8
KERA1
100
AcDbVertex
100
AcDb3dPolylineVertex
 10
2307.543883795351
 20
1265.101890648901
 30
-0.0001214483210528
 70
    48
  0
VERTEX
  5
23084
330
23080
100
AcDbEntity
  8
KERA1
100
AcDbVertex
100
AcDb3dPolylineVertex
 10
2306.877279398972
 20
1265.656606364225
 30
0.0000000000000359
 70
    48
  0
SEQEND
  5
2308E
330
23080
100
AcDbEntity
  8
KERA1
  0
POLYLINE
  5
2308F
330
1E
100
AcDbEntity
  8
KERA1
100
AcDb3dPolyline
 66
     1
 10
0.0
 20
0.0
 30
0.0
 70
    12
 75
     6
  0
VERTEX
  5
23090
330
2308F
100
AcDbEntity
  8
KERA1
100
AcDbVertex
100
AcDb3dPolylineVertex
 10
2353.728905168186
 20
1263.442742281805
 30
-0.0001968155746915
 70
    48
  0
VERTEX
  5
236D7
330
2308F
100
AcDbEntity
  8
KERA1
100
AcDbVertex
100
AcDb3dPolylineVertex
 10
2353.728905168186
 20
1263.442742281805
 30
-0.0001968155746915
 70
    40
  0
VERTEX
  5
236D8
330
2308F
100
AcDbEntity
  8
KERA1
100
AcDbVertex
100
AcDb3dPolylineVertex
 10
2353.753310442892
 20
1263.7650919209
 30
-0.0001923078930192
 70
    40
  0
VERTEX
  5
236D9
330
2308F
100
AcDbEntity
  8
KERA1
100
AcDbVertex
100
AcDb3dPolylineVertex
 10
2353.811615820063
 20
1264.080234578383
 30
-0.000181625342532
 70
    40
  0
VERTEX
  5
236DA
330
2308F
100
AcDbEntity
  8
KERA1
100
AcDbVertex
100
AcDb3dPolylineVertex
 10
2353.902633765963
 20
1264.385703757864
 30
-0.0001649847483276
 70
    40
  0
VERTEX
  5
236DB
330
2308F
100
AcDbEntity
  8
KERA1
100
AcDbVertex
100
AcDb3dPolylineVertex
 10
2354.025176746857
 20
1264.679032962959
 30
-0.0001426029355037
 70
    40
  0
VERTEX
  5
236DC
330
2308F
100
AcDbEntity
  8
KERA1
100
AcDbVertex
100
AcDb3dPolylineVertex
 10
2354.17805722901
 20
1264.957755697279
 30
-0.0001146967291577
 70
    40
  0
VERTEX
  5
236DD
330
2308F
100
AcDbEntity
  8
KERA1
100
AcDbVertex
100
AcDb3dPolylineVertex
 10
2354.360087678685
 20
1265.219405464437
 30
-0.0000814829543874
 70
    40
  0
VERTEX
  5
236DE
330
2308F
100
AcDbEntity
  8
KERA1
100
AcDbVertex
100
AcDb3dPolylineVertex
 10
2354.570080562148
 20
1265.461515768047
 30
-0.0000431784362903
 70
    40
  0
VERTEX
  5
236DF
330
2308F
100
AcDbEntity
  8
KERA1
100
AcDbVertex
100
AcDb3dPolylineVertex
 10
2354.806848345663
 20
1265.68162011172
 30
0.0000000000000359
 70
    40
  0
VERTEX
  5
23091
330
2308F
100
AcDbEntity
  8
KERA1
100
AcDbVertex
100
AcDb3dPolylineVertex
 10
2353.747730178572
 20
1264.309758186977
 30
-0.0001932209820718
 70
    48
  0
VERTEX
  5
23092
330
2308F
100
AcDbEntity
  8
KERA1
100
AcDbVertex
100
AcDb3dPolylineVertex
 10
2354.140823308431
 20
1265.126208916406
 30
-0.0001214483210528
 70
    48
  0
VERTEX
  5
23093
330
2308F
100
AcDbEntity
  8
KERA1
100
AcDbVertex
100
AcDb3dPolylineVertex
 10
2354.806848345661
 20
1265.68162011172
 30
0.0000000000000359
 70
    48
  0
SEQEND
  5
2309D
330
2308F
100
AcDbEntity
  8
KERA1
  0
POLYLINE
  5
2309E
330
1E
100
AcDbEntity
  8
KERA1
100
AcDb3dPolyline
 66
     1
 10
0.0
 20
0.0
 30
0.0
 70
    12
 75
     6
  0
VERTEX
  5
2309F
330
2309E
100
AcDbEntity
  8
KERA1
100
AcDbVertex
100
AcDb3dPolylineVertex
 10
2404.878570297128
 20
1276.616427668667
 30
0.0
 70
    48
  0
VERTEX
  5
2375E
330
2309E
100
AcDbEntity
  8
KERA1
100
AcDbVertex
100
AcDb3dPolylineVertex
 10
2404.878570297128
 20
1276.616427668667
 30
0.0
 70
    40
  0
VERTEX
  5
2375F
330
2309E
100
AcDbEntity
  8
KERA1
100
AcDbVertex
100
AcDb3dPolylineVertex
 10
2404.191070671629
 20
1276.615710076287
 30
0.0
 70
    40
  0
VERTEX
  5
23760
330
2309E
100
AcDbEntity
  8
KERA1
100
AcDbVertex
100
AcDb3dPolylineVertex
 10
2403.503571046131
 20
1276.614992483907
 30
0.0
 70
    40
  0
VERTEX
  5
23761
330
2309E
100
AcDbEntity
  8
KERA1
100
AcDbVertex
100
AcDb3dPolylineVertex
 10
2402.816071420632
 20
1276.614274891527
 30
0.0
 70
    40
  0
VERTEX
  5
23762
330
2309E
100
AcDbEntity
  8
KERA1
100
AcDbVertex
100
AcDb3dPolylineVertex
 10
2402.128571795133
 20
1276.613557299148
 30
0.0
 70
    40
  0
VERTEX
  5
23763
330
2309E
100
AcDbEntity
  8
KERA1
100
AcDbVertex
100
AcDb3dPolylineVertex
 10
2401.441072169634
 20
1276.612839706768
 30
0.0
 70
    40
  0
VERTEX
  5
23764
330
2309E
100
AcDbEntity
  8
KERA1
100
AcDbVertex
100
AcDb3dPolylineVertex
 10
2400.753572544136
 20
1276.612122114388
 30
0.0
 70
    40
  0
VERTEX
  5
23765
330
2309E
100
AcDbEntity
  8
KERA1
100
AcDbVertex
100
AcDb3dPolylineVertex
 10
2400.066072918637
 20
1276.611404522009
 30
0.0
 70
    40
  0
VERTEX
  5
23766
330
2309E
100
AcDbEntity
  8
KERA1
100
AcDbVertex
100
AcDb3dPolylineVertex
 10
2399.378573293137
 20
1276.610686929629
 30
0.0
 70
    40
  0
VERTEX
  5
230A0
330
2309E
100
AcDbEntity
  8
KERA1
100
AcDbVertex
100
AcDb3dPolylineVertex
 10
2403.045237962464
 20
1276.614514088987
 30
0.0
 70
    48
  0
VERTEX
  5
230A1
330
2309E
100
AcDbEntity
  8
KERA1
100
AcDbVertex
100
AcDb3dPolylineVertex
 10
2401.211905627802
 20
1276.612600509308
 30
0.0
 70
    48
  0
VERTEX
  5
230A2
330
2309E
100
AcDbEntity
  8
KERA1
100
AcDbVertex
100
AcDb3dPolylineVertex
 10
2399.378573293137
 20
1276.610686929629
 30
0.0
 70
    48
  0
SEQEND
  5
230AC
330
2309E
100
AcDbEntity
  8
KERA1
  0
POLYLINE
  5
230AD
330
1E
100
AcDbEntity
  8
KERA0
100
AcDb3dPolyline
 66
     1
 10
0.0
 20
0.0
 30
0.0
 70
    12
 75
     6
  0
VERTEX
  5
230AE
330
230AD
100
AcDbEntity
  8
KERA0
100
AcDbVertex
100
AcDb3dPolylineVertex
 10
2383.679374556753
 20
1264.824889535673
 30
-0.0000000000000213
 70
    48
  0
VERTEX
  5
2374C
330
230AD
100
AcDbEntity
  8
KERA0
100
AcDbVertex
100
AcDb3dPolylineVertex
 10
2383.679374556753
 20
1264.824889535673
 30
-0.0000000000000213
 70
    40
  0
VERTEX
  5
2374D
330
230AD
100
AcDbEntity
  8
KERA0
100
AcDbVertex
100
AcDb3dPolylineVertex
 10
2386.78171287141
 20
1264.909367562841
 30
-0.0000000000000213
 70
    40
  0
VERTEX
  5
2374E
330
230AD
100
AcDbEntity
  8
KERA0
100
AcDbVertex
100
AcDb3dPolylineVertex
 10
2389.884051186067
 20
1264.993845590009
 30
-0.0000000000000213
 70
    40
  0
VERTEX
  5
2374F
330
230AD
100
AcDbEntity
  8
KERA0
100
AcDbVertex
100
AcDb3dPolylineVertex
 10
2392.986389500725
 20
1265.078323617176
 30
-0.0000000000000213
 70
    40
  0
VERTEX
  5
23750
330
230AD
100
AcDbEntity
  8
KERA0
100
AcDbVertex
100
AcDb3dPolylineVertex
 10
2396.088727815381
 20
1265.162801644345
 30
-0.0000000000000213
 70
    40
  0
VERTEX
  5
23751
330
230AD
100
AcDbEntity
  8
KERA0
100
AcDbVertex
100
AcDb3dPolylineVertex
 10
2399.191066130039
 20
1265.247279671513
 30
-0.0000000000000213
 70
    40
  0
VERTEX
  5
23752
330
230AD
100
AcDbEntity
  8
KERA0
100
AcDbVertex
100
AcDb3dPolylineVertex
 10
2402.293404444696
 20
1265.331757698681
 30
-0.0000000000000213
 70
    40
  0
VERTEX
  5
23753
330
230AD
100
AcDbEntity
  8
KERA0
100
AcDbVertex
100
AcDb3dPolylineVertex
 10
2405.395742759353
 20
1265.416235725849
 30
-0.0000000000000213
 70
    40
  0
VERTEX
  5
23754
330
230AD
100
AcDbEntity
  8
KERA0
100
AcDbVertex
100
AcDb3dPolylineVertex
 10
2408.498081074009
 20
1265.500713753017
 30
-0.0000000000000213
 70
    40
  0
VERTEX
  5
230AF
330
230AD
100
AcDbEntity
  8
KERA0
100
AcDbVertex
100
AcDb3dPolylineVertex
 10
2391.952276729172
 20
1265.050164274787
 30
-0.0000000000000213
 70
    48
  0
VERTEX
  5
230B0
330
230AD
100
AcDbEntity
  8
KERA0
100
AcDbVertex
100
AcDb3dPolylineVertex
 10
2400.225178901592
 20
1265.275439013902
 30
-0.0000000000000213
 70
    48
  0
VERTEX
  5
230B1
330
230AD
100
AcDbEntity
  8
KERA0
100
AcDbVertex
100
AcDb3dPolylineVertex
 10
2408.498081074011
 20
1265.500713753017
 30
-0.0000000000000213
 70
    48
  0
SEQEND
  5
230BB
330
230AD
100
AcDbEntity
  8
KERA0
  0
POLYLINE
  5
230BC
330
1E
100
AcDbEntity
  8
KERA0
100
AcDb3dPolyline
 66
     1
 10
0.0
 20
0.0
 30
0.0
 70
     8
  0
VERTEX
  5
230BD
330
230BC
100
AcDbEntity
  8
KERA0
100
AcDbVertex
100
AcDb3dPolylineVertex
 10
2330.898437545973
 20
1252.783444799938
 30
0.0
 70
    32
  0
VERTEX
  5
230BE
330
230BC
100
AcDbEntity
  8
KERA0
100
AcDbVertex
100
AcDb3dPolylineVertex
 10
2335.88902282205
 20
1252.788653829632
 30
0.0
 70
    32
  0
VERTEX
  5
230BF
330
230BC
100
AcDbEntity
  8
KERA0
100
AcDbVertex
100
AcDb3dPolylineVertex
 10
2341.27837566887
 20
1252.794279081474
 30
0.0
 70
    32
  0
VERTEX
  5
230C0
330
230BC
100
AcDbEntity
  8
KERA0
100
AcDbVertex
100
AcDb3dPolylineVertex
 10
2346.66772851569
 20
1252.799904333316
 30
0.0
 70
    32
  0
VERTEX
  5
230C1
330
230BC
100
AcDbEntity
  8
KERA0
100
AcDbVertex
100
AcDb3dPolylineVertex
 10
2352.057081362509
 20
1252.805529585157
 30
0.0
 70
    32
  0
VERTEX
  5
230C2
330
230BC
100
AcDbEntity
  8
KERA0
100
AcDbVertex
100
AcDb3dPolylineVertex
 10
2357.446434209328
 20
1252.811154836998
 30
0.0
 70
    32
  0
VERTEX
  5
230C3
330
230BC
100
AcDbEntity
  8
KERA0
100
AcDbVertex
100
AcDb3dPolylineVertex
 10
2362.835787056148
 20
1252.81678008884
 30
0.0
 70
    32
  0
VERTEX
  5
230C4
330
230BC
100
AcDbEntity
  8
KERA0
100
AcDbVertex
100
AcDb3dPolylineVertex
 10
2368.225139902967
 20
1252.822405340682
 30
0.0
 70
    32
  0
VERTEX
  5
230C5
330
230BC
100
AcDbEntity
  8
KERA0
100
AcDbVertex
100
AcDb3dPolylineVertex
 10
2373.614492749787
 20
1252.828030592523
 30
0.0
 70
    32
  0
SEQEND
  5
230C6
330
230BC
100
AcDbEntity
  8
KERA0
  0
POLYLINE
  5
230C7
330
1E
100
AcDbEntity
  8
KERA1
100
AcDb3dPolyline
 66
     1
 10
0.0
 20
0.0
 30
0.0
 70
     8
  0
VERTEX
  5
230C8
330
230C7
100
AcDbEntity
  8
KERA1
100
AcDbVertex
100
AcDb3dPolylineVertex
 10
2330.873988362792
 20
1276.207333844034
 30
0.0
 70
    32
  0
VERTEX
  5
230C9
330
230C7
100
AcDbEntity
  8
KERA1
100
AcDbVertex
100
AcDb3dPolylineVertex
 10
2334.807258050778
 20
1276.211439278061
 30
0.0
 70
    32
  0
VERTEX
  5
230CA
330
230C7
100
AcDbEntity
  8
KERA1
100
AcDbVertex
100
AcDb3dPolylineVertex
 10
2339.47400920459
 20
1276.216310298992
 30
0.0
 70
    32
  0
VERTEX
  5
230CB
330
230C7
100
AcDbEntity
  8
KERA1
100
AcDbVertex
100
AcDb3dPolylineVertex
 10
2344.140760358402
 20
1276.221181319923
 30
0.0
 70
    32
  0
VERTEX
  5
230CC
330
230C7
100
AcDbEntity
  8
KERA1
100
AcDbVertex
100
AcDb3dPolylineVertex
 10
2348.807511512215
 20
1276.226052340854
 30
0.0
 70
    32
  0
VERTEX
  5
230CD
330
230C7
100
AcDbEntity
  8
KERA1
100
AcDbVertex
100
AcDb3dPolylineVertex
 10
2353.474262666028
 20
1276.230923361785
 30
0.0
 70
    32
  0
VERTEX
  5
230CE
330
230C7
100
AcDbEntity
  8
KERA1
100
AcDbVertex
100
AcDb3dPolylineVertex
 10
2358.14101381984
 20
1276.235794382716
 30
0.0
 70
    32
  0
VERTEX
  5
230CF
330
230C7
100
AcDbEntity
  8
KERA1
100
AcDbVertex
100
AcDb3dPolylineVertex
 10
2362.807764973653
 20
1276.240665403647
 30
0.0
 70
    32
  0
VERTEX
  5
230D0
330
230C7
100
AcDbEntity
  8
KERA1
100
AcDbVertex
100
AcDb3dPolylineVertex
 10
2367.474516127466
 20
1276.245536424578
 30
0.0
 70
    32
  0
SEQEND
  5
230D1
330
230C7
100
AcDbEntity
  8
KERA1
  0
LINE
  5
230D2
330
1E
100
AcDbEntity
  8
KERA1
100
AcDbLine
 10
2350.852058289371
 20
1297.228191523652
 30
0.0
 11
2330.852069183947
 21
1297.20731610897
 31
0.0
  0
POLYLINE
  5
230D3
330
1E
100
AcDbEntity
  8
KERA1
100
AcDb3dPolyline
 66
     1
 10
0.0
 20
0.0
 30
0.0
 70
     8
  0
VERTEX
  5
230D4
330
230D3
100
AcDbEntity
  8
KERA1
100
AcDbVertex
100
AcDb3dPolylineVertex
 10
2330.885912305112
 20
1264.783430648886
 30
0.0
 70
    32
  0
VERTEX
  5
230D5
330
230D3
100
AcDbEntity
  8
KERA1
100
AcDbVertex
100
AcDb3dPolylineVertex
 10
2333.255428554009
 20
1264.785903881948
 30
0.0
 70
    32
  0
VERTEX
  5
230D6
330
230D3
100
AcDbEntity
  8
KERA1
100
AcDbVertex
100
AcDb3dPolylineVertex
 10
2336.029260184665
 20
1264.788799127802
 30
0.0
 70
    32
  0
VERTEX
  5
230D7
330
230D3
100
AcDbEntity
  8
KERA1
100
AcDbVertex
100
AcDb3dPolylineVertex
 10
2338.803091815324
 20
1264.791694373657
 30
0.0
 70
    32
  0
VERTEX
  5
230D8
330
230D3
100
AcDbEntity
  8
KERA1
100
AcDbVertex
100
AcDb3dPolylineVertex
 10
2341.576923445989
 20
1264.794589619512
 30
0.0
 70
    32
  0
VERTEX
  5
230D9
330
230D3
100
AcDbEntity
  8
KERA1
100
AcDbVertex
100
AcDb3dPolylineVertex
 10
2344.350755076655
 20
1264.797484865366
 30
0.0
 70
    32
  0
VERTEX
  5
230DA
330
230D3
100
AcDbEntity
  8
KERA1
100
AcDbVertex
100
AcDb3dPolylineVertex
 10
2347.124586707323
 20
1264.80038011122
 30
0.0
 70
    32
  0
VERTEX
  5
230DB
330
230D3
100
AcDbEntity
  8
KERA1
100
AcDbVertex
100
AcDb3dPolylineVertex
 10
2349.898418337992
 20
1264.803275357075
 30
0.0
 70
    32
  0
VERTEX
  5
230DC
330
230D3
100
AcDbEntity
  8
KERA1
100
AcDbVertex
100
AcDb3dPolylineVertex
 10
2352.672249968661
 20
1264.80617060293
 30
0.0
 70
    32
  0
SEQEND
  5
230DD
330
230D3
100
AcDbEntity
  8
KERA1
  0
LINE
  5
230DE
330
1E
100
AcDbEntity
  8
KERA2
100
AcDbLine
 10
2330.799139912974
 20
1325.916959914458
 30
0.0
 11
2330.799139912974
 21
1231.392723984375
 31
0.0
  0
POLYLINE
  5
230DF
330
1E
100
AcDbEntity
  8
KERA1
100
AcDb3dPolyline
 66
     1
 10
0.0
 20
0.0
 30
0.0
 70
    12
 75
     6
  0
VERTEX
  5
230E0
330
230DF
100
AcDbEntity
  8
KERA1
100
AcDbVertex
100
AcDb3dPolylineVertex
 10
2307.957558864417
 20
1263.418854879433
 30
0.0001968155746923
 70
    48
  0
VERTEX
  5
23716
330
230DF
100
AcDbEntity
  8
KERA1
100
AcDbVertex
100
AcDb3dPolylineVertex
 10
2307.957558864417
 20
1263.418854879433
 30
0.0001968155746923
 70
    40
  0
VERTEX
  5
23717
330
230DF
100
AcDbEntity
  8
KERA1
100
AcDbVertex
100
AcDb3dPolylineVertex
 10
2307.932817143887
 20
1263.741178869424
 30
0.00019230789302
 70
    40
  0
VERTEX
  5
23718
330
230DF
100
AcDbEntity
  8
KERA1
100
AcDbVertex
100
AcDb3dPolylineVertex
 10
2307.874182861794
 20
1264.056260497792
 30
0.0001816253425329
 70
    40
  0
VERTEX
  5
23719
330
230DF
100
AcDbEntity
  8
KERA1
100
AcDbVertex
100
AcDb3dPolylineVertex
 10
2307.782846125684
 20
1264.361634509008
 30
0.0001649847483286
 70
    40
  0
VERTEX
  5
2371A
330
230DF
100
AcDbEntity
  8
KERA1
100
AcDbVertex
100
AcDb3dPolylineVertex
 10
2307.659997043102
 20
1264.654835647541
 30
0.0001426029355047
 70
    40
  0
VERTEX
  5
2371B
330
230DF
100
AcDbEntity
  8
KERA1
100
AcDbVertex
100
AcDb3dPolylineVertex
 10
2307.506825721595
 20
1264.933398657859
 30
0.0001146967291588
 70
    40
  0
VERTEX
  5
2371C
330
230DF
100
AcDbEntity
  8
KERA1
100
AcDbVertex
100
AcDb3dPolylineVertex
 10
2307.324522268708
 20
1265.194858284433
 30
0.0000814829543885
 70
    40
  0
VERTEX
  5
2371D
330
230DF
100
AcDbEntity
  8
KERA1
100
AcDbVertex
100
AcDb3dPolylineVertex
 10
2307.114276791985
 20
1265.436749271732
 30
0.0000431784362914
 70
    40
  0
VERTEX
  5
2371E
330
230DF
100
AcDbEntity
  8
KERA1
100
AcDbVertex
100
AcDb3dPolylineVertex
 10
2306.877279398973
 20
1265.656606364225
 30
-0.0000000000000348
 70
    40
  0
VERTEX
  5
230E1
330
230DF
100
AcDbEntity
  8
KERA1
100
AcDbVertex
100
AcDb3dPolylineVertex
 10
2307.937828898458
 20
1264.285850663321
 30
0.0001932209820727
 70
    48
  0
VERTEX
  5
230E2
330
230DF
100
AcDbEntity
  8
KERA1
100
AcDbVertex
100
AcDb3dPolylineVertex
 10
2307.543883795351
 20
1265.101890648901
 30
0.0001214483210539
 70
    48
  0
VERTEX
  5
230E3
330
230DF
100
AcDbEntity
  8
KERA1
100
AcDbVertex
100
AcDb3dPolylineVertex
 10
2306.877279398972
 20
1265.656606364225
 30
-0.0000000000000348
 70
    48
  0
SEQEND
  5
230ED
330
230DF
100
AcDbEntity
  8
KERA1
  0
POLYLINE
  5
230EE
330
1E
100
AcDbEntity
  8
KERA1
100
AcDb3dPolyline
 66
     1
 10
0.0
 20
0.0
 30
0.0
 70
     8
  0
VERTEX
  5
230EF
330
230EE
100
AcDbEntity
  8
KERA1
100
AcDbVertex
100
AcDb3dPolylineVertex
 10
2330.799139912974
 20
1276.207294781713
 30
0.0
 70
    32
  0
VERTEX
  5
230F0
330
230EE
100
AcDbEntity
  8
KERA1
100
AcDbVertex
100
AcDb3dPolylineVertex
 10
2326.865868082423
 20
1276.207294781713
 30
0.0
 70
    32
  0
VERTEX
  5
230F1
330
230EE
100
AcDbEntity
  8
KERA1
100
AcDbVertex
100
AcDb3dPolylineVertex
 10
2322.199114386494
 20
1276.207294781713
 30
0.0
 70
    32
  0
VERTEX
  5
230F2
330
230EE
100
AcDbEntity
  8
KERA1
100
AcDbVertex
100
AcDb3dPolylineVertex
 10
2317.532360690568
 20
1276.207294781713
 30
0.0
 70
    32
  0
VERTEX
  5
230F3
330
230EE
100
AcDbEntity
  8
KERA1
100
AcDbVertex
100
AcDb3dPolylineVertex
 10
2312.865606994639
 20
1276.207294781713
 30
0.0
 70
    32
  0
VERTEX
  5
230F4
330
230EE
100
AcDbEntity
  8
KERA1
100
AcDbVertex
100
AcDb3dPolylineVertex
 10
2308.198853298711
 20
1276.207294781713
 30
0.0
 70
    32
  0
VERTEX
  5
230F5
330
230EE
100
AcDbEntity
  8
KERA1
100
AcDbVertex
100
AcDb3dPolylineVertex
 10
2303.532099602783
 20
1276.207294781713
 30
0.0
 70
    32
  0
VERTEX
  5
230F6
330
230EE
100
AcDbEntity
  8
KERA1
100
AcDbVertex
100
AcDb3dPolylineVertex
 10
2298.865345906855
 20
1276.207294781713
 30
0.0
 70
    32
  0
VERTEX
  5
230F7
330
230EE
100
AcDbEntity
  8
KERA1
100
AcDbVertex
100
AcDb3dPolylineVertex
 10
2294.198592210927
 20
1276.207294781713
 30
0.0
 70
    32
  0
SEQEND
  5
230F8
330
230EE
100
AcDbEntity
  8
KERA1
  0
POLYLINE
  5
230F9
330
1E
100
AcDbEntity
  8
KERA0
100
AcDb3dPolyline
 66
     1
 10
0.0
 20
0.0
 30
0.0
 70
     8
  0
VERTEX
  5
230FA
330
230F9
100
AcDbEntity
  8
KERA0
100
AcDbVertex
100
AcDb3dPolylineVertex
 10
2330.799139912974
 20
1252.783392977942
 30
0.0
 70
    32
  0
VERTEX
  5
230FB
330
230F9
100
AcDbEntity
  8
KERA0
100
AcDbVertex
100
AcDb3dPolylineVertex
 10
2325.80855191838
 20
1252.783392977942
 30
0.0
 70
    32
  0
VERTEX
  5
230FC
330
230F9
100
AcDbEntity
  8
KERA0
100
AcDbVertex
100
AcDb3dPolylineVertex
 10
2320.419196135823
 20
1252.783392977942
 30
0.0
 70
    32
  0
VERTEX
  5
230FD
330
230F9
100
AcDbEntity
  8
KERA0
100
AcDbVertex
100
AcDb3dPolylineVertex
 10
2315.029840353266
 20
1252.783392977942
 30
0.0
 70
    32
  0
VERTEX
  5
230FE
330
230F9
100
AcDbEntity
  8
KERA0
100
AcDbVertex
100
AcDb3dPolylineVertex
 10
2309.64048457071
 20
1252.783392977942
 30
0.0
 70
    32
  0
VERTEX
  5
230FF
330
230F9
100
AcDbEntity
  8
KERA0
100
AcDbVertex
100
AcDb3dPolylineVertex
 10
2304.251128788152
 20
1252.783392977942
 30
0.0
 70
    32
  0
VERTEX
  5
23100
330
230F9
100
AcDbEntity
  8
KERA0
100
AcDbVertex
100
AcDb3dPolylineVertex
 10
2298.861773005595
 20
1252.783392977942
 30
0.0
 70
    32
  0
VERTEX
  5
23101
330
230F9
100
AcDbEntity
  8
KERA0
100
AcDbVertex
100
AcDb3dPolylineVertex
 10
2293.472417223038
 20
1252.783392977942
 30
0.0
 70
    32
  0
VERTEX
  5
23102
330
230F9
100
AcDbEntity
  8
KERA0
100
AcDbVertex
100
AcDb3dPolylineVertex
 10
2288.083061440481
 20
1252.783392977942
 30
0.0
 70
    32
  0
SEQEND
  5
23103
330
230F9
100
AcDbEntity
  8
KERA0
  0
POLYLINE
  5
23104
330
1E
100
AcDbEntity
  8
KERA1
100
AcDb3dPolyline
 66
     1
 10
0.0
 20
0.0
 30
0.0
 70
     8
  0
VERTEX
  5
23105
330
23104
100
AcDbEntity
  8
KERA1
100
AcDbVertex
100
AcDb3dPolylineVertex
 10
2330.799139912974
 20
1264.783385363632
 30
0.0
 70
    32
  0
VERTEX
  5
23106
330
23104
100
AcDbEntity
  8
KERA1
100
AcDbVertex
100
AcDb3dPolylineVertex
 10
2328.429622373332
 20
1264.783385363632
 30
0.0
 70
    32
  0
VERTEX
  5
23107
330
23104
100
AcDbEntity
  8
KERA1
100
AcDbVertex
100
AcDb3dPolylineVertex
 10
2325.655789231689
 20
1264.783385363632
 30
0.0
 70
    32
  0
VERTEX
  5
23108
330
23104
100
AcDbEntity
  8
KERA1
100
AcDbVertex
100
AcDb3dPolylineVertex
 10
2322.881956090043
 20
1264.783385363632
 30
0.0
 70
    32
  0
VERTEX
  5
23109
330
23104
100
AcDbEntity
  8
KERA1
100
AcDbVertex
100
AcDb3dPolylineVertex
 10
2320.108122948392
 20
1264.783385363632
 30
0.0
 70
    32
  0
VERTEX
  5
2310A
330
23104
100
AcDbEntity
  8
KERA1
100
AcDbVertex
100
AcDb3dPolylineVertex
 10
2317.33428980674
 20
1264.783385363632
 30
0.0
 70
    32
  0
VERTEX
  5
2310B
330
23104
100
AcDbEntity
  8
KERA1
100
AcDbVertex
100
AcDb3dPolylineVertex
 10
2314.560456665084
 20
1264.783385363632
 30
0.0
 70
    32
  0
VERTEX
  5
2310C
330
23104
100
AcDbEntity
  8
KERA1
100
AcDbVertex
100
AcDb3dPolylineVertex
 10
2311.786623523429
 20
1264.783385363632
 30
0.0
 70
    32
  0
VERTEX
  5
2310D
330
23104
100
AcDbEntity
  8
KERA1
100
AcDbVertex
100
AcDb3dPolylineVertex
 10
2309.012790381772
 20
1264.783385363632
 30
0.0
 70
    32
  0
SEQEND
  5
2310E
330
23104
100
AcDbEntity
  8
KERA1
  0
POLYLINE
  5
2310F
330
1E
100
AcDbEntity
  8
KERA1
100
AcDb3dPolyline
 66
     1
 10
0.0
 20
0.0
 30
0.0
 70
    12
 75
     6
  0
VERTEX
  5
23110
330
2310F
100
AcDbEntity
  8
KERA1
100
AcDbVertex
100
AcDb3dPolylineVertex
 10
2297.215399236729
 20
1273.696752372467
 30
-0.0000000000000222
 70
    48
  0
VERTEX
  5
23728
330
2310F
100
AcDbEntity
  8
KERA1
100
AcDbVertex
100
AcDb3dPolylineVertex
 10
2297.215399236729
 20
1273.696752372467
 30
-0.0000000000000222
 70
    40
  0
VERTEX
  5
23729
330
2310F
100
AcDbEntity
  8
KERA1
100
AcDbVertex
100
AcDb3dPolylineVertex
 10
2298.423134257009
 20
1272.691734121437
 30
-0.0000000000000238
 70
    40
  0
VERTEX
  5
2372A
330
2310F
100
AcDbEntity
  8
KERA1
100
AcDbVertex
100
AcDb3dPolylineVertex
 10
2299.63086927729
 20
1271.686715870407
 30
-0.0000000000000255
 70
    40
  0
VERTEX
  5
2372B
330
2310F
100
AcDbEntity
  8
KERA1
100
AcDbVertex
100
AcDb3dPolylineVertex
 10
2300.83860429757
 20
1270.681697619376
 30
-0.0000000000000273
 70
    40
  0
VERTEX
  5
2372C
330
2310F
100
AcDbEntity
  8
KERA1
100
AcDbVertex
100
AcDb3dPolylineVertex
 10
2302.046339317851
 20
1269.676679368346
 30
-0.0000000000000291
 70
    40
  0
VERTEX
  5
2372D
330
2310F
100
AcDbEntity
  8
KERA1
100
AcDbVertex
100
AcDb3dPolylineVertex
 10
2303.254074338131
 20
1268.671661117316
 30
-0.0000000000000308
 70
    40
  0
VERTEX
  5
2372E
330
2310F
100
AcDbEntity
  8
KERA1
100
AcDbVertex
100
AcDb3dPolylineVertex
 10
2304.461809358412
 20
1267.666642866286
 30
-0.0000000000000325
 70
    40
  0
VERTEX
  5
2372F
330
2310F
100
AcDbEntity
  8
KERA1
100
AcDbVertex
100
AcDb3dPolylineVertex
 10
2305.669544378693
 20
1266.661624615255
 30
-0.000000000000034
 70
    40
  0
VERTEX
  5
23730
330
2310F
100
AcDbEntity
  8
KERA1
100
AcDbVertex
100
AcDb3dPolylineVertex
 10
2306.877279398973
 20
1265.656606364225
 30
-0.0000000000000354
 70
    40
  0
VERTEX
  5
23111
330
2310F
100
AcDbEntity
  8
KERA1
100
AcDbVertex
100
AcDb3dPolylineVertex
 10
2300.436025957476
 20
1271.016703703053
 30
-0.0000000000000264
 70
    48
  0
VERTEX
  5
23112
330
2310F
100
AcDbEntity
  8
KERA1
100
AcDbVertex
100
AcDb3dPolylineVertex
 10
2303.656652678224
 20
1268.336655033639
 30
-0.0000000000000319
 70
    48
  0
VERTEX
  5
23113
330
2310F
100
AcDbEntity
  8
KERA1
100
AcDbVertex
100
AcDb3dPolylineVertex
 10
2306.877279398972
 20
1265.656606364225
 30
-0.0000000000000354
 70
    48
  0
SEQEND
  5
2311D
330
2310F
100
AcDbEntity
  8
KERA1
  0
POLYLINE
  5
2311E
330
1E
100
AcDbEntity
  8
KERA1
100
AcDb3dPolyline
 66
     1
 10
0.0
 20
0.0
 30
0.0
 70
    12
 75
     6
  0
VERTEX
  5
2311F
330
2311E
100
AcDbEntity
  8
KERA1
100
AcDbVertex
100
AcDb3dPolylineVertex
 10
2297.215399236729
 20
1273.696752372467
 30
0.0000000000000243
 70
    48
  0
VERTEX
  5
2371F
330
2311E
100
AcDbEntity
  8
KERA1
100
AcDbVertex
100
AcDb3dPolylineVertex
 10
2297.215399236729
 20
1273.696752372467
 30
0.0000000000000243
 70
    40
  0
VERTEX
  5
23720
330
2311E
100
AcDbEntity
  8
KERA1
100
AcDbVertex
100
AcDb3dPolylineVertex
 10
2298.423134257009
 20
1272.691734121437
 30
0.0000000000000258
 70
    40
  0
VERTEX
  5
23721
330
2311E
100
AcDbEntity
  8
KERA1
100
AcDbVertex
100
AcDb3dPolylineVertex
 10
2299.63086927729
 20
1271.686715870407
 30
0.0000000000000274
 70
    40
  0
VERTEX
  5
23722
330
2311E
100
AcDbEntity
  8
KERA1
100
AcDbVertex
100
AcDb3dPolylineVertex
 10
2300.83860429757
 20
1270.681697619376
 30
0.000000000000029
 70
    40
  0
VERTEX
  5
23723
330
2311E
100
AcDbEntity
  8
KERA1
100
AcDbVertex
100
AcDb3dPolylineVertex
 10
2302.046339317851
 20
1269.676679368346
 30
0.0000000000000307
 70
    40
  0
VERTEX
  5
23724
330
2311E
100
AcDbEntity
  8
KERA1
100
AcDbVertex
100
AcDb3dPolylineVertex
 10
2303.254074338131
 20
1268.671661117316
 30
0.0000000000000323
 70
    40
  0
VERTEX
  5
23725
330
2311E
100
AcDbEntity
  8
KERA1
100
AcDbVertex
100
AcDb3dPolylineVertex
 10
2304.461809358412
 20
1267.666642866286
 30
0.0000000000000338
 70
    40
  0
VERTEX
  5
23726
330
2311E
100
AcDbEntity
  8
KERA1
100
AcDbVertex
100
AcDb3dPolylineVertex
 10
2305.669544378693
 20
1266.661624615255
 30
0.0000000000000352
 70
    40
  0
VERTEX
  5
23727
330
2311E
100
AcDbEntity
  8
KERA1
100
AcDbVertex
100
AcDb3dPolylineVertex
 10
2306.877279398973
 20
1265.656606364225
 30
0.0000000000000365
 70
    40
  0
VERTEX
  5
23120
330
2311E
100
AcDbEntity
  8
KERA1
100
AcDbVertex
100
AcDb3dPolylineVertex
 10
2300.436025957476
 20
1271.016703703053
 30
0.0000000000000282
 70
    48
  0
VERTEX
  5
23121
330
2311E
100
AcDbEntity
  8
KERA1
100
AcDbVertex
100
AcDb3dPolylineVertex
 10
2303.656652678224
 20
1268.336655033639
 30
0.0000000000000333
 70
    48
  0
VERTEX
  5
23122
330
2311E
100
AcDbEntity
  8
KERA1
100
AcDbVertex
100
AcDb3dPolylineVertex
 10
2306.877279398972
 20
1265.656606364225
 30
0.0000000000000365
 70
    48
  0
SEQEND
  5
2312C
330
2311E
100
AcDbEntity
  8
KERA1
  0
POLYLINE
  5
2312D
330
1E
100
AcDbEntity
  8
KERA1
100
AcDb3dPolyline
 66
     1
 10
0.0
 20
0.0
 30
0.0
 70
    12
 75
     6
  0
VERTEX
  5
2312E
330
2312D
100
AcDbEntity
  8
KERA1
100
AcDbVertex
100
AcDb3dPolylineVertex
 10
2297.215397694784
 20
1273.696750519504
 30
-0.0000000000000213
 70
    48
  0
VERTEX
  5
236E9
330
2312D
100
AcDbEntity
  8
KERA1
100
AcDbVertex
100
AcDb3dPolylineVertex
 10
2297.215397694784
 20
1273.696750519504
 30
-0.0000000000000213
 70
    40
  0
VERTEX
  5
236EA
330
2312D
100
AcDbEntity
  8
KERA1
100
AcDbVertex
100
AcDb3dPolylineVertex
 10
2296.444047778153
 20
1274.28872695196
 30
-0.0000000000000213
 70
    40
  0
VERTEX
  5
236EB
330
2312D
100
AcDbEntity
  8
KERA1
100
AcDbVertex
100
AcDb3dPolylineVertex
 10
2295.636649973656
 20
1274.811912722714
 30
-0.0000000000000213
 70
    40
  0
VERTEX
  5
236EC
330
2312D
100
AcDbEntity
  8
KERA1
100
AcDbVertex
100
AcDb3dPolylineVertex
 10
2294.796154469596
 20
1275.265381071142
 30
-0.0000000000000213
 70
    40
  0
VERTEX
  5
236ED
330
2312D
100
AcDbEntity
  8
KERA1
100
AcDbVertex
100
AcDb3dPolylineVertex
 10
2293.925511454272
 20
1275.648205236622
 30
-0.0000000000000213
 70
    40
  0
VERTEX
  5
236EE
330
2312D
100
AcDbEntity
  8
KERA1
100
AcDbVertex
100
AcDb3dPolylineVertex
 10
2293.027671115985
 20
1275.959458458532
 30
-0.0000000000000213
 70
    40
  0
VERTEX
  5
236EF
330
2312D
100
AcDbEntity
  8
KERA1
100
AcDbVertex
100
AcDb3dPolylineVertex
 10
2292.105583643035
 20
1276.198213976248
 30
-0.0000000000000213
 70
    40
  0
VERTEX
  5
236F0
330
2312D
100
AcDbEntity
  8
KERA1
100
AcDbVertex
100
AcDb3dPolylineVertex
 10
2291.162199223725
 20
1276.363545029149
 30
-0.0000000000000213
 70
    40
  0
VERTEX
  5
236F1
330
2312D
100
AcDbEntity
  8
KERA1
100
AcDbVertex
100
AcDb3dPolylineVertex
 10
2290.200468046354
 20
1276.454524856613
 30
-0.0000000000000213
 70
    40
  0
VERTEX
  5
2312F
330
2312D
100
AcDbEntity
  8
KERA1
100
AcDbVertex
100
AcDb3dPolylineVertex
 10
2295.209150823855
 20
1275.366251434438
 30
-0.0000000000000213
 70
    48
  0
VERTEX
  5
23130
330
2312D
100
AcDbEntity
  8
KERA1
100
AcDbVertex
100
AcDb3dPolylineVertex
 10
2292.786924473824
 20
1276.311870737848
 30
-0.0000000000000213
 70
    48
  0
VERTEX
  5
23131
330
2312D
100
AcDbEntity
  8
KERA1
100
AcDbVertex
100
AcDb3dPolylineVertex
 10
2290.200468046353
 20
1276.454524856612
 30
-0.0000000000000213
 70
    48
  0
SEQEND
  5
2313B
330
2312D
100
AcDbEntity
  8
KERA1
  0
POLYLINE
  5
2313C
330
1E
100
AcDbEntity
  8
0
100
AcDb3dPolyline
 66
     1
 10
0.0
 20
0.0
 30
0.0
 70
     8
  0
VERTEX
  5
2313D
330
2313C
100
AcDbEntity
  8
0
100
AcDbVertex
100
AcDb3dPolylineVertex
 10
2330.730036251087
 20
1264.783385363632
 30
0.0
 70
    32
  0
VERTEX
  5
2313E
330
2313C
100
AcDbEntity
  8
0
100
AcDbVertex
100
AcDb3dPolylineVertex
 10
2330.799139912974
 20
1264.783385363632
 30
0.0
 70
    32
  0
SEQEND
  5
2313F
330
2313C
100
AcDbEntity
  8
0
  0
POLYLINE
  5
23140
330
1E
100
AcDbEntity
  8
0
100
AcDb3dPolyline
 66
     1
 10
0.0
 20
0.0
 30
0.0
 70
     8
  0
VERTEX
  5
23141
330
23140
100
AcDbEntity
  8
0
100
AcDbVertex
100
AcDb3dPolylineVertex
 10
2330.955015929356
 20
1264.783502777266
 30
0.0
 70
    32
  0
VERTEX
  5
23142
330
23140
100
AcDbEntity
  8
0
100
AcDbVertex
100
AcDb3dPolylineVertex
 10
2330.885912305112
 20
1264.783430648886
 30
0.0
 70
    32
  0
SEQEND
  5
23143
330
23140
100
AcDbEntity
  8
0
  0
POLYLINE
  5
23144
330
1E
100
AcDbEntity
  8
KERA1
100
AcDb3dPolyline
 66
     1
 10
0.0
 20
0.0
 30
0.0
 70
    12
 75
     6
  0
VERTEX
  5
23145
330
23144
100
AcDbEntity
  8
KERA1
100
AcDbVertex
100
AcDb3dPolylineVertex
 10
2307.957558864417
 20
1263.418854879433
 30
0.000196815574694
 70
    48
  0
VERTEX
  5
23731
330
23144
100
AcDbEntity
  8
KERA1
100
AcDbVertex
100
AcDb3dPolylineVertex
 10
2307.957558864417
 20
1263.418854879433
 30
0.000196815574694
 70
    40
  0
VERTEX
  5
23732
330
23144
100
AcDbEntity
  8
KERA1
100
AcDbVertex
100
AcDb3dPolylineVertex
 10
2307.987812368662
 20
1262.089422141747
 30
0.0002099373841262
 70
    40
  0
VERTEX
  5
23733
330
23144
100
AcDbEntity
  8
KERA1
100
AcDbVertex
100
AcDb3dPolylineVertex
 10
2308.018065872906
 20
1260.75998940406
 30
0.0002230591935583
 70
    40
  0
VERTEX
  5
23734
330
23144
100
AcDbEntity
  8
KERA1
100
AcDbVertex
100
AcDb3dPolylineVertex
 10
2308.04831937715
 20
1259.430556666374
 30
0.0002361810029905
 70
    40
  0
VERTEX
  5
23735
330
23144
100
AcDbEntity
  8
KERA1
100
AcDbVertex
100
AcDb3dPolylineVertex
 10
2308.078572881394
 20
1258.101123928688
 30
0.0002493028124226
 70
    40
  0
VERTEX
  5
23736
330
23144
100
AcDbEntity
  8
KERA1
100
AcDbVertex
100
AcDb3dPolylineVertex
 10
2308.108826385638
 20
1256.771691191001
 30
0.0002624246218547
 70
    40
  0
VERTEX
  5
23737
330
23144
100
AcDbEntity
  8
KERA1
100
AcDbVertex
100
AcDb3dPolylineVertex
 10
2308.139079889882
 20
1255.442258453315
 30
0.0002755464312868
 70
    40
  0
VERTEX
  5
23738
330
23144
100
AcDbEntity
  8
KERA1
100
AcDbVertex
100
AcDb3dPolylineVertex
 10
2308.169333394126
 20
1254.112825715629
 30
0.0002886682407189
 70
    40
  0
VERTEX
  5
23739
330
23144
100
AcDbEntity
  8
KERA1
100
AcDbVertex
100
AcDb3dPolylineVertex
 10
2308.19958689837
 20
1252.783392977942
 30
0.000301790050151
 70
    40
  0
VERTEX
  5
23146
330
23144
100
AcDbEntity
  8
KERA1
100
AcDbVertex
100
AcDb3dPolylineVertex
 10
2308.038234875736
 20
1259.873700912269
 30
0.0002318070665132
 70
    48
  0
VERTEX
  5
23147
330
23144
100
AcDbEntity
  8
KERA1
100
AcDbVertex
100
AcDb3dPolylineVertex
 10
2308.118910887052
 20
1256.328546945106
 30
0.0002667985583321
 70
    48
  0
VERTEX
  5
23148
330
23144
100
AcDbEntity
  8
KERA1
100
AcDbVertex
100
AcDb3dPolylineVertex
 10
2308.19958689837
 20
1252.783392977942
 30
0.000301790050151
 70
    48
  0
SEQEND
  5
23152
330
23144
100
AcDbEntity
  8
KERA1
  0
LINE
  5
23153
330
1E
100
AcDbEntity
  8
KERA1
100
AcDbLine
 10
2310.799139912974
 20
1297.20728848595
 30
0.0
 11
2330.799139912974
 21
1297.20728848595
 31
0.0
  0
POLYLINE
  5
23154
330
1E
100
AcDbEntity
  8
KERA1
100
AcDb3dPolyline
 66
     1
 10
0.0
 20
0.0
 30
0.0
 70
    12
 75
     6
  0
VERTEX
  5
23155
330
23154
100
AcDbEntity
  8
KERA1
100
AcDbVertex
100
AcDb3dPolylineVertex
 10
2353.728905168186
 20
1263.442742281805
 30
0.0001968155746923
 70
    48
  0
VERTEX
  5
2370D
330
23154
100
AcDbEntity
  8
KERA1
100
AcDbVertex
100
AcDb3dPolylineVertex
 10
2353.728905168186
 20
1263.442742281805
 30
0.0001968155746923
 70
    40
  0
VERTEX
  5
2370E
330
23154
100
AcDbEntity
  8
KERA1
100
AcDbVertex
100
AcDb3dPolylineVertex
 10
2353.753310442892
 20
1263.7650919209
 30
0.00019230789302
 70
    40
  0
VERTEX
  5
2370F
330
23154
100
AcDbEntity
  8
KERA1
100
AcDbVertex
100
AcDb3dPolylineVertex
 10
2353.811615820063
 20
1264.080234578383
 30
0.0001816253425329
 70
    40
  0
VERTEX
  5
23710
330
23154
100
AcDbEntity
  8
KERA1
100
AcDbVertex
100
AcDb3dPolylineVertex
 10
2353.902633765963
 20
1264.385703757864
 30
0.0001649847483286
 70
    40
  0
VERTEX
  5
23711
330
23154
100
AcDbEntity
  8
KERA1
100
AcDbVertex
100
AcDb3dPolylineVertex
 10
2354.025176746857
 20
1264.679032962959
 30
0.0001426029355047
 70
    40
  0
VERTEX
  5
23712
330
23154
100
AcDbEntity
  8
KERA1
100
AcDbVertex
100
AcDb3dPolylineVertex
 10
2354.17805722901
 20
1264.957755697279
 30
0.0001146967291588
 70
    40
  0
VERTEX
  5
23713
330
23154
100
AcDbEntity
  8
KERA1
100
AcDbVertex
100
AcDb3dPolylineVertex
 10
2354.360087678685
 20
1265.219405464437
 30
0.0000814829543885
 70
    40
  0
VERTEX
  5
23714
330
23154
100
AcDbEntity
  8
KERA1
100
AcDbVertex
100
AcDb3dPolylineVertex
 10
2354.570080562148
 20
1265.461515768047
 30
0.0000431784362914
 70
    40
  0
VERTEX
  5
23715
330
23154
100
AcDbEntity
  8
KERA1
100
AcDbVertex
100
AcDb3dPolylineVertex
 10
2354.806848345663
 20
1265.68162011172
 30
-0.0000000000000348
 70
    40
  0
VERTEX
  5
23156
330
23154
100
AcDbEntity
  8
KERA1
100
AcDbVertex
100
AcDb3dPolylineVertex
 10
2353.747730178572
 20
1264.309758186977
 30
0.0001932209820727
 70
    48
  0
VERTEX
  5
23157
330
23154
100
AcDbEntity
  8
KERA1
100
AcDbVertex
100
AcDb3dPolylineVertex
 10
2354.140823308431
 20
1265.126208916406
 30
0.0001214483210539
 70
    48
  0
VERTEX
  5
23158
330
23154
100
AcDbEntity
  8
KERA1
100
AcDbVertex
100
AcDb3dPolylineVertex
 10
2354.806848345661
 20
1265.68162011172
 30
-0.0000000000000348
 70
    48
  0
SEQEND
  5
23162
330
23154
100
AcDbEntity
  8
KERA1
  0
POLYLINE
  5
23163
330
1E
100
AcDbEntity
  8
KERA1
100
AcDb3dPolyline
 66
     1
 10
0.0
 20
0.0
 30
0.0
 70
    12
 75
     6
  0
VERTEX
  5
23164
330
23163
100
AcDbEntity
  8
KERA1
100
AcDbVertex
100
AcDb3dPolylineVertex
 10
2399.378611926028
 20
1276.610691738327
 30
0.0
 70
    48
  0
VERTEX
  5
23743
330
23163
100
AcDbEntity
  8
KERA1
100
AcDbVertex
100
AcDb3dPolylineVertex
 10
2399.378611926028
 20
1276.610691738327
 30
0.0
 70
    40
  0
VERTEX
  5
23744
330
23163
100
AcDbEntity
  8
KERA1
100
AcDbVertex
100
AcDb3dPolylineVertex
 10
2395.890331315784
 20
1276.596473748234
 30
-0.0000000000000027
 70
    40
  0
VERTEX
  5
23745
330
23163
100
AcDbEntity
  8
KERA1
100
AcDbVertex
100
AcDb3dPolylineVertex
 10
2392.402050705541
 20
1276.582255758142
 30
-0.0000000000000053
 70
    40
  0
VERTEX
  5
23746
330
23163
100
AcDbEntity
  8
KERA1
100
AcDbVertex
100
AcDb3dPolylineVertex
 10
2388.913770095298
 20
1276.568037768049
 30
-0.000000000000008
 70
    40
  0
VERTEX
  5
23747
330
23163
100
AcDbEntity
  8
KERA1
100
AcDbVertex
100
AcDb3dPolylineVertex
 10
2385.425489485054
 20
1276.553819777956
 30
-0.0000000000000107
 70
    40
  0
VERTEX
  5
23748
330
23163
100
AcDbEntity
  8
KERA1
100
AcDbVertex
100
AcDb3dPolylineVertex
 10
2381.937208874811
 20
1276.539601787864
 30
-0.0000000000000133
 70
    40
  0
VERTEX
  5
23749
330
23163
100
AcDbEntity
  8
KERA1
100
AcDbVertex
100
AcDb3dPolylineVertex
 10
2378.448928264568
 20
1276.525383797771
 30
-0.000000000000016
 70
    40
  0
VERTEX
  5
2374A
330
23163
100
AcDbEntity
  8
KERA1
100
AcDbVertex
100
AcDb3dPolylineVertex
 10
2374.960647654325
 20
1276.511165807679
 30
-0.0000000000000186
 70
    40
  0
VERTEX
  5
2374B
330
23163
100
AcDbEntity
  8
KERA1
100
AcDbVertex
100
AcDb3dPolylineVertex
 10
2371.472367044082
 20
1276.496947817586
 30
-0.0000000000000213
 70
    40
  0
VERTEX
  5
23165
330
23163
100
AcDbEntity
  8
KERA1
100
AcDbVertex
100
AcDb3dPolylineVertex
 10
2390.076530298712
 20
1276.57277709808
 30
-0.0000000000000071
 70
    48
  0
VERTEX
  5
23166
330
23163
100
AcDbEntity
  8
KERA1
100
AcDbVertex
100
AcDb3dPolylineVertex
 10
2380.774448671397
 20
1276.534862457832
 30
-0.0000000000000142
 70
    48
  0
VERTEX
  5
23167
330
23163
100
AcDbEntity
  8
KERA1
100
AcDbVertex
100
AcDb3dPolylineVertex
 10
2371.47236704408
 20
1276.496947817586
 30
-0.0000000000000213
 70
    48
  0
SEQEND
  5
23171
330
23163
100
AcDbEntity
  8
KERA1
  0
POLYLINE
  5
23172
330
1E
100
AcDbEntity
  8
KERA1
100
AcDb3dPolyline
 66
     1
 10
0.0
 20
0.0
 30
0.0
 70
    12
 75
     6
  0
VERTEX
  5
23173
330
23172
100
AcDbEntity
  8
KERA1
100
AcDbVertex
100
AcDb3dPolylineVertex
 10
2364.4603311757
 20
1273.731846528013
 30
0.0000000000000243
 70
    48
  0
VERTEX
  5
236CE
330
23172
100
AcDbEntity
  8
KERA1
100
AcDbVertex
100
AcDb3dPolylineVertex
 10
2364.4603311757
 20
1273.731846528013
 30
0.0000000000000243
 70
    40
  0
VERTEX
  5
236CF
330
23172
100
AcDbEntity
  8
KERA1
100
AcDbVertex
100
AcDb3dPolylineVertex
 10
2363.253645821945
 20
1272.725568225976
 30
0.0000000000000258
 70
    40
  0
VERTEX
  5
236D0
330
23172
100
AcDbEntity
  8
KERA1
100
AcDbVertex
100
AcDb3dPolylineVertex
 10
2362.046960468191
 20
1271.71928992394
 30
0.0000000000000274
 70
    40
  0
VERTEX
  5
236D1
330
23172
100
AcDbEntity
  8
KERA1
100
AcDbVertex
100
AcDb3dPolylineVertex
 10
2360.840275114435
 20
1270.713011621903
 30
0.000000000000029
 70
    40
  0
VERTEX
  5
236D2
330
23172
100
AcDbEntity
  8
KERA1
100
AcDbVertex
100
AcDb3dPolylineVertex
 10
2359.633589760681
 20
1269.706733319866
 30
0.0000000000000307
 70
    40
  0
VERTEX
  5
236D3
330
23172
100
AcDbEntity
  8
KERA1
100
AcDbVertex
100
AcDb3dPolylineVertex
 10
2358.426904406927
 20
1268.70045501783
 30
0.0000000000000323
 70
    40
  0
VERTEX
  5
236D4
330
23172
100
AcDbEntity
  8
KERA1
100
AcDbVertex
100
AcDb3dPolylineVertex
 10
2357.220219053172
 20
1267.694176715793
 30
0.0000000000000338
 70
    40
  0
VERTEX
  5
236D5
330
23172
100
AcDbEntity
  8
KERA1
100
AcDbVertex
100
AcDb3dPolylineVertex
 10
2356.013533699417
 20
1266.687898413757
 30
0.0000000000000352
 70
    40
  0
VERTEX
  5
236D6
330
23172
100
AcDbEntity
  8
KERA1
100
AcDbVertex
100
AcDb3dPolylineVertex
 10
2354.806848345663
 20
1265.68162011172
 30
0.0000000000000365
 70
    40
  0
VERTEX
  5
23174
330
23172
100
AcDbEntity
  8
KERA1
100
AcDbVertex
100
AcDb3dPolylineVertex
 10
2361.242503565687
 20
1271.048437722582
 30
0.0000000000000282
 70
    48
  0
VERTEX
  5
23175
330
23172
100
AcDbEntity
  8
KERA1
100
AcDbVertex
100
AcDb3dPolylineVertex
 10
2358.024675955675
 20
1268.365028917151
 30
0.0000000000000333
 70
    48
  0
VERTEX
  5
23176
330
23172
100
AcDbEntity
  8
KERA1
100
AcDbVertex
100
AcDb3dPolylineVertex
 10
2354.806848345661
 20
1265.68162011172
 30
0.0000000000000365
 70
    48
  0
SEQEND
  5
23180
330
23172
100
AcDbEntity
  8
KERA1
  0
POLYLINE
  5
23181
330
1E
100
AcDbEntity
  8
KERA1
100
AcDb3dPolyline
 66
     1
 10
0.0
 20
0.0
 30
0.0
 70
    12
 75
     6
  0
VERTEX
  5
23182
330
23181
100
AcDbEntity
  8
KERA1
100
AcDbVertex
100
AcDb3dPolylineVertex
 10
2364.4603311757
 20
1273.731846528013
 30
-0.0000000000000222
 70
    48
  0
VERTEX
  5
236C5
330
23181
100
AcDbEntity
  8
KERA1
100
AcDbVertex
100
AcDb3dPolylineVertex
 10
2364.4603311757
 20
1273.731846528013
 30
-0.0000000000000222
 70
    40
  0
VERTEX
  5
236C6
330
23181
100
AcDbEntity
  8
KERA1
100
AcDbVertex
100
AcDb3dPolylineVertex
 10
2363.253645821945
 20
1272.725568225976
 30
-0.0000000000000238
 70
    40
  0
VERTEX
  5
236C7
330
23181
100
AcDbEntity
  8
KERA1
100
AcDbVertex
100
AcDb3dPolylineVertex
 10
2362.046960468191
 20
1271.71928992394
 30
-0.0000000000000255
 70
    40
  0
VERTEX
  5
236C8
330
23181
100
AcDbEntity
  8
KERA1
100
AcDbVertex
100
AcDb3dPolylineVertex
 10
2360.840275114435
 20
1270.713011621903
 30
-0.0000000000000273
 70
    40
  0
VERTEX
  5
236C9
330
23181
100
AcDbEntity
  8
KERA1
100
AcDbVertex
100
AcDb3dPolylineVertex
 10
2359.633589760681
 20
1269.706733319866
 30
-0.0000000000000291
 70
    40
  0
VERTEX
  5
236CA
330
23181
100
AcDbEntity
  8
KERA1
100
AcDbVertex
100
AcDb3dPolylineVertex
 10
2358.426904406927
 20
1268.70045501783
 30
-0.0000000000000308
 70
    40
  0
VERTEX
  5
236CB
330
23181
100
AcDbEntity
  8
KERA1
100
AcDbVertex
100
AcDb3dPolylineVertex
 10
2357.220219053172
 20
1267.694176715793
 30
-0.0000000000000325
 70
    40
  0
VERTEX
  5
236CC
330
23181
100
AcDbEntity
  8
KERA1
100
AcDbVertex
100
AcDb3dPolylineVertex
 10
2356.013533699417
 20
1266.687898413757
 30
-0.000000000000034
 70
    40
  0
VERTEX
  5
236CD
330
23181
100
AcDbEntity
  8
KERA1
100
AcDbVertex
100
AcDb3dPolylineVertex
 10
2354.806848345663
 20
1265.68162011172
 30
-0.0000000000000354
 70
    40
  0
VERTEX
  5
23183
330
23181
100
AcDbEntity
  8
KERA1
100
AcDbVertex
100
AcDb3dPolylineVertex
 10
2361.242503565687
 20
1271.048437722582
 30
-0.0000000000000264
 70
    48
  0
VERTEX
  5
23184
330
23181
100
AcDbEntity
  8
KERA1
100
AcDbVertex
100
AcDb3dPolylineVertex
 10
2358.024675955675
 20
1268.365028917151
 30
-0.0000000000000319
 70
    48
  0
VERTEX
  5
23185
330
23181
100
AcDbEntity
  8
KERA1
100
AcDbVertex
100
AcDb3dPolylineVertex
 10
2354.806848345661
 20
1265.68162011172
 30
-0.0000000000000354
 70
    48
  0
SEQEND
  5
2318F
330
23181
100
AcDbEntity
  8
KERA1
  0
POLYLINE
  5
23190
330
1E
100
AcDbEntity
  8
KERA1
100
AcDb3dPolyline
 66
     1
 10
0.0
 20
0.0
 30
0.0
 70
    12
 75
     6
  0
VERTEX
  5
23191
330
23190
100
AcDbEntity
  8
KERA1
100
AcDbVertex
100
AcDb3dPolylineVertex
 10
2364.460332719578
 20
1273.73184467666
 30
-0.0000000000000213
 70
    48
  0
VERTEX
  5
23755
330
23190
100
AcDbEntity
  8
KERA1
100
AcDbVertex
100
AcDb3dPolylineVertex
 10
2364.460332719578
 20
1273.73184467666
 30
-0.0000000000000213
 70
    40
  0
VERTEX
  5
23756
330
23190
100
AcDbEntity
  8
KERA1
100
AcDbVertex
100
AcDb3dPolylineVertex
 10
2365.231064328357
 20
1274.324625899118
 30
-0.0000000000000213
 70
    40
  0
VERTEX
  5
23757
330
23190
100
AcDbEntity
  8
KERA1
100
AcDbVertex
100
AcDb3dPolylineVertex
 10
2366.037915607044
 20
1274.848654123077
 30
-0.0000000000000213
 70
    40
  0
VERTEX
  5
23758
330
23190
100
AcDbEntity
  8
KERA1
100
AcDbVertex
100
AcDb3dPolylineVertex
 10
2366.877937336271
 20
1275.302999509096
 30
-0.0000000000000213
 70
    40
  0
VERTEX
  5
23759
330
23190
100
AcDbEntity
  8
KERA1
100
AcDbVertex
100
AcDb3dPolylineVertex
 10
2367.748180296671
 20
1275.68673221774
 30
-0.0000000000000213
 70
    40
  0
VERTEX
  5
2375A
330
23190
100
AcDbEntity
  8
KERA1
100
AcDbVertex
100
AcDb3dPolylineVertex
 10
2368.645695268875
 20
1275.99892240957
 30
-0.0000000000000213
 70
    40
  0
VERTEX
  5
2375B
330
23190
100
AcDbEntity
  8
KERA1
100
AcDbVertex
100
AcDb3dPolylineVertex
 10
2369.567533033515
 20
1276.238640245148
 30
-0.0000000000000213
 70
    40
  0
VERTEX
  5
2375C
330
23190
100
AcDbEntity
  8
KERA1
100
AcDbVertex
100
AcDb3dPolylineVertex
 10
2370.510744371223
 20
1276.404955885037
 30
-0.0000000000000213
 70
    40
  0
VERTEX
  5
2375D
330
23190
100
AcDbEntity
  8
KERA1
100
AcDbVertex
100
AcDb3dPolylineVertex
 10
2371.47238006263
 20
1276.496939489798
 30
-0.0000000000000213
 70
    40
  0
VERTEX
  5
23192
330
23190
100
AcDbEntity
  8
KERA1
100
AcDbVertex
100
AcDb3dPolylineVertex
 10
2366.46483592145
 20
1275.403438743938
 30
-0.0000000000000213
 70
    48
  0
VERTEX
  5
23193
330
23190
100
AcDbEntity
  8
KERA1
100
AcDbVertex
100
AcDb3dPolylineVertex
 10
2368.88607394227
 20
1276.351585781217
 30
-0.0000000000000213
 70
    48
  0
VERTEX
  5
23194
330
23190
100
AcDbEntity
  8
KERA1
100
AcDbVertex
100
AcDb3dPolylineVertex
 10
2371.47238006263
 20
1276.496939489798
 30
-0.0000000000000213
 70
    48
  0
SEQEND
  5
2319E
330
23190
100
AcDbEntity
  8
KERA1
  0
POLYLINE
  5
2319F
330
1E
100
AcDbEntity
  8
KERA1
100
AcDb3dPolyline
 66
     1
 10
0.0
 20
0.0
 30
0.0
 70
    12
 75
     6
  0
VERTEX
  5
231A0
330
2319F
100
AcDbEntity
  8
KERA1
100
AcDbVertex
100
AcDb3dPolylineVertex
 10
2353.728905168186
 20
1263.442742281805
 30
0.000196815574694
 70
    48
  0
VERTEX
  5
2373A
330
2319F
100
AcDbEntity
  8
KERA1
100
AcDbVertex
100
AcDb3dPolylineVertex
 10
2353.728905168186
 20
1263.442742281805
 30
0.000196815574694
 70
    40
  0
VERTEX
  5
2373B
330
2319F
100
AcDbEntity
  8
KERA1
100
AcDbVertex
100
AcDb3dPolylineVertex
 10
2353.700039303407
 20
1262.113278690577
 30
0.0002099373841262
 70
    40
  0
VERTEX
  5
2373C
330
2319F
100
AcDbEntity
  8
KERA1
100
AcDbVertex
100
AcDb3dPolylineVertex
 10
2353.671173438627
 20
1260.783815099348
 30
0.0002230591935583
 70
    40
  0
VERTEX
  5
2373D
330
2319F
100
AcDbEntity
  8
KERA1
100
AcDbVertex
100
AcDb3dPolylineVertex
 10
2353.642307573847
 20
1259.45435150812
 30
0.0002361810029905
 70
    40
  0
VERTEX
  5
2373E
330
2319F
100
AcDbEntity
  8
KERA1
100
AcDbVertex
100
AcDb3dPolylineVertex
 10
2353.613441709068
 20
1258.124887916892
 30
0.0002493028124226
 70
    40
  0
VERTEX
  5
2373F
330
2319F
100
AcDbEntity
  8
KERA1
100
AcDbVertex
100
AcDb3dPolylineVertex
 10
2353.584575844288
 20
1256.795424325663
 30
0.0002624246218547
 70
    40
  0
VERTEX
  5
23740
330
2319F
100
AcDbEntity
  8
KERA1
100
AcDbVertex
100
AcDb3dPolylineVertex
 10
2353.555709979509
 20
1255.465960734435
 30
0.0002755464312868
 70
    40
  0
VERTEX
  5
23741
330
2319F
100
AcDbEntity
  8
KERA1
100
AcDbVertex
100
AcDb3dPolylineVertex
 10
2353.526844114729
 20
1254.136497143206
 30
0.0002886682407189
 70
    40
  0
VERTEX
  5
23742
330
2319F
100
AcDbEntity
  8
KERA1
100
AcDbVertex
100
AcDb3dPolylineVertex
 10
2353.497978249949
 20
1252.807033551977
 30
0.000301790050151
 70
    40
  0
VERTEX
  5
231A1
330
2319F
100
AcDbEntity
  8
KERA1
100
AcDbVertex
100
AcDb3dPolylineVertex
 10
2353.651929528774
 20
1259.897506038529
 30
0.0002318070665132
 70
    48
  0
VERTEX
  5
231A2
330
2319F
100
AcDbEntity
  8
KERA1
100
AcDbVertex
100
AcDb3dPolylineVertex
 10
2353.574953889362
 20
1256.352269795254
 30
0.0002667985583321
 70
    48
  0
VERTEX
  5
231A3
330
2319F
100
AcDbEntity
  8
KERA1
100
AcDbVertex
100
AcDb3dPolylineVertex
 10
2353.497978249949
 20
1252.807033551978
 30
0.000301790050151
 70
    48
  0
SEQEND
  5
231AD
330
2319F
100
AcDbEntity
  8
KERA1
  0
POLYLINE
  5
231AE
330
1E
100
AcDbEntity
  8
KERA1
100
AcDb3dPolyline
 66
     1
 10
0.0
 20
0.0
 30
0.0
 70
    12
 75
     6
  0
VERTEX
  5
231AF
330
231AE
100
AcDbEntity
  8
KERA1
100
AcDbVertex
100
AcDb3dPolylineVertex
 10
2417.556753208158
 20
1285.785538615392
 30
0.0
 70
    48
  0
VERTEX
  5
23794
330
231AE
100
AcDbEntity
  8
KERA1
100
AcDbVertex
100
AcDb3dPolylineVertex
 10
2417.556753208158
 20
1285.785538615392
 30
0.0
 70
    40
  0
VERTEX
  5
23795
330
231AE
100
AcDbEntity
  8
KERA1
100
AcDbVertex
100
AcDb3dPolylineVertex
 10
2417.653998181418
 20
1286.910577365392
 30
0.0
 70
    40
  0
VERTEX
  5
23796
330
231AE
100
AcDbEntity
  8
KERA1
100
AcDbVertex
100
AcDb3dPolylineVertex
 10
2417.751243154676
 20
1288.035616115392
 30
0.0
 70
    40
  0
VERTEX
  5
23797
330
231AE
100
AcDbEntity
  8
KERA1
100
AcDbVertex
100
AcDb3dPolylineVertex
 10
2417.848488127936
 20
1289.160654865392
 30
0.0
 70
    40
  0
VERTEX
  5
23798
330
231AE
100
AcDbEntity
  8
KERA1
100
AcDbVertex
100
AcDb3dPolylineVertex
 10
2417.945733101195
 20
1290.285693615392
 30
0.0
 70
    40
  0
VERTEX
  5
23799
330
231AE
100
AcDbEntity
  8
KERA1
100
AcDbVertex
100
AcDb3dPolylineVertex
 10
2418.042978074454
 20
1291.410732365392
 30
0.0
 70
    40
  0
VERTEX
  5
2379A
330
231AE
100
AcDbEntity
  8
KERA1
100
AcDbVertex
100
AcDb3dPolylineVertex
 10
2418.140223047714
 20
1292.535771115392
 30
0.0
 70
    40
  0
VERTEX
  5
2379B
330
231AE
100
AcDbEntity
  8
KERA1
100
AcDbVertex
100
AcDb3dPolylineVertex
 10
2418.237468020973
 20
1293.660809865393
 30
0.0
 70
    40
  0
VERTEX
  5
2379C
330
231AE
100
AcDbEntity
  8
KERA1
100
AcDbVertex
100
AcDb3dPolylineVertex
 10
2418.334712994232
 20
1294.785848615393
 30
0.0
 70
    40
  0
VERTEX
  5
231B0
330
231AE
100
AcDbEntity
  8
KERA1
100
AcDbVertex
100
AcDb3dPolylineVertex
 10
2417.816073136849
 20
1288.785641948725
 30
0.0
 70
    48
  0
VERTEX
  5
231B1
330
231AE
100
AcDbEntity
  8
KERA1
100
AcDbVertex
100
AcDb3dPolylineVertex
 10
2418.07539306554
 20
1291.785745282059
 30
0.0
 70
    48
  0
VERTEX
  5
231B2
330
231AE
100
AcDbEntity
  8
KERA1
100
AcDbVertex
100
AcDb3dPolylineVertex
 10
2418.334712994231
 20
1294.785848615392
 30
0.0
 70
    48
  0
SEQEND
  5
231BC
330
231AE
100
AcDbEntity
  8
KERA1
  0
ARC
  5
231BD
330
1E
100
AcDbEntity
  8
KERA0
100
AcDbCircle
 10
2437.435289545687
 20
1275.739720795583
 30
-0.0000000000000245
 40
10.000202428782
100
AcDbArc
 50
93.32504503466802
 51
157.7508286717711
  0
ARC
  5
231BE
330
1E
100
AcDbEntity
  8
KERA0
100
AcDbCircle
 10
2407.665349158582
 20
1287.473826556292
 30
-0.0000000000000245
 40
22.000040753172
100
AcDbArc
 50
272.9036927391467
 51
338.8225646552374
  0
POLYLINE
  5
231BF
330
1E
100
AcDbEntity
  8
KERA1
100
AcDb3dPolyline
 66
     1
 10
0.0
 20
0.0
 30
0.0
 70
    12
 75
     6
  0
VERTEX
  5
231C0
330
231BF
100
AcDbEntity
  8
KERA1
100
AcDbVertex
100
AcDb3dPolylineVertex
 10
2417.556751999867
 20
1285.785528722419
 30
0.0
 70
    48
  0
VERTEX
  5
23782
330
231BF
100
AcDbEntity
  8
KERA1
100
AcDbVertex
100
AcDb3dPolylineVertex
 10
2417.556751999867
 20
1285.785528722419
 30
0.0
 70
    40
  0
VERTEX
  5
23783
330
231BF
100
AcDbEntity
  8
KERA1
100
AcDbVertex
100
AcDb3dPolylineVertex
 10
2417.335158195319
 20
1284.915141456584
 30
-0.000000000000003
 70
    40
  0
VERTEX
  5
23784
330
231BF
100
AcDbEntity
  8
KERA1
100
AcDbVertex
100
AcDb3dPolylineVertex
 10
2416.870025793762
 20
1284.094620389498
 30
-0.0000000000000058
 70
    40
  0
VERTEX
  5
23785
330
231BF
100
AcDbEntity
  8
KERA1
100
AcDbVertex
100
AcDb3dPolylineVertex
 10
2416.183230276773
 20
1283.3354047335
 30
-0.0000000000000086
 70
    40
  0
VERTEX
  5
23786
330
231BF
100
AcDbEntity
  8
KERA1
100
AcDbVertex
100
AcDb3dPolylineVertex
 10
2415.296647125931
 20
1282.648933700928
 30
-0.0000000000000113
 70
    40
  0
VERTEX
  5
23787
330
231BF
100
AcDbEntity
  8
KERA1
100
AcDbVertex
100
AcDb3dPolylineVertex
 10
2414.232151822811
 20
1282.046646504118
 30
-0.0000000000000138
 70
    40
  0
VERTEX
  5
23788
330
231BF
100
AcDbEntity
  8
KERA1
100
AcDbVertex
100
AcDb3dPolylineVertex
 10
2413.011619848992
 20
1281.539982355408
 30
-0.000000000000016
 70
    40
  0
VERTEX
  5
23789
330
231BF
100
AcDbEntity
  8
KERA1
100
AcDbVertex
100
AcDb3dPolylineVertex
 10
2411.65692668605
 20
1281.140380467135
 30
-0.000000000000018
 70
    40
  0
VERTEX
  5
2378A
330
231BF
100
AcDbEntity
  8
KERA1
100
AcDbVertex
100
AcDb3dPolylineVertex
 10
2410.189947815563
 20
1280.859280051638
 30
-0.0000000000000196
 70
    40
  0
VERTEX
  5
231C1
330
231BF
100
AcDbEntity
  8
KERA1
100
AcDbVertex
100
AcDb3dPolylineVertex
 10
2417.309998189598
 20
1283.408175937268
 30
-0.0000000000000079
 70
    48
  0
VERTEX
  5
231C2
330
231BF
100
AcDbEntity
  8
KERA1
100
AcDbVertex
100
AcDb3dPolylineVertex
 10
2414.232160874409
 20
1281.440711007187
 30
-0.0000000000000157
 70
    48
  0
VERTEX
  5
231C3
330
231BF
100
AcDbEntity
  8
KERA1
100
AcDbVertex
100
AcDb3dPolylineVertex
 10
2410.189947815562
 20
1280.859280051638
 30
-0.0000000000000196
 70
    48
  0
SEQEND
  5
231D0
330
231BF
100
AcDbEntity
  8
KERA1
  0
ARC
  5
231D1
330
1E
100
AcDbEntity
  8
KERA1
100
AcDbCircle
 10
2404.654594949551
 20
1279.537703951932
 30
-0.0000000000000196
 40
3.0
100
AcDbArc
 50
268.4598036686919
 51
358.4598036687016
  0
POLYLINE
  5
231D2
330
1E
100
AcDbEntity
  8
KERA1
100
AcDb3dPolyline
 66
     1
 10
0.0
 20
0.0
 30
0.0
 70
    12
 75
     6
  0
VERTEX
  5
231D3
330
231D2
100
AcDbEntity
  8
KERA1
100
AcDbVertex
100
AcDb3dPolylineVertex
 10
2410.18994788955
 20
1280.859279537261
 30
-0.0000000000000196
 70
    48
  0
VERTEX
  5
2378B
330
231D2
100
AcDbEntity
  8
KERA1
100
AcDbVertex
100
AcDb3dPolylineVertex
 10
2410.18994788955
 20
1280.859279537261
 30
-0.0000000000000196
 70
    40
  0
VERTEX
  5
2378C
330
231D2
100
AcDbEntity
  8
KERA1
100
AcDbVertex
100
AcDb3dPolylineVertex
 10
2409.79596465838
 20
1280.833225948611
 30
-0.0000000000000196
 70
    40
  0
VERTEX
  5
2378D
330
231D2
100
AcDbEntity
  8
KERA1
100
AcDbVertex
100
AcDb3dPolylineVertex
 10
2409.417497756718
 20
1280.75806051487
 30
-0.0000000000000196
 70
    40
  0
VERTEX
  5
2378E
330
231D2
100
AcDbEntity
  8
KERA1
100
AcDbVertex
100
AcDb3dPolylineVertex
 10
2409.057778824315
 20
1280.637021629025
 30
-0.0000000000000196
 70
    40
  0
VERTEX
  5
2378F
330
231D2
100
AcDbEntity
  8
KERA1
100
AcDbVertex
100
AcDb3dPolylineVertex
 10
2408.720039500922
 20
1280.47334768406
 30
-0.0000000000000196
 70
    40
  0
VERTEX
  5
23790
330
231D2
100
AcDbEntity
  8
KERA1
100
AcDbVertex
100
AcDb3dPolylineVertex
 10
2408.407511426291
 20
1280.270277072964
 30
-0.0000000000000196
 70
    40
  0
VERTEX
  5
23791
330
231D2
100
AcDbEntity
  8
KERA1
100
AcDbVertex
100
AcDb3dPolylineVertex
 10
2408.123426240174
 20
1280.031048188721
 30
-0.0000000000000196
 70
    40
  0
VERTEX
  5
23792
330
231D2
100
AcDbEntity
  8
KERA1
100
AcDbVertex
100
AcDb3dPolylineVertex
 10
2407.871015582323
 20
1279.758899424318
 30
-0.0000000000000196
 70
    40
  0
VERTEX
  5
23793
330
231D2
100
AcDbEntity
  8
KERA1
100
AcDbVertex
100
AcDb3dPolylineVertex
 10
2407.653511092489
 20
1279.457069172741
 30
-0.0000000000000196
 70
    40
  0
VERTEX
  5
231D4
330
231D2
100
AcDbEntity
  8
KERA1
100
AcDbVertex
100
AcDb3dPolylineVertex
 10
2409.121510069089
 20
1280.858164332525
 30
-0.0000000000000196
 70
    48
  0
VERTEX
  5
231D5
330
231D2
100
AcDbEntity
  8
KERA1
100
AcDbVertex
100
AcDb3dPolylineVertex
 10
2408.184108939355
 20
1280.298646588302
 30
-0.0000000000000196
 70
    48
  0
VERTEX
  5
231D6
330
231D2
100
AcDbEntity
  8
KERA1
100
AcDbVertex
100
AcDb3dPolylineVertex
 10
2407.65351109249
 20
1279.457069172741
 30
-0.0000000000000196
 70
    48
  0
SEQEND
  5
231E0
330
231D2
100
AcDbEntity
  8
KERA1
  0
ARC
  5
231E1
330
1E
100
AcDbEntity
  8
KERA1
100
AcDbCircle
 10
2421.295661495948
 20
1294.302748853005
 30
0.0
 40
3.0
100
AcDbArc
 50
91.55980366868311
 51
175.0598036687013
  0
POLYLINE
  5
23202
330
1E
100
AcDbEntity
  8
KERA0
100
AcDb3dPolyline
 66
     1
 10
0.0
 20
0.0
 30
0.0
 70
    12
 75
     6
  0
VERTEX
  5
23203
330
23202
100
AcDbEntity
  8
KERA0
100
AcDbVertex
100
AcDb3dPolylineVertex
 10
2436.790299740649
 20
1285.612424063276
 30
-0.0000000000000245
 70
    48
  0
VERTEX
  5
23204
330
23202
100
AcDbEntity
  8
KERA0
100
AcDbVertex
100
AcDb3dPolylineVertex
 10
2436.790299740649
 20
1285.612424063276
 30
-0.0000000000000245
 70
    40
  0
VERTEX
  5
23205
330
23202
100
AcDbEntity
  8
KERA0
100
AcDbVertex
100
AcDb3dPolylineVertex
 10
2440.920939623608
 20
1287.217714510467
 30
-0.0000000000000164
 70
    40
  0
VERTEX
  5
23206
330
23202
100
AcDbEntity
  8
KERA0
100
AcDbVertex
100
AcDb3dPolylineVertex
 10
2449.150793688976
 20
1288.558279880998
 30
-0.0000000000000103
 70
    40
  0
VERTEX
  5
23207
330
23202
100
AcDbEntity
  8
KERA0
100
AcDbVertex
100
AcDb3dPolylineVertex
 10
2460.894259910696
 20
1289.671938042964
 30
-0.000000000000006
 70
    40
  0
VERTEX
  5
23208
330
23202
100
AcDbEntity
  8
KERA0
100
AcDbVertex
100
AcDb3dPolylineVertex
 10
2475.565736262709
 20
1290.596506864457
 30
-0.0000000000000031
 70
    40
  0
VERTEX
  5
23209
330
23202
100
AcDbEntity
  8
KERA0
100
AcDbVertex
100
AcDb3dPolylineVertex
 10
2492.579620718955
 20
1291.369804213574
 30
-0.0000000000000013
 70
    40
  0
VERTEX
  5
2320A
330
23202
100
AcDbEntity
  8
KERA0
100
AcDbVertex
100
AcDb3dPolylineVertex
 10
2511.350311253378
 20
1292.029647958407
 30
-0.0000000000000004
 70
    40
  0
VERTEX
  5
2320B
330
23202
100
AcDbEntity
  8
KERA0
100
AcDbVertex
100
AcDb3dPolylineVertex
 10
2531.292205839918
 20
1292.613855967052
 30
0.0
 70
    40
  0
VERTEX
  5
2320C
330
23202
100
AcDbEntity
  8
KERA0
100
AcDbVertex
100
AcDb3dPolylineVertex
 10
2551.819702452516
 20
1293.160246107603
 30
0.0
 70
    40
  0
VERTEX
  5
2320D
330
23202
100
AcDbEntity
  8
KERA0
100
AcDbVertex
100
AcDb3dPolylineVertex
 10
2441.819185384384
 20
1290.27978124075
 30
0.0
 70
    48
  0
VERTEX
  5
2320E
330
23202
100
AcDbEntity
  8
KERA0
100
AcDbVertex
100
AcDb3dPolylineVertex
 10
2496.81944391845
 20
1291.720013674177
 30
0.0
 70
    48
  0
VERTEX
  5
2320F
330
23202
100
AcDbEntity
  8
KERA0
100
AcDbVertex
100
AcDb3dPolylineVertex
 10
2551.819702452516
 20
1293.160246107603
 30
0.0
 70
    48
  0
SEQEND
  5
23210
330
23202
100
AcDbEntity
  8
KERA0
  0
LINE
  5
23211
330
1E
100
AcDbEntity
  8
KERA1
100
AcDbLine
 10
2551.505578308013
 20
1305.156150233552
 30
0.0
 11
2421.161120410523
 21
1297.207292412372
 31
0.0
  0
DIMENSION
  5
23212
330
1E
100
AcDbEntity
  8
KERA4
100
AcDbDimension
  2
*D5
 10
2353.497978249949
 20
1189.876776989655
 30
0.0
 11
2481.618714948449
 21
1189.876776989655
 31
0.0
 70
    32
  1
46
 71
     5
 42
45.29839135157863
  3
STANDARD
100
AcDbAlignedDimension
 13
2308.19958689837
 23
1252.783392977942
 33
0.000301790050151
 14
2353.497978249949
 24
1252.807033551978
 34
0.000301790050151
100
AcDbRotatedDimension
  0
LINE
  5
23238
330
1E
100
AcDbEntity
  8
KERA4
100
AcDbLine
 10
2614.499141722786
 20
1407.207288485951
 30
0.0
 11
2866.056819397601
 21
1407.207288485951
 31
0.0
  0
LINE
  5
23239
330
1E
100
AcDbEntity
  8
KERA4
100
AcDbLine
 10
2438.778692918236
 20
1297.20731610897
 30
0.0
 11
2866.056819397601
 21
1297.207316108969
 31
0.0
  0
LINE
  5
2323A
330
1E
100
AcDbEntity
  8
KERA4
100
AcDbLine
 10
2851.056819397601
 20
1447.207288485951
 30
0.0
 11
2851.056819397601
 21
1487.20728848595
 31
0.0
  0
LINE
  5
2323B
330
1E
100
AcDbEntity
  8
KERA4
100
AcDbLine
 10
2851.056819397601
 20
1257.207316108969
 30
0.0
 11
2851.056819397601
 21
1217.207316108969
 31
0.0
  0
SOLID
  5
2323C
330
1E
100
AcDbEntity
  8
KERA4
100
AcDbTrace
 10
2844.390152730935
 20
1447.207288485951
 30
0.0
 11
2857.723486064267
 21
1447.207288485951
 31
0.0
 12
2851.056819397601
 22
1407.207288485951
 32
0.0
 13
2851.056819397601
 23
1407.207288485951
 33
0.0
  0
SOLID
  5
2323D
330
1E
100
AcDbEntity
  8
KERA4
100
AcDbTrace
 10
2844.390152730935
 20
1257.207316108969
 30
0.0
 11
2857.723486064267
 21
1257.207316108969
 31
0.0
 12
2851.056819397601
 22
1297.207316108969
 32
0.0
 13
2851.056819397601
 23
1297.207316108969
 33
0.0
  0
MTEXT
  5
2323E
330
1E
100
AcDbEntity
  8
KERA4
100
AcDbMText
 10
2851.056819397601
 20
1352.20730229746
 30
0.0
 40
45.0
 41
0.0
 71
     5
 72
     1
  1
\A1;110
 73
     1
 44
1.0
  0
DIMENSION
  5
237C1
330
1E
100
AcDbEntity
  8
KERA4
100
AcDbDimension
  2
*D9
 10
2410.745537682314
 20
750.0586583119984
 30
0.0
 11
2330.745537447415
 21
750.0586583119984
 31
0.0
 70
    32
  1
164
 71
     5
 42
160.0000004697972
  3
STANDARD
100
AcDbAlignedDimension
 13
2250.745537212516
 23
530.2454298498883
 33
0.0
 14
2410.745537682314
 24
530.2454298498883
 34
0.0
100
AcDbRotatedDimension
  0
DIMENSION
  5
237F7
330
1E
100
AcDbEntity
  8
KERA4
100
AcDbDimension
  2
*D10
 10
2699.825661202744
 20
433.245415306354
 30
0.0
 11
2699.825661202744
 21
483.2454225781216
 31
0.0
 70
    32
  1
105
 71
     5
 42
100.0000145435341
  3
STANDARD
100
AcDbAlignedDimension
 13
2407.745537682314
 23
533.2454298498882
 33
0.0
 14
2407.745537682314
 24
433.2454153063541
 34
0.0
 50
90.0
100
AcDbRotatedDimension
  0
LINE
  5
23811
330
1E
100
AcDbEntity
  8
KERA4
100
AcDbLine
 10
2614.499141722786
 20
1407.207288485951
 30
0.0
 11
3015.539201854918
 21
1407.207288485951
 31
0.0
  0
LINE
  5
23812
330
1E
100
AcDbEntity
  8
KERA4
100
AcDbLine
 10
2390.919816326377
 20
1252.825217966602
 30
0.0
 11
2828.594595604625
 21
1252.825217966602
 31
0.0
  0
LINE
  5
23813
330
1E
100
AcDbEntity
  8
KERA4
100
AcDbLine
 10
3000.539201854918
 20
1447.207288485951
 30
0.0
 11
3000.539201854918
 21
1487.20728848595
 31
0.0
  0
LINE
  5
23814
330
1E
100
AcDbEntity
  8
KERA4
100
AcDbLine
 10
3000.539201854918
 20
1212.825217966602
 30
0.0
 11
3000.539201854918
 21
1172.825217966602
 31
0.0
  0
SOLID
  5
23815
330
1E
100
AcDbEntity
  8
KERA4
100
AcDbTrace
 10
2993.872535188252
 20
1447.207288485951
 30
0.0
 11
3007.205868521585
 21
1447.207288485951
 31
0.0
 12
3000.539201854918
 22
1407.207288485951
 32
0.0
 13
3000.539201854918
 23
1407.207288485951
 33
0.0
  0
SOLID
  5
23816
330
1E
100
AcDbEntity
  8
KERA4
100
AcDbTrace
 10
2993.872535188252
 20
1212.825217966602
 30
0.0
 11
3007.205868521585
 21
1212.825217966602
 31
0.0
 12
3000.539201854918
 22
1252.825217966602
 32
0.0
 13
3000.539201854918
 23
1252.825217966602
 33
0.0
  0
MTEXT
  5
23817
330
1E
100
AcDbEntity
  8
KERA4
100
AcDbMText
 10
3000.539201854918
 20
1323.988066659882
 30
0.0
 40
45.0
 41
0.0
 71
     5
 72
     1
  1
\A1;150
 73
     1
 44
1.0
  0
LINE
  5
23818
330
1E
100
AcDbEntity
  8
KERA4
100
AcDbLine
 10
2870.952578437428
 20
1252.825217966602
 30
0.0
 11
3015.539201854918
 21
1252.825217966602
 31
0.0
  0
LINE
  5
23819
330
1E
100
AcDbEntity
  8
KERA4
100
AcDbLine
 10
2243.745538650068
 20
550.2454151275403
 30
0.0
 11
2243.745538650068
 21
737.2039656468432
 31
0.0
  0
LINE
  5
2381A
330
1E
100
AcDbEntity
  8
KERA4
100
AcDbLine
 10
2417.745535774966
 20
550.2454151275403
 30
0.0
 11
2417.745535774966
 21
737.2039656468432
 31
0.0
  0
LINE
  5
2381B
330
1E
100
AcDbEntity
  8
KERA4
100
AcDbLine
 10
2203.745538650067
 20
827.9979570143623
 30
0.0
 11
2163.745538650068
 21
827.9979570143623
 31
0.0
  0
LINE
  5
2381C
330
1E
100
AcDbEntity
  8
KERA4
100
AcDbLine
 10
2457.745535774966
 20
827.9979570143623
 30
0.0
 11
2497.745535774965
 21
827.9979570143623
 31
0.0
  0
SOLID
  5
2381D
330
1E
100
AcDbEntity
  8
KERA4
100
AcDbTrace
 10
2203.745538650067
 20
834.664623681029
 30
0.0
 11
2203.745538650067
 21
821.3312903476957
 31
0.0
 12
2243.745538650068
 22
827.9979570143623
 32
0.0
 13
2243.745538650068
 23
827.9979570143623
 33
0.0
  0
SOLID
  5
2381E
330
1E
100
AcDbEntity
  8
KERA4
100
AcDbTrace
 10
2457.745535774966
 20
834.664623681029
 30
0.0
 11
2457.745535774966
 21
821.3312903476957
 31
0.0
 12
2417.745535774966
 22
827.9979570143623
 32
0.0
 13
2417.745535774966
 23
827.9979570143623
 33
0.0
  0
MTEXT
  5
2381F
330
1E
100
AcDbEntity
  8
KERA4
100
AcDbMText
 10
2330.745537212516
 20
827.9979570143623
 30
0.0
 40
45.0
 41
0.0
 71
     5
 72
     1
  1
\A1;174
 73
     1
 44
1.0
  0
LINE
  5
23820
330
1E
100
AcDbEntity
  8
KERA4
100
AcDbLine
 10
2427.745535774965
 20
540.2454151275403
 30
0.0
 11
2682.579181876349
 21
540.2454151275402
 31
0.0
  0
LINE
  5
23821
330
1E
100
AcDbEntity
  8
KERA4
100
AcDbLine
 10
2427.745535774965
 20
426.2454151275401
 30
0.0
 11
2682.150907787452
 21
426.2454151275401
 31
0.0
  0
LINE
  5
23822
330
1E
100
AcDbEntity
  8
KERA4
100
AcDbLine
 10
2850.122355934239
 20
580.2454151275402
 30
0.0
 11
2850.122355934239
 21
620.2454151275402
 31
0.0
  0
LINE
  5
23823
330
1E
100
AcDbEntity
  8
KERA4
100
AcDbLine
 10
2850.122355934239
 20
386.24541512754
 30
0.0
 11
2850.122355934239
 21
346.24541512754
 31
0.0
  0
SOLID
  5
23824
330
1E
100
AcDbEntity
  8
KERA4
100
AcDbTrace
 10
2843.455689267572
 20
580.2454151275402
 30
0.0
 11
2856.789022600905
 21
580.2454151275402
 31
0.0
 12
2850.122355934239
 22
540.2454151275402
 32
0.0
 13
2850.122355934239
 23
540.2454151275402
 33
0.0
  0
SOLID
  5
23825
330
1E
100
AcDbEntity
  8
KERA4
100
AcDbTrace
 10
2843.455689267572
 20
386.24541512754
 30
0.0
 11
2856.789022600905
 21
386.24541512754
 31
0.0
 12
2850.122355934239
 22
426.2454151275401
 32
0.0
 13
2850.122355934239
 23
426.2454151275401
 33
0.0
  0
MTEXT
  5
23826
330
1E
100
AcDbEntity
  8
KERA4
100
AcDbMText
 10
2850.122355934239
 20
487.7103418444549
 30
0.0
 40
45.0
 41
0.0
 71
     5
 72
     1
  1
\A1;114
 73
     1
 44
1.0
  0
LINE
  5
23827
330
1E
100
AcDbEntity
  8
KERA4
100
AcDbLine
 10
2243.745538650068
 20
767.826893306632
 30
0.0
 11
2243.745538650068
 21
842.9979570143624
 31
0.0
  0
LINE
  5
23828
330
1E
100
AcDbEntity
  8
KERA4
100
AcDbLine
 10
2417.745535774966
 20
769.3972974948056
 30
0.0
 11
2417.745535774966
 21
842.9979570143624
 31
0.0
  0
LINE
  5
23829
330
1E
100
AcDbEntity
  8
KERA4
100
AcDbLine
 10
2714.815534488187
 20
540.2454151275402
 30
0.0
 11
2865.122355934238
 21
540.2454151275402
 31
0.0
  0
LINE
  5
2382A
330
1E
100
AcDbEntity
  8
KERA4
100
AcDbLine
 10
2718.839910053445
 20
426.2454151275401
 30
0.0
 11
2865.122355934238
 21
426.2454151275401
 31
0.0
  0
ENDSEC
  0
SECTION
  2
OBJECTS
  0
DICTIONARY
  5
C
330
0
100
AcDbDictionary
281
     1
  3
ACAD_GROUP
350
D
  3
ACAD_LAYOUT
350
19
  3
ACAD_MLINESTYLE
350
16
  3
ACAD_PLOTSETTINGS
350
18
  3
ACAD_PLOTSTYLENAME
350
E
  3
AcDbVariableDictionary
350
22AC
  3
ASE_INDEX_DICTIONARY
350
235F2
  0
DICTIONARY
  5
D
102
{ACAD_REACTORS
330
C
102
}
330
C
100
AcDbDictionary
281
     1
  0
DICTIONARY
  5
19
102
{ACAD_REACTORS
330
C
102
}
330
C
100
AcDbDictionary
281
     1
  3
Layout1
350
1D
  3
Model
350
21
  0
DICTIONARY
  5
16
102
{ACAD_REACTORS
330
C
102
}
330
C
100
AcDbDictionary
281
     1
  3
Standard
350
17
  0
DICTIONARY
  5
18
102
{ACAD_REACTORS
330
C
102
}
330
C
100
AcDbDictionary
281
     1
  0
ACDBDICTIONARYWDFLT
  5
E
102
{ACAD_REACTORS
330
C
102
}
330
C
100
AcDbDictionary
281
     1
  3
Normal
350
F
100
AcDbDictionaryWithDefault
340
F
  0
DICTIONARY
  5
22AC
102
{ACAD_REACTORS
330
C
102
}
330
C
100
AcDbDictionary
281
     1
  3
DIMASSOC
350
22AD
  0
DICTIONARY
  5
235F2
102
{ACAD_REACTORS
330
C
102
}
330
C
100
AcDbDictionary
281
     1
  3
ASEBlockHierarchyIndexRecord
350
235F3
1001
DCO15
1040
1623566730.593
  0
LAYOUT
  5
1D
102
{ACAD_REACTORS
330
19
102
}
330
19
100
AcDbPlotSettings
  1

  2
TPM1(4050N)
  4

  6

 40
0.0
 41
0.0
 42
0.0
 43
0.0
 44
0.0
 45
0.0
 46
0.0
 47
0.0
 48
0.0
 49
0.0
140
0.0
141
0.0
142
1.0
143
1.0
 70
   688
 72
     0
 73
     0
 74
     5
  7

 75
    16
147
1.0
148
0.0
149
0.0
100
AcDbLayout
  1
Layout1
 70
     1
 71
     1
 10
0.0
 20
0.0
 11
12.0
 21
9.0
 12
0.0
 22
0.0
 32
0.0
 14
1.000000000000000E+20
 24
1.000000000000000E+20
 34
1.000000000000000E+20
 15
-1.000000000000000E+20
 25
-1.000000000000000E+20
 35
-1.000000000000000E+20
146
0.0
 13
0.0
 23
0.0
 33
0.0
 16
1.0
 26
0.0
 36
0.0
 17
0.0
 27
1.0
 37
0.0
 76
     0
330
1A
  0
LAYOUT
  5
21
102
{ACAD_REACTORS
330
19
102
}
330
19
100
AcDbPlotSettings
  1

  2
\\ger-1001-01c001\GER-1001-01PB63
  4
User256
  6

 40
3.174999952316284
 41
3.174999952316284
 42
3.175003051757812
 43
3.17498779296875
 44
210.0
 45
296.8999938964843
 46
16.46
 47
0.0
 48
-515.9047334842234
 49
-1574.402560922981
140
1695.888510785305
141
728.4131463316025
142
1.0
143
8.957960295184467
 70
 11956
 72
     1
 73
     0
 74
     2
  7

 75
     0
147
0.1116325555202081
148
-1711.234538020701
149
531.6157259759815
100
AcDbLayout
  1
Model
 70
     1
 71
     0
 10
0.0
 20
0.0
 11
12.0
 21
9.0
 12
0.0
 22
0.0
 32
0.0
 14
0.0
 24
0.0
 34
0.0
 15
0.0
 25
0.0
 35
0.0
146
0.0
 13
0.0
 23
0.0
 33
0.0
 16
1.0
 26
0.0
 36
0.0
 17
0.0
 27
1.0
 37
0.0
 76
     0
330
1E
  0
MLINESTYLE
  5
17
102
{ACAD_REACTORS
330
16
102
}
330
16
100
AcDbMlineStyle
  2
STANDARD
 70
     0
  3

 62
   256
 51
90.0
 52
90.0
 71
     2
 49
0.5
 62
   256
  6
BYLAYER
 49
-0.5
 62
   256
  6
BYLAYER
  0
ACDBPLACEHOLDER
  5
F
102
{ACAD_REACTORS
330
E
102
}
330
E
  0
DICTIONARYVAR
  5
22AD
102
{ACAD_REACTORS
330
22AC
102
}
330
22AC
100
DictionaryVariables
280
     0
  1
1
  0
XRECORD
  5
235F3
102
{ACAD_REACTORS
330
235F2
102
}
330
235F2
100
AcDbXrecord
280
     1
330
23008
  0
ENDSEC
  0
EOF
