  0
SECTION
  2
HEADER
  9
$ACADVER
  1
AC1009
  9
$INSBASE
 10
0.0
 20
0.0
 30
0.0
  9
$EXTMIN
 10
-908.88746291686925
 20
6829.3895495103061
 30
0.0
  9
$EXTMAX
 10
4056.2645980831312
 20
9925.2604415103051
 30
0.0
  9
$LIMMIN
 10
-792.70132599999988
 20
6640.9432919999999
  9
$LIMMAX
 10
3407.298674000001
 20
9610.9432920000017
  9
$ORTHOMODE
 70
     0
  9
$REGENMODE
 70
     1
  9
$FILLMODE
 70
     1
  9
$QTEXTMODE
 70
     0
  9
$MIRRTEXT
 70
     0
  9
$DRAGMODE
 70
     2
  9
$LTSCALE
 40
50.0
  9
$OSMODE
 70
    37
  9
$ATTMODE
 70
     1
  9
$TEXTSIZE
 40
0.0
  9
$TRACEWID
 40
0.05
  9
$TEXTSTYLE
  7
STANDARD
  9
$CLAYER
  8
LAYER01
  9
$CELTYPE
  6
VERDECKT
  9
$CECOLOR
 62
   252
  9
$DIMSCALE
 40
1.0
  9
$DIMASZ
 40
0.18
  9
$DIMEXO
 40
0.0625
  9
$DIMDLI
 40
0.38
  9
$DIMRND
 40
0.0
  9
$DIMDLE
 40
0.0
  9
$DIMEXE
 40
0.18
  9
$DIMTP
 40
0.0
  9
$DIMTM
 40
0.0
  9
$DIMTXT
 40
0.18
  9
$DIMCEN
 40
0.09
  9
$DIMTSZ
 40
0.0
  9
$DIMTOL
 70
     0
  9
$DIMLIM
 70
     0
  9
$DIMTIH
 70
     1
  9
$DIMTOH
 70
     1
  9
$DIMSE1
 70
     0
  9
$DIMSE2
 70
     0
  9
$DIMTAD
 70
     0
  9
$DIMZIN
 70
     0
  9
$DIMBLK
  1

  9
$DIMASO
 70
     1
  9
$DIMSHO
 70
     1
  9
$DIMPOST
  1

  9
$DIMAPOST
  1

  9
$DIMALT
 70
     0
  9
$DIMALTD
 70
     2
  9
$DIMALTF
 40
25.399999999999999
  9
$DIMLFAC
 40
1.0
  9
$DIMTOFL
 70
     0
  9
$DIMTVP
 40
0.0
  9
$DIMTIX
 70
     0
  9
$DIMSOXD
 70
     0
  9
$DIMSAH
 70
     0
  9
$DIMBLK1
  1

  9
$DIMBLK2
  1

  9
$DIMSTYLE
  2
STANDARD
  9
$DIMCLRD
 70
     0
  9
$DIMCLRE
 70
     0
  9
$DIMCLRT
 70
     0
  9
$DIMTFAC
 40
1.0
  9
$DIMGAP
 40
0.09
  9
$LUNITS
 70
     2
  9
$LUPREC
 70
     4
  9
$SKETCHINC
 40
0.1
  9
$FILLETRAD
 40
8.0
  9
$AUNITS
 70
     0
  9
$AUPREC
 70
     0
  9
$MENU
  1
acad
  9
$ELEVATION
 40
0.0
  9
$PELEVATION
 40
0.0
  9
$THICKNESS
 40
0.0
  9
$LIMCHECK
 70
     0
  9
$BLIPMODE
 70
     0
  9
$CHAMFERA
 40
0.0
  9
$CHAMFERB
 40
0.0
  9
$SKPOLY
 70
     0
  9
$TDCREATE
 40
2305814.0836119791
  9
$TDUPDATE
 40
2456856.6765336688
  9
$TDINDWG
 40
0.0027838657
  9
$TDUSRTIMER
 40
0.0027837037
  9
$USRTIMER
 70
     1
  9
$ANGBASE
 50
0.0
  9
$ANGDIR
 70
     0
  9
$PDMODE
 70
     0
  9
$PDSIZE
 40
0.0
  9
$PLINEWID
 40
0.0
  9
$COORDS
 70
     1
  9
$SPLFRAME
 70
     0
  9
$SPLINETYPE
 70
     6
  9
$SPLINESEGS
 70
    10
  9
$ATTDIA
 70
     0
  9
$ATTREQ
 70
     1
  9
$HANDLING
 70
     1
  9
$HANDSEED
  5
735
  9
$SURFTAB1
 70
     6
  9
$SURFTAB2
 70
     6
  9
$SURFTYPE
 70
     6
  9
$SURFU
 70
     6
  9
$SURFV
 70
     6
  9
$UCSNAME
  2

  9
$UCSORG
 10
0.0
 20
0.0
 30
0.0
  9
$UCSXDIR
 10
1.0
 20
0.0
 30
0.0
  9
$UCSYDIR
 10
0.0
 20
1.0
 30
0.0
  9
$PUCSNAME
  2

  9
$PUCSORG
 10
0.0
 20
0.0
 30
0.0
  9
$PUCSXDIR
 10
1.0
 20
0.0
 30
0.0
  9
$PUCSYDIR
 10
0.0
 20
1.0
 30
0.0
  9
$USERI1
 70
     0
  9
$USERI2
 70
     0
  9
$USERI3
 70
     0
  9
$USERI4
 70
     0
  9
$USERI5
 70
     0
  9
$USERR1
 40
0.0
  9
$USERR2
 40
0.0
  9
$USERR3
 40
0.0
  9
$USERR4
 40
0.0
  9
$USERR5
 40
0.0
  9
$WORLDVIEW
 70
     1
  9
$SHADEDGE
 70
     3
  9
$SHADEDIF
 70
    70
  9
$TILEMODE
 70
     1
  9
$MAXACTVP
 70
    64
  9
$PLIMCHECK
 70
     0
  9
$PEXTMIN
 10
1.0000000000000000E+020
 20
1.0000000000000000E+020
 30
1.0000000000000000E+020
  9
$PEXTMAX
 10
-1.0000000000000000E+020
 20
-1.0000000000000000E+020
 30
-1.0000000000000000E+020
  9
$PLIMMIN
 10
0.0
 20
0.0
  9
$PLIMMAX
 10
12.0
 20
9.0
  9
$UNITMODE
 70
     0
  9
$VISRETAIN
 70
     1
  9
$PLINEGEN
 70
     0
  9
$PSLTSCALE
 70
     1
  0
ENDSEC
  0
SECTION
  2
TABLES
  0
TABLE
  2
VPORT
 70
     1
  0
VPORT
  2
*ACTIVE
 70
     0
 10
0.0
 20
0.0
 11
1.0
 21
1.0
 12
343.1749042786746
 22
0.0
 13
0.0
 23
0.0
 14
1.0
 24
1.0
 15
0.0
 25
0.0
 16
0.0
 26
0.0
 36
11741.831121009071
 17
2543.7160614248342
 27
8966.2656722836291
 37
0.0
 40
6346.7543498005361
 41
1.2977022977022969
 42
50.0
 43
0.0
 44
0.0
 50
0.0
 51
0.0
 71
     0
 72
   100
 73
     1
 74
     1
 75
     0
 76
     0
 77
     0
 78
     0
  0
ENDTAB
  0
TABLE
  2
LTYPE
 70
    11
  0
LTYPE
  2
CONTINUOUS
 70
     0
  3
Solid line
 72
    65
 73
     0
 40
0.0
  0
LTYPE
  2
VERDECKT
 70
     0
  3
_ _ _ _ _ _ _ _ _ _ _ _ _ _ _ _ _ _ _ _ _ _ 
 72
    65
 73
     2
 40
0.25
 49
0.125
 49
-0.125
  0
LTYPE
  2
GESTRICHELT
 70
     0
  3
__ __ __ __ __ __ __ __ __ __ __ __ __ __ __
 72
    65
 73
     2
 40
0.75
 49
0.5
 49
-0.25
  0
LTYPE
  2
MITTELLINIE
 70
     0
  3
____ _ ____ _ ____ _ ____ _ ____ _ ____ _ __
 72
    65
 73
     4
 40
2.0
 49
1.25
 49
-0.25
 49
0.25
 49
-0.25
  0
LTYPE
  2
PHANTOM
 70
     0
  3
_____ _ _ _____ _ _ _____ _ _ _____ _ _ ____
 72
    65
 73
     6
 40
2.5
 49
1.25
 49
-0.25
 49
0.25
 49
-0.25
 49
0.25
 49
-0.25
  0
LTYPE
  2
PUNKTIERT
 70
     0
  3
............................................
 72
    65
 73
     2
 40
0.25
 49
0.0
 49
-0.25
  0
LTYPE
  2
STRICHPUNKTIERT
 70
     0
  3
__ . __ . __ . __ . __ . __ . __ . __ . __ .
 72
    65
 73
     4
 40
1.0
 49
0.5
 49
-0.25
 49
0.0
 49
-0.25
  0
LTYPE
  2
RAND
 70
     0
  3
__ __ . __ __ . __ __ . __ __ . __ __ . __ _
 72
    65
 73
     6
 40
1.75
 49
0.5
 49
-0.25
 49
0.5
 49
-0.25
 49
0.0
 49
-0.25
  0
LTYPE
  2
TRENNLINIE
 70
     0
  3
__ . . __ . . __ . . __ . . __ . . __ . . __
 72
    65
 73
     6
 40
1.25
 49
0.5
 49
-0.25
 49
0.0
 49
-0.25
 49
0.0
 49
-0.25
  0
LTYPE
  2
ENG_PUNKTIERT
 70
     0
  3
Schließen                                   
 72
    65
 73
     2
 40
0.1
 49
0.05
 49
-0.05
  0
LTYPE
  2
CLOSE
 70
     0
  3
                                            
 72
    65
 73
     0
 40
0.0
  0
ENDTAB
  0
TABLE
  2
LAYER
 70
   190
  0
LAYER
  2
0
 70
     0
 62
     7
  6
CONTINUOUS
  0
LAYER
  2
LAYER01
 70
     0
 62
     7
  6
CONTINUOUS
  0
LAYER
  2
LAYER02
 70
     0
 62
     7
  6
CONTINUOUS
  0
LAYER
  2
LAYER03
 70
     0
 62
     7
  6
CONTINUOUS
  0
LAYER
  2
LAYER04
 70
     0
 62
     7
  6
CONTINUOUS
  0
LAYER
  2
LAYER05
 70
     0
 62
     7
  6
CONTINUOUS
  0
LAYER
  2
LAYER06
 70
     0
 62
     7
  6
CONTINUOUS
  0
LAYER
  2
LAYER07
 70
     0
 62
     7
  6
CONTINUOUS
  0
LAYER
  2
LAYER08
 70
     0
 62
     7
  6
CONTINUOUS
  0
LAYER
  2
LAYER09
 70
     0
 62
     7
  6
CONTINUOUS
  0
LAYER
  2
LAYER10
 70
     0
 62
     7
  6
CONTINUOUS
  0
LAYER
  2
2
 70
     0
 62
     7
  6
CONTINUOUS
  0
LAYER
  2
5
 70
     0
 62
     7
  6
CONTINUOUS
  0
LAYER
  2
RAUMAUFM
 70
     0
 62
     7
  6
CONTINUOUS
  0
LAYER
  2
EINRICHT
 70
     0
 62
     7
  6
CONTINUOUS
  0
LAYER
  2
HILFE
 70
     0
 62
     7
  6
CONTINUOUS
  0
LAYER
  2
SCHNITTE
 70
     0
 62
     7
  6
CONTINUOUS
  0
LAYER
  2
SCHRAFF1
 70
     0
 62
     7
  6
CONTINUOUS
  0
LAYER
  2
SCHRAFF2
 70
     0
 62
     7
  6
CONTINUOUS
  0
LAYER
  2
BEMASS-1
 70
     0
 62
     7
  6
CONTINUOUS
  0
LAYER
  2
BEMASS-2
 70
     0
 62
     7
  6
CONTINUOUS
  0
LAYER
  2
TEXT
 70
     0
 62
     7
  6
CONTINUOUS
  0
LAYER
  2
SYMBOLE
 70
     0
 62
     7
  6
CONTINUOUS
  0
LAYER
  2
RAHMEN
 70
     0
 62
     7
  6
CONTINUOUS
  0
LAYER
  2
SCHRIFTF
 70
     0
 62
     7
  6
CONTINUOUS
  0
LAYER
  2
ACHSEN
 70
     0
 62
     7
  6
CONTINUOUS
  0
LAYER
  2
ZEICHN
 70
     0
 62
     7
  6
CONTINUOUS
  0
LAYER
  2
7
 70
     0
 62
     7
  6
CONTINUOUS
  0
LAYER
  2
1
 70
     0
 62
     7
  6
CONTINUOUS
  0
LAYER
  2
6
 70
     0
 62
     7
  6
CONTINUOUS
  0
LAYER
  2
4
 70
     0
 62
     7
  6
CONTINUOUS
  0
LAYER
  2
GRUNDEBENE
 70
     0
 62
     7
  6
CONTINUOUS
  0
LAYER
  2
GRUNDRISS
 70
     0
 62
     7
  6
CONTINUOUS
  0
LAYER
  2
BEMASSUNGGRUNDRISS
 70
     0
 62
     7
  6
CONTINUOUS
  0
LAYER
  2
WANDELEMENTE
 70
     0
 62
     7
  6
CONTINUOUS
  0
LAYER
  2
KUECHE
 70
     0
 62
     7
  6
CONTINUOUS
  0
LAYER
  2
THEKEBROETCHEN
 70
     0
 62
     7
  6
CONTINUOUS
  0
LAYER
  2
CENTERLINIE
 70
     0
 62
     7
  6
CONTINUOUS
  0
LAYER
  2
UMRISSE
 70
     0
 62
     7
  6
CONTINUOUS
  0
LAYER
  2
MAUER
 70
     0
 62
     7
  6
CONTINUOUS
  0
LAYER
  2
SCHRAFFUR
 70
     0
 62
     7
  6
CONTINUOUS
  0
LAYER
  2
MASSLINIE
 70
     0
 62
     7
  6
CONTINUOUS
  0
LAYER
  2
PV
 70
     0
 62
     7
  6
CONTINUOUS
  0
LAYER
  2
BESCHRIFTUNG
 70
     0
 62
     7
  6
CONTINUOUS
  0
LAYER
  2
AS
 70
     0
 62
     7
  6
CONTINUOUS
  0
LAYER
  2
PL
 70
     0
 62
     7
  6
CONTINUOUS
  0
LAYER
  2
UK
 70
     0
 62
     7
  6
CONTINUOUS
  0
LAYER
  2
TEXT3
 70
     0
 62
     7
  6
CONTINUOUS
  0
LAYER
  2
TEXT7
 70
     0
 62
     7
  6
CONTINUOUS
  0
LAYER
  2
BEPL1
 70
     0
 62
     7
  6
CONTINUOUS
  0
LAYER
  2
BEPL2
 70
     0
 62
     7
  6
CONTINUOUS
  0
LAYER
  2
BEPL2V
 70
     0
 62
     7
  6
CONTINUOUS
  0
LAYER
  2
BEPL4
 70
     0
 62
     7
  6
CONTINUOUS
  0
LAYER
  2
BEPL
 70
     0
 62
     7
  6
CONTINUOUS
  0
LAYER
  2
UK1
 70
     0
 62
     7
  6
CONTINUOUS
  0
LAYER
  2
UK2
 70
     0
 62
     7
  6
CONTINUOUS
  0
LAYER
  2
UK2V
 70
     0
 62
     7
  6
CONTINUOUS
  0
LAYER
  2
UK3
 70
     0
 62
     7
  6
CONTINUOUS
  0
LAYER
  2
TEXT2
 70
     0
 62
     7
  6
CONTINUOUS
  0
LAYER
  2
HILF2S
 70
     0
 62
     7
  6
CONTINUOUS
  0
LAYER
  2
UK1V
 70
     0
 62
     7
  6
CONTINUOUS
  0
LAYER
  2
GAIN_ZRA
 70
     0
 62
     7
  6
CONTINUOUS
  0
LAYER
  2
GAIN_ZSF
 70
     0
 62
     7
  6
CONTINUOUS
  0
LAYER
  2
RAHM4
 70
     0
 62
     7
  6
CONTINUOUS
  0
LAYER
  2
KORPUSBAND
 70
     0
 62
     7
  6
CONTINUOUS
  0
LAYER
  2
E---LGPL--------
 70
     0
 62
     7
  6
CONTINUOUS
  0
LAYER
  2
E---NPFL--------
 70
     0
 62
     7
  6
CONTINUOUS
  0
LAYER
  2
E---PLNKTXT-----
 70
     0
 62
     7
  6
CONTINUOUS
  0
LAYER
  2
E---PLNK--------
 70
     0
 62
     7
  6
CONTINUOUS
  0
LAYER
  2
E---PLNR--------
 70
     0
 62
     7
  6
CONTINUOUS
  0
LAYER
  2
D547_ARCHICAD
 70
     0
 62
     7
  6
CONTINUOUS
  0
LAYER
  2
D547_E---TEXT--------
 70
     0
 62
     7
  6
CONTINUOUS
  0
LAYER
  2
E---LEGD--------
 70
     0
 62
     7
  6
CONTINUOUS
  0
LAYER
  2
D43_ARCHICAD
 70
     0
 62
     7
  6
CONTINUOUS
  0
LAYER
  2
D43_FENSTER_VON_B---FASS--
 70
     0
 62
     7
  6
CONTINUOUS
  0
LAYER
  2
D43_E---SCHN--------
 70
     0
 62
     7
  6
CONTINUOUS
  0
LAYER
  2
D43_B---MW-N--------
 70
     0
 62
     7
  6
CONTINUOUS
  0
LAYER
  2
D43_B---DECK--------
 70
     0
 62
     7
  6
CONTINUOUS
  0
LAYER
  2
D43_B---MW-S--------
 70
     0
 62
     7
  6
CONTINUOUS
  0
LAYER
  2
D43_B---MW----------
 70
     0
 62
     7
  6
CONTINUOUS
  0
LAYER
  2
D43_B---FASS--------
 70
     0
 62
     7
  6
CONTINUOUS
  0
LAYER
  2
D43_E---RASG--------
 70
     0
 62
     7
  6
CONTINUOUS
  0
LAYER
  2
D40_ARCHICAD
 70
     0
 62
     7
  6
CONTINUOUS
  0
LAYER
  2
D40_E---MW--------
 70
     0
 62
     7
  6
CONTINUOUS
  0
LAYER
  2
D40_E---FASSKON-----
 70
     0
 62
     7
  6
CONTINUOUS
  0
LAYER
  2
D40_TÜREN_VON_B---MW-N----
 70
     0
 62
     7
  6
CONTINUOUS
  0
LAYER
  2
D40_E---MW-L------
 70
     0
 62
     7
  6
CONTINUOUS
  0
LAYER
  2
D40_TÜREN_VON_B---MW------
 70
     0
 62
     7
  6
CONTINUOUS
  0
LAYER
  2
D40_E---VERM--------
 70
     0
 62
     7
  6
CONTINUOUS
  0
LAYER
  2
D40_FENSTER_VON_E---MW-L--
 70
     0
 62
     7
  6
CONTINUOUS
  0
LAYER
  2
D40_FENSTER_VON_B---MW-N--
 70
     0
 62
     7
  6
CONTINUOUS
  0
LAYER
  2
D40_E---SCHN--------
 70
     0
 62
     7
  6
CONTINUOUS
  0
LAYER
  2
D40_E---AUFZ--------
 70
     0
 62
     7
  6
CONTINUOUS
  0
LAYER
  2
D40_E---DECK--------
 70
     0
 62
     7
  6
CONTINUOUS
  0
LAYER
  2
D40_E---RAUMINF-----
 70
     0
 62
     7
  6
CONTINUOUS
  0
LAYER
  2
D40_E---TEXT--------
 70
     0
 62
     7
  6
CONTINUOUS
  0
LAYER
  2
D40_B---TEXT--------
 70
     0
 62
     7
  6
CONTINUOUS
  0
LAYER
  2
D40_B---MW-N--------
 70
     0
 62
     7
  6
CONTINUOUS
  0
LAYER
  2
D40_B---DECK--------
 70
     0
 62
     7
  6
CONTINUOUS
  0
LAYER
  2
D40_B---AUFZ--------
 70
     0
 62
     7
  6
CONTINUOUS
  0
LAYER
  2
D40_B---MW-S--------
 70
     0
 62
     7
  6
CONTINUOUS
  0
LAYER
  2
D40_B---MW----------
 70
     0
 62
     7
  6
CONTINUOUS
  0
LAYER
  2
D40_E---MOEB--------
 70
     0
 62
     7
  6
CONTINUOUS
  0
LAYER
  2
D40_B---UMGB--------
 70
     0
 62
     7
  6
CONTINUOUS
  0
LAYER
  2
D40_B---FASS--------
 70
     0
 62
     7
  6
CONTINUOUS
  0
LAYER
  2
D40_E---DACH--------
 70
     0
 62
     7
  6
CONTINUOUS
  0
LAYER
  2
D40_E---BODE--------
 70
     0
 62
     7
  6
CONTINUOUS
  0
LAYER
  2
D40_E---TREP--------
 70
     0
 62
     7
  6
CONTINUOUS
  0
LAYER
  2
D40_E---RASG--------
 70
     0
 62
     7
  6
CONTINUOUS
  0
LAYER
  2
D40_B---MW-K--------
 70
     0
 62
     7
  6
CONTINUOUS
  0
LAYER
  2
D40_E---FASSGLA-----
 70
     0
 62
     7
  6
CONTINUOUS
  0
LAYER
  2
D40_B---VERM--------
 70
     0
 62
     7
  6
CONTINUOUS
  0
LAYER
  2
D40_E---UMGBGSG-----
 70
     0
 62
     7
  6
CONTINUOUS
  0
LAYER
  2
D40_E---RASF--------
 70
     0
 62
     7
  6
CONTINUOUS
  0
LAYER
  2
D40_E---PFLA--------
 70
     0
 62
     7
  6
CONTINUOUS
  0
LAYER
  2
D40_E---KONS-ST-----
 70
     0
 62
     7
  6
CONTINUOUS
  0
LAYER
  2
D40_E---WERB--------
 70
     0
 62
     7
  6
CONTINUOUS
  0
LAYER
  2
D40_E---TUERINF-----
 70
     0
 62
     7
  6
CONTINUOUS
  0
LAYER
  2
D40_E---WOLK--------
 70
     0
 62
     7
  6
CONTINUOUS
  0
LAYER
  2
D40_B---MW-L--------
 70
     0
 62
     7
  6
CONTINUOUS
  0
LAYER
  2
D40_B---SANI--------
 70
     0
 62
     7
  6
CONTINUOUS
  0
LAYER
  2
D40_E---SANI--------
 70
     0
 62
     7
  6
CONTINUOUS
  0
LAYER
  2
D40_E---MW-K------
 70
     0
 62
     7
  6
CONTINUOUS
  0
LAYER
  2
D40_E---OBJE--------
 70
     0
 62
     7
  6
CONTINUOUS
  0
LAYER
  2
D40_E---ASPR--------
 70
     0
 62
     7
  6
CONTINUOUS
  0
LAYER
  2
D40_E---VERMTGA-----
 70
     0
 62
     7
  6
CONTINUOUS
  0
LAYER
  2
D40_E---PARK--------
 70
     0
 62
     7
  6
CONTINUOUS
  0
LAYER
  2
D40_E---ISOL--------
 70
     0
 62
     7
  6
CONTINUOUS
  0
LAYER
  2
D40_E---TUER--------
 70
     0
 62
     7
  6
CONTINUOUS
  0
LAYER
  2
D40_E---MW--BRA---
 70
     0
 62
     7
  6
CONTINUOUS
  0
LAYER
  2
D41_ARCHICAD
 70
     0
 62
     7
  6
CONTINUOUS
  0
LAYER
  2
D41_E---MW--------
 70
     0
 62
     7
  6
CONTINUOUS
  0
LAYER
  2
D41_E---FASSKON-----
 70
     0
 62
     7
  6
CONTINUOUS
  0
LAYER
  2
D41_TÜREN_VON_B---MW-N----
 70
     0
 62
     7
  6
CONTINUOUS
  0
LAYER
  2
D41_E---MW-L------
 70
     0
 62
     7
  6
CONTINUOUS
  0
LAYER
  2
D41_TÜREN_VON_B---MW------
 70
     0
 62
     7
  6
CONTINUOUS
  0
LAYER
  2
D41_E---VERM--------
 70
     0
 62
     7
  6
CONTINUOUS
  0
LAYER
  2
D41_FENSTER_VON_E---MW-L--
 70
     0
 62
     7
  6
CONTINUOUS
  0
LAYER
  2
D41_FENSTER_VON_B---MW-N--
 70
     0
 62
     7
  6
CONTINUOUS
  0
LAYER
  2
D41_E---SCHN--------
 70
     0
 62
     7
  6
CONTINUOUS
  0
LAYER
  2
D41_E---AUFZ--------
 70
     0
 62
     7
  6
CONTINUOUS
  0
LAYER
  2
D41_E---DECK--------
 70
     0
 62
     7
  6
CONTINUOUS
  0
LAYER
  2
D41_E---RAUMINF-----
 70
     0
 62
     7
  6
CONTINUOUS
  0
LAYER
  2
D41_E---TEXT--------
 70
     0
 62
     7
  6
CONTINUOUS
  0
LAYER
  2
D41_B---TEXT--------
 70
     0
 62
     7
  6
CONTINUOUS
  0
LAYER
  2
D41_B---MW-N--------
 70
     0
 62
     7
  6
CONTINUOUS
  0
LAYER
  2
D41_B---DECK--------
 70
     0
 62
     7
  6
CONTINUOUS
  0
LAYER
  2
D41_B---AUFZ--------
 70
     0
 62
     7
  6
CONTINUOUS
  0
LAYER
  2
D41_B---MW-S--------
 70
     0
 62
     7
  6
CONTINUOUS
  0
LAYER
  2
D41_B---MW----------
 70
     0
 62
     7
  6
CONTINUOUS
  0
LAYER
  2
D41_E---MOEB--------
 70
     0
 62
     7
  6
CONTINUOUS
  0
LAYER
  2
D41_B---UMGB--------
 70
     0
 62
     7
  6
CONTINUOUS
  0
LAYER
  2
D41_B---FASS--------
 70
     0
 62
     7
  6
CONTINUOUS
  0
LAYER
  2
D41_E---DACH--------
 70
     0
 62
     7
  6
CONTINUOUS
  0
LAYER
  2
D41_E---BODE--------
 70
     0
 62
     7
  6
CONTINUOUS
  0
LAYER
  2
D41_E---TREP--------
 70
     0
 62
     7
  6
CONTINUOUS
  0
LAYER
  2
D41_E---RASG--------
 70
     0
 62
     7
  6
CONTINUOUS
  0
LAYER
  2
D41_B---MW-K--------
 70
     0
 62
     7
  6
CONTINUOUS
  0
LAYER
  2
D41_E---FASSGLA-----
 70
     0
 62
     7
  6
CONTINUOUS
  0
LAYER
  2
D41_B---VERM--------
 70
     0
 62
     7
  6
CONTINUOUS
  0
LAYER
  2
D41_E---UMGBGSG-----
 70
     0
 62
     7
  6
CONTINUOUS
  0
LAYER
  2
D41_E---RASF--------
 70
     0
 62
     7
  6
CONTINUOUS
  0
LAYER
  2
D41_E---PFLA--------
 70
     0
 62
     7
  6
CONTINUOUS
  0
LAYER
  2
D41_E---KONS-ST-----
 70
     0
 62
     7
  6
CONTINUOUS
  0
LAYER
  2
D41_E---WERB--------
 70
     0
 62
     7
  6
CONTINUOUS
  0
LAYER
  2
D41_E---TUERINF-----
 70
     0
 62
     7
  6
CONTINUOUS
  0
LAYER
  2
D41_E---WOLK--------
 70
     0
 62
     7
  6
CONTINUOUS
  0
LAYER
  2
D41_B---MW-L--------
 70
     0
 62
     7
  6
CONTINUOUS
  0
LAYER
  2
D41_B---SANI--------
 70
     0
 62
     7
  6
CONTINUOUS
  0
LAYER
  2
D41_E---SANI--------
 70
     0
 62
     7
  6
CONTINUOUS
  0
LAYER
  2
D41_E---MW-K------
 70
     0
 62
     7
  6
CONTINUOUS
  0
LAYER
  2
D41_E---OBJE--------
 70
     0
 62
     7
  6
CONTINUOUS
  0
LAYER
  2
D41_E---ASPR--------
 70
     0
 62
     7
  6
CONTINUOUS
  0
LAYER
  2
D41_E---VERMTGA-----
 70
     0
 62
     7
  6
CONTINUOUS
  0
LAYER
  2
D41_E---PARK--------
 70
     0
 62
     7
  6
CONTINUOUS
  0
LAYER
  2
D41_E---ISOL--------
 70
     0
 62
     7
  6
CONTINUOUS
  0
LAYER
  2
D41_E---TUER--------
 70
     0
 62
     7
  6
CONTINUOUS
  0
LAYER
  2
D41_E---MW--BRA---
 70
     0
 62
     7
  6
CONTINUOUS
  0
LAYER
  2
D42_ARCHICAD
 70
     0
 62
     7
  6
CONTINUOUS
  0
LAYER
  2
D42_FENSTER_VON_B---FASS--
 70
     0
 62
     7
  6
CONTINUOUS
  0
LAYER
  2
D42_E---SCHN--------
 70
     0
 62
     7
  6
CONTINUOUS
  0
LAYER
  2
D42_B---MW-N--------
 70
     0
 62
     7
  6
CONTINUOUS
  0
LAYER
  2
D42_B---DECK--------
 70
     0
 62
     7
  6
CONTINUOUS
  0
LAYER
  2
D42_B---MW-S--------
 70
     0
 62
     7
  6
CONTINUOUS
  0
LAYER
  2
D42_B---MW----------
 70
     0
 62
     7
  6
CONTINUOUS
  0
LAYER
  2
D42_B---FASS--------
 70
     0
 62
     7
  6
CONTINUOUS
  0
LAYER
  2
D42_E---RASG--------
 70
     0
 62
     7
  6
CONTINUOUS
  0
LAYER
  2
THICK
 70
     0
 62
     7
  6
CONTINUOUS
  0
LAYER
  2
HIDDEN
 70
     0
 62
     7
  6
CONTINUOUS
  0
LAYER
  2
EBENE_1
 70
     0
 62
     7
  6
CONTINUOUS
  0
ENDTAB
  0
TABLE
  2
STYLE
 70
     3
  0
STYLE
  2
STANDARD
 70
     0
 40
0.0
 41
1.0
 50
0.0
 71
     0
 42
0.0
  3
txt
  4

  0
STYLE
  2
ANNOTATIVE
 70
     0
 40
0.0
 41
1.0
 50
0.0
 71
     0
 42
0.2
  3
txt
  4

  0
STYLE
  2
SIMPLEX
 70
     0
 40
0.0
 41
1.0
 50
0.0
 71
     0
 42
0.0
  3
simplex
  4

  0
ENDTAB
  0
TABLE
  2
VIEW
 70
     0
  0
ENDTAB
  0
TABLE
  2
UCS
 70
     0
  0
ENDTAB
  0
TABLE
  2
APPID
 70
     5
  0
APPID
  2
ACAD
 70
     0
  0
APPID
  2
ACADANNOTATIVE
 70
     0
  0
APPID
  2
ACAD_MLEADERVER
 70
     0
  0
APPID
  2
TCAD
 70
     0
  0
APPID
  2
ACAD_EXEMPT_FROM_CAD_STANDARDS
 70
     0
  0
ENDTAB
  0
TABLE
  2
DIMSTYLE
 70
     2
  0
DIMSTYLE
  2
STANDARD
 70
     0
  3

  4

  5

  6

  7

 40
1.0
 41
0.18
 42
0.0625
 43
0.38
 44
0.18
 45
0.0
 46
0.0
 47
0.0
 48
0.0
140
0.18
141
0.09
142
0.0
143
25.399999999999999
144
1.0
145
0.0
146
1.0
147
0.09
 71
     0
 72
     0
 73
     1
 74
     1
 75
     0
 76
     0
 77
     0
 78
     0
170
     0
171
     2
172
     0
173
     0
174
     0
175
     0
176
     0
177
     0
178
     0
  0
DIMSTYLE
  2
ANNOTATIVE
 70
     0
  3

  4

  5

  6

  7

 40
1.0
 41
0.18
 42
0.0625
 43
0.38
 44
0.18
 45
0.0
 46
0.0
 47
0.0
 48
0.0
140
0.18
141
0.09
142
0.0
143
25.399999999999999
144
1.0
145
0.0
146
1.0
147
0.09
 71
     0
 72
     0
 73
     1
 74
     1
 75
     0
 76
     0
 77
     0
 78
     0
170
     0
171
     2
172
     0
173
     0
174
     0
175
     0
176
     0
177
     0
178
     0
  0
ENDTAB
  0
ENDSEC
  0
SECTION
  2
BLOCKS
  0
BLOCK
  8
0
  2
$MODEL_SPACE
 70
     0
 10
0.0
 20
0.0
 30
0.0
  3
$MODEL_SPACE
  1

  0
ENDBLK
  5
76
  8
0
  0
BLOCK
 67
     1
  8
0
  2
$PAPER_SPACE
 70
     0
 10
0.0
 20
0.0
 30
0.0
  3
$PAPER_SPACE
  1

  0
ENDBLK
  5
72
 67
     1
  8
0
  0
BLOCK
  8
0
  2
UBWR-G1
 70
     0
 10
0.0
 20
0.0
 30
0.0
  3
UBWR-G1
  1

  0
CIRCLE
  5
143
  8
LAYER01
  6
CONTINUOUS
 62
     7
 10
1260.0
 20
8415.729636
 30
0.0
 40
24.0
  0
CIRCLE
  5
144
  8
LAYER01
  6
CONTINUOUS
 62
     7
 10
1260.0
 20
8415.729636
 30
0.0
 40
30.0
  0
LINE
  5
145
  8
LAYER01
  6
STRICHPUNKTIERT
 62
     7
 10
1178.080588
 20
8415.729636
 30
0.0
 11
1334.201793
 21
8415.729636
 31
0.0
  0
LINE
  5
146
  8
LAYER01
  6
STRICHPUNKTIERT
 62
     7
 10
1260.0
 20
8483.8443779999998
 30
0.0
 11
1260.0
 21
8347.2383239999999
 31
0.0
  0
ENDBLK
  5
147
  8
0
  0
BLOCK
  8
0
  2
*D1
 70
     1
 10
0.0
 20
0.0
 30
0.0
  3
*D1
  1

  0
LINE
  5
14A
  8
LAYER01
 62
     7
 10
1035.0
 20
8800.0
 30
0.0
 11
1485.0
 21
8800.0
 31
0.0
  0
LINE
  5
14B
  8
LAYER01
 62
     7
 10
1035.0
 20
8713.7296360000018
 30
0.0
 11
1035.0
 21
8822.5000000000018
 31
0.0
  0
LINE
  5
14C
  8
LAYER01
 62
     7
 10
1485.0
 20
8713.7296360000018
 30
0.0
 11
1485.0
 21
8822.5000000000018
 31
0.0
  0
SOLID
  5
14D
  8
LAYER01
 62
     7
 10
1059.0
 20
8796.0001599999996
 30
0.0
 11
1035.0
 21
8800.0
 31
0.0
 12
1059.0
 22
8803.9998400000004
 32
0.0
 13
1059.0
 23
8803.9998400000004
 33
0.0
  0
SOLID
  5
14E
  8
LAYER01
 62
     7
 10
1461.0
 20
8796.0001599999996
 30
0.0
 11
1485.0
 21
8800.0
 31
0.0
 12
1461.0
 22
8803.9998400000004
 32
0.0
 13
1461.0
 23
8803.9998400000004
 33
0.0
  0
TEXT
  5
14F
  8
LAYER01
  6
CONTINUOUS
 62
     7
 10
1225.6862679999999
 20
8822.5000000000018
 30
0.0
 40
45.0
  1
C2=
  0
POINT
  5
150
  8
LAYER01
 62
     7
 10
1035.0
 20
8695.7296360000018
 30
0.0
  0
POINT
  5
151
  8
LAYER01
 62
     7
 10
1485.0
 20
8695.7296360000018
 30
0.0
  0
POINT
  5
152
  8
LAYER01
 62
     7
 10
1485.0
 20
8800.0
 30
0.0
  0
ENDBLK
  5
153
  8
0
  0
BLOCK
  8
0
  2
*D2
 70
     1
 10
0.0
 20
0.0
 30
0.0
  3
*D2
  1

  0
LINE
  5
156
  8
LAYER01
 62
     7
 10
2260.0
 20
9020.0
 30
0.0
 11
260.0
 21
9020.0
 31
0.0
  0
LINE
  5
157
  8
LAYER01
 62
     7
 10
2260.0
 20
8713.7296360000018
 30
0.0
 11
2260.0
 21
9042.5
 31
0.0
  0
LINE
  5
158
  8
LAYER01
 62
     7
 10
260.0
 20
8713.7296360000018
 30
0.0
 11
260.0
 21
9042.5
 31
0.0
  0
SOLID
  5
159
  8
LAYER01
 62
     7
 10
2236.0
 20
9023.9998400000004
 30
0.0
 11
2260.0
 21
9020.0
 31
0.0
 12
2236.0
 22
9016.0001599999996
 32
0.0
 13
2236.0
 23
9016.0001599999996
 33
0.0
  0
SOLID
  5
15A
  8
LAYER01
 62
     7
 10
284.0
 20
9023.9998400000004
 30
0.0
 11
260.0
 21
9020.0
 31
0.0
 12
284.0
 22
9016.0001599999996
 32
0.0
 13
284.0
 23
9016.0001599999996
 33
0.0
  0
TEXT
  5
15B
  8
LAYER01
  6
CONTINUOUS
 62
     7
 10
1214.2483580000001
 20
9042.5
 30
0.0
 40
45.0
  1
Länge
  0
POINT
  5
15C
  8
LAYER01
 62
     7
 10
2260.0
 20
8695.7296360000018
 30
0.0
  0
POINT
  5
15D
  8
LAYER01
 62
     7
 10
260.0
 20
8695.7296360000018
 30
0.0
  0
POINT
  5
15E
  8
LAYER01
 62
     7
 10
260.0
 20
9020.0
 30
0.0
  0
ENDBLK
  5
15F
  8
0
  0
BLOCK
  8
0
  2
*D3
 70
     1
 10
0.0
 20
0.0
 30
0.0
  3
*D3
  1

  0
LINE
  5
162
  8
LAYER01
 62
     7
 10
886.74020399999995
 20
7105.9215269999986
 30
0.0
 11
1366.7402039999999
 21
7105.9215269999986
 31
0.0
  0
LINE
  5
163
  8
LAYER01
 62
     7
 10
886.74020399999995
 20
7192.526010999999
 30
0.0
 11
886.74020399999995
 21
7083.4215270000004
 31
0.0
  0
LINE
  5
164
  8
LAYER01
 62
     7
 10
1366.7402039999999
 20
7192.526010999999
 30
0.0
 11
1366.7402039999999
 21
7083.4215270000004
 31
0.0
  0
SOLID
  5
165
  8
LAYER01
 62
     7
 10
910.74020399999995
 20
7101.921687
 30
0.0
 11
886.74020399999995
 21
7105.9215269999986
 31
0.0
 12
910.74020399999995
 22
7109.9213669999999
 32
0.0
 13
910.74020399999995
 23
7109.9213669999999
 33
0.0
  0
SOLID
  5
166
  8
LAYER01
 62
     7
 10
1342.7402039999999
 20
7101.921687
 30
0.0
 11
1366.7402039999999
 21
7105.9215269999986
 31
0.0
 12
1342.7402039999999
 22
7109.9213669999999
 32
0.0
 13
1342.7402039999999
 23
7109.9213669999999
 33
0.0
  0
TEXT
  5
167
  8
LAYER01
  6
CONTINUOUS
 62
     7
 10
1092.4264720000001
 20
7128.4215269999986
 30
0.0
 40
45.0
  1
480
  0
POINT
  5
168
  8
LAYER01
 62
     7
 10
886.74020399999995
 20
7210.5260109999999
 30
0.0
  0
POINT
  5
169
  8
LAYER01
 62
     7
 10
1366.7402039999999
 20
7210.5260109999999
 30
0.0
  0
POINT
  5
16A
  8
LAYER01
 62
     7
 10
1366.7402039999999
 20
7105.9215269999986
 30
0.0
  0
ENDBLK
  5
16B
  8
0
  0
BLOCK
  8
0
  2
*D4
 70
     1
 10
0.0
 20
0.0
 30
0.0
  3
*D4
  1

  0
LINE
  5
16E
  8
LAYER01
 62
     7
 10
133.899427
 20
7826.729636
 30
0.0
 11
133.899427
 21
7625.7296359999991
 31
0.0
  0
LINE
  5
16F
  8
LAYER01
 62
     7
 10
242.0
 20
7826.729636
 30
0.0
 11
111.399427
 21
7826.729636
 31
0.0
  0
LINE
  5
170
  8
LAYER01
 62
     7
 10
242.0
 20
7625.7296359999991
 30
0.0
 11
111.399427
 21
7625.7296359999991
 31
0.0
  0
SOLID
  5
171
  8
LAYER01
 62
     7
 10
129.899587
 20
7802.7296360000009
 30
0.0
 11
133.899427
 21
7826.729636
 31
0.0
 12
137.89926700000001
 22
7802.7296360000009
 32
0.0
 13
137.89926700000001
 23
7802.7296360000009
 33
0.0
  0
SOLID
  5
172
  8
LAYER01
 62
     7
 10
129.899587
 20
7649.729636
 30
0.0
 11
133.899427
 21
7625.7296359999991
 31
0.0
 12
137.89926700000001
 22
7649.729636
 32
0.0
 13
137.89926700000001
 23
7649.729636
 33
0.0
  0
TEXT
  5
173
  8
LAYER01
  6
CONTINUOUS
 62
     7
 10
111.399427
 20
7691.9159040000013
 30
0.0
 40
45.0
  1
200
 50
90.0
  0
POINT
  5
174
  8
LAYER01
 62
     7
 10
260.0
 20
7826.729636
 30
0.0
  0
POINT
  5
175
  8
LAYER01
 62
     7
 10
260.0
 20
7625.7296359999991
 30
0.0
  0
POINT
  5
176
  8
LAYER01
 62
     7
 10
133.899427
 20
7625.7296359999991
 30
0.0
  0
ENDBLK
  5
177
  8
0
  0
BLOCK
  8
0
  2
*D5
 70
     1
 10
0.0
 20
0.0
 30
0.0
  3
*D5
  1

  0
LINE
  5
17A
  8
LAYER01
 62
     7
 10
842.55343599999981
 20
7426.2635209999989
 30
0.0
 11
842.55343599999981
 21
7228.6067819999989
 31
0.0
  0
LINE
  5
17B
  8
LAYER01
 62
     7
 10
871.08346500000005
 20
7426.2635209999989
 30
0.0
 11
820.05343600000003
 21
7426.2635209999989
 31
0.0
  0
LINE
  5
17C
  8
LAYER01
 62
     7
 10
868.74020399999995
 20
7228.6067819999989
 30
0.0
 11
820.05343600000003
 21
7228.6067819999989
 31
0.0
  0
SOLID
  5
17D
  8
LAYER01
 62
     7
 10
838.55359599999997
 20
7402.2635209999989
 30
0.0
 11
842.55343599999981
 21
7426.2635209999989
 31
0.0
 12
846.55327599999998
 22
7402.2635209999989
 32
0.0
 13
846.55327599999998
 23
7402.2635209999989
 33
0.0
  0
SOLID
  5
17E
  8
LAYER01
 62
     7
 10
838.55359599999997
 20
7252.6067819999989
 30
0.0
 11
842.55343599999981
 21
7228.6067819999989
 31
0.0
 12
846.55327599999998
 22
7252.6067819999989
 32
0.0
 13
846.55327599999998
 23
7252.6067819999989
 33
0.0
  0
TEXT
  5
17F
  8
LAYER01
  6
CONTINUOUS
 62
     7
 10
820.05343600000003
 20
7293.1214200000004
 30
0.0
 40
45.0
  1
200
 50
90.0
  0
POINT
  5
180
  8
LAYER01
 62
     7
 10
889.08346500000005
 20
7426.2635209999989
 30
0.0
  0
POINT
  5
181
  8
LAYER01
 62
     7
 10
886.74020399999995
 20
7228.6067819999989
 30
0.0
  0
POINT
  5
182
  8
LAYER01
 62
     7
 10
842.55343599999981
 20
7228.6067819999989
 30
0.0
  0
ENDBLK
  5
183
  8
0
  0
BLOCK
  8
0
  2
*D6
 70
     1
 10
0.0
 20
0.0
 30
0.0
  3
*D6
  1

  0
LINE
  5
186
  8
LAYER01
 62
     7
 10
199.28645399999999
 20
8215.729636
 30
0.0
 11
199.28645399999999
 21
8265.7296360000018
 31
0.0
  0
LINE
  5
187
  8
LAYER01
 62
     7
 10
242.0
 20
8215.729636
 30
0.0
 11
176.78645399999999
 21
8215.729636
 31
0.0
  0
LINE
  5
188
  8
LAYER01
 62
     7
 10
242.0
 20
8265.7296360000018
 30
0.0
 11
176.78645399999999
 21
8265.7296360000018
 31
0.0
  0
SOLID
  5
189
  8
LAYER01
 62
     7
 10
203.286294
 20
8239.7296359999982
 30
0.0
 11
199.28645399999999
 21
8215.729636
 31
0.0
 12
195.28661399999999
 22
8239.7296359999982
 32
0.0
 13
195.28661399999999
 23
8239.7296359999982
 33
0.0
  0
SOLID
  5
18A
  8
LAYER01
 62
     7
 10
203.286294
 20
8241.729636
 30
0.0
 11
199.28645399999999
 21
8265.7296360000018
 31
0.0
 12
195.28661399999999
 22
8241.729636
 32
0.0
 13
195.28661399999999
 23
8241.729636
 33
0.0
  0
TEXT
  5
18B
  8
LAYER01
  6
CONTINUOUS
 62
     7
 10
176.78645399999999
 20
8217.8538150000004
 30
0.0
 40
45.0
  1
50
 50
90.0
  0
POINT
  5
18C
  8
LAYER01
 62
     7
 10
260.0
 20
8215.729636
 30
0.0
  0
POINT
  5
18D
  8
LAYER01
 62
     7
 10
260.0
 20
8265.7296360000018
 30
0.0
  0
POINT
  5
18E
  8
LAYER01
 62
     7
 10
199.28645399999999
 20
8265.7296360000018
 30
0.0
  0
ENDBLK
  5
18F
  8
0
  0
BLOCK
  8
0
  2
*D7
 70
     1
 10
0.0
 20
0.0
 30
0.0
  3
*D7
  1

  0
LINE
  5
192
  8
LAYER01
 62
     7
 10
133.91836499999999
 20
8265.7296360000018
 30
0.0
 11
133.91836499999999
 21
8565.729636
 31
0.0
  0
LINE
  5
193
  8
LAYER01
 62
     7
 10
242.0
 20
8265.7296360000018
 30
0.0
 11
111.41836499999999
 21
8265.7296360000018
 31
0.0
  0
LINE
  5
194
  8
LAYER01
 62
     7
 10
242.0
 20
8565.729636
 30
0.0
 11
111.41836499999999
 21
8565.729636
 31
0.0
  0
SOLID
  5
195
  8
LAYER01
 62
     7
 10
137.918205
 20
8289.729636
 30
0.0
 11
133.91836499999999
 21
8265.7296360000018
 31
0.0
 12
129.91852499999999
 22
8289.729636
 32
0.0
 13
129.91852499999999
 23
8289.729636
 33
0.0
  0
SOLID
  5
196
  8
LAYER01
 62
     7
 10
137.918205
 20
8541.7296360000018
 30
0.0
 11
133.91836499999999
 21
8565.729636
 31
0.0
 12
129.91852499999999
 22
8541.7296360000018
 32
0.0
 13
129.91852499999999
 23
8541.7296360000018
 33
0.0
  0
TEXT
  5
197
  8
LAYER01
  6
CONTINUOUS
 62
     7
 10
111.41836499999999
 20
8381.4159040000013
 30
0.0
 40
45.0
  1
300
 50
90.0
  0
POINT
  5
198
  8
LAYER01
 62
     7
 10
260.0
 20
8265.7296360000018
 30
0.0
  0
POINT
  5
199
  8
LAYER01
 62
     7
 10
260.0
 20
8565.729636
 30
0.0
  0
POINT
  5
19A
  8
LAYER01
 62
     7
 10
133.91836499999999
 20
8565.729636
 30
0.0
  0
ENDBLK
  5
19B
  8
0
  0
BLOCK
  8
0
  2
*D8
 70
     1
 10
0.0
 20
0.0
 30
0.0
  3
*D8
  1

  0
LINE
  5
19E
  8
LAYER01
 62
     7
 10
199.28645399999999
 20
8565.729636
 30
0.0
 11
199.28645399999999
 21
8695.7296360000018
 31
0.0
  0
LINE
  5
19F
  8
LAYER01
 62
     7
 10
242.0
 20
8565.729636
 30
0.0
 11
176.78645399999999
 21
8565.729636
 31
0.0
  0
LINE
  5
1A0
  8
LAYER01
 62
     7
 10
242.0
 20
8695.7296360000018
 30
0.0
 11
176.78645399999999
 21
8695.7296360000018
 31
0.0
  0
SOLID
  5
1A1
  8
LAYER01
 62
     7
 10
203.286294
 20
8589.7296359999982
 30
0.0
 11
199.28645399999999
 21
8565.729636
 31
0.0
 12
195.28661399999999
 22
8589.7296359999982
 32
0.0
 13
195.28661399999999
 23
8589.7296359999982
 33
0.0
  0
SOLID
  5
1A2
  8
LAYER01
 62
     7
 10
203.286294
 20
8671.729636
 30
0.0
 11
199.28645399999999
 21
8695.7296360000018
 31
0.0
 12
195.28661399999999
 22
8671.729636
 32
0.0
 13
195.28661399999999
 23
8671.729636
 33
0.0
  0
TEXT
  5
1A3
  8
LAYER01
  6
CONTINUOUS
 62
     7
 10
176.78645399999999
 20
8596.4159040000013
 30
0.0
 40
45.0
  1
130
 50
90.0
  0
POINT
  5
1A4
  8
LAYER01
 62
     7
 10
260.0
 20
8565.729636
 30
0.0
  0
POINT
  5
1A5
  8
LAYER01
 62
     7
 10
260.0
 20
8695.7296360000018
 30
0.0
  0
POINT
  5
1A6
  8
LAYER01
 62
     7
 10
199.28645399999999
 20
8695.7296360000018
 30
0.0
  0
ENDBLK
  5
1A7
  8
0
  0
BLOCK
  8
0
  2
*D9
 70
     1
 10
0.0
 20
0.0
 30
0.0
  3
*D9
  1

  0
LINE
  5
1AA
  8
LAYER01
 62
     7
 10
67.928946999999994
 20
8695.7296360000018
 30
0.0
 11
67.928946999999994
 21
8215.729636
 31
0.0
  0
LINE
  5
1AB
  8
LAYER01
 62
     7
 10
242.0
 20
8695.7296360000018
 30
0.0
 11
45.428946999999987
 21
8695.7296360000018
 31
0.0
  0
LINE
  5
1AC
  8
LAYER01
 62
     7
 10
242.0
 20
8215.729636
 30
0.0
 11
45.428946999999987
 21
8215.729636
 31
0.0
  0
SOLID
  5
1AD
  8
LAYER01
 62
     7
 10
63.929106999999988
 20
8671.729636
 30
0.0
 11
67.928946999999994
 21
8695.7296360000018
 31
0.0
 12
71.928787
 22
8671.729636
 32
0.0
 13
71.928787
 23
8671.729636
 33
0.0
  0
SOLID
  5
1AE
  8
LAYER01
 62
     7
 10
63.929106999999988
 20
8239.7296359999982
 30
0.0
 11
67.928946999999994
 21
8215.729636
 31
0.0
 12
71.928787
 22
8239.7296359999982
 32
0.0
 13
71.928787
 23
8239.7296359999982
 33
0.0
  0
TEXT
  5
1AF
  8
LAYER01
  6
CONTINUOUS
 62
     7
 10
45.428946999999987
 20
8421.4159040000013
 30
0.0
 40
45.0
  1
480
 50
90.0
  0
POINT
  5
1B0
  8
LAYER01
 62
     7
 10
260.0
 20
8695.7296360000018
 30
0.0
  0
POINT
  5
1B1
  8
LAYER01
 62
     7
 10
260.0
 20
8215.729636
 30
0.0
  0
POINT
  5
1B2
  8
LAYER01
 62
     7
 10
67.928946999999994
 20
8215.729636
 30
0.0
  0
ENDBLK
  5
1B3
  8
0
  0
BLOCK
  8
0
  2
*D10
 70
     1
 10
0.0
 20
0.0
 30
0.0
  3
*D10
  1

  0
LINE
  5
1B6
  8
LAYER01
 62
     7
 10
360.0
 20
8920.0
 30
0.0
 11
260.0
 21
8920.0
 31
0.0
  0
LINE
  5
1B7
  8
LAYER01
 62
     7
 10
360.0
 20
8876.6671349999997
 30
0.0
 11
360.0
 21
8942.5
 31
0.0
  0
LINE
  5
1B8
  8
LAYER01
 62
     7
 10
260.0
 20
8876.6671349999997
 30
0.0
 11
260.0
 21
8942.5
 31
0.0
  0
SOLID
  5
1B9
  8
LAYER01
 62
     7
 10
336.0
 20
8923.9998400000004
 30
0.0
 11
360.0
 21
8920.0
 31
0.0
 12
336.0
 22
8916.0001600000014
 32
0.0
 13
336.0
 23
8916.0001600000014
 33
0.0
  0
SOLID
  5
1BA
  8
LAYER01
 62
     7
 10
284.0
 20
8923.9998400000004
 30
0.0
 11
260.0
 21
8920.0
 31
0.0
 12
284.0
 22
8916.0001600000014
 32
0.0
 13
284.0
 23
8916.0001600000014
 33
0.0
  0
TEXT
  5
1BB
  8
LAYER01
  6
CONTINUOUS
 62
     7
 10
275.6862680000001
 20
8942.5
 30
0.0
 40
45.0
  1
100
  0
POINT
  5
1BC
  8
LAYER01
 62
     7
 10
360.0
 20
8858.6671350000015
 30
0.0
  0
POINT
  5
1BD
  8
LAYER01
 62
     7
 10
260.0
 20
8858.6671350000015
 30
0.0
  0
POINT
  5
1BE
  8
LAYER01
 62
     7
 10
260.0
 20
8920.0
 30
0.0
  0
ENDBLK
  5
1BF
  8
0
  0
BLOCK
  8
0
  2
*D11
 70
     1
 10
0.0
 20
0.0
 30
0.0
  3
*D11
  1

  0
LINE
  5
1C2
  8
LAYER01
 62
     7
 10
585.0
 20
8800.0
 30
0.0
 11
1035.0
 21
8800.0
 31
0.0
  0
LINE
  5
1C3
  8
LAYER01
 62
     7
 10
585.0
 20
8713.7296360000018
 30
0.0
 11
585.0
 21
8822.5000000000018
 31
0.0
  0
LINE
  5
1C4
  8
LAYER01
 62
     7
 10
1035.0
 20
8713.7296360000018
 30
0.0
 11
1035.0
 21
8822.5000000000018
 31
0.0
  0
SOLID
  5
1C5
  8
LAYER01
 62
     7
 10
609.0
 20
8796.0001599999996
 30
0.0
 11
585.0
 21
8800.0
 31
0.0
 12
609.0
 22
8803.9998400000004
 32
0.0
 13
609.0
 23
8803.9998400000004
 33
0.0
  0
SOLID
  5
1C6
  8
LAYER01
 62
     7
 10
1011.0
 20
8796.0001599999996
 30
0.0
 11
1035.0
 21
8800.0
 31
0.0
 12
1011.0
 22
8803.9998400000004
 32
0.0
 13
1011.0
 23
8803.9998400000004
 33
0.0
  0
TEXT
  5
1C7
  8
LAYER01
  6
CONTINUOUS
 62
     7
 10
775.68626799999993
 20
8822.5000000000018
 30
0.0
 40
45.0
  1
C1=
  0
POINT
  5
1C8
  8
LAYER01
 62
     7
 10
585.0
 20
8695.7296360000018
 30
0.0
  0
POINT
  5
1C9
  8
LAYER01
 62
     7
 10
1035.0
 20
8695.7296360000018
 30
0.0
  0
POINT
  5
1CA
  8
LAYER01
 62
     7
 10
1035.0
 20
8800.0
 30
0.0
  0
ENDBLK
  5
1CB
  8
0
  0
BLOCK
  8
0
  2
*D12
 70
     1
 10
0.0
 20
0.0
 30
0.0
  3
*D12
  1

  0
LINE
  5
1CE
  8
LAYER01
 62
     7
 10
260.0
 20
8800.0
 30
0.0
 11
585.0
 21
8800.0
 31
0.0
  0
LINE
  5
1CF
  8
LAYER01
 62
     7
 10
260.0
 20
8713.7296360000018
 30
0.0
 11
260.0
 21
8822.5000000000018
 31
0.0
  0
LINE
  5
1D0
  8
LAYER01
 62
     7
 10
585.0
 20
8713.7296360000018
 30
0.0
 11
585.0
 21
8822.5000000000018
 31
0.0
  0
SOLID
  5
1D1
  8
LAYER01
 62
     7
 10
284.0
 20
8796.0001599999996
 30
0.0
 11
260.0
 21
8800.0
 31
0.0
 12
284.0
 22
8803.9998400000004
 32
0.0
 13
284.0
 23
8803.9998400000004
 33
0.0
  0
SOLID
  5
1D2
  8
LAYER01
 62
     7
 10
561.0
 20
8796.0001599999996
 30
0.0
 11
585.0
 21
8800.0
 31
0.0
 12
561.0
 22
8803.9998400000004
 32
0.0
 13
561.0
 23
8803.9998400000004
 33
0.0
  0
TEXT
  5
1D3
  8
LAYER01
  6
CONTINUOUS
 62
     7
 10
388.1862680000001
 20
8822.5000000000018
 30
0.0
 40
45.0
  1
A=
  0
POINT
  5
1D4
  8
LAYER01
 62
     7
 10
260.0
 20
8695.7296360000018
 30
0.0
  0
POINT
  5
1D5
  8
LAYER01
 62
     7
 10
585.0
 20
8695.7296360000018
 30
0.0
  0
POINT
  5
1D6
  8
LAYER01
 62
     7
 10
585.0
 20
8800.0
 30
0.0
  0
ENDBLK
  5
1D7
  8
0
  0
BLOCK
  8
0
  2
*D13
 70
     1
 10
0.0
 20
0.0
 30
0.0
  3
*D13
  1

  0
LINE
  5
1DA
  8
LAYER01
 62
     7
 10
2359.1491470000001
 20
8630.7296359999982
 30
0.0
 11
2359.1491470000001
 21
8565.729636
 31
0.0
  0
LINE
  5
1DB
  8
LAYER01
 62
     7
 10
2278.0
 20
8630.7296359999982
 30
0.0
 11
2381.6491470000001
 21
8630.7296359999982
 31
0.0
  0
LINE
  5
1DC
  8
LAYER01
 62
     7
 10
2278.0
 20
8565.729636
 30
0.0
 11
2381.6491470000001
 21
8565.729636
 31
0.0
  0
SOLID
  5
1DD
  8
LAYER01
 62
     7
 10
2355.1493070000001
 20
8606.729636
 30
0.0
 11
2359.1491470000001
 21
8630.7296359999982
 31
0.0
 12
2363.148987
 22
8606.729636
 32
0.0
 13
2363.148987
 23
8606.729636
 33
0.0
  0
SOLID
  5
1DE
  8
LAYER01
 62
     7
 10
2355.1493070000001
 20
8589.7296359999982
 30
0.0
 11
2359.1491470000001
 21
8565.729636
 31
0.0
 12
2363.148987
 22
8589.7296359999982
 32
0.0
 13
2363.148987
 23
8589.7296359999982
 33
0.0
  0
TEXT
  5
1DF
  8
LAYER01
  6
CONTINUOUS
 62
     7
 10
2336.6491470000001
 20
8575.3538150000004
 30
0.0
 40
45.0
  1
65
 50
90.0
  0
POINT
  5
1E0
  8
LAYER01
 62
     7
 10
2260.0
 20
8630.7296359999982
 30
0.0
  0
POINT
  5
1E1
  8
LAYER01
 62
     7
 10
2260.0
 20
8565.729636
 30
0.0
  0
POINT
  5
1E2
  8
LAYER01
 62
     7
 10
2359.1491470000001
 20
8565.729636
 30
0.0
  0
ENDBLK
  5
1E3
  8
0
  0
BLOCK
  8
0
  2
*D14
 70
     1
 10
0.0
 20
0.0
 30
0.0
  3
*D14
  1

  0
LINE
  5
1E6
  8
LAYER01
 62
     7
 10
2359.1491470000001
 20
8695.7296360000018
 30
0.0
 11
2359.1491470000001
 21
8630.7296359999982
 31
0.0
  0
LINE
  5
1E7
  8
LAYER01
 62
     7
 10
2278.0
 20
8695.7296360000018
 30
0.0
 11
2381.6491470000001
 21
8695.7296360000018
 31
0.0
  0
LINE
  5
1E8
  8
LAYER01
 62
     7
 10
2278.0
 20
8630.7296359999982
 30
0.0
 11
2381.6491470000001
 21
8630.7296359999982
 31
0.0
  0
SOLID
  5
1E9
  8
LAYER01
 62
     7
 10
2355.1493070000001
 20
8671.729636
 30
0.0
 11
2359.1491470000001
 21
8695.7296360000018
 31
0.0
 12
2363.148987
 22
8671.729636
 32
0.0
 13
2363.148987
 23
8671.729636
 33
0.0
  0
SOLID
  5
1EA
  8
LAYER01
 62
     7
 10
2355.1493070000001
 20
8654.729636
 30
0.0
 11
2359.1491470000001
 21
8630.7296359999982
 31
0.0
 12
2363.148987
 22
8654.729636
 32
0.0
 13
2363.148987
 23
8654.729636
 33
0.0
  0
TEXT
  5
1EB
  8
LAYER01
  6
CONTINUOUS
 62
     7
 10
2336.6491470000001
 20
8640.3538150000004
 30
0.0
 40
45.0
  1
65
 50
90.0
  0
POINT
  5
1EC
  8
LAYER01
 62
     7
 10
2260.0
 20
8695.7296360000018
 30
0.0
  0
POINT
  5
1ED
  8
LAYER01
 62
     7
 10
2260.0
 20
8630.7296359999982
 30
0.0
  0
POINT
  5
1EE
  8
LAYER01
 62
     7
 10
2359.1491470000001
 20
8630.7296359999982
 30
0.0
  0
ENDBLK
  5
1EF
  8
0
  0
BLOCK
  8
0
  2
*D15
 70
     1
 10
0.0
 20
0.0
 30
0.0
  3
*D15
  1

  0
LINE
  5
1F2
  8
LAYER01
 62
     7
 10
2160.0
 20
8920.0
 30
0.0
 11
2260.0
 21
8920.0
 31
0.0
  0
LINE
  5
1F3
  8
LAYER01
 62
     7
 10
2160.0
 20
8876.6671349999997
 30
0.0
 11
2160.0
 21
8942.5
 31
0.0
  0
LINE
  5
1F4
  8
LAYER01
 62
     7
 10
2260.0
 20
8713.7296360000018
 30
0.0
 11
2260.0
 21
8942.5
 31
0.0
  0
SOLID
  5
1F5
  8
LAYER01
 62
     7
 10
2184.0
 20
8916.0001600000014
 30
0.0
 11
2160.0
 21
8920.0
 31
0.0
 12
2184.0
 22
8923.9998400000004
 32
0.0
 13
2184.0
 23
8923.9998400000004
 33
0.0
  0
SOLID
  5
1F6
  8
LAYER01
 62
     7
 10
2236.0
 20
8916.0001600000014
 30
0.0
 11
2260.0
 21
8920.0
 31
0.0
 12
2236.0
 22
8923.9998400000004
 32
0.0
 13
2236.0
 23
8923.9998400000004
 33
0.0
  0
TEXT
  5
1F7
  8
LAYER01
  6
CONTINUOUS
 62
     7
 10
2175.6862679999999
 20
8942.5
 30
0.0
 40
45.0
  1
100
  0
POINT
  5
1F8
  8
LAYER01
 62
     7
 10
2160.0
 20
8858.6671350000015
 30
0.0
  0
POINT
  5
1F9
  8
LAYER01
 62
     7
 10
2260.0
 20
8695.7296360000018
 30
0.0
  0
POINT
  5
1FA
  8
LAYER01
 62
     7
 10
2260.0
 20
8920.0
 30
0.0
  0
ENDBLK
  5
1FB
  8
0
  0
BLOCK
  8
0
  2
*D16
 70
     1
 10
0.0
 20
0.0
 30
0.0
  3
*D16
  1

  0
LINE
  5
1FE
  8
LAYER01
 62
     7
 10
1485.0
 20
8800.0
 30
0.0
 11
1935.0
 21
8800.0
 31
0.0
  0
LINE
  5
1FF
  8
LAYER01
 62
     7
 10
1485.0
 20
8713.7296360000018
 30
0.0
 11
1485.0
 21
8822.5000000000018
 31
0.0
  0
LINE
  5
200
  8
LAYER01
 62
     7
 10
1935.0
 20
8713.7296360000018
 30
0.0
 11
1935.0
 21
8822.5000000000018
 31
0.0
  0
SOLID
  5
201
  8
LAYER01
 62
     7
 10
1509.0
 20
8796.0001599999996
 30
0.0
 11
1485.0
 21
8800.0
 31
0.0
 12
1509.0
 22
8803.9998400000004
 32
0.0
 13
1509.0
 23
8803.9998400000004
 33
0.0
  0
SOLID
  5
202
  8
LAYER01
 62
     7
 10
1911.0
 20
8796.0001599999996
 30
0.0
 11
1935.0
 21
8800.0
 31
0.0
 12
1911.0
 22
8803.9998400000004
 32
0.0
 13
1911.0
 23
8803.9998400000004
 33
0.0
  0
TEXT
  5
203
  8
LAYER01
  6
CONTINUOUS
 62
     7
 10
1675.6862679999999
 20
8822.5000000000018
 30
0.0
 40
45.0
  1
C3=
  0
POINT
  5
204
  8
LAYER01
 62
     7
 10
1485.0
 20
8695.7296360000018
 30
0.0
  0
POINT
  5
205
  8
LAYER01
 62
     7
 10
1935.0
 20
8695.7296360000018
 30
0.0
  0
POINT
  5
206
  8
LAYER01
 62
     7
 10
1935.0
 20
8800.0
 30
0.0
  0
ENDBLK
  5
207
  8
0
  0
BLOCK
  8
0
  2
*D17
 70
     1
 10
0.0
 20
0.0
 30
0.0
  3
*D17
  1

  0
LINE
  5
20A
  8
LAYER01
 62
     7
 10
1935.0
 20
8800.0
 30
0.0
 11
2260.0
 21
8800.0
 31
0.0
  0
LINE
  5
20B
  8
LAYER01
 62
     7
 10
1935.0
 20
8713.7296360000018
 30
0.0
 11
1935.0
 21
8822.5000000000018
 31
0.0
  0
LINE
  5
20C
  8
LAYER01
 62
     7
 10
2260.0
 20
8713.7296360000018
 30
0.0
 11
2260.0
 21
8822.5000000000018
 31
0.0
  0
SOLID
  5
20D
  8
LAYER01
 62
     7
 10
1959.0
 20
8796.0001599999996
 30
0.0
 11
1935.0
 21
8800.0
 31
0.0
 12
1959.0
 22
8803.9998400000004
 32
0.0
 13
1959.0
 23
8803.9998400000004
 33
0.0
  0
SOLID
  5
20E
  8
LAYER01
 62
     7
 10
2236.0
 20
8796.0001599999996
 30
0.0
 11
2260.0
 21
8800.0
 31
0.0
 12
2236.0
 22
8803.9998400000004
 32
0.0
 13
2236.0
 23
8803.9998400000004
 33
0.0
  0
TEXT
  5
20F
  8
LAYER01
  6
CONTINUOUS
 62
     7
 10
2063.1862679999999
 20
8822.5000000000018
 30
0.0
 40
45.0
  1
B=
  0
POINT
  5
210
  8
LAYER01
 62
     7
 10
1935.0
 20
8695.7296360000018
 30
0.0
  0
POINT
  5
211
  8
LAYER01
 62
     7
 10
2260.0
 20
8695.7296360000018
 30
0.0
  0
POINT
  5
212
  8
LAYER01
 62
     7
 10
2260.0
 20
8800.0
 30
0.0
  0
ENDBLK
  5
213
  8
0
  0
BLOCK
  8
0
  2
DEFAULT2-G7
 70
     0
 10
0.0
 20
0.0
 30
0.0
  3
DEFAULT2-G7
  1

  0
TEXT
  5
4E1
  8
LAYER01
  6
VERDECKT
 62
     1
 10
3286.9151940000002
 20
511.13932199999999
 30
0.0
 40
14.0
  1
A. Sprenger GmbH
  7
SIMPLEX
  0
TEXT
  5
4E2
  8
LAYER01
  6
VERDECKT
 62
     1
 10
3286.9151940000002
 20
487.13932199999988
 30
0.0
 40
14.0
  1
Berner Str. 10
  7
SIMPLEX
  0
TEXT
  5
4E3
  8
LAYER01
  6
VERDECKT
 62
     1
 10
3286.9151940000002
 20
463.13932199999988
 30
0.0
 40
14.0
  1
60437 Frankfurt
  7
SIMPLEX
  0
TEXT
  5
4E4
  8
LAYER01
  6
VERDECKT
 62
     1
 10
3286.9151940000002
 20
439.13932199999999
 30
0.0
 40
14.0
  1
Tel.: 069 - 507 27 41
  7
SIMPLEX
  0
TEXT
  5
4E5
  8
LAYER01
  6
VERDECKT
 62
     1
 10
3286.9151940000002
 20
415.13932199999999
 30
0.0
 40
14.0
  1
Fax: 069 - 507 72 91
  7
SIMPLEX
  0
TEXT
  5
4E6
  8
LAYER01
  6
VERDECKT
 62
     1
 10
3286.9151940000002
 20
391.13932199999999
 30
0.0
 40
14.0
  1
info@varicor.org
  7
SIMPLEX
  0
ENDBLK
  5
4E7
  8
0
  0
BLOCK
  8
0
  2
DEFAULT2-G6
 70
     0
 10
0.0
 20
0.0
 30
0.0
  3
DEFAULT2-G6
  1

  0
TEXT
  5
4EA
  8
LAYER01
  6
CONTINUOUS
 62
     1
 10
4758.0610299999989
 20
182.02706000000001
 30
0.0
 40
14.0
  1
Blatt
  7
SIMPLEX
  0
LINE
  5
4EB
  8
LAYER01
  6
CONTINUOUS
 62
     1
 10
3267.0610300000012
 20
280.02706000000001
 30
0.0
 11
4107.0610299999989
 21
280.02706000000001
 31
0.0
  0
LINE
  5
4EC
  8
LAYER01
  6
CONTINUOUS
 62
     1
 10
3267.0610300000012
 20
245.02706000000001
 30
0.0
 11
4107.0610299999989
 21
245.02706000000001
 31
0.0
  0
LINE
  5
4ED
  8
LAYER01
  6
CONTINUOUS
 62
     1
 10
3267.0610300000012
 20
210.02706000000001
 30
0.0
 11
4849.0610299999998
 21
210.02706000000001
 31
0.0
  0
LINE
  5
4EE
  8
LAYER01
  6
CONTINUOUS
 62
     1
 10
3267.0610300000012
 20
105.02706000000001
 30
0.0
 11
4849.0610299999998
 21
105.02706000000001
 31
0.0
  0
LINE
  5
4EF
  8
LAYER01
  6
CONTINUOUS
 62
     1
 10
3267.0610300000012
 20
385.02706000000001
 30
0.0
 11
4849.0610299999998
 21
385.02706000000001
 31
0.0
  0
POLYLINE
  5
4F0
  8
LAYER01
  6
CONTINUOUS
 62
     1
 66
     1
 10
0.0
 20
0.0
 30
0.0
 70
     1
  0
VERTEX
  5
72B
  8
LAYER01
  6
CONTINUOUS
 62
     1
 10
3267.0610300000012
 20
63.027059999999999
 30
0.0
  0
VERTEX
  5
72C
  8
LAYER01
  6
CONTINUOUS
 62
     1
 10
3267.0610300000012
 20
532.02705999999989
 30
0.0
  0
VERTEX
  5
72D
  8
LAYER01
  6
CONTINUOUS
 62
     1
 10
4849.0610299999998
 20
532.02705999999989
 30
0.0
  0
VERTEX
  5
72E
  8
LAYER01
  6
CONTINUOUS
 62
     1
 10
4849.0610299999998
 20
63.027059999999999
 30
0.0
  0
SEQEND
  5
72F
  8
LAYER01
  6
CONTINUOUS
 62
     1
  0
LINE
  5
4F1
  8
LAYER01
  6
CONTINUOUS
 62
     1
 10
3267.0610300000012
 20
350.02706000000001
 30
0.0
 11
4107.0610299999989
 21
350.02706000000001
 31
0.0
  0
LINE
  5
4F2
  8
LAYER01
  6
CONTINUOUS
 62
     1
 10
3267.0610300000012
 20
315.02706000000001
 30
0.0
 11
4107.0610299999989
 21
315.02706000000001
 31
0.0
  0
LINE
  5
4F3
  8
LAYER01
  6
CONTINUOUS
 62
     1
 10
3722.0610299999998
 20
532.02705999999989
 30
0.0
 11
3722.0610299999998
 21
63.027059999999999
 31
0.0
  0
INSERT
  5
4F4
  8
LAYER01
  2
DEFAULT2-G7
 10
0.0
 20
0.0
 30
0.0
  0
LINE
  5
4F5
  8
LAYER01
  6
CONTINUOUS
 62
     1
 10
3267.0610300000012
 20
140.02706000000001
 30
0.0
 11
3722.0610299999998
 21
140.02706000000001
 31
0.0
  0
LINE
  5
4F6
  8
LAYER01
  6
CONTINUOUS
 62
     1
 10
3267.0610300000012
 20
175.02706000000001
 30
0.0
 11
3722.0610299999998
 21
175.02706000000001
 31
0.0
  0
LINE
  5
4F7
  8
LAYER01
  6
CONTINUOUS
 62
     1
 10
3330.0610299999998
 20
385.02706000000001
 30
0.0
 11
3330.0610299999998
 21
63.027059999999999
 31
0.0
  0
TEXT
  5
4F8
  8
LAYER01
  6
CONTINUOUS
 62
     1
 10
3278.8200019999999
 20
77.027059999999992
 30
0.0
 40
13.300000000000001
  1
Zust
  7
SIMPLEX
  0
LINE
  5
4F9
  8
LAYER01
  6
CONTINUOUS
 62
     1
 10
3550.959492
 20
63.027059999999999
 30
0.0
 11
3550.959492
 21
385.02706000000001
 31
0.0
  0
LINE
  5
4FA
  8
LAYER01
  6
CONTINUOUS
 62
     1
 10
3659.0610299999998
 20
385.02706000000001
 30
0.0
 11
3659.0610299999998
 21
63.027059999999999
 31
0.0
  0
TEXT
  5
4FB
  8
LAYER01
  6
CONTINUOUS
 62
     1
 10
3391.8409890000012
 20
77.027059999999992
 30
0.0
 40
13.300000000000001
  1
Änderung
  7
SIMPLEX
  0
TEXT
  5
4FC
  8
LAYER01
  6
CONTINUOUS
 62
     1
 10
3570.6568330000009
 20
77.027059999999992
 30
0.0
 40
13.300000000000001
  1
Datum
  7
SIMPLEX
  0
TEXT
  5
4FD
  8
LAYER01
  6
CONTINUOUS
 62
     1
 10
3664.3304950000002
 20
77.027059999999992
 30
0.0
 40
13.300000000000001
  1
Name
  7
SIMPLEX
  0
LINE
  5
4FE
  8
LAYER01
  6
CONTINUOUS
 62
     1
 10
4849.0610299999998
 20
476.02705999999989
 30
0.0
 11
4107.0610299999989
 21
476.02705999999989
 31
0.0
  0
LINE
  5
4FF
  8
LAYER01
  6
CONTINUOUS
 62
     1
 10
3813.0610299999998
 20
245.02706000000001
 30
0.0
 11
3813.0610299999998
 21
385.02706000000001
 31
0.0
  0
TEXT
  5
500
  8
LAYER01
  6
CONTINUOUS
 62
     1
 10
3736.0610299999998
 20
322.02706000000001
 30
0.0
 40
14.0
  1
Bearb.
  7
SIMPLEX
  0
TEXT
  5
501
  8
LAYER01
  6
CONTINUOUS
 62
     1
 10
3736.0610299999998
 20
252.02706000000001
 30
0.0
 40
14.0
  1
Norm
  7
SIMPLEX
  0
TEXT
  5
502
  8
LAYER01
  6
CONTINUOUS
 62
     1
 10
3736.0610299999998
 20
287.02706000000001
 30
0.0
 40
14.0
  1
Gepr.
  7
SIMPLEX
  0
TEXT
  5
503
  8
LAYER01
  6
CONTINUOUS
 62
     1
 10
3848.0610299999998
 20
357.02706000000001
 30
0.0
 40
14.0
  1
Datum
  7
SIMPLEX
  0
TEXT
  5
504
  8
LAYER01
  6
CONTINUOUS
 62
     1
 10
3988.0610299999998
 20
357.02706000000001
 30
0.0
 40
14.0
  1
Name
  7
SIMPLEX
  0
TEXT
  5
505
  8
LAYER01
  6
CONTINUOUS
 62
     1
 10
4814.0610299999998
 20
112.02706000000001
 30
0.0
 40
14.0
  1
Bl.
  7
SIMPLEX
  0
LINE
  5
506
  8
LAYER01
  6
CONTINUOUS
 62
     1
 10
4107.0610299999989
 20
63.027059999999999
 30
0.0
 11
4107.0610299999989
 21
532.02705999999989
 31
0.0
  0
LINE
  5
507
  8
LAYER01
  6
CONTINUOUS
 62
     1
 10
3946.0610299999998
 20
210.02706000000001
 30
0.0
 11
3946.0610299999998
 21
532.02705999999989
 31
0.0
  0
LINE
  5
508
  8
LAYER01
  6
CONTINUOUS
 62
     1
 10
4548.0610299999998
 20
532.02705999999989
 30
0.0
 11
4548.0610299999998
 21
476.02705999999989
 31
0.0
  0
TEXT
  5
509
  8
LAYER01
  6
CONTINUOUS
 62
     1
 10
4122.3126299999994
 20
496.28505699999999
 30
0.0
 40
14.0
  1
Maßstab
  7
SIMPLEX
  0
LINE
  5
50A
  8
LAYER01
  6
CONTINUOUS
 62
     1
 10
4744.0610299999998
 20
210.02706000000001
 30
0.0
 11
4744.0610299999998
 21
105.02706000000001
 31
0.0
  0
LINE
  5
50B
  8
LAYER01
  6
CONTINUOUS
 62
     1
 10
4744.0610299999998
 20
140.02706000000001
 30
0.0
 11
4849.0610299999998
 21
140.02706000000001
 31
0.0
  0
ENDBLK
  5
50C
  8
0
  0
BLOCK
  8
0
 62
     7
  2
WMF0
 70
     0
 10
0.0
 20
0.0
 30
0.0
  3
WMF0
  1

  0
POLYLINE
  5
50F
  8
LAYER01
 62
     7
 66
     1
 10
0.0
 20
0.0
 30
0.0
 70
     1
  0
VERTEX
  5
510
  8
LAYER01
 62
     7
 10
2458.2645046842372
 20
7351.0038575557664
 30
0.0
  0
VERTEX
  5
511
  8
LAYER01
 62
     7
 10
2628.7570429123371
 20
7351.0038575557664
 30
0.0
  0
VERTEX
  5
512
  8
LAYER01
 62
     7
 10
2842.8639513848352
 20
6863.3158993684092
 30
0.0
  0
VERTEX
  5
513
  8
LAYER01
 62
     7
 10
3056.9708598573329
 20
7351.0038575557664
 30
0.0
  0
VERTEX
  5
514
  8
LAYER01
 62
     7
 10
3235.3932835844148
 20
7351.0038575557664
 30
0.0
  0
VERTEX
  5
515
  8
LAYER01
 62
     7
 10
2842.8639513848352
 20
6478.7164526678107
 30
0.0
  0
VERTEX
  5
516
  8
LAYER01
 62
     7
 10
2458.2645046842372
 20
7351.0038575557664
 30
0.0
  0
VERTEX
  5
517
  8
LAYER01
 62
     7
 10
2458.2645046842372
 20
7351.0038575557664
 30
0.0
  0
SEQEND
  5
518
  8
LAYER01
 62
     7
  0
POLYLINE
  5
519
  8
LAYER01
 62
     7
 66
     1
 10
0.0
 20
0.0
 30
0.0
 70
     1
  0
VERTEX
  5
51A
  8
LAYER01
 62
     7
 10
3041.1110888593698
 20
6756.2624451321599
 30
0.0
  0
VERTEX
  5
51B
  8
LAYER01
 62
     7
 10
3100.5852301017312
 20
6895.0354413643354
 30
0.0
  0
VERTEX
  5
51C
  8
LAYER01
 62
     7
 10
3358.3065088186272
 20
6895.0354413643354
 30
0.0
  0
VERTEX
  5
51D
  8
LAYER01
 62
     7
 10
3227.4633980854328
 20
7180.5113193276648
 30
0.0
  0
VERTEX
  5
51E
  8
LAYER01
 62
     7
 10
3302.7973103257568
 20
7362.8986858042381
 30
0.0
  0
VERTEX
  5
51F
  8
LAYER01
 62
     7
 10
3655.67721503043
 20
6617.4894488999853
 30
0.0
  0
VERTEX
  5
520
  8
LAYER01
 62
     7
 10
3655.67721503043
 20
7351.0038575557664
 30
0.0
  0
VERTEX
  5
521
  8
LAYER01
 62
     7
 10
4127.5054022198219
 20
7351.0038575557664
 30
0.0
  0
VERTEX
  5
522
  8
LAYER01
 62
     7
 10
4127.5054022198219
 20
7351.0038575557664
 30
0.0
  0
VERTEX
  5
523
  8
LAYER01
 62
     7
 10
4171.1197724642197
 20
7343.0739720567844
 30
0.0
  0
VERTEX
  5
524
  8
LAYER01
 62
     7
 10
4210.7691999591279
 20
7327.2142010588213
 30
0.0
  0
VERTEX
  5
525
  8
LAYER01
 62
     7
 10
4246.4536847045438
 20
7299.4596018123866
 30
0.0
  0
VERTEX
  5
526
  8
LAYER01
 62
     7
 10
4278.1732267004691
 20
7271.705002565951
 30
0.0
  0
VERTEX
  5
527
  8
LAYER01
 62
     7
 10
4305.9278259469047
 20
7236.0205178205342
 30
0.0
  0
VERTEX
  5
528
  8
LAYER01
 62
     7
 10
4325.7525396943593
 20
7196.3710903256278
 30
0.0
  0
VERTEX
  5
529
  8
LAYER01
 62
     7
 10
4341.6123106923224
 20
7148.7917773317413
 30
0.0
  0
VERTEX
  5
52A
  8
LAYER01
 62
     7
 10
4345.577253441812
 20
7105.1774070873416
 30
0.0
  0
VERTEX
  5
52B
  8
LAYER01
 62
     7
 10
4345.577253441812
 20
7105.1774070873416
 30
0.0
  0
VERTEX
  5
52C
  8
LAYER01
 62
     7
 10
4345.577253441812
 20
7057.5980940934542
 30
0.0
  0
VERTEX
  5
52D
  8
LAYER01
 62
     7
 10
4337.6473679428309
 20
7017.948666598546
 30
0.0
  0
VERTEX
  5
52E
  8
LAYER01
 62
     7
 10
4321.7875969448678
 20
6978.2992391036396
 30
0.0
  0
VERTEX
  5
52F
  8
LAYER01
 62
     7
 10
4301.9628831974142
 20
6942.6147543582238
 30
0.0
  0
VERTEX
  5
530
  8
LAYER01
 62
     7
 10
4274.2082839509794
 20
6910.8952123622976
 30
0.0
  0
VERTEX
  5
531
  8
LAYER01
 62
     7
 10
4242.4887419550541
 20
6883.1406131158628
 30
0.0
  0
VERTEX
  5
532
  8
LAYER01
 62
     7
 10
4206.8042572096374
 20
6863.3158993684092
 30
0.0
  0
VERTEX
  5
533
  8
LAYER01
 62
     7
 10
4163.1898869652387
 20
6847.4561283704461
 30
0.0
  0
VERTEX
  5
534
  8
LAYER01
 62
     7
 10
4416.9462229326446
 20
6510.4359946637369
 30
0.0
  0
VERTEX
  5
535
  8
LAYER01
 62
     7
 10
4416.9462229326446
 20
7351.0038575557664
 30
0.0
  0
VERTEX
  5
536
  8
LAYER01
 62
     7
 10
4583.4738184112539
 20
7351.0038575557664
 30
0.0
  0
VERTEX
  5
537
  8
LAYER01
 62
     7
 10
4583.4738184112539
 20
6502.506109164754
 30
0.0
  0
VERTEX
  5
538
  8
LAYER01
 62
     7
 10
4226.628970957091
 20
6502.506109164754
 30
0.0
  0
VERTEX
  5
539
  8
LAYER01
 62
     7
 10
3881.6789517513998
 20
6942.6147543582238
 30
0.0
  0
VERTEX
  5
53A
  8
LAYER01
 62
     7
 10
4056.1364327289898
 20
6942.6147543582238
 30
0.0
  0
VERTEX
  5
53B
  8
LAYER01
 62
     7
 10
4056.1364327289898
 20
6942.6147543582238
 30
0.0
  0
VERTEX
  5
53C
  8
LAYER01
 62
     7
 10
4079.926089225934
 20
6946.5796971077143
 30
0.0
  0
VERTEX
  5
53D
  8
LAYER01
 62
     7
 10
4103.7157457228786
 20
6954.5095826066963
 30
0.0
  0
VERTEX
  5
53E
  8
LAYER01
 62
     7
 10
4123.5404594703332
 20
6966.404410855168
 30
0.0
  0
VERTEX
  5
53F
  8
LAYER01
 62
     7
 10
4143.3651732177859
 20
6982.264181853131
 30
0.0
  0
VERTEX
  5
540
  8
LAYER01
 62
     7
 10
4155.2600014662594
 20
7002.0888956005829
 30
0.0
  0
VERTEX
  5
541
  8
LAYER01
 62
     7
 10
4167.1548297147301
 20
7025.878552097528
 30
0.0
  0
VERTEX
  5
542
  8
LAYER01
 62
     7
 10
4175.0847152137121
 20
7049.6682085944722
 30
0.0
  0
VERTEX
  5
543
  8
LAYER01
 62
     7
 10
4175.0847152137121
 20
7077.4228078409069
 30
0.0
  0
VERTEX
  5
544
  8
LAYER01
 62
     7
 10
4175.0847152137121
 20
7077.4228078409069
 30
0.0
  0
VERTEX
  5
545
  8
LAYER01
 62
     7
 10
4175.0847152137121
 20
7101.212464337852
 30
0.0
  0
VERTEX
  5
546
  8
LAYER01
 62
     7
 10
4167.1548297147301
 20
7125.0021208347962
 30
0.0
  0
VERTEX
  5
547
  8
LAYER01
 62
     7
 10
4159.224944215749
 20
7148.7917773317413
 30
0.0
  0
VERTEX
  5
548
  8
LAYER01
 62
     7
 10
4143.3651732177859
 20
7168.6164910791931
 30
0.0
  0
VERTEX
  5
549
  8
LAYER01
 62
     7
 10
4127.5054022198219
 20
7184.4762620771562
 30
0.0
  0
VERTEX
  5
54A
  8
LAYER01
 62
     7
 10
4103.7157457228786
 20
7196.3710903256278
 30
0.0
  0
VERTEX
  5
54B
  8
LAYER01
 62
     7
 10
4079.926089225934
 20
7204.3009758246098
 30
0.0
  0
VERTEX
  5
54C
  8
LAYER01
 62
     7
 10
4056.1364327289898
 20
7208.2659185741013
 30
0.0
  0
VERTEX
  5
54D
  8
LAYER01
 62
     7
 10
3834.099638757511
 20
7208.2659185741013
 30
0.0
  0
VERTEX
  5
54E
  8
LAYER01
 62
     7
 10
3834.099638757511
 20
6502.506109164754
 30
0.0
  0
VERTEX
  5
54F
  8
LAYER01
 62
     7
 10
3548.6237607941812
 20
6502.506109164754
 30
0.0
  0
VERTEX
  5
550
  8
LAYER01
 62
     7
 10
3429.6754783094589
 20
6756.2624451321599
 30
0.0
  0
VERTEX
  5
551
  8
LAYER01
 62
     7
 10
3041.1110888593698
 20
6756.2624451321599
 30
0.0
  0
VERTEX
  5
552
  8
LAYER01
 62
     7
 10
3041.1110888593698
 20
6756.2624451321599
 30
0.0
  0
SEQEND
  5
553
  8
LAYER01
 62
     7
  0
POLYLINE
  5
554
  8
LAYER01
 62
     7
 66
     1
 10
0.0
 20
0.0
 30
0.0
 70
     1
  0
VERTEX
  5
555
  8
LAYER01
 62
     7
 10
5352.6727118124509
 20
7295.4946590628961
 30
0.0
  0
VERTEX
  5
556
  8
LAYER01
 62
     7
 10
5245.6192575762007
 20
7160.6866055802111
 30
0.0
  0
VERTEX
  5
557
  8
LAYER01
 62
     7
 10
5245.6192575762007
 20
7160.6866055802111
 30
0.0
  0
VERTEX
  5
558
  8
LAYER01
 62
     7
 10
5209.9347728307857
 20
7184.4762620771562
 30
0.0
  0
VERTEX
  5
559
  8
LAYER01
 62
     7
 10
5174.250288085369
 20
7204.3009758246098
 30
0.0
  0
VERTEX
  5
55A
  8
LAYER01
 62
     7
 10
5134.6008605904626
 20
7216.1958040730824
 30
0.0
  0
VERTEX
  5
55B
  8
LAYER01
 62
     7
 10
5090.9864903460648
 20
7216.1958040730824
 30
0.0
  0
VERTEX
  5
55C
  8
LAYER01
 62
     7
 10
5090.9864903460648
 20
7216.1958040730824
 30
0.0
  0
VERTEX
  5
55D
  8
LAYER01
 62
     7
 10
5063.2318910996291
 20
7216.1958040730824
 30
0.0
  0
VERTEX
  5
55E
  8
LAYER01
 62
     7
 10
5035.4772918531944
 20
7212.2308613235909
 30
0.0
  0
VERTEX
  5
55F
  8
LAYER01
 62
     7
 10
5007.7226926067588
 20
7204.3009758246098
 30
0.0
  0
VERTEX
  5
560
  8
LAYER01
 62
     7
 10
4979.9680933603249
 20
7192.4061475761382
 30
0.0
  0
VERTEX
  5
561
  8
LAYER01
 62
     7
 10
4956.1784368633807
 20
7180.5113193276648
 30
0.0
  0
VERTEX
  5
562
  8
LAYER01
 62
     7
 10
4936.3537231159271
 20
7164.6515483297017
 30
0.0
  0
VERTEX
  5
563
  8
LAYER01
 62
     7
 10
4912.5640666189829
 20
7148.7917773317413
 30
0.0
  0
VERTEX
  5
564
  8
LAYER01
 62
     7
 10
4896.7042956210198
 20
7128.9670635842867
 30
0.0
  0
VERTEX
  5
565
  8
LAYER01
 62
     7
 10
4876.8795818735662
 20
7105.1774070873416
 30
0.0
  0
VERTEX
  5
566
  8
LAYER01
 62
     7
 10
4864.9847536250936
 20
7081.3877505903993
 30
0.0
  0
VERTEX
  5
567
  8
LAYER01
 62
     7
 10
4849.1249826271314
 20
7057.5980940934542
 30
0.0
  0
VERTEX
  5
568
  8
LAYER01
 62
     7
 10
4837.2301543786589
 20
7033.8084375965091
 30
0.0
  0
VERTEX
  5
569
  8
LAYER01
 62
     7
 10
4829.3002688796769
 20
7006.0538383500743
 30
0.0
  0
VERTEX
  5
56A
  8
LAYER01
 62
     7
 10
4825.3353261301872
 20
6978.2992391036396
 30
0.0
  0
VERTEX
  5
56B
  8
LAYER01
 62
     7
 10
4821.3703833806958
 20
6950.5446398572049
 30
0.0
  0
VERTEX
  5
56C
  8
LAYER01
 62
     7
 10
4817.4054406312061
 20
6918.8250978612787
 30
0.0
  0
VERTEX
  5
56D
  8
LAYER01
 62
     7
 10
4817.4054406312061
 20
6918.8250978612787
 30
0.0
  0
VERTEX
  5
56E
  8
LAYER01
 62
     7
 10
4821.3703833806958
 20
6891.0704986148439
 30
0.0
  0
VERTEX
  5
56F
  8
LAYER01
 62
     7
 10
4825.3353261301872
 20
6863.3158993684092
 30
0.0
  0
VERTEX
  5
570
  8
LAYER01
 62
     7
 10
4829.3002688796769
 20
6835.5613001219754
 30
0.0
  0
VERTEX
  5
571
  8
LAYER01
 62
     7
 10
4841.1950971281503
 20
6811.7716436250303
 30
0.0
  0
VERTEX
  5
572
  8
LAYER01
 62
     7
 10
4849.1249826271314
 20
6787.9819871280861
 30
0.0
  0
VERTEX
  5
573
  8
LAYER01
 62
     7
 10
4864.9847536250936
 20
6764.1923306311428
 30
0.0
  0
VERTEX
  5
574
  8
LAYER01
 62
     7
 10
4880.8445246230567
 20
6740.4026741341977
 30
0.0
  0
VERTEX
  5
575
  8
LAYER01
 62
     7
 10
4896.7042956210198
 20
6720.5779603867441
 30
0.0
  0
VERTEX
  5
576
  8
LAYER01
 62
     7
 10
4916.5290093684744
 20
6700.7532466392904
 30
0.0
  0
VERTEX
  5
577
  8
LAYER01
 62
     7
 10
4936.3537231159271
 20
6684.8934756413273
 30
0.0
  0
VERTEX
  5
578
  8
LAYER01
 62
     7
 10
4960.1433796128722
 20
6672.9986473928557
 30
0.0
  0
VERTEX
  5
579
  8
LAYER01
 62
     7
 10
4983.9330361098146
 20
6661.103819144384
 30
0.0
  0
VERTEX
  5
57A
  8
LAYER01
 62
     7
 10
5011.6876353562502
 20
6649.2089908959106
 30
0.0
  0
VERTEX
  5
57B
  8
LAYER01
 62
     7
 10
5035.4772918531944
 20
6641.2791053969304
 30
0.0
  0
VERTEX
  5
57C
  8
LAYER01
 62
     7
 10
5063.2318910996291
 20
6637.3141626474389
 30
0.0
  0
VERTEX
  5
57D
  8
LAYER01
 62
     7
 10
5094.9514330955553
 20
6637.3141626474389
 30
0.0
  0
VERTEX
  5
57E
  8
LAYER01
 62
     7
 10
5094.9514330955553
 20
6637.3141626474389
 30
0.0
  0
VERTEX
  5
57F
  8
LAYER01
 62
     7
 10
5138.5658033399532
 20
6641.2791053969304
 30
0.0
  0
VERTEX
  5
580
  8
LAYER01
 62
     7
 10
5174.250288085369
 20
6649.2089908959106
 30
0.0
  0
VERTEX
  5
581
  8
LAYER01
 62
     7
 10
5209.9347728307857
 20
6669.0337046433651
 30
0.0
  0
VERTEX
  5
582
  8
LAYER01
 62
     7
 10
5245.6192575762007
 20
6692.8233611403102
 30
0.0
  0
VERTEX
  5
583
  8
LAYER01
 62
     7
 10
5348.7077690629603
 20
6554.0503649081338
 30
0.0
  0
VERTEX
  5
584
  8
LAYER01
 62
     7
 10
5348.7077690629603
 20
6554.0503649081338
 30
0.0
  0
VERTEX
  5
585
  8
LAYER01
 62
     7
 10
5289.2336278206003
 20
6518.365880162718
 30
0.0
  0
VERTEX
  5
586
  8
LAYER01
 62
     7
 10
5257.5140858246741
 20
6506.4710519142463
 30
0.0
  0
VERTEX
  5
587
  8
LAYER01
 62
     7
 10
5229.7594865782394
 20
6494.5762236657738
 30
0.0
  0
VERTEX
  5
588
  8
LAYER01
 62
     7
 10
5198.0399445823132
 20
6486.6463381667918
 30
0.0
  0
VERTEX
  5
589
  8
LAYER01
 62
     7
 10
5166.3204025863879
 20
6482.6813954173012
 30
0.0
  0
VERTEX
  5
58A
  8
LAYER01
 62
     7
 10
5094.9514330955553
 20
6478.7164526678107
 30
0.0
  0
VERTEX
  5
58B
  8
LAYER01
 62
     7
 10
5094.9514330955553
 20
6478.7164526678107
 30
0.0
  0
VERTEX
  5
58C
  8
LAYER01
 62
     7
 10
5047.372120101667
 20
6482.6813954173012
 30
0.0
  0
VERTEX
  5
58D
  8
LAYER01
 62
     7
 10
5003.7577498572691
 20
6490.6112809162832
 30
0.0
  0
VERTEX
  5
58E
  8
LAYER01
 62
     7
 10
4960.1433796128722
 20
6498.5411664152653
 30
0.0
  0
VERTEX
  5
58F
  8
LAYER01
 62
     7
 10
4920.493952117964
 20
6514.4009374132283
 30
0.0
  0
VERTEX
  5
590
  8
LAYER01
 62
     7
 10
4880.8445246230567
 20
6534.2256511606811
 30
0.0
  0
VERTEX
  5
591
  8
LAYER01
 62
     7
 10
4845.16003987764
 20
6554.0503649081338
 30
0.0
  0
VERTEX
  5
592
  8
LAYER01
 62
     7
 10
4809.4755551322241
 20
6581.8049641545704
 30
0.0
  0
VERTEX
  5
593
  8
LAYER01
 62
     7
 10
4777.7560131362989
 20
6609.5595634010042
 30
0.0
  0
VERTEX
  5
594
  8
LAYER01
 62
     7
 10
4746.0364711403727
 20
6641.2791053969304
 30
0.0
  0
VERTEX
  5
595
  8
LAYER01
 62
     7
 10
4722.2468146434294
 20
6676.9635901423471
 30
0.0
  0
VERTEX
  5
596
  8
LAYER01
 62
     7
 10
4698.4571581464843
 20
6712.648074887763
 30
0.0
  0
VERTEX
  5
597
  8
LAYER01
 62
     7
 10
4678.6324443990306
 20
6752.2975023826693
 30
0.0
  0
VERTEX
  5
598
  8
LAYER01
 62
     7
 10
4666.737616150559
 20
6791.9469298775757
 30
0.0
  0
VERTEX
  5
599
  8
LAYER01
 62
     7
 10
4654.8427879020874
 20
6835.5613001219754
 30
0.0
  0
VERTEX
  5
59A
  8
LAYER01
 62
     7
 10
4646.9129024031054
 20
6879.1756703663723
 30
0.0
  0
VERTEX
  5
59B
  8
LAYER01
 62
     7
 10
4642.9479596536139
 20
6926.7549833602607
 30
0.0
  0
VERTEX
  5
59C
  8
LAYER01
 62
     7
 10
4642.9479596536139
 20
6926.7549833602607
 30
0.0
  0
VERTEX
  5
59D
  8
LAYER01
 62
     7
 10
4646.9129024031054
 20
6970.3693536046594
 30
0.0
  0
VERTEX
  5
59E
  8
LAYER01
 62
     7
 10
4654.8427879020874
 20
7017.948666598546
 30
0.0
  0
VERTEX
  5
59F
  8
LAYER01
 62
     7
 10
4662.7726734010676
 20
7057.5980940934542
 30
0.0
  0
VERTEX
  5
5A0
  8
LAYER01
 62
     7
 10
4678.6324443990306
 20
7101.212464337852
 30
0.0
  0
VERTEX
  5
5A1
  8
LAYER01
 62
     7
 10
4698.4571581464843
 20
7140.8618918327593
 30
0.0
  0
VERTEX
  5
5A2
  8
LAYER01
 62
     7
 10
4718.2818718939379
 20
7176.5463765781742
 30
0.0
  0
VERTEX
  5
5A3
  8
LAYER01
 62
     7
 10
4746.0364711403727
 20
7212.2308613235909
 30
0.0
  0
VERTEX
  5
5A4
  8
LAYER01
 62
     7
 10
4773.7910703868083
 20
7243.950403319518
 30
0.0
  0
VERTEX
  5
5A5
  8
LAYER01
 62
     7
 10
4805.5106123827327
 20
7271.705002565951
 30
0.0
  0
VERTEX
  5
5A6
  8
LAYER01
 62
     7
 10
4841.1950971281503
 20
7299.4596018123866
 30
0.0
  0
VERTEX
  5
5A7
  8
LAYER01
 62
     7
 10
4876.8795818735662
 20
7319.2843155598412
 30
0.0
  0
VERTEX
  5
5A8
  8
LAYER01
 62
     7
 10
4916.5290093684744
 20
7339.1090293072939
 30
0.0
  0
VERTEX
  5
5A9
  8
LAYER01
 62
     7
 10
4956.1784368633807
 20
7354.968800305257
 30
0.0
  0
VERTEX
  5
5AA
  8
LAYER01
 62
     7
 10
4999.7928071077786
 20
7366.8636285537286
 30
0.0
  0
VERTEX
  5
5AB
  8
LAYER01
 62
     7
 10
5047.372120101667
 20
7370.8285713032201
 30
0.0
  0
VERTEX
  5
5AC
  8
LAYER01
 62
     7
 10
5090.9864903460648
 20
7374.7935140527097
 30
0.0
  0
VERTEX
  5
5AD
  8
LAYER01
 62
     7
 10
5090.9864903460648
 20
7374.7935140527097
 30
0.0
  0
VERTEX
  5
5AE
  8
LAYER01
 62
     7
 10
5162.3554598368983
 20
7370.8285713032201
 30
0.0
  0
VERTEX
  5
5AF
  8
LAYER01
 62
     7
 10
5198.0399445823132
 20
7366.8636285537286
 30
0.0
  0
VERTEX
  5
5B0
  8
LAYER01
 62
     7
 10
5229.7594865782394
 20
7358.9337430547466
 30
0.0
  0
VERTEX
  5
5B1
  8
LAYER01
 62
     7
 10
5257.5140858246741
 20
7347.038914806275
 30
0.0
  0
VERTEX
  5
5B2
  8
LAYER01
 62
     7
 10
5289.2336278206003
 20
7335.1440865578043
 30
0.0
  0
VERTEX
  5
5B3
  8
LAYER01
 62
     7
 10
5320.9531698165256
 20
7315.3193728103497
 30
0.0
  0
VERTEX
  5
5B4
  8
LAYER01
 62
     7
 10
5352.6727118124509
 20
7295.4946590628961
 30
0.0
  0
VERTEX
  5
5B5
  8
LAYER01
 62
     7
 10
5352.6727118124509
 20
7295.4946590628961
 30
0.0
  0
SEQEND
  5
5B6
  8
LAYER01
 62
     7
  0
POLYLINE
  5
5B7
  8
LAYER01
 62
     7
 66
     1
 10
0.0
 20
0.0
 30
0.0
 70
     1
  0
VERTEX
  5
5B8
  8
LAYER01
 62
     7
 10
5737.2721585130494
 20
7370.8285713032201
 30
0.0
  0
VERTEX
  5
5B9
  8
LAYER01
 62
     7
 10
5737.2721585130494
 20
7370.8285713032201
 30
0.0
  0
VERTEX
  5
5BA
  8
LAYER01
 62
     7
 10
5693.6577882686524
 20
7366.8636285537286
 30
0.0
  0
VERTEX
  5
5BB
  8
LAYER01
 62
     7
 10
5646.0784752747632
 20
7362.8986858042381
 30
0.0
  0
VERTEX
  5
5BC
  8
LAYER01
 62
     7
 10
5606.429047779855
 20
7351.0038575557664
 30
0.0
  0
VERTEX
  5
5BD
  8
LAYER01
 62
     7
 10
5562.814677535458
 20
7335.1440865578043
 30
0.0
  0
VERTEX
  5
5BE
  8
LAYER01
 62
     7
 10
5523.1652500405517
 20
7319.2843155598412
 30
0.0
  0
VERTEX
  5
5BF
  8
LAYER01
 62
     7
 10
5487.4807652951349
 20
7295.4946590628961
 30
0.0
  0
VERTEX
  5
5C0
  8
LAYER01
 62
     7
 10
5451.7962805497182
 20
7271.705002565951
 30
0.0
  0
VERTEX
  5
5C1
  8
LAYER01
 62
     7
 10
5420.0767385537929
 20
7239.9854605700266
 30
0.0
  0
VERTEX
  5
5C2
  8
LAYER01
 62
     7
 10
5392.3221393073582
 20
7208.2659185741013
 30
0.0
  0
VERTEX
  5
5C3
  8
LAYER01
 62
     7
 10
5364.5675400609243
 20
7176.5463765781742
 30
0.0
  0
VERTEX
  5
5C4
  8
LAYER01
 62
     7
 10
5340.7778835639801
 20
7140.8618918327593
 30
0.0
  0
VERTEX
  5
5C5
  8
LAYER01
 62
     7
 10
5320.9531698165256
 20
7101.212464337852
 30
0.0
  0
VERTEX
  5
5C6
  8
LAYER01
 62
     7
 10
5309.0583415680539
 20
7057.5980940934542
 30
0.0
  0
VERTEX
  5
5C7
  8
LAYER01
 62
     7
 10
5297.1635133195814
 20
7017.948666598546
 30
0.0
  0
VERTEX
  5
5C8
  8
LAYER01
 62
     7
 10
5289.2336278206003
 20
6970.3693536046594
 30
0.0
  0
VERTEX
  5
5C9
  8
LAYER01
 62
     7
 10
5285.2686850711088
 20
6926.7549833602607
 30
0.0
  0
VERTEX
  5
5CA
  8
LAYER01
 62
     7
 10
5285.2686850711088
 20
6926.7549833602607
 30
0.0
  0
VERTEX
  5
5CB
  8
LAYER01
 62
     7
 10
5289.2336278206003
 20
6879.1756703663723
 30
0.0
  0
VERTEX
  5
5CC
  8
LAYER01
 62
     7
 10
5293.1985705700909
 20
6835.5613001219754
 30
0.0
  0
VERTEX
  5
5CD
  8
LAYER01
 62
     7
 10
5305.0933988185634
 20
6791.9469298775757
 30
0.0
  0
VERTEX
  5
5CE
  8
LAYER01
 62
     7
 10
5320.9531698165256
 20
6752.2975023826693
 30
0.0
  0
VERTEX
  5
5CF
  8
LAYER01
 62
     7
 10
5336.8129408144878
 20
6712.648074887763
 30
0.0
  0
VERTEX
  5
5D0
  8
LAYER01
 62
     7
 10
5360.602597311432
 20
6676.9635901423471
 30
0.0
  0
VERTEX
  5
5D1
  8
LAYER01
 62
     7
 10
5384.3922538083762
 20
6641.2791053969304
 30
0.0
  0
VERTEX
  5
5D2
  8
LAYER01
 62
     7
 10
5412.1468530548118
 20
6609.5595634010042
 30
0.0
  0
VERTEX
  5
5D3
  8
LAYER01
 62
     7
 10
5443.8663950507362
 20
6577.8400214050789
 30
0.0
  0
VERTEX
  5
5D4
  8
LAYER01
 62
     7
 10
5479.5508797961529
 20
6554.0503649081338
 30
0.0
  0
VERTEX
  5
5D5
  8
LAYER01
 62
     7
 10
5515.2353645415697
 20
6530.2607084111914
 30
0.0
  0
VERTEX
  5
5D6
  8
LAYER01
 62
     7
 10
5554.8847920364769
 20
6510.4359946637369
 30
0.0
  0
VERTEX
  5
5D7
  8
LAYER01
 62
     7
 10
5594.5342195313842
 20
6494.5762236657738
 30
0.0
  0
VERTEX
  5
5D8
  8
LAYER01
 62
     7
 10
5638.1485897757821
 20
6486.6463381667918
 30
0.0
  0
VERTEX
  5
5D9
  8
LAYER01
 62
     7
 10
5681.762960020179
 20
6478.7164526678107
 30
0.0
  0
VERTEX
  5
5DA
  8
LAYER01
 62
     7
 10
5725.3773302645768
 20
6474.7515099183202
 30
0.0
  0
VERTEX
  5
5DB
  8
LAYER01
 62
     7
 10
5725.3773302645768
 20
6474.7515099183202
 30
0.0
  0
VERTEX
  5
5DC
  8
LAYER01
 62
     7
 10
5772.9566432584652
 20
6478.7164526678107
 30
0.0
  0
VERTEX
  5
5DD
  8
LAYER01
 62
     7
 10
5816.571013502863
 20
6486.6463381667918
 30
0.0
  0
VERTEX
  5
5DE
  8
LAYER01
 62
     7
 10
5860.1853837472609
 20
6498.5411664152653
 30
0.0
  0
VERTEX
  5
5DF
  8
LAYER01
 62
     7
 10
5899.8348112421681
 20
6514.4009374132283
 30
0.0
  0
VERTEX
  5
5E0
  8
LAYER01
 62
     7
 10
5939.4842387370763
 20
6534.2256511606811
 30
0.0
  0
VERTEX
  5
5E1
  8
LAYER01
 62
     7
 10
5975.1687234824913
 20
6558.0153076576253
 30
0.0
  0
VERTEX
  5
5E2
  8
LAYER01
 62
     7
 10
6010.853208227908
 20
6581.8049641545704
 30
0.0
  0
VERTEX
  5
5E3
  8
LAYER01
 62
     7
 10
6042.5727502238333
 20
6613.5245061504938
 30
0.0
  0
VERTEX
  5
5E4
  8
LAYER01
 62
     7
 10
6070.327349470268
 20
6645.2440481464209
 30
0.0
  0
VERTEX
  5
5E5
  8
LAYER01
 62
     7
 10
6094.1170059672131
 20
6680.9285328918368
 30
0.0
  0
VERTEX
  5
5E6
  8
LAYER01
 62
     7
 10
6113.9417197146659
 20
6716.6130176372544
 30
0.0
  0
VERTEX
  5
5E7
  8
LAYER01
 62
     7
 10
6133.7664334621204
 20
6756.2624451321599
 30
0.0
  0
VERTEX
  5
5E8
  8
LAYER01
 62
     7
 10
6149.6262044600826
 20
6799.8768153765577
 30
0.0
  0
VERTEX
  5
5E9
  8
LAYER01
 62
     7
 10
6157.5560899590637
 20
6843.4911856209546
 30
0.0
  0
VERTEX
  5
5EA
  8
LAYER01
 62
     7
 10
6161.5210327085542
 20
6887.1055558653534
 30
0.0
  0
VERTEX
  5
5EB
  8
LAYER01
 62
     7
 10
6165.4859754580457
 20
6934.6848688592418
 30
0.0
  0
VERTEX
  5
5EC
  8
LAYER01
 62
     7
 10
6165.4859754580457
 20
6934.6848688592418
 30
0.0
  0
VERTEX
  5
5ED
  8
LAYER01
 62
     7
 10
6161.5210327085542
 20
6978.2992391036396
 30
0.0
  0
VERTEX
  5
5EE
  8
LAYER01
 62
     7
 10
6153.5911472095731
 20
7021.9136093480374
 30
0.0
  0
VERTEX
  5
5EF
  8
LAYER01
 62
     7
 10
6141.6963189611024
 20
7061.5630368429447
 30
0.0
  0
VERTEX
  5
5F0
  8
LAYER01
 62
     7
 10
6129.8014907126289
 20
7101.212464337852
 30
0.0
  0
VERTEX
  5
5F1
  8
LAYER01
 62
     7
 10
6109.9767769651762
 20
7136.8969490832678
 30
0.0
  0
VERTEX
  5
5F2
  8
LAYER01
 62
     7
 10
6090.1520632177217
 20
7172.5814338286846
 30
0.0
  0
VERTEX
  5
5F3
  8
LAYER01
 62
     7
 10
6066.3624067207766
 20
7208.2659185741013
 30
0.0
  0
VERTEX
  5
5F4
  8
LAYER01
 62
     7
 10
6038.6078074743427
 20
7236.0205178205342
 30
0.0
  0
VERTEX
  5
5F5
  8
LAYER01
 62
     7
 10
6006.8882654784175
 20
7263.7751170669708
 30
0.0
  0
VERTEX
  5
5F6
  8
LAYER01
 62
     7
 10
5975.1687234824913
 20
7291.5297163134046
 30
0.0
  0
VERTEX
  5
5F7
  8
LAYER01
 62
     7
 10
5939.4842387370763
 20
7311.3544300608592
 30
0.0
  0
VERTEX
  5
5F8
  8
LAYER01
 62
     7
 10
5903.7997539916587
 20
7331.1791438083128
 30
0.0
  0
VERTEX
  5
5F9
  8
LAYER01
 62
     7
 10
5864.1503264967514
 20
7347.038914806275
 30
0.0
  0
VERTEX
  5
5FA
  8
LAYER01
 62
     7
 10
5824.5008990018441
 20
7358.9337430547466
 30
0.0
  0
VERTEX
  5
5FB
  8
LAYER01
 62
     7
 10
5780.8865287574472
 20
7366.8636285537286
 30
0.0
  0
VERTEX
  5
5FC
  8
LAYER01
 62
     7
 10
5737.2721585130494
 20
7370.8285713032201
 30
0.0
  0
VERTEX
  5
5FD
  8
LAYER01
 62
     7
 10
5737.2721585130494
 20
7370.8285713032201
 30
0.0
  0
SEQEND
  5
5FE
  8
LAYER01
 62
     7
  0
POLYLINE
  5
5FF
  8
LAYER01
 62
     7
 66
     1
 10
0.0
 20
0.0
 30
0.0
 70
     1
  0
VERTEX
  5
600
  8
LAYER01
 62
     7
 10
5725.3773302645768
 20
6637.3141626474389
 30
0.0
  0
VERTEX
  5
601
  8
LAYER01
 62
     7
 10
5725.3773302645768
 20
6637.3141626474389
 30
0.0
  0
VERTEX
  5
602
  8
LAYER01
 62
     7
 10
5697.6227310181421
 20
6641.2791053969304
 30
0.0
  0
VERTEX
  5
603
  8
LAYER01
 62
     7
 10
5669.8681317717073
 20
6645.2440481464209
 30
0.0
  0
VERTEX
  5
604
  8
LAYER01
 62
     7
 10
5642.1135325252717
 20
6649.2089908959106
 30
0.0
  0
VERTEX
  5
605
  8
LAYER01
 62
     7
 10
5614.3589332788379
 20
6661.103819144384
 30
0.0
  0
VERTEX
  5
606
  8
LAYER01
 62
     7
 10
5590.5692767818919
 20
6672.9986473928557
 30
0.0
  0
VERTEX
  5
607
  8
LAYER01
 62
     7
 10
5566.7796202849486
 20
6688.8584183908179
 30
0.0
  0
VERTEX
  5
608
  8
LAYER01
 62
     7
 10
5546.9549065374968
 20
6704.718189388781
 30
0.0
  0
VERTEX
  5
609
  8
LAYER01
 62
     7
 10
5527.1301927900431
 20
6724.5429031362346
 30
0.0
  0
VERTEX
  5
60A
  8
LAYER01
 62
     7
 10
5507.3054790425886
 20
6744.3676168836892
 30
0.0
  0
VERTEX
  5
60B
  8
LAYER01
 62
     7
 10
5491.4457080446264
 20
6764.1923306311428
 30
0.0
  0
VERTEX
  5
60C
  8
LAYER01
 62
     7
 10
5479.5508797961529
 20
6787.9819871280861
 30
0.0
  0
VERTEX
  5
60D
  8
LAYER01
 62
     7
 10
5467.6560515476813
 20
6815.7365863745208
 30
0.0
  0
VERTEX
  5
60E
  8
LAYER01
 62
     7
 10
5455.7612232992096
 20
6839.5262428714641
 30
0.0
  0
VERTEX
  5
60F
  8
LAYER01
 62
     7
 10
5451.7962805497182
 20
6867.2808421178988
 30
0.0
  0
VERTEX
  5
610
  8
LAYER01
 62
     7
 10
5443.8663950507362
 20
6895.0354413643354
 30
0.0
  0
VERTEX
  5
611
  8
LAYER01
 62
     7
 10
5443.8663950507362
 20
6926.7549833602607
 30
0.0
  0
VERTEX
  5
612
  8
LAYER01
 62
     7
 10
5443.8663950507362
 20
6926.7549833602607
 30
0.0
  0
VERTEX
  5
613
  8
LAYER01
 62
     7
 10
5447.8313378002267
 20
6954.5095826066963
 30
0.0
  0
VERTEX
  5
614
  8
LAYER01
 62
     7
 10
5451.7962805497182
 20
6982.264181853131
 30
0.0
  0
VERTEX
  5
615
  8
LAYER01
 62
     7
 10
5459.7261660486993
 20
7010.0187810995658
 30
0.0
  0
VERTEX
  5
616
  8
LAYER01
 62
     7
 10
5467.6560515476813
 20
7037.7733803459996
 30
0.0
  0
VERTEX
  5
617
  8
LAYER01
 62
     7
 10
5479.5508797961529
 20
7061.5630368429447
 30
0.0
  0
VERTEX
  5
618
  8
LAYER01
 62
     7
 10
5495.410650794116
 20
7085.3526933398889
 30
0.0
  0
VERTEX
  5
619
  8
LAYER01
 62
     7
 10
5511.27042179208
 20
7105.1774070873416
 30
0.0
  0
VERTEX
  5
61A
  8
LAYER01
 62
     7
 10
5531.0951355395327
 20
7125.0021208347962
 30
0.0
  0
VERTEX
  5
61B
  8
LAYER01
 62
     7
 10
5550.9198492869864
 20
7144.826834582248
 30
0.0
  0
VERTEX
  5
61C
  8
LAYER01
 62
     7
 10
5570.74456303444
 20
7160.6866055802111
 30
0.0
  0
VERTEX
  5
61D
  8
LAYER01
 62
     7
 10
5594.5342195313842
 20
7176.5463765781742
 30
0.0
  0
VERTEX
  5
61E
  8
LAYER01
 62
     7
 10
5622.288818777819
 20
7188.4412048266468
 30
0.0
  0
VERTEX
  5
61F
  8
LAYER01
 62
     7
 10
5646.0784752747632
 20
7196.3710903256278
 30
0.0
  0
VERTEX
  5
620
  8
LAYER01
 62
     7
 10
5673.8330745211979
 20
7204.3009758246098
 30
0.0
  0
VERTEX
  5
621
  8
LAYER01
 62
     7
 10
5701.5876737676326
 20
7208.2659185741013
 30
0.0
  0
VERTEX
  5
622
  8
LAYER01
 62
     7
 10
5733.3072157635588
 20
7208.2659185741013
 30
0.0
  0
VERTEX
  5
623
  8
LAYER01
 62
     7
 10
5733.3072157635588
 20
7208.2659185741013
 30
0.0
  0
VERTEX
  5
624
  8
LAYER01
 62
     7
 10
5761.0618150099936
 20
7204.3009758246098
 30
0.0
  0
VERTEX
  5
625
  8
LAYER01
 62
     7
 10
5788.8164142564283
 20
7200.3360330751193
 30
0.0
  0
VERTEX
  5
626
  8
LAYER01
 62
     7
 10
5812.6060707533716
 20
7192.4061475761382
 30
0.0
  0
VERTEX
  5
627
  8
LAYER01
 62
     7
 10
5840.3606699998072
 20
7184.4762620771562
 30
0.0
  0
VERTEX
  5
628
  8
LAYER01
 62
     7
 10
5860.1853837472609
 20
7172.5814338286846
 30
0.0
  0
VERTEX
  5
629
  8
LAYER01
 62
     7
 10
5883.975040244205
 20
7156.7216628307224
 30
0.0
  0
VERTEX
  5
62A
  8
LAYER01
 62
     7
 10
5903.7997539916587
 20
7140.8618918327593
 30
0.0
  0
VERTEX
  5
62B
  8
LAYER01
 62
     7
 10
5923.6244677391132
 20
7125.0021208347962
 30
0.0
  0
VERTEX
  5
62C
  8
LAYER01
 62
     7
 10
5939.4842387370763
 20
7105.1774070873416
 30
0.0
  0
VERTEX
  5
62D
  8
LAYER01
 62
     7
 10
5955.3440097350367
 20
7081.3877505903993
 30
0.0
  0
VERTEX
  5
62E
  8
LAYER01
 62
     7
 10
5971.2037807329998
 20
7061.5630368429447
 30
0.0
  0
VERTEX
  5
62F
  8
LAYER01
 62
     7
 10
5983.0986089814742
 20
7037.7733803459996
 30
0.0
  0
VERTEX
  5
630
  8
LAYER01
 62
     7
 10
5991.0284944804544
 20
7010.0187810995658
 30
0.0
  0
VERTEX
  5
631
  8
LAYER01
 62
     7
 10
5998.9583799794354
 20
6986.2291246026198
 30
0.0
  0
VERTEX
  5
632
  8
LAYER01
 62
     7
 10
6002.923322728926
 20
6958.4745253561859
 30
0.0
  0
VERTEX
  5
633
  8
LAYER01
 62
     7
 10
6002.923322728926
 20
6930.7199261097512
 30
0.0
  0
VERTEX
  5
634
  8
LAYER01
 62
     7
 10
6002.923322728926
 20
6930.7199261097512
 30
0.0
  0
VERTEX
  5
635
  8
LAYER01
 62
     7
 10
6002.923322728926
 20
6899.0003841138259
 30
0.0
  0
VERTEX
  5
636
  8
LAYER01
 62
     7
 10
5998.9583799794354
 20
6871.2457848673903
 30
0.0
  0
VERTEX
  5
637
  8
LAYER01
 62
     7
 10
5994.9934372299449
 20
6843.4911856209546
 30
0.0
  0
VERTEX
  5
638
  8
LAYER01
 62
     7
 10
5983.0986089814742
 20
6819.7015291240123
 30
0.0
  0
VERTEX
  5
639
  8
LAYER01
 62
     7
 10
5975.1687234824913
 20
6791.9469298775757
 30
0.0
  0
VERTEX
  5
63A
  8
LAYER01
 62
     7
 10
5959.3089524845291
 20
6768.1572733806324
 30
0.0
  0
VERTEX
  5
63B
  8
LAYER01
 62
     7
 10
5943.449181486566
 20
6744.3676168836892
 30
0.0
  0
VERTEX
  5
63C
  8
LAYER01
 62
     7
 10
5923.6244677391132
 20
6724.5429031362346
 30
0.0
  0
VERTEX
  5
63D
  8
LAYER01
 62
     7
 10
5903.7997539916587
 20
6704.718189388781
 30
0.0
  0
VERTEX
  5
63E
  8
LAYER01
 62
     7
 10
5883.975040244205
 20
6688.8584183908179
 30
0.0
  0
VERTEX
  5
63F
  8
LAYER01
 62
     7
 10
5860.1853837472609
 20
6672.9986473928557
 30
0.0
  0
VERTEX
  5
640
  8
LAYER01
 62
     7
 10
5836.3957272503167
 20
6661.103819144384
 30
0.0
  0
VERTEX
  5
641
  8
LAYER01
 62
     7
 10
5808.641128003881
 20
6653.173933645402
 30
0.0
  0
VERTEX
  5
642
  8
LAYER01
 62
     7
 10
5780.8865287574472
 20
6645.2440481464209
 30
0.0
  0
VERTEX
  5
643
  8
LAYER01
 62
     7
 10
5753.1319295110115
 20
6641.2791053969304
 30
0.0
  0
VERTEX
  5
644
  8
LAYER01
 62
     7
 10
5725.3773302645768
 20
6637.3141626474389
 30
0.0
  0
VERTEX
  5
645
  8
LAYER01
 62
     7
 10
5725.3773302645768
 20
6637.3141626474389
 30
0.0
  0
SEQEND
  5
646
  8
LAYER01
 62
     7
  0
POLYLINE
  5
647
  8
LAYER01
 62
     7
 66
     1
 10
0.0
 20
0.0
 30
0.0
 70
     1
  0
VERTEX
  5
648
  8
LAYER01
 62
     7
 10
6042.5727502238333
 20
7351.0038575557664
 30
0.0
  0
VERTEX
  5
649
  8
LAYER01
 62
     7
 10
6462.8566816698476
 20
7351.0038575557664
 30
0.0
  0
VERTEX
  5
64A
  8
LAYER01
 62
     7
 10
6462.8566816698476
 20
7351.0038575557664
 30
0.0
  0
VERTEX
  5
64B
  8
LAYER01
 62
     7
 10
6510.4359946637369
 20
7343.0739720567844
 30
0.0
  0
VERTEX
  5
64C
  8
LAYER01
 62
     7
 10
6554.0503649081338
 20
7323.2492583093299
 30
0.0
  0
VERTEX
  5
64D
  8
LAYER01
 62
     7
 10
6589.7348496535496
 20
7299.4596018123866
 30
0.0
  0
VERTEX
  5
64E
  8
LAYER01
 62
     7
 10
6621.4543916494758
 20
7267.7400598164604
 30
0.0
  0
VERTEX
  5
64F
  8
LAYER01
 62
     7
 10
6649.2089908959106
 20
7236.0205178205342
 30
0.0
  0
VERTEX
  5
650
  8
LAYER01
 62
     7
 10
6669.0337046433651
 20
7196.3710903256278
 30
0.0
  0
VERTEX
  5
651
  8
LAYER01
 62
     7
 10
6680.9285328918368
 20
7148.7917773317413
 30
0.0
  0
VERTEX
  5
652
  8
LAYER01
 62
     7
 10
6684.8934756413273
 20
7105.1774070873416
 30
0.0
  0
VERTEX
  5
653
  8
LAYER01
 62
     7
 10
6684.8934756413273
 20
7105.1774070873416
 30
0.0
  0
VERTEX
  5
654
  8
LAYER01
 62
     7
 10
6680.9285328918368
 20
7057.5980940934542
 30
0.0
  0
VERTEX
  5
655
  8
LAYER01
 62
     7
 10
6672.9986473928557
 20
7017.948666598546
 30
0.0
  0
VERTEX
  5
656
  8
LAYER01
 62
     7
 10
6657.1388763948926
 20
6978.2992391036396
 30
0.0
  0
VERTEX
  5
657
  8
LAYER01
 62
     7
 10
6637.3141626474389
 20
6942.6147543582238
 30
0.0
  0
VERTEX
  5
658
  8
LAYER01
 62
     7
 10
6609.5595634010042
 20
6910.8952123622976
 30
0.0
  0
VERTEX
  5
659
  8
LAYER01
 62
     7
 10
6581.8049641545704
 20
6887.1055558653534
 30
0.0
  0
VERTEX
  5
65A
  8
LAYER01
 62
     7
 10
6542.1555366596622
 20
6863.3158993684092
 30
0.0
  0
VERTEX
  5
65B
  8
LAYER01
 62
     7
 10
6502.506109164754
 20
6847.4561283704461
 30
0.0
  0
VERTEX
  5
65C
  8
LAYER01
 62
     7
 10
6760.2273878816522
 20
6502.506109164754
 30
0.0
  0
VERTEX
  5
65D
  8
LAYER01
 62
     7
 10
6561.9802504071158
 20
6502.506109164754
 30
0.0
  0
VERTEX
  5
65E
  8
LAYER01
 62
     7
 10
6217.0302312014246
 20
6942.6147543582238
 30
0.0
  0
VERTEX
  5
65F
  8
LAYER01
 62
     7
 10
6411.3124259264687
 20
6942.6147543582238
 30
0.0
  0
VERTEX
  5
660
  8
LAYER01
 62
     7
 10
6411.3124259264687
 20
6942.6147543582238
 30
0.0
  0
VERTEX
  5
661
  8
LAYER01
 62
     7
 10
6435.102082423412
 20
6950.5446398572049
 30
0.0
  0
VERTEX
  5
662
  8
LAYER01
 62
     7
 10
6454.9267961708656
 20
6958.4745253561859
 30
0.0
  0
VERTEX
  5
663
  8
LAYER01
 62
     7
 10
6470.7865671688287
 20
6974.334296354149
 30
0.0
  0
VERTEX
  5
664
  8
LAYER01
 62
     7
 10
6486.6463381667918
 20
6990.1940673521131
 30
0.0
  0
VERTEX
  5
665
  8
LAYER01
 62
     7
 10
6498.5411664152653
 20
7010.0187810995658
 30
0.0
  0
VERTEX
  5
666
  8
LAYER01
 62
     7
 10
6510.4359946637369
 20
7029.8434948470176
 30
0.0
  0
VERTEX
  5
667
  8
LAYER01
 62
     7
 10
6514.4009374132283
 20
7053.6331513439627
 30
0.0
  0
VERTEX
  5
668
  8
LAYER01
 62
     7
 10
6514.4009374132283
 20
7077.4228078409069
 30
0.0
  0
VERTEX
  5
669
  8
LAYER01
 62
     7
 10
6514.4009374132283
 20
7077.4228078409069
 30
0.0
  0
VERTEX
  5
66A
  8
LAYER01
 62
     7
 10
6514.4009374132283
 20
7101.212464337852
 30
0.0
  0
VERTEX
  5
66B
  8
LAYER01
 62
     7
 10
6506.4710519142463
 20
7121.0371780853047
 30
0.0
  0
VERTEX
  5
66C
  8
LAYER01
 62
     7
 10
6498.5411664152653
 20
7140.8618918327593
 30
0.0
  0
VERTEX
  5
66D
  8
LAYER01
 62
     7
 10
6486.6463381667918
 20
7160.6866055802111
 30
0.0
  0
VERTEX
  5
66E
  8
LAYER01
 62
     7
 10
6470.7865671688287
 20
7176.5463765781742
 30
0.0
  0
VERTEX
  5
66F
  8
LAYER01
 62
     7
 10
6454.9267961708656
 20
7188.4412048266468
 30
0.0
  0
VERTEX
  5
670
  8
LAYER01
 62
     7
 10
6431.1371396739214
 20
7200.3360330751193
 30
0.0
  0
VERTEX
  5
671
  8
LAYER01
 62
     7
 10
6411.3124259264687
 20
7208.2659185741013
 30
0.0
  0
VERTEX
  5
672
  8
LAYER01
 62
     7
 10
6185.3106892054993
 20
7208.2659185741013
 30
0.0
  0
VERTEX
  5
673
  8
LAYER01
 62
     7
 10
6042.5727502238333
 20
7351.0038575557664
 30
0.0
  0
VERTEX
  5
674
  8
LAYER01
 62
     7
 10
6042.5727502238333
 20
7351.0038575557664
 30
0.0
  0
SEQEND
  5
675
  8
LAYER01
 62
     7
  0
POLYLINE
  5
676
  8
LAYER01
 62
     7
 66
     1
 10
0.0
 20
0.0
 30
0.0
 70
     1
  0
VERTEX
  5
677
  8
LAYER01
 62
     7
 10
6867.2808421178988
 20
7140.8618918327593
 30
0.0
  0
VERTEX
  5
678
  8
LAYER01
 62
     7
 10
6867.2808421178988
 20
7140.8618918327593
 30
0.0
  0
VERTEX
  5
679
  8
LAYER01
 62
     7
 10
6887.1055558653534
 20
7144.826834582248
 30
0.0
  0
VERTEX
  5
67A
  8
LAYER01
 62
     7
 10
6906.930269612807
 20
7148.7917773317413
 30
0.0
  0
VERTEX
  5
67B
  8
LAYER01
 62
     7
 10
6926.7549833602607
 20
7160.6866055802111
 30
0.0
  0
VERTEX
  5
67C
  8
LAYER01
 62
     7
 10
6942.6147543582238
 20
7172.5814338286846
 30
0.0
  0
VERTEX
  5
67D
  8
LAYER01
 62
     7
 10
6954.5095826066963
 20
7188.4412048266468
 30
0.0
  0
VERTEX
  5
67E
  8
LAYER01
 62
     7
 10
6962.4394681056774
 20
7204.3009758246098
 30
0.0
  0
VERTEX
  5
67F
  8
LAYER01
 62
     7
 10
6970.3693536046594
 20
7224.1256895720644
 30
0.0
  0
VERTEX
  5
680
  8
LAYER01
 62
     7
 10
6970.3693536046594
 20
7247.9153460690077
 30
0.0
  0
VERTEX
  5
681
  8
LAYER01
 62
     7
 10
6970.3693536046594
 20
7247.9153460690077
 30
0.0
  0
VERTEX
  5
682
  8
LAYER01
 62
     7
 10
6970.3693536046594
 20
7267.7400598164604
 30
0.0
  0
VERTEX
  5
683
  8
LAYER01
 62
     7
 10
6962.4394681056774
 20
7287.5647735639141
 30
0.0
  0
VERTEX
  5
684
  8
LAYER01
 62
     7
 10
6954.5095826066963
 20
7303.4245445618772
 30
0.0
  0
VERTEX
  5
685
  8
LAYER01
 62
     7
 10
6942.6147543582238
 20
7319.2843155598412
 30
0.0
  0
VERTEX
  5
686
  8
LAYER01
 62
     7
 10
6926.7549833602607
 20
7331.1791438083128
 30
0.0
  0
VERTEX
  5
687
  8
LAYER01
 62
     7
 10
6906.930269612807
 20
7343.0739720567844
 30
0.0
  0
VERTEX
  5
688
  8
LAYER01
 62
     7
 10
6887.1055558653534
 20
7347.038914806275
 30
0.0
  0
VERTEX
  5
689
  8
LAYER01
 62
     7
 10
6867.2808421178988
 20
7351.0038575557664
 30
0.0
  0
VERTEX
  5
68A
  8
LAYER01
 62
     7
 10
6867.2808421178988
 20
7351.0038575557664
 30
0.0
  0
VERTEX
  5
68B
  8
LAYER01
 62
     7
 10
6847.4561283704461
 20
7347.038914806275
 30
0.0
  0
VERTEX
  5
68C
  8
LAYER01
 62
     7
 10
6827.6314146229934
 20
7343.0739720567844
 30
0.0
  0
VERTEX
  5
68D
  8
LAYER01
 62
     7
 10
6807.8067008755397
 20
7331.1791438083128
 30
0.0
  0
VERTEX
  5
68E
  8
LAYER01
 62
     7
 10
6791.9469298775757
 20
7319.2843155598412
 30
0.0
  0
VERTEX
  5
68F
  8
LAYER01
 62
     7
 10
6780.0521016291041
 20
7303.4245445618772
 30
0.0
  0
VERTEX
  5
690
  8
LAYER01
 62
     7
 10
6772.122216130123
 20
7287.5647735639141
 30
0.0
  0
VERTEX
  5
691
  8
LAYER01
 62
     7
 10
6764.1923306311428
 20
7267.7400598164604
 30
0.0
  0
VERTEX
  5
692
  8
LAYER01
 62
     7
 10
6764.1923306311428
 20
7247.9153460690077
 30
0.0
  0
VERTEX
  5
693
  8
LAYER01
 62
     7
 10
6764.1923306311428
 20
7247.9153460690077
 30
0.0
  0
VERTEX
  5
694
  8
LAYER01
 62
     7
 10
6764.1923306311428
 20
7224.1256895720644
 30
0.0
  0
VERTEX
  5
695
  8
LAYER01
 62
     7
 10
6772.122216130123
 20
7204.3009758246098
 30
0.0
  0
VERTEX
  5
696
  8
LAYER01
 62
     7
 10
6780.0521016291041
 20
7188.4412048266468
 30
0.0
  0
VERTEX
  5
697
  8
LAYER01
 62
     7
 10
6791.9469298775757
 20
7172.5814338286846
 30
0.0
  0
VERTEX
  5
698
  8
LAYER01
 62
     7
 10
6807.8067008755397
 20
7160.6866055802111
 30
0.0
  0
VERTEX
  5
699
  8
LAYER01
 62
     7
 10
6827.6314146229934
 20
7148.7917773317413
 30
0.0
  0
VERTEX
  5
69A
  8
LAYER01
 62
     7
 10
6847.4561283704461
 20
7144.826834582248
 30
0.0
  0
VERTEX
  5
69B
  8
LAYER01
 62
     7
 10
6867.2808421178988
 20
7140.8618918327593
 30
0.0
  0
VERTEX
  5
69C
  8
LAYER01
 62
     7
 10
6867.2808421178988
 20
7140.8618918327593
 30
0.0
  0
SEQEND
  5
69D
  8
LAYER01
 62
     7
  0
POLYLINE
  5
69E
  8
LAYER01
 62
     7
 66
     1
 10
0.0
 20
0.0
 30
0.0
 70
     1
  0
VERTEX
  5
69F
  8
LAYER01
 62
     7
 10
6867.2808421178988
 20
7335.1440865578043
 30
0.0
  0
VERTEX
  5
6A0
  8
LAYER01
 62
     7
 10
6867.2808421178988
 20
7335.1440865578043
 30
0.0
  0
VERTEX
  5
6A1
  8
LAYER01
 62
     7
 10
6883.1406131158628
 20
7331.1791438083128
 30
0.0
  0
VERTEX
  5
6A2
  8
LAYER01
 62
     7
 10
6899.0003841138259
 20
7327.2142010588213
 30
0.0
  0
VERTEX
  5
6A3
  8
LAYER01
 62
     7
 10
6914.8601551117881
 20
7319.2843155598412
 30
0.0
  0
VERTEX
  5
6A4
  8
LAYER01
 62
     7
 10
6926.7549833602607
 20
7307.3894873113677
 30
0.0
  0
VERTEX
  5
6A5
  8
LAYER01
 62
     7
 10
6938.6498116087323
 20
7295.4946590628961
 30
0.0
  0
VERTEX
  5
6A6
  8
LAYER01
 62
     7
 10
6946.5796971077143
 20
7279.634888064933
 30
0.0
  0
VERTEX
  5
6A7
  8
LAYER01
 62
     7
 10
6954.5095826066963
 20
7263.7751170669708
 30
0.0
  0
VERTEX
  5
6A8
  8
LAYER01
 62
     7
 10
6954.5095826066963
 20
7247.9153460690077
 30
0.0
  0
VERTEX
  5
6A9
  8
LAYER01
 62
     7
 10
6954.5095826066963
 20
7247.9153460690077
 30
0.0
  0
VERTEX
  5
6AA
  8
LAYER01
 62
     7
 10
6954.5095826066963
 20
7228.0906323215549
 30
0.0
  0
VERTEX
  5
6AB
  8
LAYER01
 62
     7
 10
6946.5796971077143
 20
7212.2308613235909
 30
0.0
  0
VERTEX
  5
6AC
  8
LAYER01
 62
     7
 10
6938.6498116087323
 20
7196.3710903256278
 30
0.0
  0
VERTEX
  5
6AD
  8
LAYER01
 62
     7
 10
6926.7549833602607
 20
7184.4762620771562
 30
0.0
  0
VERTEX
  5
6AE
  8
LAYER01
 62
     7
 10
6914.8601551117881
 20
7172.5814338286846
 30
0.0
  0
VERTEX
  5
6AF
  8
LAYER01
 62
     7
 10
6899.0003841138259
 20
7164.6515483297017
 30
0.0
  0
VERTEX
  5
6B0
  8
LAYER01
 62
     7
 10
6883.1406131158628
 20
7160.6866055802111
 30
0.0
  0
VERTEX
  5
6B1
  8
LAYER01
 62
     7
 10
6867.2808421178988
 20
7160.6866055802111
 30
0.0
  0
VERTEX
  5
6B2
  8
LAYER01
 62
     7
 10
6867.2808421178988
 20
7160.6866055802111
 30
0.0
  0
VERTEX
  5
6B3
  8
LAYER01
 62
     7
 10
6851.4210711199376
 20
7160.6866055802111
 30
0.0
  0
VERTEX
  5
6B4
  8
LAYER01
 62
     7
 10
6831.5963573724839
 20
7164.6515483297017
 30
0.0
  0
VERTEX
  5
6B5
  8
LAYER01
 62
     7
 10
6819.7015291240123
 20
7172.5814338286846
 30
0.0
  0
VERTEX
  5
6B6
  8
LAYER01
 62
     7
 10
6803.8417581260492
 20
7184.4762620771562
 30
0.0
  0
VERTEX
  5
6B7
  8
LAYER01
 62
     7
 10
6795.9118726270672
 20
7196.3710903256278
 30
0.0
  0
VERTEX
  5
6B8
  8
LAYER01
 62
     7
 10
6787.9819871280861
 20
7212.2308613235909
 30
0.0
  0
VERTEX
  5
6B9
  8
LAYER01
 62
     7
 10
6780.0521016291041
 20
7228.0906323215549
 30
0.0
  0
VERTEX
  5
6BA
  8
LAYER01
 62
     7
 10
6780.0521016291041
 20
7247.9153460690077
 30
0.0
  0
VERTEX
  5
6BB
  8
LAYER01
 62
     7
 10
6780.0521016291041
 20
7247.9153460690077
 30
0.0
  0
VERTEX
  5
6BC
  8
LAYER01
 62
     7
 10
6780.0521016291041
 20
7263.7751170669708
 30
0.0
  0
VERTEX
  5
6BD
  8
LAYER01
 62
     7
 10
6787.9819871280861
 20
7279.634888064933
 30
0.0
  0
VERTEX
  5
6BE
  8
LAYER01
 62
     7
 10
6795.9118726270672
 20
7295.4946590628961
 30
0.0
  0
VERTEX
  5
6BF
  8
LAYER01
 62
     7
 10
6803.8417581260492
 20
7307.3894873113677
 30
0.0
  0
VERTEX
  5
6C0
  8
LAYER01
 62
     7
 10
6819.7015291240123
 20
7319.2843155598412
 30
0.0
  0
VERTEX
  5
6C1
  8
LAYER01
 62
     7
 10
6831.5963573724839
 20
7327.2142010588213
 30
0.0
  0
VERTEX
  5
6C2
  8
LAYER01
 62
     7
 10
6851.4210711199376
 20
7331.1791438083128
 30
0.0
  0
VERTEX
  5
6C3
  8
LAYER01
 62
     7
 10
6867.2808421178988
 20
7335.1440865578043
 30
0.0
  0
VERTEX
  5
6C4
  8
LAYER01
 62
     7
 10
6867.2808421178988
 20
7335.1440865578043
 30
0.0
  0
SEQEND
  5
6C5
  8
LAYER01
 62
     7
  0
POLYLINE
  5
6C6
  8
LAYER01
 62
     7
 66
     1
 10
0.0
 20
0.0
 30
0.0
 70
     1
  0
VERTEX
  5
6C7
  8
LAYER01
 62
     7
 10
6883.1406131158628
 20
7239.9854605700266
 30
0.0
  0
VERTEX
  5
6C8
  8
LAYER01
 62
     7
 10
6883.1406131158628
 20
7239.9854605700266
 30
0.0
  0
VERTEX
  5
6C9
  8
LAYER01
 62
     7
 10
6895.0354413643354
 20
7243.950403319518
 30
0.0
  0
VERTEX
  5
6CA
  8
LAYER01
 62
     7
 10
6906.930269612807
 20
7247.9153460690077
 30
0.0
  0
VERTEX
  5
6CB
  8
LAYER01
 62
     7
 10
6914.8601551117881
 20
7259.8101743174793
 30
0.0
  0
VERTEX
  5
6CC
  8
LAYER01
 62
     7
 10
6914.8601551117881
 20
7271.705002565951
 30
0.0
  0
VERTEX
  5
6CD
  8
LAYER01
 62
     7
 10
6914.8601551117881
 20
7271.705002565951
 30
0.0
  0
VERTEX
  5
6CE
  8
LAYER01
 62
     7
 10
6914.8601551117881
 20
7287.5647735639141
 30
0.0
  0
VERTEX
  5
6CF
  8
LAYER01
 62
     7
 10
6902.9653268633156
 20
7299.4596018123866
 30
0.0
  0
VERTEX
  5
6D0
  8
LAYER01
 62
     7
 10
6891.0704986148439
 20
7303.4245445618772
 30
0.0
  0
VERTEX
  5
6D1
  8
LAYER01
 62
     7
 10
6875.2107276168808
 20
7303.4245445618772
 30
0.0
  0
VERTEX
  5
6D2
  8
LAYER01
 62
     7
 10
6827.6314146229934
 20
7303.4245445618772
 30
0.0
  0
VERTEX
  5
6D3
  8
LAYER01
 62
     7
 10
6827.6314146229934
 20
7188.4412048266468
 30
0.0
  0
VERTEX
  5
6D4
  8
LAYER01
 62
     7
 10
6843.4911856209546
 20
7188.4412048266468
 30
0.0
  0
VERTEX
  5
6D5
  8
LAYER01
 62
     7
 10
6843.4911856209546
 20
7239.9854605700266
 30
0.0
  0
VERTEX
  5
6D6
  8
LAYER01
 62
     7
 10
6867.2808421178988
 20
7239.9854605700266
 30
0.0
  0
VERTEX
  5
6D7
  8
LAYER01
 62
     7
 10
6895.0354413643354
 20
7188.4412048266468
 30
0.0
  0
VERTEX
  5
6D8
  8
LAYER01
 62
     7
 10
6914.8601551117881
 20
7188.4412048266468
 30
0.0
  0
VERTEX
  5
6D9
  8
LAYER01
 62
     7
 10
6883.1406131158628
 20
7239.9854605700266
 30
0.0
  0
VERTEX
  5
6DA
  8
LAYER01
 62
     7
 10
6883.1406131158628
 20
7239.9854605700266
 30
0.0
  0
SEQEND
  5
6DB
  8
LAYER01
 62
     7
  0
POLYLINE
  5
6DC
  8
LAYER01
 62
     7
 66
     1
 10
0.0
 20
0.0
 30
0.0
 70
     1
  0
VERTEX
  5
6DD
  8
LAYER01
 62
     7
 10
6871.2457848673903
 20
7287.5647735639141
 30
0.0
  0
VERTEX
  5
6DE
  8
LAYER01
 62
     7
 10
6871.2457848673903
 20
7287.5647735639141
 30
0.0
  0
VERTEX
  5
6DF
  8
LAYER01
 62
     7
 10
6891.0704986148439
 20
7283.5998308144244
 30
0.0
  0
VERTEX
  5
6E0
  8
LAYER01
 62
     7
 10
6899.0003841138259
 20
7279.634888064933
 30
0.0
  0
VERTEX
  5
6E1
  8
LAYER01
 62
     7
 10
6899.0003841138259
 20
7271.705002565951
 30
0.0
  0
VERTEX
  5
6E2
  8
LAYER01
 62
     7
 10
6899.0003841138259
 20
7271.705002565951
 30
0.0
  0
VERTEX
  5
6E3
  8
LAYER01
 62
     7
 10
6895.0354413643354
 20
7263.7751170669708
 30
0.0
  0
VERTEX
  5
6E4
  8
LAYER01
 62
     7
 10
6887.1055558653534
 20
7259.8101743174793
 30
0.0
  0
VERTEX
  5
6E5
  8
LAYER01
 62
     7
 10
6863.3158993684092
 20
7255.8452315679879
 30
0.0
  0
VERTEX
  5
6E6
  8
LAYER01
 62
     7
 10
6843.4911856209546
 20
7255.8452315679879
 30
0.0
  0
VERTEX
  5
6E7
  8
LAYER01
 62
     7
 10
6843.4911856209546
 20
7287.5647735639141
 30
0.0
  0
VERTEX
  5
6E8
  8
LAYER01
 62
     7
 10
6871.2457848673903
 20
7287.5647735639141
 30
0.0
  0
VERTEX
  5
6E9
  8
LAYER01
 62
     7
 10
6871.2457848673903
 20
7287.5647735639141
 30
0.0
  0
SEQEND
  5
6EA
  8
LAYER01
 62
     7
  0
ENDBLK
  5
6EB
  8
0
 62
     7
  0
ENDSEC
  0
SECTION
  2
ENTITIES
  0
LINE
  5
214
  8
LAYER01
  6
CONTINUOUS
 62
     7
 10
1244.7402039999999
 20
7429.6067819999989
 30
0.0
 11
1366.7402039999999
 21
7429.6067819999989
 31
0.0
  0
LINE
  5
215
  8
LAYER01
  6
CONTINUOUS
 62
     7
 10
1244.7402039999999
 20
7427.6067819999989
 30
0.0
 11
1366.7402039999999
 21
7427.6067819999989
 31
0.0
  0
LINE
  5
216
  8
LAYER01
  6
CONTINUOUS
 62
     7
 10
1244.7402039999999
 20
7429.6067819999989
 30
0.0
 11
1244.7402039999999
 21
7427.6067819999989
 31
0.0
  0
LINE
  5
217
  8
LAYER01
  6
CONTINUOUS
 62
     7
 10
1366.7402039999999
 20
7429.6067819999989
 30
0.0
 11
1366.7402039999999
 21
7427.6067819999989
 31
0.0
  0
SOLID
  5
218
  8
LAYER01
  6
CONTINUOUS
 62
     7
 10
1244.7402039999999
 20
7429.6067819999989
 30
0.0
 11
1366.7402039999999
 21
7429.6067819999989
 31
0.0
 12
1244.7402039999999
 22
7427.6067819999989
 32
0.0
 13
1366.7402039999999
 23
7427.6067819999989
 33
0.0
  0
LINE
  5
219
  8
LAYER01
  6
CONTINUOUS
 62
     7
 10
1236.4804630000001
 20
7417.6067819999989
 30
0.0
 11
1366.7402039999999
 21
7417.6067819999989
 31
0.0
  0
LINE
  5
21A
  8
LAYER01
  6
CONTINUOUS
 62
     7
 10
1236.4804630000001
 20
7415.6067819999989
 30
0.0
 11
1366.7402039999999
 21
7415.6067819999989
 31
0.0
  0
LINE
  5
21B
  8
LAYER01
  6
CONTINUOUS
 62
     7
 10
1236.4804630000001
 20
7417.6067819999989
 30
0.0
 11
1236.4804630000001
 21
7415.6067819999989
 31
0.0
  0
LINE
  5
21C
  8
LAYER01
  6
CONTINUOUS
 62
     7
 10
1366.7402039999999
 20
7417.6067819999989
 30
0.0
 11
1366.7402039999999
 21
7415.6067819999989
 31
0.0
  0
SOLID
  5
21D
  8
LAYER01
  6
CONTINUOUS
 62
     7
 10
1236.4804630000001
 20
7417.6067819999989
 30
0.0
 11
1366.7402039999999
 21
7417.6067819999989
 31
0.0
 12
1236.4804630000001
 22
7415.6067819999989
 32
0.0
 13
1366.7402039999999
 23
7415.6067819999989
 33
0.0
  0
INSERT
  5
21E
  8
LAYER01
  2
UBWR-G1
 10
0.0
 20
0.0
 30
0.0
  0
DIMENSION
  5
21F
  8
LAYER01
 62
     7
  2
*D1
 10
1485.0
 20
8800.0
 30
0.0
 11
1264.0183830000001
 21
8845.0
 31
0.0
 13
1035.0
 23
8695.7296360000018
 33
0.0
 14
1485.0
 24
8695.7296360000018
 34
0.0
  0
DIMENSION
  5
220
  8
LAYER01
 62
     7
  2
*D2
 10
260.0
 20
9020.0
 30
0.0
 11
1269.289342
 21
9065.0
 31
0.0
 13
2260.0
 23
8695.7296360000018
 33
0.0
 14
260.0
 24
8695.7296360000018
 34
0.0
  0
DIMENSION
  5
221
  8
LAYER01
 62
     7
  2
*D3
 10
1366.7402039999999
 20
7105.9215269999986
 30
0.0
 11
1127.809962
 21
7150.9215270000004
 31
0.0
 13
886.74020399999995
 23
7210.5260109999999
 33
0.0
 14
1366.7402039999999
 24
7210.5260109999999
 34
0.0
  0
LINE
  5
222
  8
LAYER01
  6
CONTINUOUS
 62
     7
 10
260.0
 20
8697.729636
 30
0.0
 11
2260.0
 21
8697.729636
 31
0.0
  0
LINE
  5
223
  8
LAYER01
  6
CONTINUOUS
 62
     7
 10
260.0
 20
8693.729636
 30
0.0
 11
2260.0
 21
8693.729636
 31
0.0
  0
LINE
  5
224
  8
LAYER01
  6
CONTINUOUS
 62
     7
 10
260.0
 20
8697.729636
 30
0.0
 11
260.0
 21
8693.729636
 31
0.0
  0
LINE
  5
225
  8
LAYER01
  6
CONTINUOUS
 62
     7
 10
2260.0
 20
8697.729636
 30
0.0
 11
2260.0
 21
8693.729636
 31
0.0
  0
SOLID
  5
226
  8
LAYER01
  6
CONTINUOUS
 62
     7
 10
260.0
 20
8697.729636
 30
0.0
 11
2260.0
 21
8697.729636
 31
0.0
 12
260.0
 22
8693.729636
 32
0.0
 13
2260.0
 23
8693.729636
 33
0.0
  0
LINE
  5
227
  8
LAYER01
  6
CONTINUOUS
 62
     7
 10
260.0
 20
8217.7296359999982
 30
0.0
 11
2260.0
 21
8217.7296359999982
 31
0.0
  0
LINE
  5
228
  8
LAYER01
  6
CONTINUOUS
 62
     7
 10
260.0
 20
8213.7296360000018
 30
0.0
 11
2260.0
 21
8213.7296360000018
 31
0.0
  0
LINE
  5
229
  8
LAYER01
  6
CONTINUOUS
 62
     7
 10
260.0
 20
8217.7296359999982
 30
0.0
 11
260.0
 21
8213.7296360000018
 31
0.0
  0
LINE
  5
22A
  8
LAYER01
  6
CONTINUOUS
 62
     7
 10
2260.0
 20
8217.7296359999982
 30
0.0
 11
2260.0
 21
8213.7296360000018
 31
0.0
  0
SOLID
  5
22B
  8
LAYER01
  6
CONTINUOUS
 62
     7
 10
260.0
 20
8217.7296359999982
 30
0.0
 11
2260.0
 21
8217.7296359999982
 31
0.0
 12
260.0
 22
8213.7296360000018
 32
0.0
 13
2260.0
 23
8213.7296360000018
 33
0.0
  0
LINE
  5
22C
  8
LAYER01
  6
CONTINUOUS
 62
     7
 10
371.0
 20
8567.7296360000018
 30
0.0
 11
2149.773146
 21
8567.7296360000018
 31
0.0
  0
LINE
  5
22D
  8
LAYER01
  6
CONTINUOUS
 62
     7
 10
371.0
 20
8563.7296360000018
 30
0.0
 11
2149.773146
 21
8563.7296360000018
 31
0.0
  0
LINE
  5
22E
  8
LAYER01
  6
CONTINUOUS
 62
     7
 10
371.0
 20
8567.7296360000018
 30
0.0
 11
371.0
 21
8563.7296360000018
 31
0.0
  0
LINE
  5
22F
  8
LAYER01
  6
CONTINUOUS
 62
     7
 10
2149.773146
 20
8567.7296360000018
 30
0.0
 11
2149.773146
 21
8563.7296360000018
 31
0.0
  0
SOLID
  5
230
  8
LAYER01
  6
CONTINUOUS
 62
     7
 10
371.0
 20
8567.7296360000018
 30
0.0
 11
2149.773146
 21
8567.7296360000018
 31
0.0
 12
371.0
 22
8563.7296360000018
 32
0.0
 13
2149.773146
 23
8563.7296360000018
 33
0.0
  0
LINE
  5
231
  8
LAYER01
  6
CONTINUOUS
 62
     7
 10
371.0
 20
8267.729636
 30
0.0
 11
2147.0206629999998
 21
8267.729636
 31
0.0
  0
LINE
  5
232
  8
LAYER01
  6
CONTINUOUS
 62
     7
 10
371.0
 20
8263.729636
 30
0.0
 11
2147.0206629999998
 21
8263.729636
 31
0.0
  0
LINE
  5
233
  8
LAYER01
  6
CONTINUOUS
 62
     7
 10
371.0
 20
8267.729636
 30
0.0
 11
371.0
 21
8263.729636
 31
0.0
  0
LINE
  5
234
  8
LAYER01
  6
CONTINUOUS
 62
     7
 10
2147.0206629999998
 20
8267.729636
 30
0.0
 11
2147.0206629999998
 21
8263.729636
 31
0.0
  0
SOLID
  5
235
  8
LAYER01
  6
CONTINUOUS
 62
     7
 10
371.0
 20
8267.729636
 30
0.0
 11
2147.0206629999998
 21
8267.729636
 31
0.0
 12
371.0
 22
8263.729636
 32
0.0
 13
2147.0206629999998
 23
8263.729636
 33
0.0
  0
LINE
  5
236
  8
LAYER01
  6
CONTINUOUS
 62
     7
 10
260.0
 20
7827.729636
 30
0.0
 11
2260.0
 21
7827.729636
 31
0.0
  0
LINE
  5
237
  8
LAYER01
  6
CONTINUOUS
 62
     7
 10
260.0
 20
7823.729636
 30
0.0
 11
2260.0
 21
7823.729636
 31
0.0
  0
LINE
  5
238
  8
LAYER01
  6
CONTINUOUS
 62
     7
 10
260.0
 20
7827.729636
 30
0.0
 11
260.0
 21
7823.729636
 31
0.0
  0
LINE
  5
239
  8
LAYER01
  6
CONTINUOUS
 62
     7
 10
2260.0
 20
7827.729636
 30
0.0
 11
2260.0
 21
7823.729636
 31
0.0
  0
SOLID
  5
23A
  8
LAYER01
  6
CONTINUOUS
 62
     7
 10
260.0
 20
7827.729636
 30
0.0
 11
2260.0
 21
7827.729636
 31
0.0
 12
260.0
 22
7823.729636
 32
0.0
 13
2260.0
 23
7823.729636
 33
0.0
  0
LINE
  5
23B
  8
LAYER01
  6
CONTINUOUS
 62
     7
 10
260.0
 20
7627.7296360000009
 30
0.0
 11
2260.0
 21
7627.7296360000009
 31
0.0
  0
LINE
  5
23C
  8
LAYER01
  6
CONTINUOUS
 62
     7
 10
260.0
 20
7623.729636
 30
0.0
 11
2260.0
 21
7623.729636
 31
0.0
  0
LINE
  5
23D
  8
LAYER01
  6
CONTINUOUS
 62
     7
 10
260.0
 20
7627.7296360000009
 30
0.0
 11
260.0
 21
7623.729636
 31
0.0
  0
LINE
  5
23E
  8
LAYER01
  6
CONTINUOUS
 62
     7
 10
2260.0
 20
7627.7296360000009
 30
0.0
 11
2260.0
 21
7623.729636
 31
0.0
  0
SOLID
  5
23F
  8
LAYER01
  6
CONTINUOUS
 62
     7
 10
260.0
 20
7627.7296360000009
 30
0.0
 11
2260.0
 21
7627.7296360000009
 31
0.0
 12
260.0
 22
7623.729636
 32
0.0
 13
2260.0
 23
7623.729636
 33
0.0
  0
LINE
  5
240
  8
LAYER01
  6
VERDECKT
 62
   252
 10
260.0
 20
8227.7296360000018
 30
0.0
 11
2260.0
 21
8227.7296360000018
 31
0.0
  0
ARC
  5
241
  8
LAYER01
  6
VERDECKT
 62
   252
 10
1313.890971
 20
7662.2580900000003
 30
0.0
 40
10.0
 50
92.433487
 51
180.0
  0
DIMENSION
  5
242
  8
LAYER01
 62
     7
  2
*D4
 10
133.899427
 20
7625.7296359999991
 30
0.0
 11
88.899427000000003
 21
7725.3336449999997
 31
0.0
 53
90.0
 13
260.0
 23
7826.729636
 33
0.0
 14
260.0
 24
7625.7296359999991
 34
0.0
 50
90.0
  0
LINE
  5
243
  8
LAYER01
  6
CONTINUOUS
 62
     7
 10
885.74020399999995
 20
7232.6067819999989
 30
0.0
 11
885.74020399999995
 21
7420.6067819999989
 31
0.0
  0
LINE
  5
244
  8
LAYER01
  6
CONTINUOUS
 62
     7
 10
887.74020399999995
 20
7232.6067819999989
 30
0.0
 11
887.74020399999995
 21
7420.6067819999989
 31
0.0
  0
LINE
  5
245
  8
LAYER01
  6
CONTINUOUS
 62
     7
 10
885.74020399999995
 20
7232.6067819999989
 30
0.0
 11
887.74020399999995
 21
7232.6067819999989
 31
0.0
  0
LINE
  5
246
  8
LAYER01
  6
CONTINUOUS
 62
     7
 10
885.74020399999995
 20
7420.6067819999989
 30
0.0
 11
887.74020399999995
 21
7420.6067819999989
 31
0.0
  0
SOLID
  5
247
  8
LAYER01
  6
CONTINUOUS
 62
     7
 10
885.74020399999995
 20
7232.6067819999989
 30
0.0
 11
885.74020399999995
 21
7420.6067819999989
 31
0.0
 12
887.74020399999995
 22
7232.6067819999989
 32
0.0
 13
887.74020399999995
 23
7420.6067819999989
 33
0.0
  0
LINE
  5
248
  8
LAYER01
  6
CONTINUOUS
 62
     7
 10
897.74020399999995
 20
7228.6067819999989
 30
0.0
 11
897.74020399999995
 21
7416.6067819999989
 31
0.0
  0
LINE
  5
249
  8
LAYER01
  6
CONTINUOUS
 62
     7
 10
899.74020399999984
 20
7228.6067819999989
 30
0.0
 11
899.74020399999984
 21
7416.6067819999989
 31
0.0
  0
LINE
  5
24A
  8
LAYER01
  6
CONTINUOUS
 62
     7
 10
897.74020399999995
 20
7228.6067819999989
 30
0.0
 11
899.74020399999984
 21
7228.6067819999989
 31
0.0
  0
LINE
  5
24B
  8
LAYER01
  6
CONTINUOUS
 62
     7
 10
897.74020399999995
 20
7416.6067819999989
 30
0.0
 11
899.74020399999984
 21
7416.6067819999989
 31
0.0
  0
SOLID
  5
24C
  8
LAYER01
  6
CONTINUOUS
 62
     7
 10
897.74020399999995
 20
7228.6067819999989
 30
0.0
 11
897.74020399999995
 21
7416.6067819999989
 31
0.0
 12
899.74020399999984
 22
7228.6067819999989
 32
0.0
 13
899.74020399999984
 23
7416.6067819999989
 33
0.0
  0
LINE
  5
24D
  8
LAYER01
  6
CONTINUOUS
 62
     7
 10
934.03570699999989
 20
7262.0235950000006
 30
0.0
 11
924.84620099999995
 21
7403.5419840000004
 31
0.0
  0
LINE
  5
24E
  8
LAYER01
  6
CONTINUOUS
 62
     7
 10
936.03150399999993
 20
7262.1531919999989
 30
0.0
 11
926.84199799999999
 21
7403.6715810000014
 31
0.0
  0
LINE
  5
24F
  8
LAYER01
  6
CONTINUOUS
 62
     7
 10
934.03570699999989
 20
7262.0235950000006
 30
0.0
 11
936.03150399999993
 21
7262.1531919999989
 31
0.0
  0
LINE
  5
250
  8
LAYER01
  6
CONTINUOUS
 62
     7
 10
924.84620099999995
 20
7403.5419840000004
 30
0.0
 11
926.84199799999999
 21
7403.6715810000014
 31
0.0
  0
SOLID
  5
251
  8
LAYER01
  6
CONTINUOUS
 62
     7
 10
934.03570699999989
 20
7262.0235950000006
 30
0.0
 11
924.84620099999995
 21
7403.5419840000004
 31
0.0
 12
936.03150399999993
 22
7262.1531919999989
 32
0.0
 13
926.84199799999999
 23
7403.6715810000014
 33
0.0
  0
LINE
  5
252
  8
LAYER01
  6
CONTINUOUS
 62
     7
 10
937.73810199999991
 20
7420.6715809999996
 30
0.0
 11
947.25228300000003
 21
7274.1531919999989
 31
0.0
  0
LINE
  5
253
  8
LAYER01
  6
CONTINUOUS
 62
     7
 10
935.7423050000001
 20
7420.5419840000004
 30
0.0
 11
945.256486
 21
7274.0235950000006
 31
0.0
  0
LINE
  5
254
  8
LAYER01
  6
CONTINUOUS
 62
     7
 10
937.73810199999991
 20
7420.6715809999996
 30
0.0
 11
935.7423050000001
 21
7420.5419840000004
 31
0.0
  0
LINE
  5
255
  8
LAYER01
  6
CONTINUOUS
 62
     7
 10
947.25228300000003
 20
7274.1531919999989
 30
0.0
 11
945.256486
 21
7274.0235950000006
 31
0.0
  0
SOLID
  5
256
  8
LAYER01
  6
CONTINUOUS
 62
     7
 10
937.73810199999991
 20
7420.6715809999996
 30
0.0
 11
947.25228300000003
 21
7274.1531919999989
 31
0.0
 12
935.7423050000001
 22
7420.5419840000004
 32
0.0
 13
945.256486
 23
7274.0235950000006
 33
0.0
  0
LINE
  5
257
  8
LAYER01
  6
CONTINUOUS
 62
     7
 10
1237.449445
 20
7262.1539510000011
 30
0.0
 11
1246.623464
 21
7403.671472
 31
0.0
  0
LINE
  5
258
  8
LAYER01
  6
CONTINUOUS
 62
     7
 10
1239.445256
 20
7262.0245700000014
 30
0.0
 11
1248.619275
 21
7403.5420920000006
 31
0.0
  0
LINE
  5
259
  8
LAYER01
  6
CONTINUOUS
 62
     7
 10
1237.449445
 20
7262.1539510000011
 30
0.0
 11
1239.445256
 21
7262.0245700000014
 31
0.0
  0
LINE
  5
25A
  8
LAYER01
  6
CONTINUOUS
 62
     7
 10
1246.623464
 20
7403.671472
 30
0.0
 11
1248.619275
 21
7403.5420920000006
 31
0.0
  0
SOLID
  5
25B
  8
LAYER01
  6
CONTINUOUS
 62
     7
 10
1237.449445
 20
7262.1539510000011
 30
0.0
 11
1246.623464
 21
7403.671472
 31
0.0
 12
1239.445256
 22
7262.0245700000014
 32
0.0
 13
1248.619275
 23
7403.5420920000006
 33
0.0
  0
LINE
  5
25C
  8
LAYER01
  6
CONTINUOUS
 62
     7
 10
1226.2273580000001
 20
7274.1539510000011
 30
0.0
 11
1235.759055
 21
7421.188994000001
 31
0.0
  0
LINE
  5
25D
  8
LAYER01
  6
CONTINUOUS
 62
     7
 10
1228.223168
 20
7274.0245699999996
 30
0.0
 11
1237.754866
 21
7421.0596139999989
 31
0.0
  0
LINE
  5
25E
  8
LAYER01
  6
CONTINUOUS
 62
     7
 10
1226.2273580000001
 20
7274.1539510000011
 30
0.0
 11
1228.223168
 21
7274.0245699999996
 31
0.0
  0
LINE
  5
25F
  8
LAYER01
  6
CONTINUOUS
 62
     7
 10
1235.759055
 20
7421.188994000001
 30
0.0
 11
1237.754866
 21
7421.0596139999989
 31
0.0
  0
SOLID
  5
260
  8
LAYER01
  6
CONTINUOUS
 62
     7
 10
1226.2273580000001
 20
7274.1539510000011
 30
0.0
 11
1235.759055
 21
7421.188994000001
 31
0.0
 12
1228.223168
 22
7274.0245699999996
 32
0.0
 13
1237.754866
 23
7421.0596139999989
 33
0.0
  0
DIMENSION
  5
261
  8
LAYER01
 62
     7
  2
*D5
 10
842.55343599999981
 20
7228.6067819999989
 30
0.0
 11
797.55343600000003
 21
7326.5391600000003
 31
0.0
 53
90.0
 13
889.08346500000005
 23
7426.2635209999989
 33
0.0
 14
886.74020399999995
 24
7228.6067819999989
 34
0.0
 50
90.0
  0
LINE
  5
262
  8
LAYER01
  6
CONTINUOUS
 62
     7
 10
1062.7397960000001
 20
7261.6067819999998
 30
0.0
 11
1110.7397960000001
 21
7261.6067819999998
 31
0.0
  0
LINE
  5
263
  8
LAYER01
  6
STRICHPUNKTIERT
 62
     7
 10
1086.7397960000001
 20
7206.7428710000004
 30
0.0
 11
1086.7397960000001
 21
7360.593393000001
 31
0.0
  0
LINE
  5
264
  8
LAYER01
  6
CONTINUOUS
 62
     7
 10
1042.7397960000001
 20
7235.6067819999989
 30
0.0
 11
1130.7397960000001
 21
7235.6067819999989
 31
0.0
  0
LINE
  5
265
  8
LAYER01
  6
CONTINUOUS
 62
     7
 10
1042.7397960000001
 20
7233.6067819999989
 30
0.0
 11
1130.7397960000001
 21
7233.6067819999989
 31
0.0
  0
LINE
  5
266
  8
LAYER01
  6
CONTINUOUS
 62
     7
 10
1042.7397960000001
 20
7235.6067819999989
 30
0.0
 11
1042.7397960000001
 21
7233.6067819999989
 31
0.0
  0
LINE
  5
267
  8
LAYER01
  6
CONTINUOUS
 62
     7
 10
1130.7397960000001
 20
7235.6067819999989
 30
0.0
 11
1130.7397960000001
 21
7233.6067819999989
 31
0.0
  0
SOLID
  5
268
  8
LAYER01
  6
CONTINUOUS
 62
     7
 10
1042.7397960000001
 20
7235.6067819999989
 30
0.0
 11
1130.7397960000001
 21
7235.6067819999989
 31
0.0
 12
1042.7397960000001
 22
7233.6067819999989
 32
0.0
 13
1130.7397960000001
 23
7233.6067819999989
 33
0.0
  0
LINE
  5
269
  8
LAYER01
  6
CONTINUOUS
 62
     7
 10
1057.7397960000001
 20
7267.606781999998
 30
0.0
 11
1115.7397960000001
 21
7267.606781999998
 31
0.0
  0
LINE
  5
26A
  8
LAYER01
  6
CONTINUOUS
 62
     7
 10
1057.7397960000001
 20
7265.606781999998
 30
0.0
 11
1115.7397960000001
 21
7265.606781999998
 31
0.0
  0
LINE
  5
26B
  8
LAYER01
  6
CONTINUOUS
 62
     7
 10
1057.7397960000001
 20
7267.606781999998
 30
0.0
 11
1057.7397960000001
 21
7265.606781999998
 31
0.0
  0
LINE
  5
26C
  8
LAYER01
  6
CONTINUOUS
 62
     7
 10
1115.7397960000001
 20
7267.606781999998
 30
0.0
 11
1115.7397960000001
 21
7265.606781999998
 31
0.0
  0
SOLID
  5
26D
  8
LAYER01
  6
CONTINUOUS
 62
     7
 10
1057.7397960000001
 20
7267.606781999998
 30
0.0
 11
1115.7397960000001
 21
7267.606781999998
 31
0.0
 12
1057.7397960000001
 22
7265.606781999998
 32
0.0
 13
1115.7397960000001
 23
7265.606781999998
 33
0.0
  0
LINE
  5
26E
  8
LAYER01
  6
CONTINUOUS
 62
     7
 10
1041.7397960000001
 20
7234.6067819999989
 30
0.0
 11
1041.7397960000001
 21
7246.6067819999989
 31
0.0
  0
LINE
  5
26F
  8
LAYER01
  6
CONTINUOUS
 62
     7
 10
1043.7397960000001
 20
7234.6067819999989
 30
0.0
 11
1043.7397960000001
 21
7246.6067819999989
 31
0.0
  0
LINE
  5
270
  8
LAYER01
  6
CONTINUOUS
 62
     7
 10
1041.7397960000001
 20
7234.6067819999989
 30
0.0
 11
1043.7397960000001
 21
7234.6067819999989
 31
0.0
  0
LINE
  5
271
  8
LAYER01
  6
CONTINUOUS
 62
     7
 10
1041.7397960000001
 20
7246.6067819999989
 30
0.0
 11
1043.7397960000001
 21
7246.6067819999989
 31
0.0
  0
SOLID
  5
272
  8
LAYER01
  6
CONTINUOUS
 62
     7
 10
1041.7397960000001
 20
7234.6067819999989
 30
0.0
 11
1041.7397960000001
 21
7246.6067819999989
 31
0.0
 12
1043.7397960000001
 22
7234.6067819999989
 32
0.0
 13
1043.7397960000001
 23
7246.6067819999989
 33
0.0
  0
LINE
  5
273
  8
LAYER01
  6
CONTINUOUS
 62
     7
 10
1061.7397960000001
 20
7234.6067819999989
 30
0.0
 11
1061.7397960000001
 21
7261.6067819999998
 31
0.0
  0
LINE
  5
274
  8
LAYER01
  6
CONTINUOUS
 62
     7
 10
1063.7397960000001
 20
7234.6067819999989
 30
0.0
 11
1063.7397960000001
 21
7261.6067819999998
 31
0.0
  0
LINE
  5
275
  8
LAYER01
  6
CONTINUOUS
 62
     7
 10
1061.7397960000001
 20
7234.6067819999989
 30
0.0
 11
1063.7397960000001
 21
7234.6067819999989
 31
0.0
  0
LINE
  5
276
  8
LAYER01
  6
CONTINUOUS
 62
     7
 10
1061.7397960000001
 20
7261.6067819999998
 30
0.0
 11
1063.7397960000001
 21
7261.6067819999998
 31
0.0
  0
SOLID
  5
277
  8
LAYER01
  6
CONTINUOUS
 62
     7
 10
1061.7397960000001
 20
7234.6067819999989
 30
0.0
 11
1061.7397960000001
 21
7261.6067819999998
 31
0.0
 12
1063.7397960000001
 22
7234.6067819999989
 32
0.0
 13
1063.7397960000001
 23
7261.6067819999998
 33
0.0
  0
LINE
  5
278
  8
LAYER01
  6
CONTINUOUS
 62
     7
 10
898.74020399999995
 20
7227.6067819999989
 30
0.0
 11
890.74020399999995
 21
7227.6067819999989
 31
0.0
  0
LINE
  5
279
  8
LAYER01
  6
CONTINUOUS
 62
     7
 10
898.74020399999995
 20
7229.6067819999989
 30
0.0
 11
890.74020399999995
 21
7229.6067819999989
 31
0.0
  0
LINE
  5
27A
  8
LAYER01
  6
CONTINUOUS
 62
     7
 10
898.74020399999995
 20
7227.6067819999989
 30
0.0
 11
898.74020399999995
 21
7229.6067819999989
 31
0.0
  0
LINE
  5
27B
  8
LAYER01
  6
CONTINUOUS
 62
     7
 10
890.74020399999995
 20
7227.6067819999989
 30
0.0
 11
890.74020399999995
 21
7229.6067819999989
 31
0.0
  0
SOLID
  5
27C
  8
LAYER01
  6
CONTINUOUS
 62
     7
 10
898.74020399999995
 20
7227.6067819999989
 30
0.0
 11
890.74020399999995
 21
7227.6067819999989
 31
0.0
 12
898.74020399999995
 22
7229.6067819999989
 32
0.0
 13
890.74020399999995
 23
7229.6067819999989
 33
0.0
  0
ARC
  5
27D
  8
LAYER01
  6
CONTINUOUS
 62
     7
 10
890.74020399999995
 20
7232.6067819999989
 30
0.0
 40
3.0
 50
180.00000499999999
 51
270.000001
  0
ARC
  5
27E
  8
LAYER01
  6
CONTINUOUS
 62
     7
 10
890.74020399999995
 20
7232.6067819999989
 30
0.0
 40
5.0
 50
180.00000499999999
 51
270.000001
  0
LINE
  5
27F
  8
LAYER01
  6
CONTINUOUS
 62
     7
 10
885.74020399999995
 20
7232.6067819999989
 30
0.0
 11
887.74020399999995
 21
7232.6067819999989
 31
0.0
  0
LINE
  5
280
  8
LAYER01
  6
CONTINUOUS
 62
     7
 10
890.74020399999995
 20
7227.6067819999989
 30
0.0
 11
890.74020399999995
 21
7229.6067819999989
 31
0.0
  0
LINE
  5
281
  8
LAYER01
  6
CONTINUOUS
 62
     7
 10
1034.7397960000001
 20
7253.606781999998
 30
0.0
 11
943.01679200000001
 21
7253.606781999998
 31
0.0
  0
LINE
  5
282
  8
LAYER01
  6
CONTINUOUS
 62
     7
 10
1034.7397960000001
 20
7255.6067819999998
 30
0.0
 11
943.01679200000001
 21
7255.6067819999998
 31
0.0
  0
LINE
  5
283
  8
LAYER01
  6
CONTINUOUS
 62
     7
 10
1034.7397960000001
 20
7253.606781999998
 30
0.0
 11
1034.7397960000001
 21
7255.6067819999998
 31
0.0
  0
LINE
  5
284
  8
LAYER01
  6
CONTINUOUS
 62
     7
 10
943.01679200000001
 20
7253.606781999998
 30
0.0
 11
943.01679200000001
 21
7255.6067819999998
 31
0.0
  0
SOLID
  5
285
  8
LAYER01
  6
CONTINUOUS
 62
     7
 10
1034.7397960000001
 20
7253.606781999998
 30
0.0
 11
943.01679200000001
 21
7253.606781999998
 31
0.0
 12
1034.7397960000001
 22
7255.6067819999998
 32
0.0
 13
943.01679200000001
 23
7255.6067819999998
 33
0.0
  0
LINE
  5
286
  8
LAYER01
  6
CONTINUOUS
 62
     7
 10
954.237572
 20
7267.606781999998
 30
0.0
 11
1057.7397960000001
 21
7267.606781999998
 31
0.0
  0
LINE
  5
287
  8
LAYER01
  6
CONTINUOUS
 62
     7
 10
954.237572
 20
7265.606781999998
 30
0.0
 11
1057.7397960000001
 21
7265.606781999998
 31
0.0
  0
LINE
  5
288
  8
LAYER01
  6
CONTINUOUS
 62
     7
 10
954.237572
 20
7267.606781999998
 30
0.0
 11
954.237572
 21
7265.606781999998
 31
0.0
  0
LINE
  5
289
  8
LAYER01
  6
CONTINUOUS
 62
     7
 10
1057.7397960000001
 20
7267.606781999998
 30
0.0
 11
1057.7397960000001
 21
7265.606781999998
 31
0.0
  0
SOLID
  5
28A
  8
LAYER01
  6
CONTINUOUS
 62
     7
 10
954.237572
 20
7267.606781999998
 30
0.0
 11
1057.7397960000001
 21
7267.606781999998
 31
0.0
 12
954.237572
 22
7265.606781999998
 32
0.0
 13
1057.7397960000001
 23
7265.606781999998
 33
0.0
  0
ARC
  5
28B
  8
LAYER01
  6
CONTINUOUS
 62
     7
 10
943.01679200000001
 20
7262.606781999998
 30
0.0
 40
7.0
 50
183.71528900000001
 51
270.0
  0
ARC
  5
28C
  8
LAYER01
  6
CONTINUOUS
 62
     7
 10
943.01679200000001
 20
7262.606781999998
 30
0.0
 40
9.0
 50
183.71528900000001
 51
270.0
  0
LINE
  5
28D
  8
LAYER01
  6
CONTINUOUS
 62
     7
 10
934.03570699999989
 20
7262.0235950000006
 30
0.0
 11
936.03150399999993
 21
7262.1531919999989
 31
0.0
  0
LINE
  5
28E
  8
LAYER01
  6
CONTINUOUS
 62
     7
 10
943.01679200000001
 20
7253.606781999998
 30
0.0
 11
943.01679200000001
 21
7255.6067819999998
 31
0.0
  0
ARC
  5
28F
  8
LAYER01
  6
CONTINUOUS
 62
     7
 10
954.237572
 20
7274.6067819999989
 30
0.0
 40
7.0
 50
183.71528900000001
 51
270.0
  0
ARC
  5
290
  8
LAYER01
  6
CONTINUOUS
 62
     7
 10
954.237572
 20
7274.6067819999989
 30
0.0
 40
9.0
 50
183.71528900000001
 51
270.0
  0
LINE
  5
291
  8
LAYER01
  6
CONTINUOUS
 62
     7
 10
945.256486
 20
7274.0235950000006
 30
0.0
 11
947.25228300000003
 21
7274.1531919999989
 31
0.0
  0
LINE
  5
292
  8
LAYER01
  6
CONTINUOUS
 62
     7
 10
954.237572
 20
7265.606781999998
 30
0.0
 11
954.237572
 21
7267.606781999998
 31
0.0
  0
LINE
  5
293
  8
LAYER01
  6
CONTINUOUS
 62
     7
 10
1058.4469019999999
 20
7267.313889
 30
0.0
 11
1063.4469019999999
 21
7262.3138890000009
 31
0.0
  0
LINE
  5
294
  8
LAYER01
  6
CONTINUOUS
 62
     7
 10
1057.0326889999999
 20
7265.8996749999997
 30
0.0
 11
1062.0326889999999
 21
7260.8996749999997
 31
0.0
  0
LINE
  5
295
  8
LAYER01
  6
CONTINUOUS
 62
     7
 10
1058.4469019999999
 20
7267.313889
 30
0.0
 11
1057.0326889999999
 21
7265.8996749999997
 31
0.0
  0
LINE
  5
296
  8
LAYER01
  6
CONTINUOUS
 62
     7
 10
1063.4469019999999
 20
7262.3138890000009
 30
0.0
 11
1062.0326889999999
 21
7260.8996749999997
 31
0.0
  0
SOLID
  5
297
  8
LAYER01
  6
CONTINUOUS
 62
     7
 10
1058.4469019999999
 20
7267.313889
 30
0.0
 11
1063.4469019999999
 21
7262.3138890000009
 31
0.0
 12
1057.0326889999999
 22
7265.8996749999997
 32
0.0
 13
1062.0326889999999
 23
7260.8996749999997
 33
0.0
  0
ARC
  5
298
  8
LAYER01
  6
CONTINUOUS
 62
     7
 10
1034.7397960000001
 20
7246.6067819999989
 30
0.0
 40
7.0
 50
0.0
 51
90.0
  0
ARC
  5
299
  8
LAYER01
  6
CONTINUOUS
 62
     7
 10
1034.7397960000001
 20
7246.6067819999989
 30
0.0
 40
9.0
 50
0.0
 51
90.0
  0
LINE
  5
29A
  8
LAYER01
  6
CONTINUOUS
 62
     7
 10
1043.7397960000001
 20
7246.6067819999989
 30
0.0
 11
1041.7397960000001
 21
7246.6067819999989
 31
0.0
  0
LINE
  5
29B
  8
LAYER01
  6
CONTINUOUS
 62
     7
 10
1034.7397960000001
 20
7255.6067819999998
 30
0.0
 11
1034.7397960000001
 21
7253.606781999998
 31
0.0
  0
LINE
  5
29C
  8
LAYER01
  6
CONTINUOUS
 62
     7
 10
1129.7397960000001
 20
7234.6067819999989
 30
0.0
 11
1129.7397960000001
 21
7246.6067819999989
 31
0.0
  0
LINE
  5
29D
  8
LAYER01
  6
CONTINUOUS
 62
     7
 10
1131.7397960000001
 20
7234.6067819999989
 30
0.0
 11
1131.7397960000001
 21
7246.6067819999989
 31
0.0
  0
LINE
  5
29E
  8
LAYER01
  6
CONTINUOUS
 62
     7
 10
1129.7397960000001
 20
7234.6067819999989
 30
0.0
 11
1131.7397960000001
 21
7234.6067819999989
 31
0.0
  0
LINE
  5
29F
  8
LAYER01
  6
CONTINUOUS
 62
     7
 10
1129.7397960000001
 20
7246.6067819999989
 30
0.0
 11
1131.7397960000001
 21
7246.6067819999989
 31
0.0
  0
SOLID
  5
2A0
  8
LAYER01
  6
CONTINUOUS
 62
     7
 10
1129.7397960000001
 20
7234.6067819999989
 30
0.0
 11
1129.7397960000001
 21
7246.6067819999989
 31
0.0
 12
1131.7397960000001
 22
7234.6067819999989
 32
0.0
 13
1131.7397960000001
 23
7246.6067819999989
 33
0.0
  0
LINE
  5
2A1
  8
LAYER01
  6
CONTINUOUS
 62
     7
 10
1109.7397960000001
 20
7234.6067819999989
 30
0.0
 11
1109.7397960000001
 21
7261.6067819999998
 31
0.0
  0
LINE
  5
2A2
  8
LAYER01
  6
CONTINUOUS
 62
     7
 10
1111.7397960000001
 20
7234.6067819999989
 30
0.0
 11
1111.7397960000001
 21
7261.6067819999998
 31
0.0
  0
LINE
  5
2A3
  8
LAYER01
  6
CONTINUOUS
 62
     7
 10
1109.7397960000001
 20
7234.6067819999989
 30
0.0
 11
1111.7397960000001
 21
7234.6067819999989
 31
0.0
  0
LINE
  5
2A4
  8
LAYER01
  6
CONTINUOUS
 62
     7
 10
1109.7397960000001
 20
7261.6067819999998
 30
0.0
 11
1111.7397960000001
 21
7261.6067819999998
 31
0.0
  0
SOLID
  5
2A5
  8
LAYER01
  6
CONTINUOUS
 62
     7
 10
1109.7397960000001
 20
7234.6067819999989
 30
0.0
 11
1109.7397960000001
 21
7261.6067819999998
 31
0.0
 12
1111.7397960000001
 22
7234.6067819999989
 32
0.0
 13
1111.7397960000001
 23
7261.6067819999998
 33
0.0
  0
LINE
  5
2A6
  8
LAYER01
  6
CONTINUOUS
 62
     7
 10
1110.0326889999999
 20
7262.3138890000009
 30
0.0
 11
1115.0326889999999
 21
7267.313889
 31
0.0
  0
LINE
  5
2A7
  8
LAYER01
  6
CONTINUOUS
 62
     7
 10
1111.4469019999999
 20
7260.8996749999997
 30
0.0
 11
1116.4469019999999
 21
7265.8996749999997
 31
0.0
  0
LINE
  5
2A8
  8
LAYER01
  6
CONTINUOUS
 62
     7
 10
1110.0326889999999
 20
7262.3138890000009
 30
0.0
 11
1111.4469019999999
 21
7260.8996749999997
 31
0.0
  0
LINE
  5
2A9
  8
LAYER01
  6
CONTINUOUS
 62
     7
 10
1115.0326889999999
 20
7267.313889
 30
0.0
 11
1116.4469019999999
 21
7265.8996749999997
 31
0.0
  0
SOLID
  5
2AA
  8
LAYER01
  6
CONTINUOUS
 62
     7
 10
1110.0326889999999
 20
7262.3138890000009
 30
0.0
 11
1115.0326889999999
 21
7267.313889
 31
0.0
 12
1111.4469019999999
 22
7260.8996749999997
 32
0.0
 13
1116.4469019999999
 23
7265.8996749999997
 33
0.0
  0
ARC
  5
2AB
  8
LAYER01
  6
CONTINUOUS
 62
     7
 10
1230.464107
 20
7262.606781999998
 30
0.0
 40
7.0
 50
270.0
 51
356.290932
  0
ARC
  5
2AC
  8
LAYER01
  6
CONTINUOUS
 62
     7
 10
1230.464107
 20
7262.606781999998
 30
0.0
 40
9.0
 50
270.0
 51
356.290932
  0
LINE
  5
2AD
  8
LAYER01
  6
CONTINUOUS
 62
     7
 10
1230.464107
 20
7253.606781999998
 30
0.0
 11
1230.464107
 21
7255.6067819999998
 31
0.0
  0
LINE
  5
2AE
  8
LAYER01
  6
CONTINUOUS
 62
     7
 10
1239.445256
 20
7262.0245700000014
 30
0.0
 11
1237.449445
 21
7262.1539510000011
 31
0.0
  0
LINE
  5
2AF
  8
LAYER01
  6
CONTINUOUS
 62
     7
 10
1230.464107
 20
7253.606781999998
 30
0.0
 11
1138.7397960000001
 21
7253.606781999998
 31
0.0
  0
LINE
  5
2B0
  8
LAYER01
  6
CONTINUOUS
 62
     7
 10
1230.464107
 20
7255.6067819999998
 30
0.0
 11
1138.7397960000001
 21
7255.6067819999998
 31
0.0
  0
LINE
  5
2B1
  8
LAYER01
  6
CONTINUOUS
 62
     7
 10
1230.464107
 20
7253.606781999998
 30
0.0
 11
1230.464107
 21
7255.6067819999998
 31
0.0
  0
LINE
  5
2B2
  8
LAYER01
  6
CONTINUOUS
 62
     7
 10
1138.7397960000001
 20
7253.606781999998
 30
0.0
 11
1138.7397960000001
 21
7255.6067819999998
 31
0.0
  0
SOLID
  5
2B3
  8
LAYER01
  6
CONTINUOUS
 62
     7
 10
1230.464107
 20
7253.606781999998
 30
0.0
 11
1138.7397960000001
 21
7253.606781999998
 31
0.0
 12
1230.464107
 22
7255.6067819999998
 32
0.0
 13
1138.7397960000001
 23
7255.6067819999998
 33
0.0
  0
ARC
  5
2B4
  8
LAYER01
  6
CONTINUOUS
 62
     7
 10
1138.7397960000001
 20
7246.6067819999989
 30
0.0
 40
7.0
 50
90.0
 51
180.0
  0
ARC
  5
2B5
  8
LAYER01
  6
CONTINUOUS
 62
     7
 10
1138.7397960000001
 20
7246.6067819999989
 30
0.0
 40
9.0
 50
90.0
 51
180.0
  0
LINE
  5
2B6
  8
LAYER01
  6
CONTINUOUS
 62
     7
 10
1138.7397960000001
 20
7255.6067819999998
 30
0.0
 11
1138.7397960000001
 21
7253.606781999998
 31
0.0
  0
LINE
  5
2B7
  8
LAYER01
  6
CONTINUOUS
 62
     7
 10
1129.7397960000001
 20
7246.6067819999989
 30
0.0
 11
1131.7397960000001
 21
7246.6067819999989
 31
0.0
  0
ARC
  5
2B8
  8
LAYER01
  6
CONTINUOUS
 62
     7
 10
1219.2420199999999
 20
7274.6067819999989
 30
0.0
 40
7.0
 50
270.0
 51
356.290932
  0
ARC
  5
2B9
  8
LAYER01
  6
CONTINUOUS
 62
     7
 10
1219.2420199999999
 20
7274.6067819999989
 30
0.0
 40
9.0
 50
270.0
 51
356.290932
  0
LINE
  5
2BA
  8
LAYER01
  6
CONTINUOUS
 62
     7
 10
1219.2420199999999
 20
7265.606781999998
 30
0.0
 11
1219.2420199999999
 21
7267.606781999998
 31
0.0
  0
LINE
  5
2BB
  8
LAYER01
  6
CONTINUOUS
 62
     7
 10
1228.223168
 20
7274.0245699999996
 30
0.0
 11
1226.2273580000001
 21
7274.1539510000011
 31
0.0
  0
LINE
  5
2BC
  8
LAYER01
  6
CONTINUOUS
 62
     7
 10
1115.7397960000001
 20
7267.606781999998
 30
0.0
 11
1219.2420199999999
 21
7267.606781999998
 31
0.0
  0
LINE
  5
2BD
  8
LAYER01
  6
CONTINUOUS
 62
     7
 10
1115.7397960000001
 20
7265.606781999998
 30
0.0
 11
1219.2420199999999
 21
7265.606781999998
 31
0.0
  0
LINE
  5
2BE
  8
LAYER01
  6
CONTINUOUS
 62
     7
 10
1115.7397960000001
 20
7267.606781999998
 30
0.0
 11
1115.7397960000001
 21
7265.606781999998
 31
0.0
  0
LINE
  5
2BF
  8
LAYER01
  6
CONTINUOUS
 62
     7
 10
1219.2420199999999
 20
7267.606781999998
 30
0.0
 11
1219.2420199999999
 21
7265.606781999998
 31
0.0
  0
SOLID
  5
2C0
  8
LAYER01
  6
CONTINUOUS
 62
     7
 10
1115.7397960000001
 20
7267.606781999998
 30
0.0
 11
1219.2420199999999
 21
7267.606781999998
 31
0.0
 12
1115.7397960000001
 22
7265.606781999998
 32
0.0
 13
1219.2420199999999
 23
7265.606781999998
 33
0.0
  0
LINE
  5
2C1
  8
LAYER01
  6
VERDECKT
 62
   252
 10
1206.533115
 20
7672.2765129999989
 30
0.0
 11
363.83036600000003
 21
7708.0465050000003
 31
0.0
  0
LINE
  5
2C2
  8
LAYER01
  6
CONTINUOUS
 62
     7
 10
258.0
 20
7625.7296359999991
 30
0.0
 11
258.0
 21
7825.729636
 31
0.0
  0
LINE
  5
2C3
  8
LAYER01
  6
CONTINUOUS
 62
     7
 10
262.0
 20
7625.7296359999991
 30
0.0
 11
262.0
 21
7825.729636
 31
0.0
  0
LINE
  5
2C4
  8
LAYER01
  6
CONTINUOUS
 62
     7
 10
258.0
 20
7625.7296359999991
 30
0.0
 11
262.0
 21
7625.7296359999991
 31
0.0
  0
LINE
  5
2C5
  8
LAYER01
  6
CONTINUOUS
 62
     7
 10
258.0
 20
7825.729636
 30
0.0
 11
262.0
 21
7825.729636
 31
0.0
  0
SOLID
  5
2C6
  8
LAYER01
  6
CONTINUOUS
 62
     7
 10
258.0
 20
7625.7296359999991
 30
0.0
 11
258.0
 21
7825.729636
 31
0.0
 12
262.0
 22
7625.7296359999991
 32
0.0
 13
262.0
 23
7825.729636
 33
0.0
  0
LINE
  5
2C7
  8
LAYER01
  6
VERDECKT
 62
   252
 10
360.0
 20
7712.0429069999982
 30
0.0
 11
360.0
 21
7825.729636
 31
0.0
  0
ARC
  5
2C8
  8
LAYER01
  6
VERDECKT
 62
   252
 10
364.0
 20
7712.0429069999982
 30
0.0
 40
4.0
 50
180.0
 51
267.56943899999999
  0
LINE
  5
2C9
  8
LAYER01
  6
VERDECKT
 62
   252
 10
1260.0
 20
7769.5715829999999
 30
0.0
 11
1260.0
 21
7631.7582320000001
 31
0.0
  0
LINE
  5
2CA
  8
LAYER01
  6
CONTINUOUS
 62
     7
 10
936.58293699999979
 20
7429.6067819999989
 30
0.0
 11
1236.607784
 21
7429.6067819999989
 31
0.0
  0
LINE
  5
2CB
  8
LAYER01
  6
CONTINUOUS
 62
     7
 10
936.58293699999979
 20
7427.6067819999989
 30
0.0
 11
1236.607784
 21
7427.6067819999989
 31
0.0
  0
LINE
  5
2CC
  8
LAYER01
  6
CONTINUOUS
 62
     7
 10
936.58293699999979
 20
7429.6067819999989
 30
0.0
 11
936.58293699999979
 21
7427.6067819999989
 31
0.0
  0
LINE
  5
2CD
  8
LAYER01
  6
CONTINUOUS
 62
     7
 10
1236.607784
 20
7429.6067819999989
 30
0.0
 11
1236.607784
 21
7427.6067819999989
 31
0.0
  0
SOLID
  5
2CE
  8
LAYER01
  6
CONTINUOUS
 62
     7
 10
936.58293699999979
 20
7429.6067819999989
 30
0.0
 11
1236.607784
 21
7429.6067819999989
 31
0.0
 12
936.58293699999979
 22
7427.6067819999989
 32
0.0
 13
1236.607784
 23
7427.6067819999989
 33
0.0
  0
ARC
  5
2CF
  8
LAYER01
  6
CONTINUOUS
 62
     7
 10
928.74020399999995
 20
7420.6067819999989
 30
0.0
 40
7.0
 50
0.0
 51
90.0
  0
ARC
  5
2D0
  8
LAYER01
  6
CONTINUOUS
 62
     7
 10
928.74020399999995
 20
7420.6067819999989
 30
0.0
 40
9.0
 50
0.0
 51
90.0
  0
LINE
  5
2D1
  8
LAYER01
  6
CONTINUOUS
 62
     7
 10
937.74020399999995
 20
7420.6067819999989
 30
0.0
 11
935.74020399999995
 21
7420.6067819999989
 31
0.0
  0
LINE
  5
2D2
  8
LAYER01
  6
CONTINUOUS
 62
     7
 10
928.74020399999995
 20
7429.6067819999989
 30
0.0
 11
928.74020399999995
 21
7427.6067819999989
 31
0.0
  0
LINE
  5
2D3
  8
LAYER01
  6
CONTINUOUS
 62
     7
 10
925.84410000000014
 20
7402.6067819999989
 30
0.0
 11
912.84410000000003
 21
7402.6067819999989
 31
0.0
  0
LINE
  5
2D4
  8
LAYER01
  6
CONTINUOUS
 62
     7
 10
925.84410000000014
 20
7404.6067819999989
 30
0.0
 11
912.84410000000003
 21
7404.6067819999989
 31
0.0
  0
LINE
  5
2D5
  8
LAYER01
  6
CONTINUOUS
 62
     7
 10
925.84410000000014
 20
7402.6067819999989
 30
0.0
 11
925.84410000000014
 21
7404.6067819999989
 31
0.0
  0
LINE
  5
2D6
  8
LAYER01
  6
CONTINUOUS
 62
     7
 10
912.84410000000003
 20
7402.6067819999989
 30
0.0
 11
912.84410000000003
 21
7404.6067819999989
 31
0.0
  0
SOLID
  5
2D7
  8
LAYER01
  6
CONTINUOUS
 62
     7
 10
925.84410000000014
 20
7402.6067819999989
 30
0.0
 11
912.84410000000003
 21
7402.6067819999989
 31
0.0
 12
925.84410000000014
 22
7404.6067819999989
 32
0.0
 13
912.84410000000003
 23
7404.6067819999989
 33
0.0
  0
LINE
  5
2D8
  8
LAYER01
  6
CONTINUOUS
 62
     7
 10
912.99784199999999
 20
7416.6715810000014
 30
0.0
 11
913.84199799999999
 21
7403.6715810000014
 31
0.0
  0
LINE
  5
2D9
  8
LAYER01
  6
CONTINUOUS
 62
     7
 10
911.00204600000006
 20
7416.5419840000013
 30
0.0
 11
911.84620099999995
 21
7403.5419840000004
 31
0.0
  0
LINE
  5
2DA
  8
LAYER01
  6
CONTINUOUS
 62
     7
 10
912.99784199999999
 20
7416.6715810000014
 30
0.0
 11
911.00204600000006
 21
7416.5419840000013
 31
0.0
  0
LINE
  5
2DB
  8
LAYER01
  6
CONTINUOUS
 62
     7
 10
913.84199799999999
 20
7403.6715810000014
 30
0.0
 11
911.84620099999995
 21
7403.5419840000004
 31
0.0
  0
SOLID
  5
2DC
  8
LAYER01
  6
CONTINUOUS
 62
     7
 10
912.99784199999999
 20
7416.6715810000014
 30
0.0
 11
913.84199799999999
 21
7403.6715810000014
 31
0.0
 12
911.00204600000006
 22
7416.5419840000013
 32
0.0
 13
911.84620099999995
 23
7403.5419840000004
 33
0.0
  0
ARC
  5
2DD
  8
LAYER01
  6
CONTINUOUS
 62
     7
 10
894.74020399999995
 20
7420.6067819999989
 30
0.0
 40
7.0
 50
90.000003000000007
 51
180.00000499999999
  0
ARC
  5
2DE
  8
LAYER01
  6
CONTINUOUS
 62
     7
 10
894.74020399999995
 20
7420.6067819999989
 30
0.0
 40
9.0
 50
90.000003000000007
 51
180.00000499999999
  0
LINE
  5
2DF
  8
LAYER01
  6
CONTINUOUS
 62
     7
 10
894.74020299999995
 20
7429.6067819999989
 30
0.0
 11
894.74020299999995
 21
7427.6067819999989
 31
0.0
  0
LINE
  5
2E0
  8
LAYER01
  6
CONTINUOUS
 62
     7
 10
885.74020399999995
 20
7420.6067810000004
 30
0.0
 11
887.74020399999995
 21
7420.6067819999989
 31
0.0
  0
LINE
  5
2E1
  8
LAYER01
  6
CONTINUOUS
 62
     7
 10
894.74020399999995
 20
7429.6067819999989
 30
0.0
 11
928.74020399999995
 21
7429.6067819999989
 31
0.0
  0
LINE
  5
2E2
  8
LAYER01
  6
CONTINUOUS
 62
     7
 10
894.74020399999995
 20
7427.6067819999989
 30
0.0
 11
928.74020399999995
 21
7427.6067819999989
 31
0.0
  0
LINE
  5
2E3
  8
LAYER01
  6
CONTINUOUS
 62
     7
 10
894.74020399999995
 20
7429.6067819999989
 30
0.0
 11
894.74020399999995
 21
7427.6067819999989
 31
0.0
  0
LINE
  5
2E4
  8
LAYER01
  6
CONTINUOUS
 62
     7
 10
928.74020399999995
 20
7429.6067819999989
 30
0.0
 11
928.74020399999995
 21
7427.6067819999989
 31
0.0
  0
SOLID
  5
2E5
  8
LAYER01
  6
CONTINUOUS
 62
     7
 10
894.74020399999995
 20
7429.6067819999989
 30
0.0
 11
928.74020399999995
 21
7429.6067819999989
 31
0.0
 12
894.74020399999995
 22
7427.6067819999989
 32
0.0
 13
928.74020399999995
 23
7427.6067819999989
 33
0.0
  0
LINE
  5
2E6
  8
LAYER01
  6
CONTINUOUS
 62
     7
 10
898.74020399999995
 20
7417.6067819999989
 30
0.0
 11
936.99994399999991
 21
7417.6067819999989
 31
0.0
  0
LINE
  5
2E7
  8
LAYER01
  6
CONTINUOUS
 62
     7
 10
898.74020399999995
 20
7415.6067819999989
 30
0.0
 11
936.99994399999991
 21
7415.6067819999989
 31
0.0
  0
LINE
  5
2E8
  8
LAYER01
  6
CONTINUOUS
 62
     7
 10
898.74020399999995
 20
7417.6067819999989
 30
0.0
 11
898.74020399999995
 21
7415.6067819999989
 31
0.0
  0
LINE
  5
2E9
  8
LAYER01
  6
CONTINUOUS
 62
     7
 10
936.99994399999991
 20
7417.6067819999989
 30
0.0
 11
936.99994399999991
 21
7415.6067819999989
 31
0.0
  0
SOLID
  5
2EA
  8
LAYER01
  6
CONTINUOUS
 62
     7
 10
898.74020399999995
 20
7417.6067819999989
 30
0.0
 11
936.99994399999991
 21
7417.6067819999989
 31
0.0
 12
898.74020399999995
 22
7415.6067819999989
 32
0.0
 13
936.99994399999991
 23
7415.6067819999989
 33
0.0
  0
ARC
  5
2EB
  8
LAYER01
  6
CONTINUOUS
 62
     7
 10
1244.7402039999999
 20
7420.6067819999989
 30
0.0
 40
7.0
 50
90.0
 51
180.0
  0
ARC
  5
2EC
  8
LAYER01
  6
CONTINUOUS
 62
     7
 10
1244.7402039999999
 20
7420.6067819999989
 30
0.0
 40
9.0
 50
90.0
 51
180.0
  0
LINE
  5
2ED
  8
LAYER01
  6
CONTINUOUS
 62
     7
 10
1244.7402039999999
 20
7429.6067819999989
 30
0.0
 11
1244.7402039999999
 21
7427.6067819999989
 31
0.0
  0
LINE
  5
2EE
  8
LAYER01
  6
CONTINUOUS
 62
     7
 10
1235.7402039999999
 20
7420.6067819999989
 30
0.0
 11
1237.7402039999999
 21
7420.6067819999989
 31
0.0
  0
LINE
  5
2EF
  8
LAYER01
  6
CONTINUOUS
 62
     7
 10
1262.4783620000001
 20
7416.5419840000013
 30
0.0
 11
1261.6342059999999
 21
7403.5419840000004
 31
0.0
  0
LINE
  5
2F0
  8
LAYER01
  6
CONTINUOUS
 62
     7
 10
1260.482565
 20
7416.6715810000014
 30
0.0
 11
1259.6384089999999
 21
7403.6715810000014
 31
0.0
  0
LINE
  5
2F1
  8
LAYER01
  6
CONTINUOUS
 62
     7
 10
1262.4783620000001
 20
7416.5419840000013
 30
0.0
 11
1260.482565
 21
7416.6715810000014
 31
0.0
  0
LINE
  5
2F2
  8
LAYER01
  6
CONTINUOUS
 62
     7
 10
1261.6342059999999
 20
7403.5419840000004
 30
0.0
 11
1259.6384089999999
 21
7403.6715810000014
 31
0.0
  0
SOLID
  5
2F3
  8
LAYER01
  6
CONTINUOUS
 62
     7
 10
1262.4783620000001
 20
7416.5419840000013
 30
0.0
 11
1261.6342059999999
 21
7403.5419840000004
 31
0.0
 12
1260.482565
 22
7416.6715810000014
 32
0.0
 13
1259.6384089999999
 23
7403.6715810000014
 33
0.0
  0
LINE
  5
2F4
  8
LAYER01
  6
CONTINUOUS
 62
     7
 10
1247.6363080000001
 20
7404.6067819999989
 30
0.0
 11
1260.6363080000001
 21
7404.6067819999989
 31
0.0
  0
LINE
  5
2F5
  8
LAYER01
  6
CONTINUOUS
 62
     7
 10
1247.6363080000001
 20
7402.6067819999989
 30
0.0
 11
1260.6363080000001
 21
7402.6067819999989
 31
0.0
  0
LINE
  5
2F6
  8
LAYER01
  6
CONTINUOUS
 62
     7
 10
1247.6363080000001
 20
7404.6067819999989
 30
0.0
 11
1247.6363080000001
 21
7402.6067819999989
 31
0.0
  0
LINE
  5
2F7
  8
LAYER01
  6
CONTINUOUS
 62
     7
 10
1260.6363080000001
 20
7404.6067819999989
 30
0.0
 11
1260.6363080000001
 21
7402.6067819999989
 31
0.0
  0
SOLID
  5
2F8
  8
LAYER01
  6
CONTINUOUS
 62
     7
 10
1247.6363080000001
 20
7404.6067819999989
 30
0.0
 11
1260.6363080000001
 21
7404.6067819999989
 31
0.0
 12
1247.6363080000001
 22
7402.6067819999989
 32
0.0
 13
1260.6363080000001
 23
7402.6067819999989
 33
0.0
  0
LINE
  5
2F9
  8
LAYER01
  6
VERDECKT
 62
   252
 10
1216.109029
 20
7639.0909640000009
 30
0.0
 11
1303.890971
 21
7639.0909640000009
 31
0.0
  0
POLYLINE
  5
2FA
  8
LAYER01
  6
VERDECKT
 62
   252
 66
     1
 10
0.0
 20
0.0
 30
0.0
  0
VERTEX
  5
728
  8
LAYER01
  6
VERDECKT
 62
   252
 10
1219.7998050000001
 20
7639.0909640000009
 30
0.0
  0
VERTEX
  5
729
  8
LAYER01
  6
VERDECKT
 62
   252
 10
1300.8154300000001
 20
7639.0909640000009
 30
0.0
  0
SEQEND
  5
72A
  8
LAYER01
  6
VERDECKT
 62
   252
  0
LINE
  5
2FE
  8
LAYER01
  6
VERDECKT
 62
   252
 10
1216.109029
 20
7676.1909269999996
 30
0.0
 11
1303.7251779999999
 21
7676.1909269999996
 31
0.0
  0
LINE
  5
2FF
  8
LAYER01
  6
VERDECKT
 62
   252
 10
1216.109029
 20
7685.3632430000007
 30
0.0
 11
1303.7251779999999
 21
7685.3632430000007
 31
0.0
  0
LINE
  5
300
  8
LAYER01
  6
VERDECKT
 62
   252
 10
1235.9595629999999
 20
7676.1909269999996
 30
0.0
 11
1235.9595629999999
 21
7639.0909640000009
 31
0.0
  0
LINE
  5
301
  8
LAYER01
  6
VERDECKT
 62
   252
 10
1284.0404370000001
 20
7639.0909640000009
 30
0.0
 11
1284.0404370000001
 21
7676.1909269999996
 31
0.0
  0
LINE
  5
302
  8
LAYER01
  6
VERDECKT
 62
   252
 10
1216.109029
 20
7639.0909640000009
 30
0.0
 11
1216.109029
 21
7662.2855099999997
 31
0.0
  0
ARC
  5
303
  8
LAYER01
  6
VERDECKT
 62
   252
 10
1206.109029
 20
7662.2855099999997
 30
0.0
 40
10.0
 50
0.0
 51
87.569439000000017
  0
LINE
  5
304
  8
LAYER01
  6
VERDECKT
 62
   252
 10
1303.890971
 20
7639.0909640000009
 30
0.0
 11
1303.890971
 21
7662.2580900000003
 31
0.0
  0
DIMENSION
  5
305
  8
LAYER01
 62
     7
  2
*D6
 10
199.28645399999999
 20
8265.7296360000018
 30
0.0
 11
154.28645399999999
 21
8241.4428079999998
 31
0.0
 53
90.0
 13
260.0
 23
8215.729636
 33
0.0
 14
260.0
 24
8265.7296360000018
 34
0.0
 50
90.0
  0
DIMENSION
  5
306
  8
LAYER01
 62
     7
  2
*D7
 10
133.91836499999999
 20
8565.729636
 30
0.0
 11
88.918365000000009
 21
8416.7993939999997
 31
0.0
 53
90.0
 13
260.0
 23
8265.7296360000018
 33
0.0
 14
260.0
 24
8565.729636
 34
0.0
 50
90.0
  0
DIMENSION
  5
307
  8
LAYER01
 62
     7
  2
*D8
 10
199.28645399999999
 20
8695.7296360000018
 30
0.0
 11
154.28645399999999
 21
8631.7993939999997
 31
0.0
 53
90.0
 13
260.0
 23
8565.729636
 33
0.0
 14
260.0
 24
8695.7296360000018
 34
0.0
 50
90.0
  0
DIMENSION
  5
308
  8
LAYER01
 62
     7
  2
*D9
 10
67.928946999999994
 20
8215.729636
 30
0.0
 11
22.928947000000001
 21
8456.7993939999997
 31
0.0
 53
90.0
 13
260.0
 23
8695.7296360000018
 33
0.0
 14
260.0
 24
8215.729636
 34
0.0
 50
90.0
  0
DIMENSION
  5
309
  8
LAYER01
 62
     7
  2
*D10
 10
260.0
 20
8920.0
 30
0.0
 11
311.06975799999998
 21
8965.0
 31
0.0
 13
360.0
 23
8858.6671350000015
 33
0.0
 14
260.0
 24
8858.6671350000015
 34
0.0
  0
DIMENSION
  5
30A
  8
LAYER01
 62
     7
  2
*D11
 10
1035.0
 20
8800.0
 30
0.0
 11
814.01838299999986
 21
8845.0
 31
0.0
 13
585.0
 23
8695.7296360000018
 33
0.0
 14
1035.0
 24
8695.7296360000018
 34
0.0
  0
LINE
  5
30B
  8
LAYER01
  6
CONTINUOUS
 62
     7
 10
258.0
 20
8215.729636
 30
0.0
 11
258.0
 21
8695.7296360000018
 31
0.0
  0
LINE
  5
30C
  8
LAYER01
  6
CONTINUOUS
 62
     7
 10
262.0
 20
8215.729636
 30
0.0
 11
262.0
 21
8695.7296360000018
 31
0.0
  0
LINE
  5
30D
  8
LAYER01
  6
CONTINUOUS
 62
     7
 10
258.0
 20
8215.729636
 30
0.0
 11
262.0
 21
8215.729636
 31
0.0
  0
LINE
  5
30E
  8
LAYER01
  6
CONTINUOUS
 62
     7
 10
258.0
 20
8695.7296360000018
 30
0.0
 11
262.0
 21
8695.7296360000018
 31
0.0
  0
SOLID
  5
30F
  8
LAYER01
  6
CONTINUOUS
 62
     7
 10
258.0
 20
8215.729636
 30
0.0
 11
258.0
 21
8695.7296360000018
 31
0.0
 12
262.0
 22
8215.729636
 32
0.0
 13
262.0
 23
8695.7296360000018
 33
0.0
  0
LINE
  5
310
  8
LAYER01
  6
CONTINUOUS
 62
     7
 10
358.0
 20
8276.729636
 30
0.0
 11
358.0
 21
8554.7296360000018
 31
0.0
  0
LINE
  5
311
  8
LAYER01
  6
CONTINUOUS
 62
     7
 10
362.0
 20
8276.729636
 30
0.0
 11
362.0
 21
8554.7296360000018
 31
0.0
  0
LINE
  5
312
  8
LAYER01
  6
CONTINUOUS
 62
     7
 10
358.0
 20
8276.729636
 30
0.0
 11
362.0
 21
8276.729636
 31
0.0
  0
LINE
  5
313
  8
LAYER01
  6
CONTINUOUS
 62
     7
 10
358.0
 20
8554.7296360000018
 30
0.0
 11
362.0
 21
8554.7296360000018
 31
0.0
  0
SOLID
  5
314
  8
LAYER01
  6
CONTINUOUS
 62
     7
 10
358.0
 20
8276.729636
 30
0.0
 11
358.0
 21
8554.7296360000018
 31
0.0
 12
362.0
 22
8276.729636
 32
0.0
 13
362.0
 23
8554.7296360000018
 33
0.0
  0
LINE
  5
315
  8
LAYER01
  6
VERDECKT
 62
   252
 10
272.0
 20
8215.729636
 30
0.0
 11
272.0
 21
8695.7296360000018
 31
0.0
  0
ARC
  5
316
  8
LAYER01
  6
CONTINUOUS
 62
     7
 10
371.0
 20
8276.729636
 30
0.0
 40
9.0
 50
180.0
 51
270.0
  0
ARC
  5
317
  8
LAYER01
  6
CONTINUOUS
 62
     7
 10
371.0
 20
8276.729636
 30
0.0
 40
13.0
 50
180.0
 51
270.0
  0
LINE
  5
318
  8
LAYER01
  6
CONTINUOUS
 62
     7
 10
358.0
 20
8276.729636
 30
0.0
 11
362.0
 21
8276.729636
 31
0.0
  0
LINE
  5
319
  8
LAYER01
  6
CONTINUOUS
 62
     7
 10
371.0
 20
8263.729636
 30
0.0
 11
371.0
 21
8267.729636
 31
0.0
  0
LINE
  5
31A
  8
LAYER01
  6
STRICHPUNKTIERT
 62
     7
 10
539.09273799999994
 20
8630.7296359999982
 30
0.0
 11
626.91091500000005
 21
8630.7296359999982
 31
0.0
  0
CIRCLE
  5
31B
  8
LAYER01
  6
CONTINUOUS
 62
     7
 10
585.0
 20
8630.7296359999982
 30
0.0
 40
17.5
  0
LINE
  5
31C
  8
LAYER01
  6
STRICHPUNKTIERT
 62
     7
 10
585.0
 20
8595.4664660000017
 30
0.0
 11
585.0
 21
8669.0200579999982
 31
0.0
  0
DIMENSION
  5
31D
  8
LAYER01
 62
     7
  2
*D12
 10
585.0
 20
8800.0
 30
0.0
 11
414.72388599999988
 21
8845.0
 31
0.0
 13
260.0
 23
8695.7296360000018
 33
0.0
 14
585.0
 24
8695.7296360000018
 34
0.0
  0
ARC
  5
31E
  8
LAYER01
  6
CONTINUOUS
 62
     7
 10
371.0
 20
8554.7296360000018
 30
0.0
 40
9.0
 50
90.0
 51
180.0
  0
ARC
  5
31F
  8
LAYER01
  6
CONTINUOUS
 62
     7
 10
371.0
 20
8554.7296360000018
 30
0.0
 40
13.0
 50
90.0
 51
180.0
  0
LINE
  5
320
  8
LAYER01
  6
CONTINUOUS
 62
     7
 10
371.0
 20
8567.7296360000018
 30
0.0
 11
371.0
 21
8563.7296360000018
 31
0.0
  0
LINE
  5
321
  8
LAYER01
  6
CONTINUOUS
 62
     7
 10
358.0
 20
8554.7296360000018
 30
0.0
 11
362.0
 21
8554.7296360000018
 31
0.0
  0
LINE
  5
322
  8
LAYER01
  6
STRICHPUNKTIERT
 62
     7
 10
989.09273800000005
 20
8630.7296359999982
 30
0.0
 11
1076.9109149999999
 21
8630.7296359999982
 31
0.0
  0
CIRCLE
  5
323
  8
LAYER01
  6
CONTINUOUS
 62
     7
 10
1035.0
 20
8630.7296359999982
 30
0.0
 40
17.5
  0
LINE
  5
324
  8
LAYER01
  6
STRICHPUNKTIERT
 62
     7
 10
1035.0
 20
8595.4664660000017
 30
0.0
 11
1035.0
 21
8669.0200579999982
 31
0.0
  0
LINE
  5
325
  8
LAYER01
  6
VERDECKT
 62
   252
 10
1313.466375
 20
7672.2490719999987
 30
0.0
 11
2156.1698379999998
 21
7708.0622120000007
 31
0.0
  0
LINE
  5
326
  8
LAYER01
  6
CONTINUOUS
 62
     7
 10
1365.7402039999999
 20
7416.6067819999989
 30
0.0
 11
1365.7402039999999
 21
7428.6067819999989
 31
0.0
  0
LINE
  5
327
  8
LAYER01
  6
CONTINUOUS
 62
     7
 10
1367.7402039999999
 20
7416.6067819999989
 30
0.0
 11
1367.7402039999999
 21
7428.6067819999989
 31
0.0
  0
LINE
  5
328
  8
LAYER01
  6
CONTINUOUS
 62
     7
 10
1365.7402039999999
 20
7416.6067819999989
 30
0.0
 11
1367.7402039999999
 21
7416.6067819999989
 31
0.0
  0
LINE
  5
329
  8
LAYER01
  6
CONTINUOUS
 62
     7
 10
1365.7402039999999
 20
7428.6067819999989
 30
0.0
 11
1367.7402039999999
 21
7428.6067819999989
 31
0.0
  0
SOLID
  5
32A
  8
LAYER01
  6
CONTINUOUS
 62
     7
 10
1365.7402039999999
 20
7416.6067819999989
 30
0.0
 11
1365.7402039999999
 21
7428.6067819999989
 31
0.0
 12
1367.7402039999999
 22
7416.6067819999989
 32
0.0
 13
1367.7402039999999
 23
7428.6067819999989
 33
0.0
  0
LINE
  5
32B
  8
LAYER01
  6
CONTINUOUS
 62
     7
 10
2258.0
 20
7625.7296359999991
 30
0.0
 11
2258.0
 21
7825.729636
 31
0.0
  0
LINE
  5
32C
  8
LAYER01
  6
CONTINUOUS
 62
     7
 10
2262.0
 20
7625.7296359999991
 30
0.0
 11
2262.0
 21
7825.729636
 31
0.0
  0
LINE
  5
32D
  8
LAYER01
  6
CONTINUOUS
 62
     7
 10
2258.0
 20
7625.7296359999991
 30
0.0
 11
2262.0
 21
7625.7296359999991
 31
0.0
  0
LINE
  5
32E
  8
LAYER01
  6
CONTINUOUS
 62
     7
 10
2258.0
 20
7825.729636
 30
0.0
 11
2262.0
 21
7825.729636
 31
0.0
  0
SOLID
  5
32F
  8
LAYER01
  6
CONTINUOUS
 62
     7
 10
2258.0
 20
7625.7296359999991
 30
0.0
 11
2258.0
 21
7825.729636
 31
0.0
 12
2262.0
 22
7625.7296359999991
 32
0.0
 13
2262.0
 23
7825.729636
 33
0.0
  0
LINE
  5
330
  8
LAYER01
  6
VERDECKT
 62
   252
 10
2160.0
 20
7712.0586039999998
 30
0.0
 11
2160.0
 21
7825.729636
 31
0.0
  0
ARC
  5
331
  8
LAYER01
  6
VERDECKT
 62
   252
 10
2156.0
 20
7712.0586039999998
 30
0.0
 40
4.0
 50
272.43348700000001
 51
0.0
  0
DIMENSION
  5
332
  8
LAYER01
 62
     7
  2
*D13
 10
2359.1491470000001
 20
8565.729636
 30
0.0
 11
2314.1491470000001
 21
8598.9428079999998
 31
0.0
 53
90.0
 13
2260.0
 23
8630.7296359999982
 33
0.0
 14
2260.0
 24
8565.729636
 34
0.0
 50
90.0
  0
DIMENSION
  5
333
  8
LAYER01
 62
     7
  2
*D14
 10
2359.1491470000001
 20
8630.7296359999982
 30
0.0
 11
2314.1491470000001
 21
8663.9428079999998
 31
0.0
 53
90.0
 13
2260.0
 23
8695.7296360000018
 33
0.0
 14
2260.0
 24
8630.7296359999982
 34
0.0
 50
90.0
  0
DIMENSION
  5
334
  8
LAYER01
 62
     7
  2
*D15
 10
2260.0
 20
8920.0
 30
0.0
 11
2211.0697580000001
 21
8965.0
 31
0.0
 13
2160.0
 23
8858.6671350000015
 33
0.0
 14
2260.0
 24
8695.7296360000018
 34
0.0
  0
DIMENSION
  5
335
  8
LAYER01
 62
     7
  2
*D16
 10
1935.0
 20
8800.0
 30
0.0
 11
1714.0183830000001
 21
8845.0
 31
0.0
 13
1485.0
 23
8695.7296360000018
 33
0.0
 14
1935.0
 24
8695.7296360000018
 34
0.0
  0
LINE
  5
336
  8
LAYER01
  6
STRICHPUNKTIERT
 62
     7
 10
1439.0927380000001
 20
8630.7296359999982
 30
0.0
 11
1526.9109149999999
 21
8630.7296359999982
 31
0.0
  0
CIRCLE
  5
337
  8
LAYER01
  6
CONTINUOUS
 62
     7
 10
1485.0
 20
8630.7296359999982
 30
0.0
 40
17.5
  0
LINE
  5
338
  8
LAYER01
  6
STRICHPUNKTIERT
 62
     7
 10
1485.0
 20
8669.0200579999982
 30
0.0
 11
1485.0
 21
8595.4664660000017
 31
0.0
  0
LINE
  5
339
  8
LAYER01
  6
CONTINUOUS
 62
     7
 10
2258.0
 20
8215.729636
 30
0.0
 11
2258.0
 21
8695.7296360000018
 31
0.0
  0
LINE
  5
33A
  8
LAYER01
  6
CONTINUOUS
 62
     7
 10
2262.0
 20
8215.729636
 30
0.0
 11
2262.0
 21
8695.7296360000018
 31
0.0
  0
LINE
  5
33B
  8
LAYER01
  6
CONTINUOUS
 62
     7
 10
2258.0
 20
8215.729636
 30
0.0
 11
2262.0
 21
8215.729636
 31
0.0
  0
LINE
  5
33C
  8
LAYER01
  6
CONTINUOUS
 62
     7
 10
2258.0
 20
8695.7296360000018
 30
0.0
 11
2262.0
 21
8695.7296360000018
 31
0.0
  0
SOLID
  5
33D
  8
LAYER01
  6
CONTINUOUS
 62
     7
 10
2258.0
 20
8215.729636
 30
0.0
 11
2258.0
 21
8695.7296360000018
 31
0.0
 12
2262.0
 22
8215.729636
 32
0.0
 13
2262.0
 23
8695.7296360000018
 33
0.0
  0
LINE
  5
33E
  8
LAYER01
  6
CONTINUOUS
 62
     7
 10
2158.0
 20
8276.729636
 30
0.0
 11
2158.0
 21
8554.7296360000018
 31
0.0
  0
LINE
  5
33F
  8
LAYER01
  6
CONTINUOUS
 62
     7
 10
2162.0
 20
8276.729636
 30
0.0
 11
2162.0
 21
8554.7296360000018
 31
0.0
  0
LINE
  5
340
  8
LAYER01
  6
CONTINUOUS
 62
     7
 10
2158.0
 20
8276.729636
 30
0.0
 11
2162.0
 21
8276.729636
 31
0.0
  0
LINE
  5
341
  8
LAYER01
  6
CONTINUOUS
 62
     7
 10
2158.0
 20
8554.7296360000018
 30
0.0
 11
2162.0
 21
8554.7296360000018
 31
0.0
  0
SOLID
  5
342
  8
LAYER01
  6
CONTINUOUS
 62
     7
 10
2158.0
 20
8276.729636
 30
0.0
 11
2158.0
 21
8554.7296360000018
 31
0.0
 12
2162.0
 22
8276.729636
 32
0.0
 13
2162.0
 23
8554.7296360000018
 33
0.0
  0
LINE
  5
343
  8
LAYER01
  6
VERDECKT
 62
   252
 10
2248.0
 20
8215.729636
 30
0.0
 11
2248.0
 21
8695.7296360000018
 31
0.0
  0
ARC
  5
344
  8
LAYER01
  6
CONTINUOUS
 62
     7
 10
2149.0
 20
8276.729636
 30
0.0
 40
9.0
 50
270.0
 51
0.0
  0
ARC
  5
345
  8
LAYER01
  6
CONTINUOUS
 62
     7
 10
2149.0
 20
8276.729636
 30
0.0
 40
13.0
 50
270.0
 51
0.0
  0
LINE
  5
346
  8
LAYER01
  6
CONTINUOUS
 62
     7
 10
2149.0
 20
8263.729636
 30
0.0
 11
2149.0
 21
8267.729636
 31
0.0
  0
LINE
  5
347
  8
LAYER01
  6
CONTINUOUS
 62
     7
 10
2162.0
 20
8276.729636
 30
0.0
 11
2158.0
 21
8276.729636
 31
0.0
  0
LINE
  5
348
  8
LAYER01
  6
STRICHPUNKTIERT
 62
     7
 10
1889.0927380000001
 20
8630.7296359999982
 30
0.0
 11
1976.9109149999999
 21
8630.7296359999982
 31
0.0
  0
CIRCLE
  5
349
  8
LAYER01
  6
CONTINUOUS
 62
     7
 10
1935.0
 20
8630.7296359999982
 30
0.0
 40
17.5
  0
LINE
  5
34A
  8
LAYER01
  6
STRICHPUNKTIERT
 62
     7
 10
1935.0
 20
8669.0200579999982
 30
0.0
 11
1935.0
 21
8595.4664660000017
 31
0.0
  0
DIMENSION
  5
34B
  8
LAYER01
 62
     7
  2
*D17
 10
2260.0
 20
8800.0
 30
0.0
 11
2089.7238860000002
 21
8845.0
 31
0.0
 13
1935.0
 23
8695.7296360000018
 33
0.0
 14
2260.0
 24
8695.7296360000018
 34
0.0
  0
ARC
  5
34C
  8
LAYER01
  6
CONTINUOUS
 62
     7
 10
2149.0
 20
8554.7296360000018
 30
0.0
 40
9.0
 50
0.0
 51
90.0
  0
ARC
  5
34D
  8
LAYER01
  6
CONTINUOUS
 62
     7
 10
2149.0
 20
8554.7296360000018
 30
0.0
 40
13.0
 50
0.0
 51
90.0
  0
LINE
  5
34E
  8
LAYER01
  6
CONTINUOUS
 62
     7
 10
2162.0
 20
8554.7296360000018
 30
0.0
 11
2158.0
 21
8554.7296360000018
 31
0.0
  0
LINE
  5
34F
  8
LAYER01
  6
CONTINUOUS
 62
     7
 10
2149.0
 20
8567.7296360000018
 30
0.0
 11
2149.0
 21
8563.7296360000018
 31
0.0
  0
POLYLINE
  5
6FF
  8
LAYER01
  6
CONTINUOUS
 62
     7
 66
     1
 10
0.0
 20
0.0
 30
0.0
 70
     1
  0
VERTEX
  5
730
  8
LAYER01
  6
CONTINUOUS
 62
     7
 10
-908.88746291686925
 20
6829.3895495103061
 30
0.0
  0
VERTEX
  5
731
  8
LAYER01
  6
CONTINUOUS
 62
     7
 10
-908.88746291686925
 20
9925.2604415103051
 30
0.0
  0
VERTEX
  5
732
  8
LAYER01
  6
CONTINUOUS
 62
     7
 10
4056.2645980831312
 20
9925.2604415103051
 30
0.0
  0
VERTEX
  5
733
  8
LAYER01
  6
CONTINUOUS
 62
     7
 10
4056.2645980831312
 20
6829.3895495103061
 30
0.0
  0
SEQEND
  5
734
  8
LAYER01
  6
CONTINUOUS
 62
     7
  0
INSERT
  5
700
  8
LAYER01
  2
DEFAULT2-G6
 10
-792.79643191686932
 20
6766.3624895103057
 30
0.0
  0
TEXT
  5
701
  8
LAYER01
  6
VERDECKT
 62
     1
 10
3810.062355083131
 20
7261.9862665103037
 30
0.0
 40
14.0
  1
xxx.skd
  7
SIMPLEX
  0
TEXT
  5
702
  8
LAYER01
  6
VERDECKT
 62
     1
 10
3356.9211050831309
 20
7171.7166305103074
 30
0.0
 40
35.0
  1
A. Sprenger GmbH
  7
SIMPLEX
  0
TEXT
  5
703
  8
LAYER01
  6
CONTINUOUS
 62
     7
 10
3345.5668860831302
 20
7388.4669665103038
 30
0.0
 40
10.5
  1
Diese Zeichnung ist geistiges Eigentum der A. Sprenger GmbH
  7
SIMPLEX
  0
TEXT
  5
704
  8
LAYER01
  6
CONTINUOUS
 62
     7
 10
3345.5668860831302
 20
7370.4669665103047
 30
0.0
 40
10.5
  1
und urheberrechtlich geschützt. Ohne unsere Zustimmung darf 
  7
SIMPLEX
  0
TEXT
  5
705
  8
LAYER01
  6
CONTINUOUS
 62
     7
 10
3345.5668860831302
 20
7352.4669665103047
 30
0.0
 40
10.5
  1
sie in keiner Form verwendet oder Dritten zugänglich gemacht
  7
SIMPLEX
  0
TEXT
  5
706
  8
LAYER01
  6
CONTINUOUS
 62
     7
 10
3345.5668860831302
 20
7334.4669665103047
 30
0.0
 40
10.5
  1
werden. (§106 Urheberrecht)
  7
SIMPLEX
  0
TEXT
  5
707
  8
LAYER01
  6
VERDECKT
 62
     1
 10
3032.58861708313
 20
7090.6779125103049
 30
0.0
 40
14.0
  1
2014
  7
SIMPLEX
  0
TEXT
  5
708
  8
LAYER01
  6
VERDECKT
 62
     1
 10
3356.9211050831309
 20
7034.2605925103062
 30
0.0
 40
49.0
  1
Waschrinne UBWR
  7
SIMPLEX
  0
INSERT
  5
709
  8
LAYER01
  6
CONTINUOUS
 62
     7
  2
WMF0
 10
2105.2534460142592
 20
5934.2861109822188
 30
0.0
 41
0.25
 42
0.25
 43
0.25
  0
ENDSEC
  0
EOF
